  0
SECTION
  2
HEADER
  9
$ACADVER
  1
AC1015
  9
$ACADMAINTVER
 70
     6
  9
$DWGCODEPAGE
  3
ANSI_932
  9
$INSBASE
 10
0.0
 20
0.0
 30
0.0
  9
$EXTMIN
 10
-4154.308417506649
 20
504.7337193911039
 30
0.0
  9
$EXTMAX
 10
5006.198707872334
 20
1678.233887782366
 30
0.0
  9
$LIMMIN
 10
0.0
 20
0.0
  9
$LIMMAX
 10
2970.0
 20
2100.0
  9
$ORTHOMODE
 70
     0
  9
$REGENMODE
 70
     1
  9
$FILLMODE
 70
     1
  9
$QTEXTMODE
 70
     0
  9
$MIRRTEXT
 70
     1
  9
$LTSCALE
 40
0.5
  9
$ATTMODE
 70
     1
  9
$TEXTSIZE
 40
30.0
  9
$TRACEWID
 40
1.0
  9
$TEXTSTYLE
  7
STANDARD
  9
$CLAYER
  8
OBJECT
  9
$CELTYPE
  6
BYLAYER
  9
$CECOLOR
 62
   256
  9
$CELTSCALE
 40
10.0
  9
$DISPSILH
 70
     0
  9
$DIMSCALE
 40
10.0
  9
$DIMASZ
 40
2.5
  9
$DIMEXO
 40
0.625
  9
$DIMDLI
 40
3.75
  9
$DIMRND
 40
0.0
  9
$DIMDLE
 40
0.0
  9
$DIMEXE
 40
1.25
  9
$DIMTP
 40
0.0
  9
$DIMTM
 40
0.0
  9
$DIMTXT
 40
2.5
  9
$DIMCEN
 40
2.5
  9
$DIMTSZ
 40
0.0
  9
$DIMTOL
 70
     0
  9
$DIMLIM
 70
     0
  9
$DIMTIH
 70
     0
  9
$DIMTOH
 70
     0
  9
$DIMSE1
 70
     0
  9
$DIMSE2
 70
     0
  9
$DIMTAD
 70
     1
  9
$DIMZIN
 70
     8
  9
$DIMBLK
  1

  9
$DIMASO
 70
     1
  9
$DIMSHO
 70
     1
  9
$DIMPOST
  1

  9
$DIMAPOST
  1

  9
$DIMALT
 70
     0
  9
$DIMALTD
 70
     4
  9
$DIMALTF
 40
0.0394
  9
$DIMLFAC
 40
1.0
  9
$DIMTOFL
 70
     1
  9
$DIMTVP
 40
0.0
  9
$DIMTIX
 70
     0
  9
$DIMSOXD
 70
     0
  9
$DIMSAH
 70
     0
  9
$DIMBLK1
  1

  9
$DIMBLK2
  1

  9
$DIMSTYLE
  2
STANDARD
  9
$DIMCLRD
 70
     0
  9
$DIMCLRE
 70
     0
  9
$DIMCLRT
 70
     0
  9
$DIMTFAC
 40
1.0
  9
$DIMGAP
 40
0.625
  9
$DIMJUST
 70
     0
  9
$DIMSD1
 70
     0
  9
$DIMSD2
 70
     0
  9
$DIMTOLJ
 70
     1
  9
$DIMTZIN
 70
     0
  9
$DIMALTZ
 70
     0
  9
$DIMALTTZ
 70
     0
  9
$DIMUPT
 70
     0
  9
$DIMDEC
 70
     4
  9
$DIMTDEC
 70
     4
  9
$DIMALTU
 70
     8
  9
$DIMALTTD
 70
     4
  9
$DIMTXSTY
  7
STANDARD
  9
$DIMAUNIT
 70
     0
  9
$DIMADEC
 70
     0
  9
$DIMALTRND
 40
0.0
  9
$DIMAZIN
 70
     0
  9
$DIMDSEP
 70
    46
  9
$DIMATFIT
 70
     3
  9
$DIMFRAC
 70
     0
  9
$DIMLDRBLK
  1

  9
$DIMLUNIT
 70
     6
  9
$DIMLWD
 70
    -2
  9
$DIMLWE
 70
    -2
  9
$DIMTMOVE
 70
     0
  9
$LUNITS
 70
     2
  9
$LUPREC
 70
     4
  9
$SKETCHINC
 40
1.0
  9
$FILLETRAD
 40
30.0
  9
$AUNITS
 70
     0
  9
$AUPREC
 70
     0
  9
$MENU
  1
acad
  9
$ELEVATION
 40
0.0
  9
$PELEVATION
 40
0.0
  9
$THICKNESS
 40
0.0
  9
$LIMCHECK
 70
     0
  9
$CHAMFERA
 40
10.0
  9
$CHAMFERB
 40
10.0
  9
$CHAMFERC
 40
20.0
  9
$CHAMFERD
 40
0.0
  9
$SKPOLY
 70
     0
  9
$TDCREATE
 40
2452055.345122801
  9
$TDUCREATE
 40
2452054.970122801
  9
$TDUPDATE
 40
2454548.638361516
  9
$TDUUPDATE
 40
2454548.263361516
  9
$TDINDWG
 40
0.8751640625
  9
$TDUSRTIMER
 40
0.8751640625
  9
$USRTIMER
 70
     1
  9
$ANGBASE
 50
0.0
  9
$ANGDIR
 70
     0
  9
$PDMODE
 70
     0
  9
$PDSIZE
 40
0.0
  9
$PLINEWID
 40
0.0
  9
$SPLFRAME
 70
     0
  9
$SPLINETYPE
 70
     6
  9
$SPLINESEGS
 70
     8
  9
$HANDSEED
  5
4BB9
  9
$SURFTAB1
 70
     6
  9
$SURFTAB2
 70
     6
  9
$SURFTYPE
 70
     6
  9
$SURFU
 70
     6
  9
$SURFV
 70
     6
  9
$UCSBASE
  2

  9
$UCSNAME
  2

  9
$UCSORG
 10
0.0
 20
0.0
 30
0.0
  9
$UCSXDIR
 10
1.0
 20
0.0
 30
0.0
  9
$UCSYDIR
 10
0.0
 20
1.0
 30
0.0
  9
$UCSORTHOREF
  2

  9
$UCSORTHOVIEW
 70
     0
  9
$UCSORGTOP
 10
0.0
 20
0.0
 30
0.0
  9
$UCSORGBOTTOM
 10
0.0
 20
0.0
 30
0.0
  9
$UCSORGLEFT
 10
0.0
 20
0.0
 30
0.0
  9
$UCSORGRIGHT
 10
0.0
 20
0.0
 30
0.0
  9
$UCSORGFRONT
 10
0.0
 20
0.0
 30
0.0
  9
$UCSORGBACK
 10
0.0
 20
0.0
 30
0.0
  9
$PUCSBASE
  2

  9
$PUCSNAME
  2

  9
$PUCSORG
 10
0.0
 20
0.0
 30
0.0
  9
$PUCSXDIR
 10
1.0
 20
0.0
 30
0.0
  9
$PUCSYDIR
 10
0.0
 20
1.0
 30
0.0
  9
$PUCSORTHOREF
  2

  9
$PUCSORTHOVIEW
 70
     0
  9
$PUCSORGTOP
 10
0.0
 20
0.0
 30
0.0
  9
$PUCSORGBOTTOM
 10
0.0
 20
0.0
 30
0.0
  9
$PUCSORGLEFT
 10
0.0
 20
0.0
 30
0.0
  9
$PUCSORGRIGHT
 10
0.0
 20
0.0
 30
0.0
  9
$PUCSORGFRONT
 10
0.0
 20
0.0
 30
0.0
  9
$PUCSORGBACK
 10
0.0
 20
0.0
 30
0.0
  9
$USERI1
 70
     0
  9
$USERI2
 70
     0
  9
$USERI3
 70
     0
  9
$USERI4
 70
     0
  9
$USERI5
 70
     0
  9
$USERR1
 40
0.0
  9
$USERR2
 40
0.0
  9
$USERR3
 40
0.0
  9
$USERR4
 40
0.0
  9
$USERR5
 40
0.0
  9
$WORLDVIEW
 70
     1
  9
$SHADEDGE
 70
     3
  9
$SHADEDIF
 70
    70
  9
$TILEMODE
 70
     1
  9
$MAXACTVP
 70
    48
  9
$PINSBASE
 10
0.0
 20
0.0
 30
0.0
  9
$PLIMCHECK
 70
     0
  9
$PEXTMIN
 10
1.000000000000000E+20
 20
1.000000000000000E+20
 30
1.000000000000000E+20
  9
$PEXTMAX
 10
-1.000000000000000E+20
 20
-1.000000000000000E+20
 30
-1.000000000000000E+20
  9
$PLIMMIN
 10
0.0
 20
0.0
  9
$PLIMMAX
 10
420.0
 20
297.0
  9
$UNITMODE
 70
     0
  9
$VISRETAIN
 70
     1
  9
$PLINEGEN
 70
     0
  9
$PSLTSCALE
 70
     1
  9
$TREEDEPTH
 70
  3020
  9
$CMLSTYLE
  2
STANDARD
  9
$CMLJUST
 70
     0
  9
$CMLSCALE
 40
20.0
  9
$PROXYGRAPHICS
 70
     1
  9
$MEASUREMENT
 70
     1
  9
$CELWEIGHT
370
    -1
  9
$ENDCAPS
280
     0
  9
$JOINSTYLE
280
     0
  9
$LWDISPLAY
290
     0
  9
$INSUNITS
 70
     0
  9
$HYPERLINKBASE
  1

  9
$STYLESHEET
  1

  9
$XEDIT
290
     1
  9
$CEPSNTYPE
380
     0
  9
$PSTYLEMODE
290
     1
  9
$FINGERPRINTGUID
  2
{BD387834-CD86-406D-BD24-9A556EAD126C}
  9
$VERSIONGUID
  2
{47B600C1-48DC-4EB8-BC9B-401679FB2A7D}
  9
$EXTNAMES
290
     1
  9
$PSVPSCALE
 40
0.0
  9
$OLESTARTUP
290
     0
  0
ENDSEC
  0
SECTION
  2
CLASSES
  0
CLASS
  1
LWPOLYLINE
  2
AcDbPolyline
  3
AutoCAD 2000
 90
    32768
280
     0
281
     1
  0
CLASS
  1
ACDBDICTIONARYWDFLT
  2
AcDbDictionaryWithDefault
  3
AutoCAD 2000
 90
        0
280
     0
281
     0
  0
CLASS
  1
ACDBPLACEHOLDER
  2
AcDbPlaceHolder
  3
AutoCAD 2000
 90
        0
280
     0
281
     0
  0
CLASS
  1
LAYOUT
  2
AcDbLayout
  3
AutoCAD 2000
 90
        0
280
     0
281
     0
  0
ENDSEC
  0
SECTION
  2
TABLES
  0
TABLE
  2
VPORT
  5
8
330
0
100
AcDbSymbolTable
 70
     3
  0
VPORT
  5
4BB8
330
8
100
AcDbSymbolTableRecord
100
AcDbViewportTableRecord
  2
*Active
 70
     0
 10
0.0
 20
0.0
 11
1.0
 21
1.0
 12
-3378.88579482519
 22
1002.024768218362
 13
0.0
 23
0.0
 14
10.0
 24
10.0
 15
10.0
 25
10.0
 16
0.0
 26
0.0
 36
1.0
 17
0.0
 27
0.0
 37
0.0
 40
1072.338557331224
 41
1.731203007518796
 42
50.0
 43
0.0
 44
0.0
 50
0.0
 51
0.0
 71
     0
 72
   100
 73
     1
 74
     1
 75
     0
 76
     0
 77
     0
 78
     0
281
     0
 65
     1
110
0.0
120
0.0
130
0.0
111
1.0
121
0.0
131
0.0
112
0.0
122
1.0
132
0.0
 79
     0
146
0.0
  0
ENDTAB
  0
TABLE
  2
LTYPE
  5
5
330
0
100
AcDbSymbolTable
 70
    13
  0
LTYPE
  5
12
330
5
100
AcDbSymbolTableRecord
100
AcDbLinetypeTableRecord
  2
BYBLOCK
 70
     0
  3

 72
    65
 73
     0
 40
0.0
  0
LTYPE
  5
13
330
5
100
AcDbSymbolTableRecord
100
AcDbLinetypeTableRecord
  2
BYLAYER
 70
     0
  3

 72
    65
 73
     0
 40
0.0
  0
LTYPE
  5
14
330
5
100
AcDbSymbolTableRecord
100
AcDbLinetypeTableRecord
  2
CONTINUOUS
 70
     0
  3
Solid line
 72
    65
 73
     0
 40
0.0
  0
LTYPE
  5
AC
330
5
100
AcDbSymbolTableRecord
100
AcDbLinetypeTableRecord
  2
HIDDEN
 70
     0
  3
Hidden __ __ __ __ __ __ __ __ __ __ __ __ __ _
 72
    65
 73
     2
 40
9.524999999999998
 49
6.349999999999999
 74
     0
 49
-3.174999999999999
 74
     0
  0
LTYPE
  5
11D
330
5
100
AcDbSymbolTableRecord
100
AcDbLinetypeTableRecord
  2
BORDER
 70
     0
  3
BORDER
 72
    65
 73
     6
 40
1.75
 49
0.5
 74
     0
 49
-0.25
 74
     0
 49
0.5
 74
     0
 49
-0.25
 74
     0
 49
0.0
 74
     0
 49
-0.25
 74
     0
  0
LTYPE
  5
11E
330
5
100
AcDbSymbolTableRecord
100
AcDbLinetypeTableRecord
  2
CENTER
 70
     0
  3
CENTER
 72
    65
 73
     4
 40
2.0
 49
1.25
 74
     0
 49
-0.25
 74
     0
 49
0.25
 74
     0
 49
-0.25
 74
     0
  0
LTYPE
  5
11F
330
5
100
AcDbSymbolTableRecord
100
AcDbLinetypeTableRecord
  2
DASHDOT
 70
     0
  3
DASHDOT
 72
    65
 73
     4
 40
1.0
 49
0.5
 74
     0
 49
-0.25
 74
     0
 49
0.0
 74
     0
 49
-0.25
 74
     0
  0
LTYPE
  5
120
330
5
100
AcDbSymbolTableRecord
100
AcDbLinetypeTableRecord
  2
DASHED
 70
     0
  3
DASHED
 72
    65
 73
     2
 40
0.75
 49
0.5
 74
     0
 49
-0.25
 74
     0
  0
LTYPE
  5
121
330
5
100
AcDbSymbolTableRecord
100
AcDbLinetypeTableRecord
  2
DIVIDE
 70
     0
  3
DIVIDE
 72
    65
 73
     6
 40
1.25
 49
0.5
 74
     0
 49
-0.25
 74
     0
 49
0.0
 74
     0
 49
-0.25
 74
     0
 49
0.0
 74
     0
 49
-0.25
 74
     0
  0
LTYPE
  5
122
330
5
100
AcDbSymbolTableRecord
100
AcDbLinetypeTableRecord
  2
DOT
 70
     0
  3
DOT
 72
    65
 73
     2
 40
0.25
 49
0.0
 74
     0
 49
-0.25
 74
     0
  0
LTYPE
  5
123
330
5
100
AcDbSymbolTableRecord
100
AcDbLinetypeTableRecord
  2
PHANTOM
 70
     0
  3
PHANTOM
 72
    65
 73
     6
 40
2.5
 49
1.25
 74
     0
 49
-0.25
 74
     0
 49
0.25
 74
     0
 49
-0.25
 74
     0
 49
0.25
 74
     0
 49
-0.25
 74
     0
  0
LTYPE
  5
124
330
5
100
AcDbSymbolTableRecord
100
AcDbLinetypeTableRecord
  2
$INVISIBLE
 70
     0
  3
$INVISIBLE
 72
    65
 73
     2
 40
200.0
 49
-100.0
 74
     0
 49
-100.0
 74
     0
  0
LTYPE
  5
125
330
5
100
AcDbSymbolTableRecord
100
AcDbLinetypeTableRecord
  2
$MARGINS
 70
     0
  3
$MARGINS
 72
    65
 73
     2
 40
0.075
 49
0.05
 74
     0
 49
-0.025
 74
     0
  0
LTYPE
  5
126
330
5
100
AcDbSymbolTableRecord
100
AcDbLinetypeTableRecord
  2
$AUXILIARY
 70
     0
  3
$AUXILIARY
 72
    65
 73
     2
 40
0.1
 49
0.05
 74
     0
 49
-0.05
 74
     0
  0
LTYPE
  5
127
330
5
100
AcDbSymbolTableRecord
100
AcDbLinetypeTableRecord
  2
$CONSTRUCTION
 70
     0
  3
$CONSTRUCTION
 72
    65
 73
     4
 40
0.3
 49
0.2
 74
     0
 49
-0.05
 74
     0
 49
0.0
 74
     0
 49
-0.05
 74
     0
  0
ENDTAB
  0
TABLE
  2
LAYER
  5
2
330
0
100
AcDbSymbolTable
 70
    11
  0
LAYER
  5
E
330
2
100
AcDbSymbolTableRecord
100
AcDbLayerTableRecord
  2
0
 70
     0
 62
     7
  6
CONTINUOUS
370
    -3
390
121E
  0
LAYER
  5
20
330
2
100
AcDbSymbolTableRecord
100
AcDbLayerTableRecord
  2
DEFPOINTS
 70
     0
 62
     7
  6
CONTINUOUS
290
     0
370
    -3
390
121E
  0
LAYER
  5
21
330
2
100
AcDbSymbolTableRecord
100
AcDbLayerTableRecord
  2
OBJECT
 70
     0
 62
     7
  6
CONTINUOUS
370
    -3
390
121E
  0
LAYER
  5
AD
330
2
100
AcDbSymbolTableRecord
100
AcDbLayerTableRecord
  2
KIZIXYUNN
 70
     0
 62
    -1
  6
CONTINUOUS
370
    -3
390
121E
  0
LAYER
  5
AE
330
2
100
AcDbSymbolTableRecord
100
AcDbLayerTableRecord
  2
HOZIXYO
 70
     0
 62
     7
  6
HIDDEN
370
    -3
390
121E
  0
LAYER
  5
AF
330
2
100
AcDbSymbolTableRecord
100
AcDbLayerTableRecord
  2
WUWAGAKI
 70
     0
 62
     7
  6
CONTINUOUS
370
    -3
390
121E
  0
LAYER
  5
128
330
2
100
AcDbSymbolTableRecord
100
AcDbLayerTableRecord
  2
$CONSTRUCTION
 70
     0
 62
   254
  6
$CONSTRUCTION
370
    -3
390
121E
  0
LAYER
  5
9DD
330
2
100
AcDbSymbolTableRecord
100
AcDbLayerTableRecord
  2
上線
 70
     0
 62
     7
  6
CONTINUOUS
370
    -3
390
121E
  0
LAYER
  5
9DE
330
2
100
AcDbSymbolTableRecord
100
AcDbLayerTableRecord
  2
点線
 70
     0
 62
     6
  6
HIDDEN
370
    -3
390
121E
  0
LAYER
  5
187F
330
2
100
AcDbSymbolTableRecord
100
AcDbLayerTableRecord
  2
上書線
 70
     0
 62
     7
  6
CONTINUOUS
370
    -3
390
121E
  0
LAYER
  5
2962
330
2
100
AcDbSymbolTableRecord
100
AcDbLayerTableRecord
  2
基準線
 70
     0
 62
    -1
  6
CONTINUOUS
370
    -3
390
121E
  0
ENDTAB
  0
TABLE
  2
STYLE
  5
3
330
0
100
AcDbSymbolTable
 70
     3
  0
STYLE
  5
F
330
3
100
AcDbSymbolTableRecord
100
AcDbTextStyleTableRecord
  2
STANDARD
 70
     0
 40
0.0
 41
1.0
 50
0.0
 71
     0
 42
30.0
  3
MS PMincho.ttf
  4

1001
ACAD
1000
MS PMincho
1071
    32786
  0
STYLE
  5
22
330
3
100
AcDbSymbolTableRecord
100
AcDbTextStyleTableRecord
  2
ADESK1
 70
     0
 40
0.0
 41
1.0
 50
0.0
 71
     0
 42
5.0
  3
romans
  4
bigfont
  0
STYLE
  5
AB
330
3
100
AcDbSymbolTableRecord
100
AcDbTextStyleTableRecord
  2

 70
     1
 40
0.0
 41
1.0
 50
0.0
 71
     0
 42
2.5
  3
ltypeshp.shx
  4

  0
ENDTAB
  0
TABLE
  2
VIEW
  5
6
330
0
100
AcDbSymbolTable
 70
     0
  0
ENDTAB
  0
TABLE
  2
UCS
  5
7
330
0
100
AcDbSymbolTable
 70
     0
  0
ENDTAB
  0
TABLE
  2
APPID
  5
9
330
0
100
AcDbSymbolTable
 70
     5
  0
APPID
  5
10
330
9
100
AcDbSymbolTableRecord
100
AcDbRegAppTableRecord
  2
ACAD
 70
     0
  0
APPID
  5
11B
330
9
100
AcDbSymbolTableRecord
100
AcDbRegAppTableRecord
  2
CONTENTTABDATA
 70
     0
  0
APPID
  5
11C
330
9
100
AcDbSymbolTableRecord
100
AcDbRegAppTableRecord
  2
CONTENTCURRENTTAB
 70
     0
  0
APPID
  5
155
330
9
100
AcDbSymbolTableRecord
100
AcDbRegAppTableRecord
  2
CONTENTBLOCKDESCRIPTION
 70
     0
  0
APPID
  5
156
330
9
100
AcDbSymbolTableRecord
100
AcDbRegAppTableRecord
  2
CONTENTBLOCKICON
 70
     0
  0
ENDTAB
  0
TABLE
  2
DIMSTYLE
  5
A
330
0
100
AcDbSymbolTable
 70
     2
100
AcDbDimStyleTable
 71
     1
340
1D
  0
DIMSTYLE
105
1D
102
{ACAD_REACTORS
330
9E7
330
9E8
330
9FC
330
A5D
330
A5E
330
A5F
330
AC0
330
AE6
330
AE7
330
AE8
330
AEB
330
B04
330
B0E
330
B13
330
B1A
330
B1B
330
B1C
330
B1D
330
B1E
330
B2D
330
B2F
330
B30
330
B35
102
}
330
A
100
AcDbSymbolTableRecord
100
AcDbDimStyleTableRecord
  2
STANDARD
 70
     0
340
F
  0
DIMSTYLE
105
23
330
A
100
AcDbSymbolTableRecord
100
AcDbDimStyleTableRecord
  2
JIS
 70
     0
 41
2.5
 42
1.0
 43
7.0
 44
1.0
 73
     0
 74
     0
 77
     1
 78
     8
140
2.5
141
0.0
143
0.0394
147
0.0
172
     1
174
     1
175
     1
340
F
  0
ENDTAB
  0
TABLE
  2
BLOCK_RECORD
  5
1
330
0
100
AcDbSymbolTable
 70
    26
  0
BLOCK_RECORD
  5
18
330
1
100
AcDbSymbolTableRecord
100
AcDbBlockTableRecord
  2
*MODEL_SPACE
340
1221
  0
BLOCK_RECORD
  5
15
330
1
100
AcDbSymbolTableRecord
100
AcDbBlockTableRecord
  2
*PAPER_SPACE
340
1222
  0
BLOCK_RECORD
  5
24
330
1
100
AcDbSymbolTableRecord
100
AcDbBlockTableRecord
  2
JIS_A4L
340
0
  0
BLOCK_RECORD
  5
129
330
1
100
AcDbSymbolTableRecord
100
AcDbBlockTableRecord
  2
銀杏セラ
340
0
310
2800000020000000200000000100040000000000000200000000000000000000000000000000000000000000000080000080000000808000800000008000800080800000C0C0C000808080000000FF0000FF000000FFFF00FF000000FF00FF00FFFF0000FFFFFF00FFFFFFFFFFFFFFFFFFFFFFFFFFFFFFFFFFFFFFFFFFFFFF
310
FFFFFFFFFFFFFFFFFFFFFFFFFFFFFFFFFFFFFFFFFFFFFFFFFFFFFFFFFFFFFFFFFFFFFFFFFFFFFFFFFFFFFFFFFFFFFFFFFFFFFFFFFFFFFFFFFFFFFFFFFFFFFFFFFFFFFFFFFFFFFFFFFFFFFFFFFFFFFFFFFFFFFFFFFFFFFFFFFFFFFFFFFFFFFFFFFFFFFFFFFFFFFFFFFFFFFFFFFFFFFFFFFFFFFFFFFFFFFFFFFFFFFFFFFFFFFF
310
FFFFFFFFFFFFFFFFFFFFFFFFFFFFFFFFFFFFFFFFFFFFFFFFFFFFFFFFFFFFFFFFFFFFFFFFFFFFFFFFFFFFFFFFFFFFFFFFFFFFFFFFFFFFFFFFFFFFFFFFFFFFFFFFFFFFFFFFFFFFFFFFFFFFFFFFFFFFFFFFFFFFFFFFFFFFFFFFFFFFFFFFFFFFF0FFFFFFFFFFFFFFFFFFFFFFFFFFF0F0FFFFF00F0FFFFFFFFFFFFFFFFFFFFFFFF0
310
FF0F00FFFFFFFFFFFFFFFFFFFFFF0FFFF00FFFFFFFFFFFFFFFFFFFFFFFFFFF0F0FFFFFFFFFFFFFFFFFFFFFFFFFFFFFFFFF0FFFFFFFFFFFFFFFFFFFFFFFFFFFFFFFFFFFFFFFFFFFFFFFFFFFFFFFFFFFFFFFFFFFFFFFFFFFFFFFFFFFFFFFFFFFFFFFFFFFFFFFFFFFFFFFFFFFFFFFFFFFFFFFFFFFFFFFFFFFFFFFFFFFFFFFFFFF
310
FFFFFFFFFFFFFFFFFFFFFFFFFFFFFFFFFFFFFFFFFFFFFFFFFFFFFFFFFFFFFFFFFFFFFFFFFFFFFFFFFFFFFFFFFFFFFFFFFFFFFFFFFFFFFFFFFFFFFFFFFFFFFFFFFFFFFFFFFFFFFFFFFFFFFFFFFFFFFFFFFFFFFFFFFFFFFFFFFFFFFFFFFFFFFFFFFFFFFFFFFFFFFFFFFFFFFFFFA801CE00
  0
BLOCK_RECORD
  5
8B9
330
1
100
AcDbSymbolTableRecord
100
AcDbBlockTableRecord
  2
*D2
340
0
  0
BLOCK_RECORD
  5
8C7
330
1
100
AcDbSymbolTableRecord
100
AcDbBlockTableRecord
  2
*D3
340
0
  0
BLOCK_RECORD
  5
8D3
330
1
100
AcDbSymbolTableRecord
100
AcDbBlockTableRecord
  2
*D4
340
0
  0
BLOCK_RECORD
  5
8E1
330
1
100
AcDbSymbolTableRecord
100
AcDbBlockTableRecord
  2
*D5
340
0
  0
BLOCK_RECORD
  5
8ED
330
1
100
AcDbSymbolTableRecord
100
AcDbBlockTableRecord
  2
*D6
340
0
  0
BLOCK_RECORD
  5
8FB
330
1
100
AcDbSymbolTableRecord
100
AcDbBlockTableRecord
  2
*D7
340
0
  0
BLOCK_RECORD
  5
907
330
1
100
AcDbSymbolTableRecord
100
AcDbBlockTableRecord
  2
*D8
340
0
  0
BLOCK_RECORD
  5
913
330
1
100
AcDbSymbolTableRecord
100
AcDbBlockTableRecord
  2
*D9
340
0
  0
BLOCK_RECORD
  5
91F
330
1
100
AcDbSymbolTableRecord
100
AcDbBlockTableRecord
  2
*D10
340
0
  0
BLOCK_RECORD
  5
92D
330
1
100
AcDbSymbolTableRecord
100
AcDbBlockTableRecord
  2
*D11
340
0
  0
BLOCK_RECORD
  5
939
330
1
100
AcDbSymbolTableRecord
100
AcDbBlockTableRecord
  2
*D12
340
0
  0
BLOCK_RECORD
  5
945
330
1
100
AcDbSymbolTableRecord
100
AcDbBlockTableRecord
  2
*D13
340
0
  0
BLOCK_RECORD
  5
951
330
1
100
AcDbSymbolTableRecord
100
AcDbBlockTableRecord
  2
*D14
340
0
  0
BLOCK_RECORD
  5
95D
330
1
100
AcDbSymbolTableRecord
100
AcDbBlockTableRecord
  2
*D15
340
0
  0
BLOCK_RECORD
  5
969
330
1
100
AcDbSymbolTableRecord
100
AcDbBlockTableRecord
  2
*D16
340
0
  0
BLOCK_RECORD
  5
975
330
1
100
AcDbSymbolTableRecord
100
AcDbBlockTableRecord
  2
*D17
340
0
  0
BLOCK_RECORD
  5
981
330
1
100
AcDbSymbolTableRecord
100
AcDbBlockTableRecord
  2
*D18
340
0
  0
BLOCK_RECORD
  5
98D
330
1
100
AcDbSymbolTableRecord
100
AcDbBlockTableRecord
  2
*D19
340
0
  0
BLOCK_RECORD
  5
99B
330
1
100
AcDbSymbolTableRecord
100
AcDbBlockTableRecord
  2
*D20
340
0
  0
BLOCK_RECORD
  5
9A9
330
1
100
AcDbSymbolTableRecord
100
AcDbBlockTableRecord
  2
*D21
340
0
  0
BLOCK_RECORD
  5
9B7
330
1
100
AcDbSymbolTableRecord
100
AcDbBlockTableRecord
  2
*D22
340
0
  0
BLOCK_RECORD
  5
9C5
330
1
100
AcDbSymbolTableRecord
100
AcDbBlockTableRecord
  2
*D23
340
0
  0
BLOCK_RECORD
  5
9D1
330
1
100
AcDbSymbolTableRecord
100
AcDbBlockTableRecord
  2
*D24
340
0
  0
BLOCK_RECORD
  5
9DF
330
1
100
AcDbSymbolTableRecord
100
AcDbBlockTableRecord
  2
A$C67547E15
340
0
  0
ENDTAB
  0
ENDSEC
  0
SECTION
  2
BLOCKS
  0
BLOCK
  5
19
330
18
100
AcDbEntity
  8
0
100
AcDbBlockBegin
  2
*MODEL_SPACE
 70
     0
 10
0.0
 20
0.0
 30
0.0
  3
*MODEL_SPACE
  1

  0
ENDBLK
  5
1A
330
18
100
AcDbEntity
  8
0
100
AcDbBlockEnd
  0
BLOCK
  5
16
330
15
100
AcDbEntity
 67
     1
  8
0
100
AcDbBlockBegin
  2
*PAPER_SPACE
 70
     0
 10
0.0
 20
0.0
 30
0.0
  3
*PAPER_SPACE
  1

  0
ENDBLK
  5
17
330
15
100
AcDbEntity
 67
     1
  8
0
100
AcDbBlockEnd
  0
BLOCK
  5
A1
330
24
100
AcDbEntity
  8
0
100
AcDbBlockBegin
  2
JIS_A4L
 70
     2
 10
0.0
 20
0.0
 30
0.0
  3
JIS_A4L
  1

  0
LINE
  5
25
330
24
100
AcDbEntity
  8
0
100
AcDbLine
 10
0.0
 20
0.0
 30
0.0
 11
0.0
 21
10.0
 31
0.0
  0
LINE
  5
26
330
24
100
AcDbEntity
  8
0
100
AcDbLine
 10
0.0
 20
210.0
 30
0.0
 11
25.0
 21
210.0
 31
0.0
  0
LINE
  5
27
330
24
100
AcDbEntity
  8
0
100
AcDbLine
 10
297.0
 20
210.0
 30
0.0
 11
297.0
 21
200.0
 31
0.0
  0
LINE
  5
28
330
24
100
AcDbEntity
  8
0
100
AcDbLine
 10
297.0
 20
0.0
 30
0.0
 11
287.0
 21
0.0
 31
0.0
  0
LINE
  5
29
330
24
100
AcDbEntity
  8
0
100
AcDbLine
 10
25.0
 20
10.0
 30
0.0
 11
25.0
 21
200.0
 31
0.0
  0
LINE
  5
2A
330
24
100
AcDbEntity
  8
0
100
AcDbLine
 10
287.0
 20
10.0
 30
0.0
 11
25.0
 21
10.0
 31
0.0
  0
LINE
  5
2B
330
24
100
AcDbEntity
  8
0
100
AcDbLine
 10
287.0
 20
200.0
 30
0.0
 11
287.0
 21
10.0
 31
0.0
  0
LINE
  5
2C
330
24
100
AcDbEntity
  8
0
100
AcDbLine
 10
25.0
 20
200.0
 30
0.0
 11
287.0
 21
200.0
 31
0.0
  0
LINE
  5
2D
330
24
100
AcDbEntity
  8
0
100
AcDbLine
 10
0.0
 20
200.0
 30
0.0
 11
0.0
 21
210.0
 31
0.0
  0
LINE
  5
2E
330
24
100
AcDbEntity
  8
0
100
AcDbLine
 10
25.0
 20
0.0
 30
0.0
 11
0.0
 21
0.0
 31
0.0
  0
LINE
  5
2F
330
24
100
AcDbEntity
  8
0
100
AcDbLine
 10
297.0
 20
10.0
 30
0.0
 11
297.0
 21
0.0
 31
0.0
  0
LINE
  5
30
330
24
100
AcDbEntity
  8
0
100
AcDbLine
 10
287.0
 20
210.0
 30
0.0
 11
297.0
 21
210.0
 31
0.0
  0
ATTDEF
  5
31
330
24
100
AcDbEntity
  8
0
 62
     0
100
AcDbText
 10
19.0
 20
10.0
 30
0.0
 40
3.0
  1

 50
90.0
  7
ADESK1
100
AcDbAttributeDefinition
  3

  2
USER
 70
     8
  0
ATTDEF
  5
32
330
24
100
AcDbEntity
  8
0
 62
     0
100
AcDbText
 10
19.0
 20
70.0
 30
0.0
 40
3.0
  1

 50
90.0
  7
ADESK1
100
AcDbAttributeDefinition
  3

  2
REVDATE
 70
     8
  0
ATTDEF
  5
33
330
24
100
AcDbEntity
  8
0
 62
     0
100
AcDbText
 10
19.0
 20
118.0
 30
0.0
 40
3.0
  1

 50
90.0
  7
ADESK1
100
AcDbAttributeDefinition
  3

  2
FNAME
 70
     8
  0
LINE
  5
34
330
24
100
AcDbEntity
  8
OBJECT
100
AcDbLine
 10
130.0
 20
16.0
 30
0.0
 11
25.0
 21
16.0
 31
0.0
  0
LINE
  5
35
330
24
100
AcDbEntity
  8
OBJECT
100
AcDbLine
 10
130.0
 20
22.0
 30
0.0
 11
25.0
 21
22.0
 31
0.0
  0
LINE
  5
36
330
24
100
AcDbEntity
  8
OBJECT
100
AcDbLine
 10
130.0
 20
28.0
 30
0.0
 11
25.0
 21
28.0
 31
0.0
  0
LINE
  5
37
330
24
100
AcDbEntity
  8
OBJECT
100
AcDbLine
 10
130.0
 20
34.0
 30
0.0
 11
25.0
 21
34.0
 31
0.0
  0
LINE
  5
38
330
24
100
AcDbEntity
  8
OBJECT
100
AcDbLine
 10
130.0
 20
40.0
 30
0.0
 11
25.0
 21
40.0
 31
0.0
  0
LINE
  5
39
330
24
100
AcDbEntity
  8
OBJECT
100
AcDbLine
 10
28.0
 20
11.53589799999999
 30
0.0
 11
30.0
 21
15.0
 31
0.0
  0
LINE
  5
3A
330
24
100
AcDbEntity
  8
OBJECT
100
AcDbLine
 10
32.0
 20
11.53589799999999
 30
0.0
 11
30.0
 21
15.0
 31
0.0
  0
LINE
  5
3B
330
24
100
AcDbEntity
  8
OBJECT
100
AcDbLine
 10
35.0
 20
10.0
 30
0.0
 11
35.0
 21
40.0
 31
0.0
  0
LINE
  5
3C
330
24
100
AcDbEntity
  8
OBJECT
100
AcDbLine
 10
50.0
 20
10.0
 30
0.0
 11
50.0
 21
40.0
 31
0.0
  0
LINE
  5
3D
330
24
100
AcDbEntity
  8
OBJECT
100
AcDbLine
 10
80.0
 20
10.0
 30
0.0
 11
80.0
 21
40.0
 31
0.0
  0
LINE
  5
3E
330
24
100
AcDbEntity
  8
OBJECT
100
AcDbLine
 10
28.0
 20
11.53589799999999
 30
0.0
 11
32.0
 21
11.53589799999999
 31
0.0
  0
LINE
  5
3F
330
24
100
AcDbEntity
  8
OBJECT
100
AcDbLine
 10
39.5
 20
13.0
 30
0.0
 11
40.49999999999999
 21
13.0
 31
0.0
  0
LINE
  5
40
330
24
100
AcDbEntity
  8
OBJECT
100
AcDbLine
 10
44.5
 20
13.0
 30
0.0
 11
45.49999999999999
 21
13.0
 31
0.0
  0
LINE
  5
41
330
24
100
AcDbEntity
  8
OBJECT
100
AcDbLine
 10
32.0
 20
17.535898
 30
0.0
 11
30.0
 21
20.99999999999999
 31
0.0
  0
LINE
  5
42
330
24
100
AcDbEntity
  8
OBJECT
100
AcDbLine
 10
28.0
 20
17.535898
 30
0.0
 11
32.0
 21
17.535898
 31
0.0
  0
LINE
  5
43
330
24
100
AcDbEntity
  8
OBJECT
100
AcDbLine
 10
28.0
 20
17.535898
 30
0.0
 11
30.0
 21
20.99999999999999
 31
0.0
  0
LINE
  5
44
330
24
100
AcDbEntity
  8
OBJECT
100
AcDbLine
 10
32.0
 20
23.53589799999999
 30
0.0
 11
30.0
 21
26.99999999999999
 31
0.0
  0
LINE
  5
45
330
24
100
AcDbEntity
  8
OBJECT
100
AcDbLine
 10
28.0
 20
23.53589799999999
 30
0.0
 11
32.0
 21
23.53589799999999
 31
0.0
  0
LINE
  5
46
330
24
100
AcDbEntity
  8
OBJECT
100
AcDbLine
 10
28.0
 20
23.53589799999999
 30
0.0
 11
30.0
 21
26.99999999999999
 31
0.0
  0
LINE
  5
47
330
24
100
AcDbEntity
  8
OBJECT
100
AcDbLine
 10
28.0
 20
35.53589799999999
 30
0.0
 11
30.0
 21
39.0
 31
0.0
  0
LINE
  5
48
330
24
100
AcDbEntity
  8
OBJECT
100
AcDbLine
 10
32.0
 20
35.53589799999999
 30
0.0
 11
30.0
 21
39.0
 31
0.0
  0
LINE
  5
49
330
24
100
AcDbEntity
  8
OBJECT
100
AcDbLine
 10
28.0
 20
35.53589799999999
 30
0.0
 11
32.0
 21
35.53589799999999
 31
0.0
  0
LINE
  5
4A
330
24
100
AcDbEntity
  8
OBJECT
100
AcDbLine
 10
32.0
 20
29.53589799999999
 30
0.0
 11
30.0
 21
33.0
 31
0.0
  0
LINE
  5
4B
330
24
100
AcDbEntity
  8
OBJECT
100
AcDbLine
 10
28.0
 20
29.53589799999999
 30
0.0
 11
32.0
 21
29.53589799999999
 31
0.0
  0
LINE
  5
4C
330
24
100
AcDbEntity
  8
OBJECT
100
AcDbLine
 10
28.0
 20
29.53589799999999
 30
0.0
 11
30.0
 21
33.0
 31
0.0
  0
LINE
  5
4D
330
24
100
AcDbEntity
  8
OBJECT
100
AcDbLine
 10
39.5
 20
19.0
 30
0.0
 11
40.49999999999999
 21
19.0
 31
0.0
  0
LINE
  5
4E
330
24
100
AcDbEntity
  8
OBJECT
100
AcDbLine
 10
44.5
 20
19.0
 30
0.0
 11
45.49999999999999
 21
19.0
 31
0.0
  0
LINE
  5
4F
330
24
100
AcDbEntity
  8
OBJECT
100
AcDbLine
 10
39.5
 20
25.0
 30
0.0
 11
40.49999999999999
 21
25.0
 31
0.0
  0
LINE
  5
50
330
24
100
AcDbEntity
  8
OBJECT
100
AcDbLine
 10
44.5
 20
25.0
 30
0.0
 11
45.49999999999999
 21
25.0
 31
0.0
  0
LINE
  5
51
330
24
100
AcDbEntity
  8
OBJECT
100
AcDbLine
 10
39.5
 20
31.0
 30
0.0
 11
40.49999999999999
 21
31.0
 31
0.0
  0
LINE
  5
52
330
24
100
AcDbEntity
  8
OBJECT
100
AcDbLine
 10
39.5
 20
37.0
 30
0.0
 11
40.49999999999999
 21
37.0
 31
0.0
  0
LINE
  5
53
330
24
100
AcDbEntity
  8
OBJECT
100
AcDbLine
 10
44.5
 20
31.0
 30
0.0
 11
45.49999999999999
 21
31.0
 31
0.0
  0
LINE
  5
54
330
24
100
AcDbEntity
  8
OBJECT
100
AcDbLine
 10
44.5
 20
37.0
 30
0.0
 11
45.49999999999999
 21
37.0
 31
0.0
  0
LINE
  5
55
330
24
100
AcDbEntity
  8
OBJECT
100
AcDbLine
 10
120.0
 20
10.0
 30
0.0
 11
120.0
 21
40.0
 31
0.0
  0
LINE
  5
56
330
24
100
AcDbEntity
  8
OBJECT
100
AcDbLine
 10
130.0
 20
40.0
 30
0.0
 11
130.0
 21
10.0
 31
0.0
  0
LINE
  5
57
330
24
100
AcDbEntity
  8
0
100
AcDbLine
 10
156.0
 20
10.0
 30
0.0
 11
156.0
 21
0.0
 31
0.0
  0
LINE
  5
58
330
24
100
AcDbEntity
  8
0
100
AcDbLine
 10
156.0
 20
200.0
 30
0.0
 11
156.0
 21
210.0
 31
0.0
  0
LINE
  5
59
330
24
100
AcDbEntity
  8
0
100
AcDbLine
 10
287.0
 20
105.0
 30
0.0
 11
297.0
 21
105.0
 31
0.0
  0
LINE
  5
5A
330
24
100
AcDbEntity
  8
0
100
AcDbLine
 10
25.0
 20
105.0
 30
0.0
 11
0.0
 21
105.0
 31
0.0
  0
TEXT
  5
5B
330
24
100
AcDbEntity
  8
0
100
AcDbText
 10
1.0
 20
1.0
 30
0.0
 40
3.0
  1
この図枠はサンプルです。社内の規格やプロッタの出力範囲に合わせて適当に変更してご利用ください。
  7
ADESK1
100
AcDbText
  0
LINE
  5
5C
330
24
100
AcDbEntity
  8
0
100
AcDbLine
 10
25.0
 20
152.5
 30
0.0
 11
20.0
 21
152.5
 31
0.0
  0
LINE
  5
5D
330
24
100
AcDbEntity
  8
0
100
AcDbLine
 10
25.0
 20
105.0
 30
0.0
 11
20.0
 21
105.0
 31
0.0
  0
LINE
  5
5E
330
24
100
AcDbEntity
  8
0
100
AcDbLine
 10
25.0
 20
57.5
 30
0.0
 11
20.0
 21
57.5
 31
0.0
  0
LINE
  5
5F
330
24
100
AcDbEntity
  8
0
100
AcDbLine
 10
68.66666666666668
 20
10.0
 30
0.0
 11
68.66666666666668
 21
5.0
 31
0.0
  0
LINE
  5
60
330
24
100
AcDbEntity
  8
0
100
AcDbLine
 10
112.3333333333333
 20
10.0
 30
0.0
 11
112.3333333333333
 21
5.0
 31
0.0
  0
LINE
  5
61
330
24
100
AcDbEntity
  8
0
100
AcDbLine
 10
156.0
 20
10.0
 30
0.0
 11
156.0
 21
5.0
 31
0.0
  0
LINE
  5
62
330
24
100
AcDbEntity
  8
0
100
AcDbLine
 10
199.6666666666666
 20
10.0
 30
0.0
 11
199.6666666666666
 21
5.0
 31
0.0
  0
LINE
  5
63
330
24
100
AcDbEntity
  8
0
100
AcDbLine
 10
243.3333333333333
 20
10.0
 30
0.0
 11
243.3333333333333
 21
5.0
 31
0.0
  0
LINE
  5
64
330
24
100
AcDbEntity
  8
0
100
AcDbLine
 10
287.0
 20
57.5
 30
0.0
 11
292.0
 21
57.5
 31
0.0
  0
LINE
  5
65
330
24
100
AcDbEntity
  8
0
100
AcDbLine
 10
287.0
 20
105.0
 30
0.0
 11
292.0
 21
105.0
 31
0.0
  0
LINE
  5
66
330
24
100
AcDbEntity
  8
0
100
AcDbLine
 10
287.0
 20
152.5
 30
0.0
 11
292.0
 21
152.5
 31
0.0
  0
LINE
  5
67
330
24
100
AcDbEntity
  8
0
100
AcDbLine
 10
243.3333333333333
 20
200.0
 30
0.0
 11
243.3333333333333
 21
205.0
 31
0.0
  0
LINE
  5
68
330
24
100
AcDbEntity
  8
0
100
AcDbLine
 10
199.6666666666666
 20
200.0
 30
0.0
 11
199.6666666666666
 21
205.0
 31
0.0
  0
LINE
  5
69
330
24
100
AcDbEntity
  8
0
100
AcDbLine
 10
156.0
 20
200.0
 30
0.0
 11
156.0
 21
205.0
 31
0.0
  0
LINE
  5
6A
330
24
100
AcDbEntity
  8
0
100
AcDbLine
 10
112.3333333333333
 20
200.0
 30
0.0
 11
112.3333333333333
 21
205.0
 31
0.0
  0
LINE
  5
6B
330
24
100
AcDbEntity
  8
0
100
AcDbLine
 10
68.66666666666666
 20
200.0
 30
0.0
 11
68.66666666666666
 21
205.0
 31
0.0
  0
TEXT
  5
6C
330
24
100
AcDbEntity
  8
0
100
AcDbText
 10
45.61904761904761
 20
201.0
 30
0.0
 40
3.0
  1
1
  7
ADESK1
 72
     1
 11
46.83333333333332
 21
201.0
 31
0.0
100
AcDbText
  0
TEXT
  5
6D
330
24
100
AcDbEntity
  8
0
100
AcDbText
 10
21.66139736003921
 20
176.25
 30
0.0
 40
3.0
  1
A
  7
ADESK1
 72
     1
 11
22.94711164575349
 21
176.25
 31
0.0
100
AcDbText
  0
TEXT
  5
6E
330
24
100
AcDbEntity
  8
0
100
AcDbText
 10
89.07142857142856
 20
201.0
 30
0.0
 40
3.0
  1
2
  7
ADESK1
 72
     1
 11
90.5
 21
201.0
 31
0.0
100
AcDbText
  0
TEXT
  5
6F
330
24
100
AcDbEntity
  8
0
100
AcDbText
 10
132.7380952380952
 20
201.0
 30
0.0
 40
3.0
  1
3
  7
ADESK1
 72
     1
 11
134.1666666666666
 21
201.0
 31
0.0
100
AcDbText
  0
TEXT
  5
70
330
24
100
AcDbEntity
  8
0
100
AcDbText
 10
176.3333333333333
 20
201.0
 30
0.0
 40
3.0
  1
4
  7
ADESK1
 72
     1
 11
177.8333333333333
 21
201.0
 31
0.0
100
AcDbText
  0
TEXT
  5
71
330
24
100
AcDbEntity
  8
0
100
AcDbText
 10
220.0714285714286
 20
201.0
 30
0.0
 40
3.0
  1
5
  7
ADESK1
 72
     1
 11
221.4999999999999
 21
201.0
 31
0.0
100
AcDbText
  0
TEXT
  5
72
330
24
100
AcDbEntity
  8
0
100
AcDbText
 10
263.6666666666666
 20
201.0
 30
0.0
 40
3.0
  1
6
  7
ADESK1
 72
     1
 11
265.1666666666666
 21
201.0
 31
0.0
100
AcDbText
  0
TEXT
  5
73
330
24
100
AcDbEntity
  8
0
100
AcDbText
 10
21.37568307432492
 20
128.75
 30
0.0
 40
3.0
  1
B
  7
ADESK1
 72
     1
 11
22.94711164575349
 21
128.75
 31
0.0
100
AcDbText
  0
TEXT
  5
74
330
24
100
AcDbEntity
  8
0
100
AcDbText
 10
21.44711164575349
 20
81.25
 30
0.0
 40
3.0
  1
C
  7
ADESK1
 72
     1
 11
22.94711164575349
 21
81.25
 31
0.0
100
AcDbText
  0
TEXT
  5
75
330
24
100
AcDbEntity
  8
0
100
AcDbText
 10
21.37568307432492
 20
33.75
 30
0.0
 40
3.0
  1
D
  7
ADESK1
 72
     1
 11
22.94711164575349
 21
33.75
 31
0.0
100
AcDbText
  0
TEXT
  5
76
330
24
100
AcDbEntity
  8
0
100
AcDbText
 10
45.61904761904759
 20
6.230338100985607
 30
0.0
 40
3.0
  1
1
  7
ADESK1
 72
     1
 11
46.83333333333331
 21
6.230338100985607
 31
0.0
100
AcDbText
  0
TEXT
  5
77
330
24
100
AcDbEntity
  8
0
100
AcDbText
 10
89.07142857142856
 20
6.230338100985607
 30
0.0
 40
3.0
  1
2
  7
ADESK1
 72
     1
 11
90.5
 21
6.230338100985607
 31
0.0
100
AcDbText
  0
TEXT
  5
78
330
24
100
AcDbEntity
  8
0
100
AcDbText
 10
132.7380952380952
 20
6.230338100985607
 30
0.0
 40
3.0
  1
3
  7
ADESK1
 72
     1
 11
134.1666666666666
 21
6.230338100985607
 31
0.0
100
AcDbText
  0
TEXT
  5
79
330
24
100
AcDbEntity
  8
0
100
AcDbText
 10
176.3333333333333
 20
6.230338100985607
 30
0.0
 40
3.0
  1
4
  7
ADESK1
 72
     1
 11
177.8333333333333
 21
6.230338100985607
 31
0.0
100
AcDbText
  0
TEXT
  5
7A
330
24
100
AcDbEntity
  8
0
100
AcDbText
 10
220.0714285714286
 20
6.230338100985607
 30
0.0
 40
3.0
  1
5
  7
ADESK1
 72
     1
 11
221.4999999999999
 21
6.230338100985607
 31
0.0
100
AcDbText
  0
TEXT
  5
7B
330
24
100
AcDbEntity
  8
0
100
AcDbText
 10
263.6666666666666
 20
6.230338100985607
 30
0.0
 40
3.0
  1
6
  7
ADESK1
 72
     1
 11
265.1666666666666
 21
6.230338100985607
 31
0.0
100
AcDbText
  0
TEXT
  5
7C
330
24
100
AcDbEntity
  8
0
100
AcDbText
 10
287.9530581679809
 20
176.25
 30
0.0
 40
3.0
  1
A
  7
ADESK1
 72
     1
 11
289.2387724536952
 21
176.25
 31
0.0
100
AcDbText
  0
TEXT
  5
7D
330
24
100
AcDbEntity
  8
0
100
AcDbText
 10
287.6673438822666
 20
128.75
 30
0.0
 40
3.0
  1
B
  7
ADESK1
 72
     1
 11
289.2387724536952
 21
128.75
 31
0.0
100
AcDbText
  0
TEXT
  5
7E
330
24
100
AcDbEntity
  8
0
100
AcDbText
 10
287.7387724536952
 20
81.25
 30
0.0
 40
3.0
  1
C
  7
ADESK1
 72
     1
 11
289.2387724536952
 21
81.25
 31
0.0
100
AcDbText
  0
TEXT
  5
7F
330
24
100
AcDbEntity
  8
0
100
AcDbText
 10
287.6673438822666
 20
33.75
 30
0.0
 40
3.0
  1
D
  7
ADESK1
 72
     1
 11
289.2387724536952
 21
33.75
 31
0.0
100
AcDbText
  0
LINE
  5
80
330
24
100
AcDbEntity
  8
0
 62
     0
100
AcDbLine
 10
157.2978723404242
 20
49.00000000000036
 30
0.0
 11
287.0
 21
49.00000000000036
 31
0.0
  0
LINE
  5
81
330
24
100
AcDbEntity
  8
0
 62
     0
100
AcDbLine
 10
157.2978723404242
 20
13.00000000000004
 30
0.0
 11
287.0
 21
13.00000000000004
 31
0.0
  0
LINE
  5
82
330
24
100
AcDbEntity
  8
0
 62
     0
100
AcDbLine
 10
157.2978723404242
 20
37.00000000000024
 30
0.0
 11
287.0
 21
37.00000000000024
 31
0.0
  0
LINE
  5
83
330
24
100
AcDbEntity
  8
0
 62
     0
100
AcDbLine
 10
195.1276595744673
 20
22.00000000000012
 30
0.0
 11
287.0
 21
22.00000000000012
 31
0.0
  0
LINE
  5
84
330
24
100
AcDbEntity
  8
0
 62
     0
100
AcDbLine
 10
157.2978723404242
 20
10.0
 30
0.0
 11
287.0
 21
10.0
 31
0.0
  0
LINE
  5
85
330
24
100
AcDbEntity
  8
0
 62
     0
100
AcDbLine
 10
287.0
 20
49.00000000000036
 30
0.0
 11
157.2978723404242
 21
49.00000000000036
 31
0.0
  0
LINE
  5
86
330
24
100
AcDbEntity
  8
0
 62
     0
100
AcDbLine
 10
180.7163120567365
 20
37.00000000000024
 30
0.0
 11
180.7163120567365
 21
10.0
 31
0.0
  0
LINE
  5
87
330
24
100
AcDbEntity
  8
0
 62
     0
100
AcDbLine
 10
162.702127659573
 20
37.00000000000024
 30
0.0
 11
162.702127659573
 21
10.0
 31
0.0
  0
LINE
  5
88
330
24
100
AcDbEntity
  8
0
 62
     0
100
AcDbLine
 10
189.7234042553184
 20
37.00000000000024
 30
0.0
 11
189.7234042553184
 21
10.0
 31
0.0
  0
LINE
  5
89
330
24
100
AcDbEntity
  8
0
 62
     0
100
AcDbLine
 10
195.1276595744673
 20
25.00000000000012
 30
0.0
 11
195.1276595744673
 21
10.0
 31
0.0
  0
LINE
  5
8A
330
24
100
AcDbEntity
  8
0
 62
     0
100
AcDbLine
 10
157.2978723404242
 20
49.00000000000036
 30
0.0
 11
157.2978723404242
 21
10.0
 31
0.0
  0
LINE
  5
8B
330
24
100
AcDbEntity
  8
0
 62
     0
100
AcDbLine
 10
225.7517730496447
 20
49.00000000000036
 30
0.0
 11
225.7517730496447
 21
10.0
 31
0.0
  0
LINE
  5
8C
330
24
100
AcDbEntity
  8
0
 62
     0
100
AcDbLine
 10
205.7659574468077
 20
22.00000000000007
 30
0.0
 11
205.7659574468077
 21
10.0
 31
0.0
  0
LINE
  5
8D
330
24
100
AcDbEntity
  8
0
 62
     0
100
AcDbLine
 10
216.4042553191484
 20
22.00000000000007
 30
0.0
 11
216.4042553191484
 21
10.0
 31
0.0
  0
LINE
  5
8E
330
24
100
AcDbEntity
  8
0
 62
     0
100
AcDbLine
 10
157.2978723404242
 20
16.00000000000008
 30
0.0
 11
195.1276595744673
 21
16.00000000000008
 31
0.0
  0
LINE
  5
8F
330
24
100
AcDbEntity
  8
0
 62
     0
100
AcDbLine
 10
157.2978723404242
 20
10.0
 30
0.0
 11
157.2978723404242
 21
13.00000000000004
 31
0.0
  0
TEXT
  5
90
330
24
100
AcDbEntity
  8
0
 62
     0
100
AcDbText
 10
198.7174935280942
 20
10.48329012996929
 30
0.0
 40
1.791674070777747
  1
製図
  7
ADESK1
 72
     1
 11
200.5688900678978
 21
10.48329012996929
 31
0.0
100
AcDbText
  0
TEXT
  5
91
330
24
100
AcDbEntity
  8
0
 62
     0
100
AcDbText
 10
209.2960689314087
 20
10.48329012996929
 30
0.0
 40
1.791674070777747
  1
設計
  7
ADESK1
 72
     1
 11
211.2071879402383
 21
10.48329012996929
 31
0.0
100
AcDbText
  0
TEXT
  5
92
330
24
100
AcDbEntity
  8
0
 62
     0
100
AcDbText
 10
219.2447163844405
 20
10.55220101068186
 30
0.0
 40
1.791674070777747
  1
照査
  7
ADESK1
 72
     1
 11
221.1558353932701
 21
10.55220101068186
 31
0.0
100
AcDbText
  0
LINE
  5
93
330
24
100
AcDbEntity
  8
0
 62
     0
100
AcDbLine
 10
157.2978723404242
 20
25.00000000000012
 30
0.0
 11
195.1276595744673
 21
25.00000000000012
 31
0.0
  0
LINE
  5
94
330
24
100
AcDbEntity
  8
0
 62
     0
100
AcDbLine
 10
157.2978723404242
 20
22.00000000000007
 30
0.0
 11
195.1276595744673
 21
22.00000000000012
 31
0.0
  0
LINE
  5
95
330
24
100
AcDbEntity
  8
0
 62
     0
100
AcDbLine
 10
157.2978723404242
 20
19.00000000000007
 30
0.0
 11
195.1276595744673
 21
19.00000000000012
 31
0.0
  0
LINE
  5
96
330
24
100
AcDbEntity
  8
0
 62
     0
100
AcDbLine
 10
157.2978723404242
 20
34.00000000000024
 30
0.0
 11
225.7517730496447
 21
34.00000000000024
 31
0.0
  0
LINE
  5
97
330
24
100
AcDbEntity
  8
0
 62
     0
100
AcDbLine
 10
157.2978723404242
 20
31.0000000000002
 30
0.0
 11
225.7517730496447
 21
31.0000000000002
 31
0.0
  0
LINE
  5
98
330
24
100
AcDbEntity
  8
0
 62
     0
100
AcDbLine
 10
157.2978723404242
 20
28.00000000000015
 30
0.0
 11
225.7517730496447
 21
28.00000000000015
 31
0.0
  0
LINE
  5
99
330
24
100
AcDbEntity
  8
0
 62
     0
100
AcDbLine
 10
195.1276595744673
 20
25.00000000000012
 30
0.0
 11
225.7517730496447
 21
25.00000000000012
 31
0.0
  0
LINE
  5
9A
330
24
100
AcDbEntity
  8
0
 62
     0
100
AcDbLine
 10
195.1276595744673
 20
49.00000000000036
 30
0.0
 11
195.1276595744673
 21
25.00000000000012
 31
0.0
  0
LINE
  5
9B
330
24
100
AcDbEntity
  8
0
 62
     0
100
AcDbLine
 10
202.3333333333325
 20
37.00000000000024
 30
0.0
 11
202.3333333333325
 21
25.00000000000012
 31
0.0
  0
LINE
  5
9C
330
24
100
AcDbEntity
  8
0
 62
     0
100
AcDbLine
 10
213.1418439716305
 20
49.00000000000036
 30
0.0
 11
213.1418439716305
 21
22.00000000000012
 31
0.0
  0
LINE
  5
9D
330
24
100
AcDbEntity
  8
0
 62
     0
100
AcDbLine
 10
279.7943262411347
 20
22.00000000000012
 30
0.0
 11
279.7943262411347
 21
10.0
 31
0.0
  0
LINE
  5
9E
330
24
100
AcDbEntity
  8
0
 62
     0
100
AcDbLine
 10
287.0
 20
49.00000000000036
 30
0.0
 11
287.0
 21
10.0
 31
0.0
  0
LINE
  5
9F
330
24
100
AcDbEntity
  8
0
 62
     0
100
AcDbLine
 10
287.0
 20
10.0
 30
0.0
 11
287.0
 21
49.00000000000036
 31
0.0
  0
LINE
  5
A0
330
24
100
AcDbEntity
  8
0
 62
     0
100
AcDbLine
 10
279.7943262411347
 20
16.00000000000008
 30
0.0
 11
287.0
 21
16.00000000000008
 31
0.0
  0
ENDBLK
  5
A2
330
24
100
AcDbEntity
  8
0
100
AcDbBlockEnd
  0
BLOCK
  5
153
330
129
100
AcDbEntity
  8
0
100
AcDbBlockBegin
  2
銀杏セラ
 70
     0
 10
0.0
 20
0.0
 30
0.0
  3
銀杏セラ
  1

  0
ARC
  5
12A
330
129
100
AcDbEntity
  8
0
  6
Continuous
 62
     7
100
AcDbCircle
 10
1158.401559
 20
1079.828204
 30
0.0
 40
5.106866
100
AcDbArc
 50
180.0
 51
0.0
  0
ARC
  5
12B
330
129
100
AcDbEntity
  8
0
  6
Continuous
 62
     7
100
AcDbCircle
 10
1158.401618999999
 20
1097.198061
 30
0.0
 40
7.473444
100
AcDbArc
 50
0.0
 51
180.0
  0
LINE
  5
12C
330
129
100
AcDbEntity
  8
0
  6
Continuous
 62
     7
100
AcDbLine
 10
1150.896772
 20
1097.182931
 30
0.0
 11
1153.249713
 21
1079.815826
 31
0.0
  0
LINE
  5
12D
330
129
100
AcDbEntity
  8
0
  6
Continuous
 62
     7
100
AcDbLine
 10
1165.845742999999
 20
1097.546064
 30
0.0
 11
1163.544385
 21
1079.776535999999
 31
0.0
  0
LINE
  5
12E
330
129
100
AcDbEntity
  8
0
  6
Continuous
 62
     7
100
AcDbLine
 10
1186.622564
 20
1046.45362
 30
0.0
 11
1230.962544999999
 21
1058.381333999999
 31
0.0
  0
ARC
  5
12F
330
129
100
AcDbEntity
  8
0
  6
Continuous
 62
     7
100
AcDbCircle
 10
1158.385902999999
 20
1038.857792999999
 30
0.0
 40
76.5
100
AcDbArc
 50
16.459958
 51
41.820937
  0
ARC
  5
130
330
129
100
AcDbEntity
  8
0
  6
Continuous
 62
     7
100
AcDbCircle
 10
1158.385902999999
 20
1038.857792999999
 30
0.0
 40
76.5
100
AcDbArc
 50
45.412755
 51
69.085133
  0
ARC
  5
131
330
129
100
AcDbEntity
  8
0
  6
Continuous
 62
     7
100
AcDbCircle
 10
1158.385902999999
 20
1038.857792999999
 30
0.0
 40
76.5
100
AcDbArc
 50
74.815618
 51
101.934035
  0
ARC
  5
132
330
129
100
AcDbEntity
  8
0
  6
Continuous
 62
     7
100
AcDbCircle
 10
1158.385902999999
 20
1038.857792999999
 30
0.0
 40
76.5
100
AcDbArc
 50
108.6119669999999
 51
134.499505
  0
ARC
  5
133
330
129
100
AcDbEntity
  8
0
  6
Continuous
 62
     7
100
AcDbCircle
 10
1158.385902999999
 20
1038.857792999999
 30
0.0
 40
76.5
100
AcDbArc
 50
137.90777
 51
162.983205
  0
LINE
  5
134
330
129
100
AcDbEntity
  8
0
  6
Continuous
 62
     7
100
AcDbLine
 10
1146.296113
 20
1042.172168
 30
0.0
 11
1085.903493999999
 21
1058.7284
 31
0.0
  0
ARC
  5
135
330
129
100
AcDbEntity
  8
0
  6
Continuous
 62
     7
100
AcDbCircle
 10
1122.663037
 20
1058.946749
 30
0.0
 40
5.106866
100
AcDbArc
 50
240.294995
 51
60.294995
  0
ARC
  5
136
330
129
100
AcDbEntity
  8
0
  6
Continuous
 62
     7
100
AcDbCircle
 10
1107.575814
 20
1067.554166
 30
0.0
 40
7.473444
100
AcDbArc
 50
60.294995
 51
240.294995
  0
LINE
  5
137
330
129
100
AcDbEntity
  8
0
  6
Continuous
 62
     7
100
AcDbLine
 10
1103.870044999999
 20
1061.028046
 30
0.0
 11
1120.120871
 21
1054.465783
 31
0.0
  0
LINE
  5
138
330
129
100
AcDbEntity
  8
0
  6
Continuous
 62
     7
100
AcDbLine
 10
1110.962363
 20
1074.192491999999
 30
0.0
 11
1125.256364
 21
1063.388143999999
 31
0.0
  0
ARC
  5
139
330
129
100
AcDbEntity
  8
0
  6
Continuous
 62
     7
100
AcDbCircle
 10
1137.059283
 20
1073.992347999999
 30
0.0
 40
5.106866
100
AcDbArc
 50
210.7627199999999
 51
30.76271999999999
  0
ARC
  5
13A
330
129
100
AcDbEntity
  8
0
  6
Continuous
 62
     7
100
AcDbCircle
 10
1128.174933
 20
1088.918174
 30
0.0
 40
7.473444
100
AcDbArc
 50
30.76271999999999
 51
210.76272
  0
LINE
  5
13B
330
129
100
AcDbEntity
  8
0
  6
Continuous
 62
     7
100
AcDbLine
 10
1121.73381
 20
1085.066564
 30
0.0
 11
1132.638669999999
 21
1071.346626
 31
0.0
  0
LINE
  5
13C
330
129
100
AcDbEntity
  8
0
  6
Continuous
 62
     7
100
AcDbLine
 10
1134.393618999999
 20
1093.024758999999
 30
0.0
 11
1141.504904
 21
1076.578422
 31
0.0
  0
ARC
  5
13D
330
129
100
AcDbEntity
  8
0
  6
Continuous
 62
     7
100
AcDbCircle
 10
1193.862949
 20
1059.135399
 30
0.0
 40
5.106866
100
AcDbArc
 50
119.4758889999999
 51
299.4758889999999
  0
ARC
  5
13E
330
129
100
AcDbEntity
  8
0
  6
Continuous
 62
     7
100
AcDbCircle
 10
1208.984531
 20
1067.682311
 30
0.0
 40
7.473444
100
AcDbArc
 50
299.4758889999999
 51
119.4758889999999
  0
LINE
  5
13F
330
129
100
AcDbEntity
  8
0
  6
Continuous
 62
     7
100
AcDbLine
 10
1205.278544
 20
1074.208307
 30
0.0
 11
1191.31717
 21
1063.614315
 31
0.0
  0
LINE
  5
140
330
129
100
AcDbEntity
  8
0
  6
Continuous
 62
     7
100
AcDbLine
 10
1212.950424
 20
1061.372970999999
 30
0.0
 11
1196.348533
 21
1054.632822
 31
0.0
  0
ARC
  5
141
330
129
100
AcDbEntity
  8
0
  6
Continuous
 62
     7
100
AcDbCircle
 10
1179.351402999999
 20
1074.192464
 30
0.0
 40
5.106866
100
AcDbArc
 50
154.563579
 51
334.563579
  0
ARC
  5
142
330
129
100
AcDbEntity
  8
0
  6
Continuous
 62
     7
100
AcDbCircle
 10
1186.811973
 20
1089.878504
 30
0.0
 40
7.473444
100
AcDbArc
 50
334.563579
 51
154.563579
  0
LINE
  5
143
330
129
100
AcDbEntity
  8
0
  6
Continuous
 62
     7
100
AcDbLine
 10
1180.028128
 20
1093.088242
 30
0.0
 11
1174.693648
 21
1076.394051999999
 31
0.0
  0
LINE
  5
144
330
129
100
AcDbEntity
  8
0
  6
Continuous
 62
     7
100
AcDbLine
 10
1193.683951999999
 20
1086.995450999999
 30
0.0
 11
1183.973503999999
 21
1071.936913
 31
0.0
  0
ARC
  5
145
330
129
100
AcDbEntity
  8
0
  6
Continuous
 62
     7
100
AcDbCircle
 10
1198.911383
 20
1011.474788
 30
0.0
 40
37.068027
100
AcDbArc
 50
108.666463
 51
161.2355639999999
  0
ARC
  5
146
330
129
100
AcDbEntity
  8
0
  6
Continuous
 62
     7
100
AcDbCircle
 10
1030.879359999999
 20
-1082.414355999999
 30
359.528135
 40
12.695875
210
0.3152198879770185
220
0.0
230
0.9490186627373331
100
AcDbArc
 50
201.801335
 51
332.3558869999999
1001
ACAD
1000
TCW40_ELL_ARC
1002
{
1040
1140.56189
1040
1030.879395
1040
0.0
1040
0.0
1040
-12.695875
1040
0.0
1040
0.0
1040
0.0
1040
1.0
1040
0.949019
1040
0.3805050000000001
1040
2.659111999999999
1002
}
  0
ARC
  5
147
330
129
100
AcDbEntity
  8
0
  6
Continuous
 62
     7
100
AcDbCircle
 10
1033.145253
 20
-961.8559220000001
 30
621.4373649999999
 40
24.230002
210
0.5426730249453229
220
0.0
230
0.8399440386101286
100
AcDbArc
 50
198.521691
 51
247.069113
1001
ACAD
1000
TCW40_ELL_ARC
1002
{
1040
1145.142456
1040
1033.145264
1040
0.0
1040
0.0
1040
-24.230001
1040
0.0
1040
0.0
1040
0.0
1040
1.0
1040
0.839944
1040
0.323264
1040
1.170576999999999
1002
}
  0
ARC
  5
148
330
129
100
AcDbEntity
  8
0
  6
Continuous
 62
     7
100
AcDbCircle
 10
1159.019242
 20
1022.357663
 30
0.0
 40
14.271426
100
AcDbArc
 50
193.1781909999999
 51
238.465208
  0
LINE
  5
149
330
129
100
AcDbEntity
  8
0
  6
Continuous
 62
     7
100
AcDbLine
 10
1208.812702999999
 20
1089.927034
 30
0.0
 11
1212.119055
 21
1093.291392
 31
0.0
  0
ARC
  5
14A
330
129
100
AcDbEntity
  8
0
  6
Continuous
 62
     7
100
AcDbCircle
 10
1212.00961
 20
1086.726735
 30
0.0
 40
4.548432
100
AcDbArc
 50
41.689058
 51
133.939088
  0
ARC
  5
14B
330
129
100
AcDbEntity
  8
0
  6
Continuous
 62
     7
100
AcDbCircle
 10
1229.560240999999
 20
1060.131328999999
 30
0.0
 40
2.144911
100
AcDbArc
 50
304.562525
 51
16.85839899999999
  0
ARC
  5
14C
330
129
100
AcDbEntity
  8
0
  6
Continuous
 62
     7
100
AcDbCircle
 10
-1182.758275
 20
-1022.519108999999
 30
411.872746
 40
9.052058999999999
210
0.0
220
0.3736299396617587
230
0.9275778502036098
100
AcDbArc
 50
250.77542
 51
316.586247
1001
ACAD
1000
TCW40_ELL_ARC
1002
{
1040
1182.758301
1040
1102.354126
1040
0.0
1040
9.052058
1040
0.0
1040
0.0
1040
0.0
1040
0.0
1040
1.0
1040
0.9275780000000001
1040
1.235263999999999
1040
2.383879999999999
1002
}
  0
LINE
  5
14D
330
129
100
AcDbEntity
  8
0
  6
Continuous
 62
     7
100
AcDbLine
 10
1176.240103
 20
1108.208614
 30
0.0
 11
1178.418901
 21
1112.747775
 31
0.0
  0
ARC
  5
14E
330
129
100
AcDbEntity
  8
0
  6
Continuous
 62
     7
100
AcDbCircle
 10
-1391.932042
 20
-724.47862
 30
278.257383
 40
4.548432
210
-0.092758005319579
220
0.3463370198620824
230
0.9335130535360416
100
AcDbArc
 50
273.5975209999999
 51
5.847550999999961
1001
ACAD
1000
TCW40_ELL_ARC
1002
{
1040
1143.766967999999
1040
1109.760498
1040
0.0
1040
4.393583
1040
1.176716
1040
0.0
1040
0.0
1040
0.0
1040
1.0
1040
0.9335129999999999
1040
1.633585
1040
3.243651999999999
1002
}
  0
ARC
  5
14F
330
129
100
AcDbEntity
  8
0
  6
Continuous
 62
     7
100
AcDbCircle
 10
-1256.237924
 20
-834.3735030000001
 30
489.900632
 40
4.536729
210
-0.0590139977894537
220
0.5028719811634217
230
0.8623439676983203
100
AcDbArc
 50
182.4111379999999
 51
274.661168
1001
ACAD
1000
TCW40_ELL_ARC
1002
{
1040
1134.903076
1040
1107.389037999999
1040
0.0
1040
4.505808999999999
1040
0.528771
1040
0.0
1040
0.0
1040
0.0
1040
1.0
1040
0.862344
1040
0.042082
1040
1.652149
1002
}
  0
LINE
  5
150
330
129
100
AcDbEntity
  8
0
  6
Continuous
 62
     7
100
AcDbLine
 10
1108.120668
 20
1089.98558
 30
0.0
 11
1104.814315
 21
1093.349938
 31
0.0
  0
ARC
  5
151
330
129
100
AcDbEntity
  8
0
  6
Continuous
 62
     7
100
AcDbCircle
 10
1104.923761
 20
1086.785281
 30
0.0
 40
4.548432
100
AcDbArc
 50
46.06091199999999
 51
138.3109419999999
  0
ARC
  5
152
330
129
100
AcDbEntity
  8
0
  6
Continuous
 62
     7
100
AcDbCircle
 10
1087.319112
 20
1060.468957999999
 30
0.0
 40
2.144911
100
AcDbArc
 50
163.141601
 51
235.437475
  0
ENDBLK
  5
154
330
129
100
AcDbEntity
  8
0
100
AcDbBlockEnd
  0
BLOCK
  5
8C5
330
8B9
100
AcDbEntity
  8
0
 48
10.0
100
AcDbBlockBegin
  2
*D2
 70
     1
 10
0.0
 20
0.0
 30
0.0
  3
*D2
  1

  0
LINE
  5
8BA
330
8B9
100
AcDbEntity
  8
0
  6
ByBlock
 62
     0
 48
10.0
100
AcDbLine
 10
1331.249012101376
 20
1453.981684623783
 30
0.0
 11
1487.499012101376
 21
1453.981684623783
 31
0.0
  0
LINE
  5
8BB
330
8B9
100
AcDbEntity
  8
0
  6
ByBlock
 62
     0
 48
10.0
100
AcDbLine
 10
1331.249012101376
 20
1483.981684623783
 30
0.0
 11
1487.499012101376
 21
1483.981684623783
 31
0.0
  0
LINE
  5
8BC
330
8B9
100
AcDbEntity
  8
0
  6
ByBlock
 62
     0
 48
10.0
100
AcDbLine
 10
1474.999012101376
 20
1428.981684623783
 30
0.0
 11
1474.999012101376
 21
1403.981684623783
 31
0.0
  0
LINE
  5
8BD
330
8B9
100
AcDbEntity
  8
0
  6
ByBlock
 62
     0
 48
10.0
100
AcDbLine
 10
1474.999012101376
 20
1508.981684623783
 30
0.0
 11
1474.999012101376
 21
1578.504156533896
 31
0.0
  0
LINE
  5
8BE
330
8B9
100
AcDbEntity
  8
0
  6
ByBlock
 62
     0
 48
10.0
100
AcDbLine
 10
1474.999012101376
 20
1453.981684623783
 30
0.0
 11
1474.999012101376
 21
1483.981684623783
 31
0.0
  0
SOLID
  5
8BF
330
8B9
100
AcDbEntity
  8
0
  6
ByBlock
 62
     0
 48
10.0
100
AcDbTrace
 10
1470.832345434709
 20
1428.981684623783
 30
0.0
 11
1479.165678768042
 21
1428.981684623783
 31
0.0
 12
1474.999012101376
 22
1453.981684623783
 32
0.0
 13
1474.999012101376
 23
1453.981684623783
 33
0.0
  0
SOLID
  5
8C0
330
8B9
100
AcDbEntity
  8
0
  6
ByBlock
 62
     0
 48
10.0
100
AcDbTrace
 10
1470.832345434709
 20
1508.981684623783
 30
0.0
 11
1479.165678768042
 21
1508.981684623783
 31
0.0
 12
1474.999012101376
 22
1483.981684623783
 32
0.0
 13
1474.999012101376
 23
1483.981684623783
 33
0.0
  0
MTEXT
  5
8C1
330
8B9
100
AcDbEntity
  8
0
  6
ByBlock
 62
     0
 48
10.0
100
AcDbMText
 10
1456.249012101376
 20
1556.242920578839
 30
0.0
 40
25.0
 41
0.0
 71
     5
 72
     1
  1
\A1;30
 11
0.0000000000000001
 21
1.0
 31
0.0
 73
     1
 44
1.0
  0
POINT
  5
8C2
330
8B9
100
AcDbEntity
  8
DEFPOINTS
  6
ByBlock
 62
     0
 48
10.0
100
AcDbPoint
 10
1324.999012101376
 20
1453.981684623783
 30
0.0
  0
POINT
  5
8C3
330
8B9
100
AcDbEntity
  8
DEFPOINTS
  6
ByBlock
 62
     0
 48
10.0
100
AcDbPoint
 10
1324.999012101376
 20
1483.981684623783
 30
0.0
  0
POINT
  5
8C4
330
8B9
100
AcDbEntity
  8
DEFPOINTS
  6
ByBlock
 62
     0
 48
10.0
100
AcDbPoint
 10
1474.999012101376
 20
1483.981684623783
 30
0.0
  0
ENDBLK
  5
8C6
330
8B9
100
AcDbEntity
  8
0
 48
10.0
100
AcDbBlockEnd
  0
BLOCK
  5
8D1
330
8C7
100
AcDbEntity
  8
0
 48
10.0
100
AcDbBlockBegin
  2
*D3
 70
     1
 10
0.0
 20
0.0
 30
0.0
  3
*D3
  1

  0
LINE
  5
8C8
330
8C7
100
AcDbEntity
  8
0
  6
ByBlock
 62
     0
 48
10.0
100
AcDbLine
 10
1331.249012101376
 20
1453.981684623783
 30
0.0
 11
1487.499012101376
 21
1453.981684623783
 31
0.0
  0
LINE
  5
8C9
330
8C7
100
AcDbEntity
  8
0
  6
ByBlock
 62
     0
 48
10.0
100
AcDbLine
 10
1331.249012101376
 20
1123.981684623783
 30
0.0
 11
1487.499012101376
 21
1123.981684623783
 31
0.0
  0
LINE
  5
8CA
330
8C7
100
AcDbEntity
  8
0
  6
ByBlock
 62
     0
 48
10.0
100
AcDbLine
 10
1474.999012101376
 20
1428.981684623783
 30
0.0
 11
1474.999012101376
 21
1148.981684623783
 31
0.0
  0
SOLID
  5
8CB
330
8C7
100
AcDbEntity
  8
0
  6
ByBlock
 62
     0
 48
10.0
100
AcDbTrace
 10
1470.832345434709
 20
1428.981684623783
 30
0.0
 11
1479.165678768042
 21
1428.981684623783
 31
0.0
 12
1474.999012101376
 22
1453.981684623783
 32
0.0
 13
1474.999012101376
 23
1453.981684623783
 33
0.0
  0
SOLID
  5
8CC
330
8C7
100
AcDbEntity
  8
0
  6
ByBlock
 62
     0
 48
10.0
100
AcDbTrace
 10
1470.832345434709
 20
1148.981684623783
 30
0.0
 11
1479.165678768042
 21
1148.981684623783
 31
0.0
 12
1474.999012101376
 22
1123.981684623783
 32
0.0
 13
1474.999012101376
 23
1123.981684623783
 33
0.0
  0
MTEXT
  5
8CD
330
8C7
100
AcDbEntity
  8
0
  6
ByBlock
 62
     0
 48
10.0
100
AcDbMText
 10
1456.249012101376
 20
1288.981684623783
 30
0.0
 40
25.0
 41
0.0
 71
     5
 72
     1
  1
\A1;3@110=330
 11
0.0000000000000001
 21
1.0
 31
0.0
 73
     1
 44
1.0
  0
POINT
  5
8CE
330
8C7
100
AcDbEntity
  8
DEFPOINTS
  6
ByBlock
 62
     0
 48
10.0
100
AcDbPoint
 10
1324.999012101376
 20
1453.981684623783
 30
0.0
  0
POINT
  5
8CF
330
8C7
100
AcDbEntity
  8
DEFPOINTS
  6
ByBlock
 62
     0
 48
10.0
100
AcDbPoint
 10
1324.999012101376
 20
1123.981684623783
 30
0.0
  0
POINT
  5
8D0
330
8C7
100
AcDbEntity
  8
DEFPOINTS
  6
ByBlock
 62
     0
 48
10.0
100
AcDbPoint
 10
1474.999012101376
 20
1123.981684623783
 30
0.0
  0
ENDBLK
  5
8D2
330
8C7
100
AcDbEntity
  8
0
 48
10.0
100
AcDbBlockEnd
  0
BLOCK
  5
8DF
330
8D3
100
AcDbEntity
  8
0
 48
10.0
100
AcDbBlockBegin
  2
*D4
 70
     1
 10
0.0
 20
0.0
 30
0.0
  3
*D4
  1

  0
LINE
  5
8D4
330
8D3
100
AcDbEntity
  8
0
  6
ByBlock
 62
     0
 48
10.0
100
AcDbLine
 10
1331.249012101376
 20
1123.981684623783
 30
0.0
 11
1487.499012101376
 21
1123.981684623783
 31
0.0
  0
LINE
  5
8D5
330
8D3
100
AcDbEntity
  8
0
  6
ByBlock
 62
     0
 48
10.0
100
AcDbLine
 10
1331.249012101376
 20
1093.981684623783
 30
0.0
 11
1487.499012101376
 21
1093.981684623783
 31
0.0
  0
LINE
  5
8D6
330
8D3
100
AcDbEntity
  8
0
  6
ByBlock
 62
     0
 48
10.0
100
AcDbLine
 10
1474.999012101376
 20
1148.981684623783
 30
0.0
 11
1474.999012101376
 21
1173.981684623783
 31
0.0
  0
LINE
  5
8D7
330
8D3
100
AcDbEntity
  8
0
  6
ByBlock
 62
     0
 48
10.0
100
AcDbLine
 10
1474.999012101376
 20
1068.981684623783
 30
0.0
 11
1474.999012101376
 21
999.459212713671
 31
0.0
  0
LINE
  5
8D8
330
8D3
100
AcDbEntity
  8
0
  6
ByBlock
 62
     0
 48
10.0
100
AcDbLine
 10
1474.999012101376
 20
1123.981684623783
 30
0.0
 11
1474.999012101376
 21
1093.981684623783
 31
0.0
  0
SOLID
  5
8D9
330
8D3
100
AcDbEntity
  8
0
  6
ByBlock
 62
     0
 48
10.0
100
AcDbTrace
 10
1470.832345434709
 20
1148.981684623783
 30
0.0
 11
1479.165678768042
 21
1148.981684623783
 31
0.0
 12
1474.999012101376
 22
1123.981684623783
 32
0.0
 13
1474.999012101376
 23
1123.981684623783
 33
0.0
  0
SOLID
  5
8DA
330
8D3
100
AcDbEntity
  8
0
  6
ByBlock
 62
     0
 48
10.0
100
AcDbTrace
 10
1470.832345434709
 20
1068.981684623783
 30
0.0
 11
1479.165678768042
 21
1068.981684623783
 31
0.0
 12
1474.999012101376
 22
1093.981684623783
 32
0.0
 13
1474.999012101376
 23
1093.981684623783
 33
0.0
  0
MTEXT
  5
8DB
330
8D3
100
AcDbEntity
  8
0
  6
ByBlock
 62
     0
 48
10.0
100
AcDbMText
 10
1456.249012101376
 20
1021.720448668727
 30
0.0
 40
25.0
 41
0.0
 71
     5
 72
     1
  1
\A1;30
 11
0.0000000000000001
 21
1.0
 31
0.0
 73
     1
 44
1.0
  0
POINT
  5
8DC
330
8D3
100
AcDbEntity
  8
DEFPOINTS
  6
ByBlock
 62
     0
 48
10.0
100
AcDbPoint
 10
1324.999012101376
 20
1123.981684623783
 30
0.0
  0
POINT
  5
8DD
330
8D3
100
AcDbEntity
  8
DEFPOINTS
  6
ByBlock
 62
     0
 48
10.0
100
AcDbPoint
 10
1324.999012101376
 20
1093.981684623783
 30
0.0
  0
POINT
  5
8DE
330
8D3
100
AcDbEntity
  8
DEFPOINTS
  6
ByBlock
 62
     0
 48
10.0
100
AcDbPoint
 10
1474.999012101376
 20
1093.981684623783
 30
0.0
  0
ENDBLK
  5
8E0
330
8D3
100
AcDbEntity
  8
0
 48
10.0
100
AcDbBlockEnd
  0
BLOCK
  5
8EB
330
8E1
100
AcDbEntity
  8
0
 48
10.0
100
AcDbBlockBegin
  2
*D5
 70
     1
 10
0.0
 20
0.0
 30
0.0
  3
*D5
  1

  0
LINE
  5
8E2
330
8E1
100
AcDbEntity
  8
0
  6
ByBlock
 62
     0
 48
10.0
100
AcDbLine
 10
1331.249012101376
 20
1093.981684623783
 30
0.0
 11
1607.499012101376
 21
1093.981684623783
 31
0.0
  0
LINE
  5
8E3
330
8E1
100
AcDbEntity
  8
0
  6
ByBlock
 62
     0
 48
10.0
100
AcDbLine
 10
1331.249012101376
 20
1483.981684623783
 30
0.0
 11
1607.499012101376
 21
1483.981684623783
 31
0.0
  0
LINE
  5
8E4
330
8E1
100
AcDbEntity
  8
0
  6
ByBlock
 62
     0
 48
10.0
100
AcDbLine
 10
1594.999012101376
 20
1118.981684623783
 30
0.0
 11
1594.999012101376
 21
1458.981684623783
 31
0.0
  0
SOLID
  5
8E5
330
8E1
100
AcDbEntity
  8
0
  6
ByBlock
 62
     0
 48
10.0
100
AcDbTrace
 10
1590.832345434709
 20
1118.981684623783
 30
0.0
 11
1599.165678768042
 21
1118.981684623783
 31
0.0
 12
1594.999012101376
 22
1093.981684623783
 32
0.0
 13
1594.999012101376
 23
1093.981684623783
 33
0.0
  0
SOLID
  5
8E6
330
8E1
100
AcDbEntity
  8
0
  6
ByBlock
 62
     0
 48
10.0
100
AcDbTrace
 10
1590.832345434709
 20
1458.981684623783
 30
0.0
 11
1599.165678768042
 21
1458.981684623783
 31
0.0
 12
1594.999012101376
 22
1483.981684623783
 32
0.0
 13
1594.999012101376
 23
1483.981684623783
 33
0.0
  0
MTEXT
  5
8E7
330
8E1
100
AcDbEntity
  8
0
  6
ByBlock
 62
     0
 48
10.0
100
AcDbMText
 10
1576.249012101376
 20
1288.981684623783
 30
0.0
 40
25.0
 41
0.0
 71
     5
 72
     1
  1
\A1;390
 11
0.0000000000000001
 21
1.0
 31
0.0
 73
     1
 44
1.0
  0
POINT
  5
8E8
330
8E1
100
AcDbEntity
  8
DEFPOINTS
  6
ByBlock
 62
     0
 48
10.0
100
AcDbPoint
 10
1324.999012101376
 20
1093.981684623783
 30
0.0
  0
POINT
  5
8E9
330
8E1
100
AcDbEntity
  8
DEFPOINTS
  6
ByBlock
 62
     0
 48
10.0
100
AcDbPoint
 10
1324.999012101376
 20
1483.981684623783
 30
0.0
  0
POINT
  5
8EA
330
8E1
100
AcDbEntity
  8
DEFPOINTS
  6
ByBlock
 62
     0
 48
10.0
100
AcDbPoint
 10
1594.999012101376
 20
1483.981684623783
 30
0.0
  0
ENDBLK
  5
8EC
330
8E1
100
AcDbEntity
  8
0
 48
10.0
100
AcDbBlockEnd
  0
BLOCK
  5
8F9
330
8ED
100
AcDbEntity
  8
0
 48
10.0
100
AcDbBlockBegin
  2
*D6
 70
     1
 10
0.0
 20
0.0
 30
0.0
  3
*D6
  1

  0
LINE
  5
8EE
330
8ED
100
AcDbEntity
  8
0
  6
ByBlock
 62
     0
 48
10.0
100
AcDbLine
 10
1331.249012101376
 20
360.3366297376433
 30
0.0
 11
1487.499012101376
 21
360.3366297376432
 31
0.0
  0
LINE
  5
8EF
330
8ED
100
AcDbEntity
  8
0
  6
ByBlock
 62
     0
 48
10.0
100
AcDbLine
 10
1331.249012101376
 20
335.3366297376433
 30
0.0
 11
1487.499012101376
 21
335.3366297376432
 31
0.0
  0
LINE
  5
8F0
330
8ED
100
AcDbEntity
  8
0
  6
ByBlock
 62
     0
 48
10.0
100
AcDbLine
 10
1474.999012101376
 20
385.3366297376432
 30
0.0
 11
1474.999012101376
 21
410.3366297376432
 31
0.0
  0
LINE
  5
8F1
330
8ED
100
AcDbEntity
  8
0
  6
ByBlock
 62
     0
 48
10.0
100
AcDbLine
 10
1474.999012101376
 20
310.3366297376432
 30
0.0
 11
1474.999012101376
 21
240.9546072657331
 31
0.0
  0
LINE
  5
8F2
330
8ED
100
AcDbEntity
  8
0
  6
ByBlock
 62
     0
 48
10.0
100
AcDbLine
 10
1474.999012101376
 20
360.3366297376432
 30
0.0
 11
1474.999012101376
 21
335.3366297376432
 31
0.0
  0
SOLID
  5
8F3
330
8ED
100
AcDbEntity
  8
0
  6
ByBlock
 62
     0
 48
10.0
100
AcDbTrace
 10
1470.832345434709
 20
385.3366297376432
 30
0.0
 11
1479.165678768042
 21
385.3366297376432
 31
0.0
 12
1474.999012101376
 22
360.3366297376432
 32
0.0
 13
1474.999012101376
 23
360.3366297376432
 33
0.0
  0
SOLID
  5
8F4
330
8ED
100
AcDbEntity
  8
0
  6
ByBlock
 62
     0
 48
10.0
100
AcDbTrace
 10
1470.832345434709
 20
310.3366297376432
 30
0.0
 11
1479.165678768042
 21
310.3366297376432
 31
0.0
 12
1474.999012101376
 22
335.3366297376432
 32
0.0
 13
1474.999012101376
 23
335.3366297376432
 33
0.0
  0
MTEXT
  5
8F5
330
8ED
100
AcDbEntity
  8
0
  6
ByBlock
 62
     0
 48
10.0
100
AcDbMText
 10
1456.249012101376
 20
263.1456185016882
 30
0.0
 40
25.0
 41
0.0
 71
     5
 72
     1
  1
\A1;25
 11
0.0000000000000001
 21
1.0
 31
0.0
 73
     1
 44
1.0
  0
POINT
  5
8F6
330
8ED
100
AcDbEntity
  8
DEFPOINTS
  6
ByBlock
 62
     0
 48
10.0
100
AcDbPoint
 10
1324.999012101376
 20
360.3366297376433
 30
0.0
  0
POINT
  5
8F7
330
8ED
100
AcDbEntity
  8
DEFPOINTS
  6
ByBlock
 62
     0
 48
10.0
100
AcDbPoint
 10
1324.999012101376
 20
335.3366297376433
 30
0.0
  0
POINT
  5
8F8
330
8ED
100
AcDbEntity
  8
DEFPOINTS
  6
ByBlock
 62
     0
 48
10.0
100
AcDbPoint
 10
1474.999012101376
 20
335.3366297376432
 30
0.0
  0
ENDBLK
  5
8FA
330
8ED
100
AcDbEntity
  8
0
 48
10.0
100
AcDbBlockEnd
  0
BLOCK
  5
905
330
8FB
100
AcDbEntity
  8
0
 48
10.0
100
AcDbBlockBegin
  2
*D7
 70
     1
 10
0.0
 20
0.0
 30
0.0
  3
*D7
  1

  0
LINE
  5
8FC
330
8FB
100
AcDbEntity
  8
0
  6
ByBlock
 62
     0
 48
10.0
100
AcDbLine
 10
1331.249012101376
 20
360.3366297376433
 30
0.0
 11
1487.499012101376
 21
360.3366297376432
 31
0.0
  0
LINE
  5
8FD
330
8FB
100
AcDbEntity
  8
0
  6
ByBlock
 62
     0
 48
10.0
100
AcDbLine
 10
1331.249012101376
 20
435.3366297376433
 30
0.0
 11
1487.499012101376
 21
435.3366297376432
 31
0.0
  0
LINE
  5
8FE
330
8FB
100
AcDbEntity
  8
0
  6
ByBlock
 62
     0
 48
10.0
100
AcDbLine
 10
1474.999012101376
 20
385.3366297376432
 30
0.0
 11
1474.999012101376
 21
410.3366297376432
 31
0.0
  0
SOLID
  5
8FF
330
8FB
100
AcDbEntity
  8
0
  6
ByBlock
 62
     0
 48
10.0
100
AcDbTrace
 10
1470.832345434709
 20
385.3366297376432
 30
0.0
 11
1479.165678768042
 21
385.3366297376432
 31
0.0
 12
1474.999012101376
 22
360.3366297376432
 32
0.0
 13
1474.999012101376
 23
360.3366297376432
 33
0.0
  0
SOLID
  5
900
330
8FB
100
AcDbEntity
  8
0
  6
ByBlock
 62
     0
 48
10.0
100
AcDbTrace
 10
1470.832345434709
 20
410.3366297376432
 30
0.0
 11
1479.165678768042
 21
410.3366297376432
 31
0.0
 12
1474.999012101376
 22
435.3366297376432
 32
0.0
 13
1474.999012101376
 23
435.3366297376432
 33
0.0
  0
MTEXT
  5
901
330
8FB
100
AcDbEntity
  8
0
  6
ByBlock
 62
     0
 48
10.0
100
AcDbMText
 10
1456.249012101376
 20
397.8366297376432
 30
0.0
 40
25.0
 41
0.0
 71
     5
 72
     1
  1
\A1;75
 11
0.0000000000000001
 21
1.0
 31
0.0
 73
     1
 44
1.0
  0
POINT
  5
902
330
8FB
100
AcDbEntity
  8
DEFPOINTS
  6
ByBlock
 62
     0
 48
10.0
100
AcDbPoint
 10
1324.999012101376
 20
360.3366297376433
 30
0.0
  0
POINT
  5
903
330
8FB
100
AcDbEntity
  8
DEFPOINTS
  6
ByBlock
 62
     0
 48
10.0
100
AcDbPoint
 10
1324.999012101376
 20
435.3366297376433
 30
0.0
  0
POINT
  5
904
330
8FB
100
AcDbEntity
  8
DEFPOINTS
  6
ByBlock
 62
     0
 48
10.0
100
AcDbPoint
 10
1474.999012101376
 20
435.3366297376432
 30
0.0
  0
ENDBLK
  5
906
330
8FB
100
AcDbEntity
  8
0
 48
10.0
100
AcDbBlockEnd
  0
BLOCK
  5
911
330
907
100
AcDbEntity
  8
0
 48
10.0
100
AcDbBlockBegin
  2
*D8
 70
     1
 10
0.0
 20
0.0
 30
0.0
  3
*D8
  1

  0
LINE
  5
908
330
907
100
AcDbEntity
  8
0
  6
ByBlock
 62
     0
 48
10.0
100
AcDbLine
 10
1331.249012101376
 20
435.3366297376433
 30
0.0
 11
1607.499012101376
 21
435.3366297376432
 31
0.0
  0
LINE
  5
909
330
907
100
AcDbEntity
  8
0
  6
ByBlock
 62
     0
 48
10.0
100
AcDbLine
 10
1331.249012101376
 20
335.3366297376433
 30
0.0
 11
1607.499012101376
 21
335.3366297376432
 31
0.0
  0
LINE
  5
90A
330
907
100
AcDbEntity
  8
0
  6
ByBlock
 62
     0
 48
10.0
100
AcDbLine
 10
1594.999012101376
 20
410.3366297376432
 30
0.0
 11
1594.999012101376
 21
360.3366297376432
 31
0.0
  0
SOLID
  5
90B
330
907
100
AcDbEntity
  8
0
  6
ByBlock
 62
     0
 48
10.0
100
AcDbTrace
 10
1590.832345434709
 20
410.3366297376432
 30
0.0
 11
1599.165678768042
 21
410.3366297376432
 31
0.0
 12
1594.999012101376
 22
435.3366297376432
 32
0.0
 13
1594.999012101376
 23
435.3366297376432
 33
0.0
  0
SOLID
  5
90C
330
907
100
AcDbEntity
  8
0
  6
ByBlock
 62
     0
 48
10.0
100
AcDbTrace
 10
1590.832345434709
 20
360.3366297376432
 30
0.0
 11
1599.165678768042
 21
360.3366297376432
 31
0.0
 12
1594.999012101376
 22
335.3366297376432
 32
0.0
 13
1594.999012101376
 23
335.3366297376432
 33
0.0
  0
MTEXT
  5
90D
330
907
100
AcDbEntity
  8
0
  6
ByBlock
 62
     0
 48
10.0
100
AcDbMText
 10
1576.249012101376
 20
385.3366297376432
 30
0.0
 40
25.0
 41
0.0
 71
     5
 72
     1
  1
\A1;100
 11
0.0000000000000001
 21
1.0
 31
0.0
 73
     1
 44
1.0
  0
POINT
  5
90E
330
907
100
AcDbEntity
  8
DEFPOINTS
  6
ByBlock
 62
     0
 48
10.0
100
AcDbPoint
 10
1324.999012101376
 20
435.3366297376433
 30
0.0
  0
POINT
  5
90F
330
907
100
AcDbEntity
  8
DEFPOINTS
  6
ByBlock
 62
     0
 48
10.0
100
AcDbPoint
 10
1324.999012101376
 20
335.3366297376433
 30
0.0
  0
POINT
  5
910
330
907
100
AcDbEntity
  8
DEFPOINTS
  6
ByBlock
 62
     0
 48
10.0
100
AcDbPoint
 10
1594.999012101376
 20
335.3366297376432
 30
0.0
  0
ENDBLK
  5
912
330
907
100
AcDbEntity
  8
0
 48
10.0
100
AcDbBlockEnd
  0
BLOCK
  5
91D
330
913
100
AcDbEntity
  8
0
 48
10.0
100
AcDbBlockBegin
  2
*D9
 70
     1
 10
0.0
 20
0.0
 30
0.0
  3
*D9
  1

  0
LINE
  5
914
330
913
100
AcDbEntity
  8
0
  6
ByBlock
 62
     0
 48
10.0
100
AcDbLine
 10
2058.684533112458
 20
1067.731684623783
 30
0.0
 11
2058.684533112458
 21
791.4816846237836
 31
0.0
  0
LINE
  5
915
330
913
100
AcDbEntity
  8
0
  6
ByBlock
 62
     0
 48
10.0
100
AcDbLine
 10
2158.684533112458
 20
1067.731684623783
 30
0.0
 11
2158.684533112458
 21
791.4816846237836
 31
0.0
  0
LINE
  5
916
330
913
100
AcDbEntity
  8
0
  6
ByBlock
 62
     0
 48
10.0
100
AcDbLine
 10
2083.684533112458
 20
803.9816846237837
 30
0.0
 11
2133.684533112458
 21
803.9816846237837
 31
0.0
  0
SOLID
  5
917
330
913
100
AcDbEntity
  8
0
  6
ByBlock
 62
     0
 48
10.0
100
AcDbTrace
 10
2083.684533112458
 20
808.1483512904503
 30
0.0
 11
2083.684533112458
 21
799.815017957117
 31
0.0
 12
2058.684533112458
 22
803.9816846237837
 32
0.0
 13
2058.684533112458
 23
803.9816846237837
 33
0.0
  0
SOLID
  5
918
330
913
100
AcDbEntity
  8
0
  6
ByBlock
 62
     0
 48
10.0
100
AcDbTrace
 10
2133.684533112458
 20
808.1483512904503
 30
0.0
 11
2133.684533112458
 21
799.815017957117
 31
0.0
 12
2158.684533112458
 22
803.9816846237837
 32
0.0
 13
2158.684533112458
 23
803.9816846237837
 33
0.0
  0
MTEXT
  5
919
330
913
100
AcDbEntity
  8
0
  6
ByBlock
 62
     0
 48
10.0
100
AcDbMText
 10
2108.684533112458
 20
822.7316846237837
 30
0.0
 40
25.0
 41
0.0
 71
     5
 72
     1
  1
\A1;100
 73
     1
 44
1.0
  0
POINT
  5
91A
330
913
100
AcDbEntity
  8
DEFPOINTS
  6
ByBlock
 62
     0
 48
10.0
100
AcDbPoint
 10
2058.684533112458
 20
1073.981684623783
 30
0.0
  0
POINT
  5
91B
330
913
100
AcDbEntity
  8
DEFPOINTS
  6
ByBlock
 62
     0
 48
10.0
100
AcDbPoint
 10
2158.684533112458
 20
1073.981684623783
 30
0.0
  0
POINT
  5
91C
330
913
100
AcDbEntity
  8
DEFPOINTS
  6
ByBlock
 62
     0
 48
10.0
100
AcDbPoint
 10
2158.684533112458
 20
803.9816846237837
 30
0.0
  0
ENDBLK
  5
91E
330
913
100
AcDbEntity
  8
0
 48
10.0
100
AcDbBlockEnd
  0
BLOCK
  5
92B
330
91F
100
AcDbEntity
  8
0
 48
10.0
100
AcDbBlockBegin
  2
*D10
 70
     1
 10
0.0
 20
0.0
 30
0.0
  3
*D10
  1

  0
LINE
  5
920
330
91F
100
AcDbEntity
  8
0
  6
ByBlock
 62
     0
 48
10.0
100
AcDbLine
 10
2133.684533112459
 20
1067.731684623783
 30
0.0
 11
2133.684533112459
 21
911.4816846237836
 31
0.0
  0
LINE
  5
921
330
91F
100
AcDbEntity
  8
0
  6
ByBlock
 62
     0
 48
10.0
100
AcDbLine
 10
2158.684533112458
 20
1067.731684623783
 30
0.0
 11
2158.684533112458
 21
911.4816846237836
 31
0.0
  0
LINE
  5
922
330
91F
100
AcDbEntity
  8
0
  6
ByBlock
 62
     0
 48
10.0
100
AcDbLine
 10
2108.684533112459
 20
923.9816846237836
 30
0.0
 11
2083.684533112459
 21
923.9816846237836
 31
0.0
  0
LINE
  5
923
330
91F
100
AcDbEntity
  8
0
  6
ByBlock
 62
     0
 48
10.0
100
AcDbLine
 10
2183.684533112458
 20
923.9816846237836
 30
0.0
 11
2253.066555584369
 21
923.9816846237836
 31
0.0
  0
LINE
  5
924
330
91F
100
AcDbEntity
  8
0
  6
ByBlock
 62
     0
 48
10.0
100
AcDbLine
 10
2133.684533112459
 20
923.9816846237836
 30
0.0
 11
2158.684533112458
 21
923.9816846237836
 31
0.0
  0
SOLID
  5
925
330
91F
100
AcDbEntity
  8
0
  6
ByBlock
 62
     0
 48
10.0
100
AcDbTrace
 10
2108.684533112459
 20
928.1483512904502
 30
0.0
 11
2108.684533112459
 21
919.815017957117
 31
0.0
 12
2133.684533112459
 22
923.9816846237836
 32
0.0
 13
2133.684533112459
 23
923.9816846237836
 33
0.0
  0
SOLID
  5
926
330
91F
100
AcDbEntity
  8
0
  6
ByBlock
 62
     0
 48
10.0
100
AcDbTrace
 10
2183.684533112458
 20
928.1483512904502
 30
0.0
 11
2183.684533112458
 21
919.815017957117
 31
0.0
 12
2158.684533112458
 22
923.9816846237836
 32
0.0
 13
2158.684533112458
 23
923.9816846237836
 33
0.0
  0
MTEXT
  5
927
330
91F
100
AcDbEntity
  8
0
  6
ByBlock
 62
     0
 48
10.0
100
AcDbMText
 10
2230.875544348414
 20
942.7316846237836
 30
0.0
 40
25.0
 41
0.0
 71
     5
 72
     1
  1
\A1;25
 73
     1
 44
1.0
  0
POINT
  5
928
330
91F
100
AcDbEntity
  8
DEFPOINTS
  6
ByBlock
 62
     0
 48
10.0
100
AcDbPoint
 10
2133.684533112459
 20
1073.981684623783
 30
0.0
  0
POINT
  5
929
330
91F
100
AcDbEntity
  8
DEFPOINTS
  6
ByBlock
 62
     0
 48
10.0
100
AcDbPoint
 10
2158.684533112458
 20
1073.981684623783
 30
0.0
  0
POINT
  5
92A
330
91F
100
AcDbEntity
  8
DEFPOINTS
  6
ByBlock
 62
     0
 48
10.0
100
AcDbPoint
 10
2158.684533112458
 20
923.9816846237836
 30
0.0
  0
ENDBLK
  5
92C
330
91F
100
AcDbEntity
  8
0
 48
10.0
100
AcDbBlockEnd
  0
BLOCK
  5
937
330
92D
100
AcDbEntity
  8
0
 48
10.0
100
AcDbBlockBegin
  2
*D11
 70
     1
 10
0.0
 20
0.0
 30
0.0
  3
*D11
  1

  0
LINE
  5
92E
330
92D
100
AcDbEntity
  8
0
  6
ByBlock
 62
     0
 48
10.0
100
AcDbLine
 10
2133.684533112459
 20
1067.731684623783
 30
0.0
 11
2133.684533112459
 21
911.4816846237836
 31
0.0
  0
LINE
  5
92F
330
92D
100
AcDbEntity
  8
0
  6
ByBlock
 62
     0
 48
10.0
100
AcDbLine
 10
2058.684533112458
 20
1067.731684623783
 30
0.0
 11
2058.684533112458
 21
911.4816846237836
 31
0.0
  0
LINE
  5
930
330
92D
100
AcDbEntity
  8
0
  6
ByBlock
 62
     0
 48
10.0
100
AcDbLine
 10
2108.684533112459
 20
923.9816846237836
 30
0.0
 11
2083.684533112458
 21
923.9816846237836
 31
0.0
  0
SOLID
  5
931
330
92D
100
AcDbEntity
  8
0
  6
ByBlock
 62
     0
 48
10.0
100
AcDbTrace
 10
2108.684533112459
 20
928.1483512904502
 30
0.0
 11
2108.684533112459
 21
919.815017957117
 31
0.0
 12
2133.684533112459
 22
923.9816846237836
 32
0.0
 13
2133.684533112459
 23
923.9816846237836
 33
0.0
  0
SOLID
  5
932
330
92D
100
AcDbEntity
  8
0
  6
ByBlock
 62
     0
 48
10.0
100
AcDbTrace
 10
2083.684533112458
 20
928.1483512904502
 30
0.0
 11
2083.684533112458
 21
919.815017957117
 31
0.0
 12
2058.684533112458
 22
923.9816846237836
 32
0.0
 13
2058.684533112458
 23
923.9816846237836
 33
0.0
  0
MTEXT
  5
933
330
92D
100
AcDbEntity
  8
0
  6
ByBlock
 62
     0
 48
10.0
100
AcDbMText
 10
2096.184533112458
 20
942.7316846237836
 30
0.0
 40
25.0
 41
0.0
 71
     5
 72
     1
  1
\A1;75
 73
     1
 44
1.0
  0
POINT
  5
934
330
92D
100
AcDbEntity
  8
DEFPOINTS
  6
ByBlock
 62
     0
 48
10.0
100
AcDbPoint
 10
2133.684533112459
 20
1073.981684623783
 30
0.0
  0
POINT
  5
935
330
92D
100
AcDbEntity
  8
DEFPOINTS
  6
ByBlock
 62
     0
 48
10.0
100
AcDbPoint
 10
2058.684533112458
 20
1073.981684623783
 30
0.0
  0
POINT
  5
936
330
92D
100
AcDbEntity
  8
DEFPOINTS
  6
ByBlock
 62
     0
 48
10.0
100
AcDbPoint
 10
2058.684533112458
 20
923.9816846237836
 30
0.0
  0
ENDBLK
  5
938
330
92D
100
AcDbEntity
  8
0
 48
10.0
100
AcDbBlockEnd
  0
BLOCK
  5
943
330
939
100
AcDbEntity
  8
0
 48
10.0
100
AcDbBlockBegin
  2
*D12
 70
     1
 10
0.0
 20
0.0
 30
0.0
  3
*D12
  1

  0
LINE
  5
93A
330
939
100
AcDbEntity
  8
0
  6
ByBlock
 62
     0
 48
10.0
100
AcDbLine
 10
881.0895466115979
 20
466.5866297376433
 30
0.0
 11
881.0895466115979
 21
592.8366297376433
 31
0.0
  0
LINE
  5
93B
330
939
100
AcDbEntity
  8
0
  6
ByBlock
 62
     0
 48
10.0
100
AcDbLine
 10
781.089546611598
 20
466.5866297376433
 30
0.0
 11
781.089546611598
 21
592.8366297376433
 31
0.0
  0
LINE
  5
93C
330
939
100
AcDbEntity
  8
0
  6
ByBlock
 62
     0
 48
10.0
100
AcDbLine
 10
856.0895466115979
 20
580.3366297376433
 30
0.0
 11
806.0895466115979
 21
580.3366297376433
 31
0.0
  0
SOLID
  5
93D
330
939
100
AcDbEntity
  8
0
  6
ByBlock
 62
     0
 48
10.0
100
AcDbTrace
 10
856.0895466115979
 20
584.5032964043099
 30
0.0
 11
856.0895466115979
 21
576.1699630709767
 31
0.0
 12
881.0895466115979
 22
580.3366297376433
 32
0.0
 13
881.0895466115979
 23
580.3366297376433
 33
0.0
  0
SOLID
  5
93E
330
939
100
AcDbEntity
  8
0
  6
ByBlock
 62
     0
 48
10.0
100
AcDbTrace
 10
806.0895466115979
 20
584.5032964043099
 30
0.0
 11
806.0895466115979
 21
576.1699630709767
 31
0.0
 12
781.089546611598
 22
580.3366297376433
 32
0.0
 13
781.089546611598
 23
580.3366297376433
 33
0.0
  0
MTEXT
  5
93F
330
939
100
AcDbEntity
  8
0
  6
ByBlock
 62
     0
 48
10.0
100
AcDbMText
 10
831.0895466115979
 20
599.0866297376433
 30
0.0
 40
25.0
 41
0.0
 71
     5
 72
     1
  1
\A1;100
 73
     1
 44
1.0
  0
POINT
  5
940
330
939
100
AcDbEntity
  8
DEFPOINTS
  6
ByBlock
 62
     0
 48
10.0
100
AcDbPoint
 10
881.0895466115979
 20
460.3366297376433
 30
0.0
  0
POINT
  5
941
330
939
100
AcDbEntity
  8
DEFPOINTS
  6
ByBlock
 62
     0
 48
10.0
100
AcDbPoint
 10
781.089546611598
 20
460.3366297376433
 30
0.0
  0
POINT
  5
942
330
939
100
AcDbEntity
  8
DEFPOINTS
  6
ByBlock
 62
     0
 48
10.0
100
AcDbPoint
 10
781.089546611598
 20
580.3366297376433
 30
0.0
  0
ENDBLK
  5
944
330
939
100
AcDbEntity
  8
0
 48
10.0
100
AcDbBlockEnd
  0
BLOCK
  5
94F
330
945
100
AcDbEntity
  8
0
 48
10.0
100
AcDbBlockBegin
  2
*D13
 70
     1
 10
0.0
 20
0.0
 30
0.0
  3
*D13
  1

  0
LINE
  5
946
330
945
100
AcDbEntity
  8
0
  6
ByBlock
 62
     0
 48
10.0
100
AcDbLine
 10
881.0895466115979
 20
466.5866297376433
 30
0.0
 11
881.0895466115979
 21
592.8366297376433
 31
0.0
  0
LINE
  5
947
330
945
100
AcDbEntity
  8
0
  6
ByBlock
 62
     0
 48
10.0
100
AcDbLine
 10
1031.089546611598
 20
466.5866297376433
 30
0.0
 11
1031.089546611598
 21
592.8366297376433
 31
0.0
  0
LINE
  5
948
330
945
100
AcDbEntity
  8
0
  6
ByBlock
 62
     0
 48
10.0
100
AcDbLine
 10
906.0895466115979
 20
580.3366297376433
 30
0.0
 11
1006.089546611597
 21
580.3366297376433
 31
0.0
  0
SOLID
  5
949
330
945
100
AcDbEntity
  8
0
  6
ByBlock
 62
     0
 48
10.0
100
AcDbTrace
 10
906.0895466115979
 20
584.5032964043099
 30
0.0
 11
906.0895466115979
 21
576.1699630709767
 31
0.0
 12
881.0895466115979
 22
580.3366297376433
 32
0.0
 13
881.0895466115979
 23
580.3366297376433
 33
0.0
  0
SOLID
  5
94A
330
945
100
AcDbEntity
  8
0
  6
ByBlock
 62
     0
 48
10.0
100
AcDbTrace
 10
1006.089546611597
 20
584.5032964043099
 30
0.0
 11
1006.089546611597
 21
576.1699630709767
 31
0.0
 12
1031.089546611598
 22
580.3366297376433
 32
0.0
 13
1031.089546611598
 23
580.3366297376433
 33
0.0
  0
MTEXT
  5
94B
330
945
100
AcDbEntity
  8
0
  6
ByBlock
 62
     0
 48
10.0
100
AcDbMText
 10
956.0895466115979
 20
599.0866297376433
 30
0.0
 40
25.0
 41
0.0
 71
     5
 72
     1
  1
\A1;150
 73
     1
 44
1.0
  0
POINT
  5
94C
330
945
100
AcDbEntity
  8
DEFPOINTS
  6
ByBlock
 62
     0
 48
10.0
100
AcDbPoint
 10
881.0895466115979
 20
460.3366297376433
 30
0.0
  0
POINT
  5
94D
330
945
100
AcDbEntity
  8
DEFPOINTS
  6
ByBlock
 62
     0
 48
10.0
100
AcDbPoint
 10
1031.089546611598
 20
460.3366297376433
 30
0.0
  0
POINT
  5
94E
330
945
100
AcDbEntity
  8
DEFPOINTS
  6
ByBlock
 62
     0
 48
10.0
100
AcDbPoint
 10
1031.089546611598
 20
580.3366297376433
 30
0.0
  0
ENDBLK
  5
950
330
945
100
AcDbEntity
  8
0
 48
10.0
100
AcDbBlockEnd
  0
BLOCK
  5
95B
330
951
100
AcDbEntity
  8
0
 48
10.0
100
AcDbBlockBegin
  2
*D14
 70
     1
 10
0.0
 20
0.0
 30
0.0
  3
*D14
  1

  0
LINE
  5
952
330
951
100
AcDbEntity
  8
0
  6
ByBlock
 62
     0
 48
10.0
100
AcDbLine
 10
1031.089546611598
 20
466.5866297376432
 30
0.0
 11
1031.089546611598
 21
592.8366297376433
 31
0.0
  0
LINE
  5
953
330
951
100
AcDbEntity
  8
0
  6
ByBlock
 62
     0
 48
10.0
100
AcDbLine
 10
1131.089546611597
 20
466.5866297376433
 30
0.0
 11
1131.089546611597
 21
592.8366297376433
 31
0.0
  0
LINE
  5
954
330
951
100
AcDbEntity
  8
0
  6
ByBlock
 62
     0
 48
10.0
100
AcDbLine
 10
1056.089546611598
 20
580.3366297376433
 30
0.0
 11
1106.089546611598
 21
580.3366297376433
 31
0.0
  0
SOLID
  5
955
330
951
100
AcDbEntity
  8
0
  6
ByBlock
 62
     0
 48
10.0
100
AcDbTrace
 10
1056.089546611598
 20
584.5032964043099
 30
0.0
 11
1056.089546611598
 21
576.1699630709767
 31
0.0
 12
1031.089546611598
 22
580.3366297376433
 32
0.0
 13
1031.089546611598
 23
580.3366297376433
 33
0.0
  0
SOLID
  5
956
330
951
100
AcDbEntity
  8
0
  6
ByBlock
 62
     0
 48
10.0
100
AcDbTrace
 10
1106.089546611598
 20
584.5032964043099
 30
0.0
 11
1106.089546611598
 21
576.1699630709767
 31
0.0
 12
1131.089546611597
 22
580.3366297376433
 32
0.0
 13
1131.089546611597
 23
580.3366297376433
 33
0.0
  0
MTEXT
  5
957
330
951
100
AcDbEntity
  8
0
  6
ByBlock
 62
     0
 48
10.0
100
AcDbMText
 10
1081.089546611597
 20
599.0866297376433
 30
0.0
 40
25.0
 41
0.0
 71
     5
 72
     1
  1
\A1;100
 73
     1
 44
1.0
  0
POINT
  5
958
330
951
100
AcDbEntity
  8
DEFPOINTS
  6
ByBlock
 62
     0
 48
10.0
100
AcDbPoint
 10
1031.089546611598
 20
460.3366297376432
 30
0.0
  0
POINT
  5
959
330
951
100
AcDbEntity
  8
DEFPOINTS
  6
ByBlock
 62
     0
 48
10.0
100
AcDbPoint
 10
1131.089546611597
 20
460.3366297376433
 30
0.0
  0
POINT
  5
95A
330
951
100
AcDbEntity
  8
DEFPOINTS
  6
ByBlock
 62
     0
 48
10.0
100
AcDbPoint
 10
1131.089546611597
 20
580.3366297376433
 30
0.0
  0
ENDBLK
  5
95C
330
951
100
AcDbEntity
  8
0
 48
10.0
100
AcDbBlockEnd
  0
BLOCK
  5
967
330
95D
100
AcDbEntity
  8
0
 48
10.0
100
AcDbBlockBegin
  2
*D15
 70
     1
 10
0.0
 20
0.0
 30
0.0
  3
*D15
  1

  0
LINE
  5
95E
330
95D
100
AcDbEntity
  8
0
  6
ByBlock
 62
     0
 48
10.0
100
AcDbLine
 10
1131.089546611597
 20
466.5866297376432
 30
0.0
 11
1131.089546611597
 21
592.8366297376433
 31
0.0
  0
LINE
  5
95F
330
95D
100
AcDbEntity
  8
0
  6
ByBlock
 62
     0
 48
10.0
100
AcDbLine
 10
1281.089546611598
 20
466.5866297376432
 30
0.0
 11
1281.089546611598
 21
592.8366297376433
 31
0.0
  0
LINE
  5
960
330
95D
100
AcDbEntity
  8
0
  6
ByBlock
 62
     0
 48
10.0
100
AcDbLine
 10
1156.089546611598
 20
580.3366297376433
 30
0.0
 11
1256.089546611597
 21
580.3366297376433
 31
0.0
  0
SOLID
  5
961
330
95D
100
AcDbEntity
  8
0
  6
ByBlock
 62
     0
 48
10.0
100
AcDbTrace
 10
1156.089546611598
 20
584.5032964043099
 30
0.0
 11
1156.089546611598
 21
576.1699630709767
 31
0.0
 12
1131.089546611597
 22
580.3366297376433
 32
0.0
 13
1131.089546611597
 23
580.3366297376433
 33
0.0
  0
SOLID
  5
962
330
95D
100
AcDbEntity
  8
0
  6
ByBlock
 62
     0
 48
10.0
100
AcDbTrace
 10
1256.089546611597
 20
584.5032964043099
 30
0.0
 11
1256.089546611597
 21
576.1699630709767
 31
0.0
 12
1281.089546611598
 22
580.3366297376433
 32
0.0
 13
1281.089546611598
 23
580.3366297376433
 33
0.0
  0
MTEXT
  5
963
330
95D
100
AcDbEntity
  8
0
  6
ByBlock
 62
     0
 48
10.0
100
AcDbMText
 10
1206.089546611598
 20
599.0866297376433
 30
0.0
 40
25.0
 41
0.0
 71
     5
 72
     1
  1
\A1;150
 73
     1
 44
1.0
  0
POINT
  5
964
330
95D
100
AcDbEntity
  8
DEFPOINTS
  6
ByBlock
 62
     0
 48
10.0
100
AcDbPoint
 10
1131.089546611597
 20
460.3366297376432
 30
0.0
  0
POINT
  5
965
330
95D
100
AcDbEntity
  8
DEFPOINTS
  6
ByBlock
 62
     0
 48
10.0
100
AcDbPoint
 10
1281.089546611598
 20
460.3366297376432
 30
0.0
  0
POINT
  5
966
330
95D
100
AcDbEntity
  8
DEFPOINTS
  6
ByBlock
 62
     0
 48
10.0
100
AcDbPoint
 10
1281.089546611598
 20
580.3366297376433
 30
0.0
  0
ENDBLK
  5
968
330
95D
100
AcDbEntity
  8
0
 48
10.0
100
AcDbBlockEnd
  0
BLOCK
  5
973
330
969
100
AcDbEntity
  8
0
 48
10.0
100
AcDbBlockBegin
  2
*D16
 70
     1
 10
0.0
 20
0.0
 30
0.0
  3
*D16
  1

  0
LINE
  5
96A
330
969
100
AcDbEntity
  8
0
  6
ByBlock
 62
     0
 48
10.0
100
AcDbLine
 10
1281.089546611598
 20
466.5866297376432
 30
0.0
 11
1281.089546611598
 21
592.8366297376433
 31
0.0
  0
LINE
  5
96B
330
969
100
AcDbEntity
  8
0
  6
ByBlock
 62
     0
 48
10.0
100
AcDbLine
 10
1381.089546611597
 20
466.5866297376432
 30
0.0
 11
1381.089546611597
 21
592.8366297376433
 31
0.0
  0
LINE
  5
96C
330
969
100
AcDbEntity
  8
0
  6
ByBlock
 62
     0
 48
10.0
100
AcDbLine
 10
1306.089546611598
 20
580.3366297376433
 30
0.0
 11
1356.089546611598
 21
580.3366297376433
 31
0.0
  0
SOLID
  5
96D
330
969
100
AcDbEntity
  8
0
  6
ByBlock
 62
     0
 48
10.0
100
AcDbTrace
 10
1306.089546611598
 20
584.5032964043099
 30
0.0
 11
1306.089546611598
 21
576.1699630709767
 31
0.0
 12
1281.089546611598
 22
580.3366297376433
 32
0.0
 13
1281.089546611598
 23
580.3366297376433
 33
0.0
  0
SOLID
  5
96E
330
969
100
AcDbEntity
  8
0
  6
ByBlock
 62
     0
 48
10.0
100
AcDbTrace
 10
1356.089546611598
 20
584.5032964043099
 30
0.0
 11
1356.089546611598
 21
576.1699630709767
 31
0.0
 12
1381.089546611597
 22
580.3366297376433
 32
0.0
 13
1381.089546611597
 23
580.3366297376433
 33
0.0
  0
MTEXT
  5
96F
330
969
100
AcDbEntity
  8
0
  6
ByBlock
 62
     0
 48
10.0
100
AcDbMText
 10
1331.089546611598
 20
599.0866297376433
 30
0.0
 40
25.0
 41
0.0
 71
     5
 72
     1
  1
\A1;100
 73
     1
 44
1.0
  0
POINT
  5
970
330
969
100
AcDbEntity
  8
DEFPOINTS
  6
ByBlock
 62
     0
 48
10.0
100
AcDbPoint
 10
1281.089546611598
 20
460.3366297376432
 30
0.0
  0
POINT
  5
971
330
969
100
AcDbEntity
  8
DEFPOINTS
  6
ByBlock
 62
     0
 48
10.0
100
AcDbPoint
 10
1381.089546611597
 20
460.3366297376432
 30
0.0
  0
POINT
  5
972
330
969
100
AcDbEntity
  8
DEFPOINTS
  6
ByBlock
 62
     0
 48
10.0
100
AcDbPoint
 10
1381.089546611597
 20
580.3366297376433
 30
0.0
  0
ENDBLK
  5
974
330
969
100
AcDbEntity
  8
0
 48
10.0
100
AcDbBlockEnd
  0
BLOCK
  5
97F
330
975
100
AcDbEntity
  8
0
 48
10.0
100
AcDbBlockBegin
  2
*D17
 70
     1
 10
0.0
 20
0.0
 30
0.0
  3
*D17
  1

  0
LINE
  5
976
330
975
100
AcDbEntity
  8
0
  6
ByBlock
 62
     0
 48
10.0
100
AcDbLine
 10
1023.589508684934
 20
304.0866297376433
 30
0.0
 11
1023.589508684934
 21
177.8366297376433
 31
0.0
  0
LINE
  5
977
330
975
100
AcDbEntity
  8
0
  6
ByBlock
 62
     0
 48
10.0
100
AcDbLine
 10
888.5895086849341
 20
304.0866297376433
 30
0.0
 11
888.5895086849341
 21
177.8366297376433
 31
0.0
  0
LINE
  5
978
330
975
100
AcDbEntity
  8
0
  6
ByBlock
 62
     0
 48
10.0
100
AcDbLine
 10
998.5895086849341
 20
190.3366297376433
 30
0.0
 11
913.5895086849341
 21
190.3366297376433
 31
0.0
  0
SOLID
  5
979
330
975
100
AcDbEntity
  8
0
  6
ByBlock
 62
     0
 48
10.0
100
AcDbTrace
 10
998.5895086849341
 20
194.5032964043099
 30
0.0
 11
998.5895086849341
 21
186.1699630709766
 31
0.0
 12
1023.589508684934
 22
190.3366297376433
 32
0.0
 13
1023.589508684934
 23
190.3366297376433
 33
0.0
  0
SOLID
  5
97A
330
975
100
AcDbEntity
  8
0
  6
ByBlock
 62
     0
 48
10.0
100
AcDbTrace
 10
913.5895086849341
 20
194.5032964043099
 30
0.0
 11
913.5895086849341
 21
186.1699630709766
 31
0.0
 12
888.5895086849341
 22
190.3366297376433
 32
0.0
 13
888.5895086849341
 23
190.3366297376433
 33
0.0
  0
MTEXT
  5
97B
330
975
100
AcDbEntity
  8
0
  6
ByBlock
 62
     0
 48
10.0
100
AcDbMText
 10
956.089508684934
 20
209.0866297376432
 30
0.0
 40
25.0
 41
0.0
 71
     5
 72
     1
  1
\A1;135
 73
     1
 44
1.0
  0
POINT
  5
97C
330
975
100
AcDbEntity
  8
DEFPOINTS
  6
ByBlock
 62
     0
 48
10.0
100
AcDbPoint
 10
1023.589508684934
 20
310.3366297376433
 30
0.0
  0
POINT
  5
97D
330
975
100
AcDbEntity
  8
DEFPOINTS
  6
ByBlock
 62
     0
 48
10.0
100
AcDbPoint
 10
888.5895086849341
 20
310.3366297376433
 30
0.0
  0
POINT
  5
97E
330
975
100
AcDbEntity
  8
DEFPOINTS
  6
ByBlock
 62
     0
 48
10.0
100
AcDbPoint
 10
888.5895086849341
 20
190.3366297376433
 30
0.0
  0
ENDBLK
  5
980
330
975
100
AcDbEntity
  8
0
 48
10.0
100
AcDbBlockEnd
  0
BLOCK
  5
98B
330
981
100
AcDbEntity
  8
0
 48
10.0
100
AcDbBlockBegin
  2
*D18
 70
     1
 10
0.0
 20
0.0
 30
0.0
  3
*D18
  1

  0
LINE
  5
982
330
981
100
AcDbEntity
  8
0
  6
ByBlock
 62
     0
 48
10.0
100
AcDbLine
 10
1138.589508684934
 20
304.0866297376433
 30
0.0
 11
1138.589508684934
 21
177.8366297376433
 31
0.0
  0
LINE
  5
983
330
981
100
AcDbEntity
  8
0
  6
ByBlock
 62
     0
 48
10.0
100
AcDbLine
 10
1273.589508684934
 20
304.0866297376433
 30
0.0
 11
1273.589508684934
 21
177.8366297376433
 31
0.0
  0
LINE
  5
984
330
981
100
AcDbEntity
  8
0
  6
ByBlock
 62
     0
 48
10.0
100
AcDbLine
 10
1163.589508684934
 20
190.3366297376433
 30
0.0
 11
1248.589508684934
 21
190.3366297376433
 31
0.0
  0
SOLID
  5
985
330
981
100
AcDbEntity
  8
0
  6
ByBlock
 62
     0
 48
10.0
100
AcDbTrace
 10
1163.589508684934
 20
194.5032964043099
 30
0.0
 11
1163.589508684934
 21
186.1699630709766
 31
0.0
 12
1138.589508684934
 22
190.3366297376433
 32
0.0
 13
1138.589508684934
 23
190.3366297376433
 33
0.0
  0
SOLID
  5
986
330
981
100
AcDbEntity
  8
0
  6
ByBlock
 62
     0
 48
10.0
100
AcDbTrace
 10
1248.589508684934
 20
194.5032964043099
 30
0.0
 11
1248.589508684934
 21
186.1699630709766
 31
0.0
 12
1273.589508684934
 22
190.3366297376433
 32
0.0
 13
1273.589508684934
 23
190.3366297376433
 33
0.0
  0
MTEXT
  5
987
330
981
100
AcDbEntity
  8
0
  6
ByBlock
 62
     0
 48
10.0
100
AcDbMText
 10
1206.089508684934
 20
209.0866297376432
 30
0.0
 40
25.0
 41
0.0
 71
     5
 72
     1
  1
\A1;135
 73
     1
 44
1.0
  0
POINT
  5
988
330
981
100
AcDbEntity
  8
DEFPOINTS
  6
ByBlock
 62
     0
 48
10.0
100
AcDbPoint
 10
1138.589508684934
 20
310.3366297376433
 30
0.0
  0
POINT
  5
989
330
981
100
AcDbEntity
  8
DEFPOINTS
  6
ByBlock
 62
     0
 48
10.0
100
AcDbPoint
 10
1273.589508684934
 20
310.3366297376433
 30
0.0
  0
POINT
  5
98A
330
981
100
AcDbEntity
  8
DEFPOINTS
  6
ByBlock
 62
     0
 48
10.0
100
AcDbPoint
 10
1273.589508684934
 20
190.3366297376433
 30
0.0
  0
ENDBLK
  5
98C
330
981
100
AcDbEntity
  8
0
 48
10.0
100
AcDbBlockEnd
  0
BLOCK
  5
999
330
98D
100
AcDbEntity
  8
0
 48
10.0
100
AcDbBlockBegin
  2
*D19
 70
     1
 10
0.0
 20
0.0
 30
0.0
  3
*D19
  1

  0
LINE
  5
98E
330
98D
100
AcDbEntity
  8
0
  6
ByBlock
 62
     0
 48
10.0
100
AcDbLine
 10
749.8395466115981
 20
410.3366297376433
 30
0.0
 11
623.589546611598
 21
410.3366297376433
 31
0.0
  0
LINE
  5
98F
330
98D
100
AcDbEntity
  8
0
  6
ByBlock
 62
     0
 48
10.0
100
AcDbLine
 10
749.8395466115981
 20
435.3366297376433
 30
0.0
 11
623.589546611598
 21
435.3366297376433
 31
0.0
  0
LINE
  5
990
330
98D
100
AcDbEntity
  8
0
  6
ByBlock
 62
     0
 48
10.0
100
AcDbLine
 10
636.089546611598
 20
385.3366297376433
 30
0.0
 11
636.089546611598
 21
360.3366297376433
 31
0.0
  0
LINE
  5
991
330
98D
100
AcDbEntity
  8
0
  6
ByBlock
 62
     0
 48
10.0
100
AcDbLine
 10
636.089546611598
 20
460.3366297376433
 30
0.0
 11
636.089546611598
 21
529.7186522095535
 31
0.0
  0
LINE
  5
992
330
98D
100
AcDbEntity
  8
0
  6
ByBlock
 62
     0
 48
10.0
100
AcDbLine
 10
636.089546611598
 20
410.3366297376433
 30
0.0
 11
636.089546611598
 21
435.3366297376433
 31
0.0
  0
SOLID
  5
993
330
98D
100
AcDbEntity
  8
0
  6
ByBlock
 62
     0
 48
10.0
100
AcDbTrace
 10
631.9228799449314
 20
385.3366297376433
 30
0.0
 11
640.2562132782646
 21
385.3366297376433
 31
0.0
 12
636.089546611598
 22
410.3366297376433
 32
0.0
 13
636.089546611598
 23
410.3366297376433
 33
0.0
  0
SOLID
  5
994
330
98D
100
AcDbEntity
  8
0
  6
ByBlock
 62
     0
 48
10.0
100
AcDbTrace
 10
631.9228799449314
 20
460.3366297376433
 30
0.0
 11
640.2562132782646
 21
460.3366297376433
 31
0.0
 12
636.089546611598
 22
435.3366297376433
 32
0.0
 13
636.089546611598
 23
435.3366297376433
 33
0.0
  0
MTEXT
  5
995
330
98D
100
AcDbEntity
  8
0
  6
ByBlock
 62
     0
 48
10.0
100
AcDbMText
 10
617.339546611598
 20
507.5276409735983
 30
0.0
 40
25.0
 41
0.0
 71
     5
 72
     1
  1
\A1;25
 11
0.0000000000000001
 21
1.0
 31
0.0
 73
     1
 44
1.0
  0
POINT
  5
996
330
98D
100
AcDbEntity
  8
DEFPOINTS
  6
ByBlock
 62
     0
 48
10.0
100
AcDbPoint
 10
756.0895466115981
 20
410.3366297376433
 30
0.0
  0
POINT
  5
997
330
98D
100
AcDbEntity
  8
DEFPOINTS
  6
ByBlock
 62
     0
 48
10.0
100
AcDbPoint
 10
756.0895466115981
 20
435.3366297376433
 30
0.0
  0
POINT
  5
998
330
98D
100
AcDbEntity
  8
DEFPOINTS
  6
ByBlock
 62
     0
 48
10.0
100
AcDbPoint
 10
636.089546611598
 20
435.3366297376433
 30
0.0
  0
ENDBLK
  5
99A
330
98D
100
AcDbEntity
  8
0
 48
10.0
100
AcDbBlockEnd
  0
BLOCK
  5
9A7
330
99B
100
AcDbEntity
  8
0
 48
10.0
100
AcDbBlockBegin
  2
*D20
 70
     1
 10
0.0
 20
0.0
 30
0.0
  3
*D20
  1

  0
LINE
  5
99C
330
99B
100
AcDbEntity
  8
0
  6
ByBlock
 62
     0
 48
10.0
100
AcDbLine
 10
1366.089546611598
 20
1515.231684623783
 30
0.0
 11
1366.089546611598
 21
1641.481684623783
 31
0.0
  0
LINE
  5
99D
330
99B
100
AcDbEntity
  8
0
  6
ByBlock
 62
     0
 48
10.0
100
AcDbLine
 10
1381.089546611597
 20
1515.231684623783
 30
0.0
 11
1381.089546611597
 21
1641.481684623783
 31
0.0
  0
LINE
  5
99E
330
99B
100
AcDbEntity
  8
0
  6
ByBlock
 62
     0
 48
10.0
100
AcDbLine
 10
1341.089546611598
 20
1628.981684623783
 30
0.0
 11
1316.089546611598
 21
1628.981684623783
 31
0.0
  0
LINE
  5
99F
330
99B
100
AcDbEntity
  8
0
  6
ByBlock
 62
     0
 48
10.0
100
AcDbLine
 10
1406.089546611598
 20
1628.981684623783
 30
0.0
 11
1473.224378072272
 21
1628.981684623783
 31
0.0
  0
LINE
  5
9A0
330
99B
100
AcDbEntity
  8
0
  6
ByBlock
 62
     0
 48
10.0
100
AcDbLine
 10
1366.089546611598
 20
1628.981684623783
 30
0.0
 11
1381.089546611597
 21
1628.981684623783
 31
0.0
  0
SOLID
  5
9A1
330
99B
100
AcDbEntity
  8
0
  6
ByBlock
 62
     0
 48
10.0
100
AcDbTrace
 10
1341.089546611598
 20
1633.14835129045
 30
0.0
 11
1341.089546611598
 21
1624.815017957117
 31
0.0
 12
1366.089546611598
 22
1628.981684623783
 32
0.0
 13
1366.089546611598
 23
1628.981684623783
 33
0.0
  0
SOLID
  5
9A2
330
99B
100
AcDbEntity
  8
0
  6
ByBlock
 62
     0
 48
10.0
100
AcDbTrace
 10
1406.089546611598
 20
1633.14835129045
 30
0.0
 11
1406.089546611598
 21
1624.815017957117
 31
0.0
 12
1381.089546611597
 22
1628.981684623783
 32
0.0
 13
1381.089546611597
 23
1628.981684623783
 33
0.0
  0
MTEXT
  5
9A3
330
99B
100
AcDbEntity
  8
0
  6
ByBlock
 62
     0
 48
10.0
100
AcDbMText
 10
1452.156962341935
 20
1647.731684623783
 30
0.0
 40
25.0
 41
0.0
 71
     5
 72
     1
  1
\A1;15
 73
     1
 44
1.0
  0
POINT
  5
9A4
330
99B
100
AcDbEntity
  8
DEFPOINTS
  6
ByBlock
 62
     0
 48
10.0
100
AcDbPoint
 10
1366.089546611598
 20
1508.981684623783
 30
0.0
  0
POINT
  5
9A5
330
99B
100
AcDbEntity
  8
DEFPOINTS
  6
ByBlock
 62
     0
 48
10.0
100
AcDbPoint
 10
1381.089546611597
 20
1508.981684623783
 30
0.0
  0
POINT
  5
9A6
330
99B
100
AcDbEntity
  8
DEFPOINTS
  6
ByBlock
 62
     0
 48
10.0
100
AcDbPoint
 10
1381.089546611597
 20
1628.981684623783
 30
0.0
  0
ENDBLK
  5
9A8
330
99B
100
AcDbEntity
  8
0
 48
10.0
100
AcDbBlockEnd
  0
BLOCK
  5
9B5
330
9A9
100
AcDbEntity
  8
0
 48
10.0
100
AcDbBlockBegin
  2
*D21
 70
     1
 10
0.0
 20
0.0
 30
0.0
  3
*D21
  1

  0
LINE
  5
9AA
330
9A9
100
AcDbEntity
  8
0
  6
ByBlock
 62
     0
 48
10.0
100
AcDbLine
 10
2331.08129879658
 20
1358.981684623783
 30
0.0
 11
2513.940271521393
 21
1358.981684623783
 31
0.0
  0
LINE
  5
9AB
330
9A9
100
AcDbEntity
  8
0
  6
ByBlock
 62
     0
 48
10.0
100
AcDbLine
 10
2331.08129879658
 20
1388.981684623783
 30
0.0
 11
2513.940271521393
 21
1388.981684623783
 31
0.0
  0
LINE
  5
9AC
330
9A9
100
AcDbEntity
  8
0
  6
ByBlock
 62
     0
 48
10.0
100
AcDbLine
 10
2501.440271521393
 20
1333.981684623783
 30
0.0
 11
2501.440271521393
 21
1308.981684623783
 31
0.0
  0
LINE
  5
9AD
330
9A9
100
AcDbEntity
  8
0
  6
ByBlock
 62
     0
 48
10.0
100
AcDbLine
 10
2501.440271521393
 20
1413.981684623783
 30
0.0
 11
2501.440271521393
 21
1483.504156533896
 31
0.0
  0
LINE
  5
9AE
330
9A9
100
AcDbEntity
  8
0
  6
ByBlock
 62
     0
 48
10.0
100
AcDbLine
 10
2501.440271521393
 20
1358.981684623783
 30
0.0
 11
2501.440271521393
 21
1388.981684623783
 31
0.0
  0
SOLID
  5
9AF
330
9A9
100
AcDbEntity
  8
0
  6
ByBlock
 62
     0
 48
10.0
100
AcDbTrace
 10
2497.273604854726
 20
1333.981684623783
 30
0.0
 11
2505.606938188059
 21
1333.981684623783
 31
0.0
 12
2501.440271521393
 22
1358.981684623783
 32
0.0
 13
2501.440271521393
 23
1358.981684623783
 33
0.0
  0
SOLID
  5
9B0
330
9A9
100
AcDbEntity
  8
0
  6
ByBlock
 62
     0
 48
10.0
100
AcDbTrace
 10
2497.273604854726
 20
1413.981684623783
 30
0.0
 11
2505.606938188059
 21
1413.981684623783
 31
0.0
 12
2501.440271521393
 22
1388.981684623783
 32
0.0
 13
2501.440271521393
 23
1388.981684623783
 33
0.0
  0
MTEXT
  5
9B1
330
9A9
100
AcDbEntity
  8
0
  6
ByBlock
 62
     0
 48
10.0
100
AcDbMText
 10
2482.690271521393
 20
1461.24292057884
 30
0.0
 40
25.0
 41
0.0
 71
     5
 72
     1
  1
\A1;30
 11
0.0000000000000001
 21
1.0
 31
0.0
 73
     1
 44
1.0
  0
POINT
  5
9B2
330
9A9
100
AcDbEntity
  8
DEFPOINTS
  6
ByBlock
 62
     0
 48
10.0
100
AcDbPoint
 10
2324.83129879658
 20
1358.981684623783
 30
0.0
  0
POINT
  5
9B3
330
9A9
100
AcDbEntity
  8
DEFPOINTS
  6
ByBlock
 62
     0
 48
10.0
100
AcDbPoint
 10
2324.83129879658
 20
1388.981684623783
 30
0.0
  0
POINT
  5
9B4
330
9A9
100
AcDbEntity
  8
DEFPOINTS
  6
ByBlock
 62
     0
 48
10.0
100
AcDbPoint
 10
2501.440271521393
 20
1388.981684623783
 30
0.0
  0
ENDBLK
  5
9B6
330
9A9
100
AcDbEntity
  8
0
 48
10.0
100
AcDbBlockEnd
  0
BLOCK
  5
9C3
330
9B7
100
AcDbEntity
  8
0
 48
10.0
100
AcDbBlockBegin
  2
*D22
 70
     1
 10
0.0
 20
0.0
 30
0.0
  3
*D22
  1

  0
LINE
  5
9B8
330
9B7
100
AcDbEntity
  8
0
  6
ByBlock
 62
     0
 48
10.0
100
AcDbLine
 10
2437.473081718108
 20
1218.981684623783
 30
0.0
 11
2513.940271521392
 21
1218.981684623783
 31
0.0
  0
LINE
  5
9B9
330
9B7
100
AcDbEntity
  8
0
  6
ByBlock
 62
     0
 48
10.0
100
AcDbLine
 10
2437.473081718108
 20
1188.981684623783
 30
0.0
 11
2513.940271521392
 21
1188.981684623783
 31
0.0
  0
LINE
  5
9BA
330
9B7
100
AcDbEntity
  8
0
  6
ByBlock
 62
     0
 48
10.0
100
AcDbLine
 10
2501.440271521392
 20
1243.981684623783
 30
0.0
 11
2501.440271521392
 21
1268.981684623783
 31
0.0
  0
LINE
  5
9BB
330
9B7
100
AcDbEntity
  8
0
  6
ByBlock
 62
     0
 48
10.0
100
AcDbLine
 10
2501.440271521392
 20
1163.981684623783
 30
0.0
 11
2501.440271521392
 21
1094.459212713671
 31
0.0
  0
LINE
  5
9BC
330
9B7
100
AcDbEntity
  8
0
  6
ByBlock
 62
     0
 48
10.0
100
AcDbLine
 10
2501.440271521392
 20
1218.981684623783
 30
0.0
 11
2501.440271521392
 21
1188.981684623783
 31
0.0
  0
SOLID
  5
9BD
330
9B7
100
AcDbEntity
  8
0
  6
ByBlock
 62
     0
 48
10.0
100
AcDbTrace
 10
2497.273604854726
 20
1243.981684623783
 30
0.0
 11
2505.606938188059
 21
1243.981684623783
 31
0.0
 12
2501.440271521392
 22
1218.981684623783
 32
0.0
 13
2501.440271521392
 23
1218.981684623783
 33
0.0
  0
SOLID
  5
9BE
330
9B7
100
AcDbEntity
  8
0
  6
ByBlock
 62
     0
 48
10.0
100
AcDbTrace
 10
2497.273604854726
 20
1163.981684623783
 30
0.0
 11
2505.606938188059
 21
1163.981684623783
 31
0.0
 12
2501.440271521392
 22
1188.981684623783
 32
0.0
 13
2501.440271521392
 23
1188.981684623783
 33
0.0
  0
MTEXT
  5
9BF
330
9B7
100
AcDbEntity
  8
0
  6
ByBlock
 62
     0
 48
10.0
100
AcDbMText
 10
2482.690271521392
 20
1116.720448668727
 30
0.0
 40
25.0
 41
0.0
 71
     5
 72
     1
  1
\A1;30
 11
0.0000000000000001
 21
1.0
 31
0.0
 73
     1
 44
1.0
  0
POINT
  5
9C0
330
9B7
100
AcDbEntity
  8
DEFPOINTS
  6
ByBlock
 62
     0
 48
10.0
100
AcDbPoint
 10
2431.223081718108
 20
1218.981684623783
 30
0.0
  0
POINT
  5
9C1
330
9B7
100
AcDbEntity
  8
DEFPOINTS
  6
ByBlock
 62
     0
 48
10.0
100
AcDbPoint
 10
2431.223081718108
 20
1188.981684623783
 30
0.0
  0
POINT
  5
9C2
330
9B7
100
AcDbEntity
  8
DEFPOINTS
  6
ByBlock
 62
     0
 48
10.0
100
AcDbPoint
 10
2501.440271521392
 20
1188.981684623783
 30
0.0
  0
ENDBLK
  5
9C4
330
9B7
100
AcDbEntity
  8
0
 48
10.0
100
AcDbBlockEnd
  0
BLOCK
  5
9CF
330
9C5
100
AcDbEntity
  8
0
 48
10.0
100
AcDbBlockBegin
  2
*D23
 70
     1
 10
0.0
 20
0.0
 30
0.0
  3
*D23
  1

  0
LINE
  5
9C6
330
9C5
100
AcDbEntity
  8
0
  6
ByBlock
 62
     0
 48
10.0
100
AcDbLine
 10
2437.473081718108
 20
1358.981684623783
 30
0.0
 11
2513.940271521393
 21
1358.981684623783
 31
0.0
  0
LINE
  5
9C7
330
9C5
100
AcDbEntity
  8
0
  6
ByBlock
 62
     0
 48
10.0
100
AcDbLine
 10
2437.473081718108
 20
1218.981684623783
 30
0.0
 11
2513.940271521393
 21
1218.981684623783
 31
0.0
  0
LINE
  5
9C8
330
9C5
100
AcDbEntity
  8
0
  6
ByBlock
 62
     0
 48
10.0
100
AcDbLine
 10
2501.440271521393
 20
1333.981684623783
 30
0.0
 11
2501.440271521393
 21
1243.981684623783
 31
0.0
  0
SOLID
  5
9C9
330
9C5
100
AcDbEntity
  8
0
  6
ByBlock
 62
     0
 48
10.0
100
AcDbTrace
 10
2497.273604854726
 20
1333.981684623783
 30
0.0
 11
2505.606938188059
 21
1333.981684623783
 31
0.0
 12
2501.440271521393
 22
1358.981684623783
 32
0.0
 13
2501.440271521393
 23
1358.981684623783
 33
0.0
  0
SOLID
  5
9CA
330
9C5
100
AcDbEntity
  8
0
  6
ByBlock
 62
     0
 48
10.0
100
AcDbTrace
 10
2497.273604854726
 20
1243.981684623783
 30
0.0
 11
2505.606938188059
 21
1243.981684623783
 31
0.0
 12
2501.440271521393
 22
1218.981684623783
 32
0.0
 13
2501.440271521393
 23
1218.981684623783
 33
0.0
  0
MTEXT
  5
9CB
330
9C5
100
AcDbEntity
  8
0
  6
ByBlock
 62
     0
 48
10.0
100
AcDbMText
 10
2482.690271521393
 20
1288.981684623783
 30
0.0
 40
25.0
 41
0.0
 71
     5
 72
     1
  1
\A1;140
 11
0.0000000000000001
 21
1.0
 31
0.0
 73
     1
 44
1.0
  0
POINT
  5
9CC
330
9C5
100
AcDbEntity
  8
DEFPOINTS
  6
ByBlock
 62
     0
 48
10.0
100
AcDbPoint
 10
2431.223081718108
 20
1358.981684623783
 30
0.0
  0
POINT
  5
9CD
330
9C5
100
AcDbEntity
  8
DEFPOINTS
  6
ByBlock
 62
     0
 48
10.0
100
AcDbPoint
 10
2431.223081718108
 20
1218.981684623783
 30
0.0
  0
POINT
  5
9CE
330
9C5
100
AcDbEntity
  8
DEFPOINTS
  6
ByBlock
 62
     0
 48
10.0
100
AcDbPoint
 10
2501.440271521393
 20
1218.981684623783
 30
0.0
  0
ENDBLK
  5
9D0
330
9C5
100
AcDbEntity
  8
0
 48
10.0
100
AcDbBlockEnd
  0
BLOCK
  5
9DB
330
9D1
100
AcDbEntity
  8
0
 48
10.0
100
AcDbBlockBegin
  2
*D24
 70
     1
 10
0.0
 20
0.0
 30
0.0
  3
*D24
  1

  0
LINE
  5
9D2
330
9D1
100
AcDbEntity
  8
0
  6
ByBlock
 62
     0
 48
10.0
100
AcDbLine
 10
2437.473081718108
 20
1388.981684623783
 30
0.0
 11
2633.940271521392
 21
1388.981684623783
 31
0.0
  0
LINE
  5
9D3
330
9D1
100
AcDbEntity
  8
0
  6
ByBlock
 62
     0
 48
10.0
100
AcDbLine
 10
2437.473081718108
 20
1188.981684623783
 30
0.0
 11
2633.940271521392
 21
1188.981684623783
 31
0.0
  0
LINE
  5
9D4
330
9D1
100
AcDbEntity
  8
0
  6
ByBlock
 62
     0
 48
10.0
100
AcDbLine
 10
2621.440271521393
 20
1363.981684623783
 30
0.0
 11
2621.440271521393
 21
1213.981684623783
 31
0.0
  0
SOLID
  5
9D5
330
9D1
100
AcDbEntity
  8
0
  6
ByBlock
 62
     0
 48
10.0
100
AcDbTrace
 10
2617.273604854726
 20
1363.981684623783
 30
0.0
 11
2625.606938188059
 21
1363.981684623783
 31
0.0
 12
2621.440271521393
 22
1388.981684623783
 32
0.0
 13
2621.440271521393
 23
1388.981684623783
 33
0.0
  0
SOLID
  5
9D6
330
9D1
100
AcDbEntity
  8
0
  6
ByBlock
 62
     0
 48
10.0
100
AcDbTrace
 10
2617.273604854726
 20
1213.981684623783
 30
0.0
 11
2625.606938188059
 21
1213.981684623783
 31
0.0
 12
2621.440271521393
 22
1188.981684623783
 32
0.0
 13
2621.440271521393
 23
1188.981684623783
 33
0.0
  0
MTEXT
  5
9D7
330
9D1
100
AcDbEntity
  8
0
  6
ByBlock
 62
     0
 48
10.0
100
AcDbMText
 10
2602.690271521392
 20
1288.981684623783
 30
0.0
 40
25.0
 41
0.0
 71
     5
 72
     1
  1
\A1;200
 11
0.0000000000000001
 21
1.0
 31
0.0
 73
     1
 44
1.0
  0
POINT
  5
9D8
330
9D1
100
AcDbEntity
  8
DEFPOINTS
  6
ByBlock
 62
     0
 48
10.0
100
AcDbPoint
 10
2431.223081718108
 20
1388.981684623783
 30
0.0
  0
POINT
  5
9D9
330
9D1
100
AcDbEntity
  8
DEFPOINTS
  6
ByBlock
 62
     0
 48
10.0
100
AcDbPoint
 10
2431.223081718108
 20
1188.981684623783
 30
0.0
  0
POINT
  5
9DA
330
9D1
100
AcDbEntity
  8
DEFPOINTS
  6
ByBlock
 62
     0
 48
10.0
100
AcDbPoint
 10
2621.440271521393
 20
1188.981684623783
 30
0.0
  0
ENDBLK
  5
9DC
330
9D1
100
AcDbEntity
  8
0
 48
10.0
100
AcDbBlockEnd
  0
BLOCK
  5
B38
330
9DF
100
AcDbEntity
  8
0
 48
10.0
100
AcDbBlockBegin
  2
A$C67547E15
 70
     0
 10
0.0
 20
0.0
 30
0.0
  3
A$C67547E15
  1

  0
LINE
  5
9E0
330
9DF
100
AcDbEntity
  8
点線
 48
10.0
100
AcDbLine
 10
1816.250029702274
 20
1011.145052993639
 30
0.0
 11
1916.250029702274
 21
1011.145052993639
 31
0.0
  0
LINE
  5
9E1
330
9DF
100
AcDbEntity
  8
点線
 48
10.0
100
AcDbLine
 10
1816.250029702274
 20
1041.145052993639
 30
0.0
 11
1916.250029702274
 21
1041.145052993639
 31
0.0
  0
LINE
  5
9E2
330
9DF
100
AcDbEntity
  8
点線
 48
10.0
100
AcDbLine
 10
1816.250029702274
 20
1181.145052993639
 30
0.0
 11
1916.250029702274
 21
1181.145052993639
 31
0.0
  0
LINE
  5
9E3
330
9DF
100
AcDbEntity
  8
点線
 48
10.0
100
AcDbLine
 10
1816.250029702274
 20
1211.145052993639
 30
0.0
 11
1916.250029702274
 21
1211.145052993639
 31
0.0
  0
LINE
  5
9E4
330
9DF
100
AcDbEntity
  8
上線
 48
10.0
100
AcDbLine
 10
1862.250029702273
 20
918.145027618665
 30
0.0
 11
1826.250029702274
 21
916.1450276186652
 31
0.0
  0
LINE
  5
9E5
330
9DF
100
AcDbEntity
  8
点線
 48
5.0
100
AcDbLine
 10
1846.218846143356
 20
966.1450730727748
 30
0.0
 11
1816.218846143357
 21
966.1450730727748
 31
0.0
  0
LINE
  5
9E6
330
9DF
100
AcDbEntity
  8
点線
 48
5.0
100
AcDbLine
 10
1816.218846143357
 20
1016.145073072775
 30
0.0
 11
1846.218846143356
 21
1016.145073072775
 31
0.0
  0
DIMENSION
  5
9E7
330
9DF
100
AcDbEntity
  8
WUWAGAKI
 48
10.0
100
AcDbDimension
  2
*D11
 10
1816.250029702274
 20
746.1450529936391
 30
0.0
 11
1853.750029702274
 21
764.8950529936391
 31
0.0
 12
-242.4345034101843
 22
-177.8366316301444
 32
0.0
 71
     5
 42
-1.0
  3
STANDARD
100
AcDbAlignedDimension
 13
1891.250029702274
 23
896.1450529936392
 33
0.0
 14
1816.250029702274
 24
896.1450529936392
 34
0.0
100
AcDbRotatedDimension
1001
ACAD
1000
DSTYLE
1002
{
1070
    40
1040
10.0
1070
    41
1040
2.5
1070
    42
1040
0.625
1070
    43
1040
3.75
1070
    44
1040
1.25
1070
    73
1070
     0
1070
    74
1070
     0
1070
    77
1070
     1
1070
    78
1070
     8
1070
   140
1040
2.5
1070
   141
1040
2.5
1070
   143
1040
0.0394
1070
   147
1040
0.625
1070
   171
1070
     4
1070
   172
1070
     1
1070
   273
1070
     8
1070
   274
1070
     4
1070
   277
1070
     6
1002
}
  0
DIMENSION
  5
9E8
330
9DF
100
AcDbEntity
  8
WUWAGAKI
 48
10.0
100
AcDbDimension
  2
*D9
 10
1916.250029702274
 20
626.1450529936391
 30
0.0
 11
1866.250029702274
 21
644.8950529936391
 31
0.0
 12
-242.4345034101843
 22
-177.8366316301444
 32
0.0
 71
     5
 42
-1.0
  3
STANDARD
100
AcDbAlignedDimension
 13
1816.250029702274
 23
896.1450529936392
 33
0.0
 14
1916.250029702274
 24
896.1450529936392
 34
0.0
100
AcDbRotatedDimension
1001
ACAD
1000
DSTYLE
1002
{
1070
    40
1040
10.0
1070
    41
1040
2.5
1070
    42
1040
0.625
1070
    43
1040
3.75
1070
    44
1040
1.25
1070
    73
1070
     0
1070
    74
1070
     0
1070
    77
1070
     1
1070
    78
1070
     8
1070
   140
1040
2.5
1070
   141
1040
2.5
1070
   143
1040
0.0394
1070
   147
1040
0.625
1070
   171
1070
     4
1070
   172
1070
     1
1070
   273
1070
     8
1070
   274
1070
     4
1070
   277
1070
     6
1002
}
  0
LINE
  5
9E9
330
9DF
100
AcDbEntity
  8
WUWAGAKI
 48
10.0
100
AcDbLine
 10
1826.250029702274
 20
1306.145027618665
 30
0.0
 11
1862.250029702274
 21
1304.145027618665
 31
0.0
  0
LINE
  5
9EA
330
9DF
100
AcDbEntity
  8
0
  6
ByBlock
 62
     0
 48
10.0
100
AcDbLine
 10
1671.250029702274
 20
891.1450529936391
 30
0.0
 11
1671.250029702274
 21
866.1450529936391
 31
0.0
  0
LINE
  5
9EB
330
9DF
100
AcDbEntity
  8
0
  6
ByBlock
 62
     0
 48
10.0
100
AcDbLine
 10
376.4848398423764
 20
889.8950529936392
 30
0.0
 11
376.4848398423764
 21
733.6450529936391
 31
0.0
  0
LINE
  5
9EC
330
9DF
100
AcDbEntity
  8
0
  6
ByBlock
 62
     0
 48
10.0
100
AcDbLine
 10
416.4848398423764
 20
889.8950529936392
 30
0.0
 11
416.4848398423764
 21
733.6450529936391
 31
0.0
  0
LINE
  5
9ED
330
9DF
100
AcDbEntity
  8
0
  6
ByBlock
 62
     0
 48
10.0
100
AcDbLine
 10
976.4848398423763
 20
889.8950529936392
 30
0.0
 11
976.4848398423763
 21
733.6450529936391
 31
0.0
  0
LINE
  5
9EE
330
9DF
100
AcDbEntity
  8
0
  6
ByBlock
 62
     0
 48
10.0
100
AcDbLine
 10
936.4848398423765
 20
889.8950529936392
 30
0.0
 11
936.4848398423765
 21
733.6450529936391
 31
0.0
  0
LINE
  5
9EF
330
9DF
100
AcDbEntity
  8
0
  6
ByBlock
 62
     0
 48
10.0
100
AcDbLine
 10
976.4848398423763
 20
889.8950529936392
 30
0.0
 11
976.4848398423763
 21
613.6450529936391
 31
0.0
  0
LINE
  5
9F0
330
9DF
100
AcDbEntity
  8
0
  6
ByBlock
 62
     0
 48
10.0
100
AcDbLine
 10
376.4848398423764
 20
889.8950529936392
 30
0.0
 11
376.4848398423764
 21
613.6450529936391
 31
0.0
  0
LINE
  5
9F1
330
9DF
100
AcDbEntity
  8
0
  6
ByBlock
 62
     0
 48
10.0
100
AcDbLine
 10
461.4848398423764
 20
889.8950529936392
 30
0.0
 11
461.4848398423764
 21
733.6450529936391
 31
0.0
  0
LINE
  5
9F2
330
9DF
100
AcDbEntity
  8
0
  6
ByBlock
 62
     0
 48
10.0
100
AcDbLine
 10
416.4848398423764
 20
883.6450529936392
 30
0.0
 11
416.4848398423764
 21
733.6450529936391
 31
0.0
  0
LINE
  5
9F3
330
9DF
100
AcDbEntity
  8
0
  6
ByBlock
 62
     0
 48
10.0
100
AcDbLine
 10
936.4848398423765
 20
883.6450529936392
 30
0.0
 11
936.4848398423765
 21
733.6450529936391
 31
0.0
  0
LINE
  5
9F4
330
9DF
100
AcDbEntity
  8
0
  6
ByBlock
 62
     0
 48
10.0
100
AcDbLine
 10
891.4848398423764
 20
889.8950529936392
 30
0.0
 11
891.4848398423764
 21
733.6450529936391
 31
0.0
  0
LINE
  5
9F5
330
9DF
100
AcDbEntity
  8
0
  6
ByBlock
 62
     0
 48
10.0
100
AcDbLine
 10
641.4848398423764
 20
889.8950529936392
 30
0.0
 11
641.4848398423764
 21
835.0362222512313
 31
0.0
  0
LINE
  5
9F6
330
9DF
100
AcDbEntity
  8
0
  6
ByBlock
 62
     0
 48
10.0
100
AcDbLine
 10
461.4848398423764
 20
883.6450529936392
 30
0.0
 11
461.4848398423764
 21
733.6450529936391
 31
0.0
  0
LINE
  5
9F7
330
9DF
100
AcDbEntity
  8
0
  6
ByBlock
 62
     0
 48
10.0
100
AcDbLine
 10
891.4848398423764
 20
883.6450529936392
 30
0.0
 11
891.4848398423764
 21
733.6450529936391
 31
0.0
  0
LINE
  5
9F8
330
9DF
100
AcDbEntity
  8
0
  6
ByBlock
 62
     0
 48
10.0
100
AcDbLine
 10
711.4848398423764
 20
889.8950529936392
 30
0.0
 11
711.4848398423764
 21
835.0362222512313
 31
0.0
  0
LINE
  5
9F9
330
9DF
100
AcDbEntity
  8
0
  6
ByBlock
 62
     0
 48
10.0
100
AcDbLine
 10
711.4848398423764
 20
883.6450529936392
 30
0.0
 11
711.4848398423764
 21
835.0362222512313
 31
0.0
  0
LINE
  5
9FA
330
9DF
100
AcDbEntity
  8
0
  6
ByBlock
 62
     0
 48
10.0
100
AcDbLine
 10
641.4848398423764
 20
883.6450529936392
 30
0.0
 11
641.4848398423764
 21
835.0362222512313
 31
0.0
  0
LINE
  5
9FB
330
9DF
100
AcDbEntity
  8
0
  6
ByBlock
 62
     0
 48
5.0
100
AcDbLine
 10
976.4848019157122
 20
889.8950529936392
 30
0.0
 11
976.4848019157126
 21
814.2567061125548
 31
0.0
  0
DIMENSION
  5
9FC
330
9DF
100
AcDbEntity
  8
WUWAGAKI
 48
10.0
100
AcDbDimension
  2
*D4
 10
1146.484839842376
 20
916.1450529936391
 30
0.0
 11
1127.734839842376
 21
843.8838170385828
 31
0.0
 12
-328.5141722589997
 22
-177.8366316301444
 32
0.0
 71
     5
 42
-1.0
  3
STANDARD
100
AcDbAlignedDimension
 13
996.4848398423765
 23
946.1450529936392
 33
0.0
 14
996.4848398423765
 24
916.1450529936391
 34
0.0
 50
90.0
100
AcDbRotatedDimension
1001
ACAD
1000
DSTYLE
1002
{
1070
    40
1040
10.0
1070
    41
1040
2.5
1070
    42
1040
0.625
1070
    43
1040
3.75
1070
    44
1040
1.25
1070
    73
1070
     0
1070
    74
1070
     0
1070
    77
1070
     1
1070
    78
1070
     8
1070
   140
1040
2.5
1070
   141
1040
2.5
1070
   143
1040
0.0394
1070
   147
1040
0.625
1070
   171
1070
     4
1070
   172
1070
     1
1070
   273
1070
     8
1070
   274
1070
     4
1070
   277
1070
     6
1002
}
  0
LINE
  5
9FD
330
9DF
100
AcDbEntity
  8
0
  6
ByBlock
 62
     0
 48
10.0
100
AcDbLine
 10
441.4848398423764
 20
746.1450529936391
 30
0.0
 11
466.4848398423764
 21
746.1450529936391
 31
0.0
  0
LINE
  5
9FE
330
9DF
100
AcDbEntity
  8
0
  6
ByBlock
 62
     0
 48
10.0
100
AcDbLine
 10
401.4848398423764
 20
626.1450529936391
 30
0.0
 11
951.4848398423763
 21
626.1450529936391
 31
0.0
  0
MTEXT
  5
9FF
330
9DF
100
AcDbEntity
  8
0
  6
ByBlock
 62
     0
 48
10.0
100
AcDbMText
 10
438.9848398423764
 20
764.8950529936391
 30
0.0
 40
25.0
 41
0.0
 71
     5
 72
     1
  1
\A1;45
 73
     1
 44
1.0
  0
SOLID
  5
A00
330
9DF
100
AcDbEntity
  8
0
  6
ByBlock
 62
     0
 48
10.0
100
AcDbTrace
 10
436.4848398423764
 20
750.3117196603057
 30
0.0
 11
436.4848398423764
 21
741.9783863269725
 31
0.0
 12
461.4848398423764
 22
746.1450529936391
 32
0.0
 13
461.4848398423764
 23
746.1450529936391
 33
0.0
  0
LINE
  5
A01
330
9DF
100
AcDbEntity
  8
0
  6
ByBlock
 62
     0
 48
10.0
100
AcDbLine
 10
416.4848398423764
 20
746.1450529936391
 30
0.0
 11
461.4848398423764
 21
746.1450529936391
 31
0.0
  0
SOLID
  5
A02
330
9DF
100
AcDbEntity
  8
0
  6
ByBlock
 62
     0
 48
10.0
100
AcDbTrace
 10
401.4848398423764
 20
630.3117196603058
 30
0.0
 11
401.4848398423764
 21
621.9783863269725
 31
0.0
 12
376.4848398423764
 22
626.1450529936391
 32
0.0
 13
376.4848398423764
 23
626.1450529936391
 33
0.0
  0
SOLID
  5
A03
330
9DF
100
AcDbEntity
  8
0
  6
ByBlock
 62
     0
 48
10.0
100
AcDbTrace
 10
351.4848398423764
 20
750.3117196603057
 30
0.0
 11
351.4848398423764
 21
741.9783863269725
 31
0.0
 12
376.4848398423764
 22
746.1450529936391
 32
0.0
 13
376.4848398423764
 23
746.1450529936391
 33
0.0
  0
MTEXT
  5
A04
330
9DF
100
AcDbEntity
  8
0
  6
ByBlock
 62
     0
 48
10.0
100
AcDbMText
 10
303.8022555727135
 20
764.8950529936391
 30
0.0
 40
25.0
 41
0.0
 71
     5
 72
     1
  1
\A1;40
 73
     1
 44
1.0
  0
LINE
  5
A05
330
9DF
100
AcDbEntity
  8
0
  6
ByBlock
 62
     0
 48
10.0
100
AcDbLine
 10
351.4848398423764
 20
746.1450529936391
 30
0.0
 11
281.1196713030503
 21
746.1450529936391
 31
0.0
  0
SOLID
  5
A06
330
9DF
100
AcDbEntity
  8
0
  6
ByBlock
 62
     0
 48
10.0
100
AcDbTrace
 10
441.4848398423764
 20
750.3117196603057
 30
0.0
 11
441.4848398423764
 21
741.9783863269725
 31
0.0
 12
416.4848398423764
 22
746.1450529936391
 32
0.0
 13
416.4848398423764
 23
746.1450529936391
 33
0.0
  0
LINE
  5
A07
330
9DF
100
AcDbEntity
  8
0
  6
ByBlock
 62
     0
 48
10.0
100
AcDbLine
 10
416.4848398423764
 20
746.1450529936391
 30
0.0
 11
376.4848398423764
 21
746.1450529936391
 31
0.0
  0
POINT
  5
A08
330
9DF
100
AcDbEntity
  8
DEFPOINTS
  6
ByBlock
 62
     0
 48
10.0
100
AcDbPoint
 10
376.4848398423764
 20
746.1450529936391
 30
0.0
  0
LINE
  5
A09
330
9DF
100
AcDbEntity
  8
0
  6
ByBlock
 62
     0
 48
10.0
100
AcDbLine
 10
391.4848398423764
 20
746.1450529936391
 30
0.0
 11
366.4848398423764
 21
746.1450529936391
 31
0.0
  0
MTEXT
  5
A0A
330
9DF
100
AcDbEntity
  8
0
  6
ByBlock
 62
     0
 48
10.0
100
AcDbMText
 10
801.4848398423763
 20
785.7283863269725
 30
0.0
 40
25.0
 41
0.0
 71
     5
 72
     1
  1
\A1;3@60\P=180
 73
     1
 44
1.0
  0
LINE
  5
A0B
330
9DF
100
AcDbEntity
  8
0
  6
ByBlock
 62
     0
 48
10.0
100
AcDbLine
 10
736.4848398423764
 20
746.1450529936391
 30
0.0
 11
866.4848398423764
 21
746.1450529936391
 31
0.0
  0
LINE
  5
A0C
330
9DF
100
AcDbEntity
  8
0
  6
ByBlock
 62
     0
 48
10.0
100
AcDbLine
 10
711.4848398423764
 20
746.1450529936391
 30
0.0
 11
824.967985909792
 21
746.1450529936391
 31
0.0
  0
MTEXT
  5
A0D
330
9DF
100
AcDbEntity
  8
0
  6
ByBlock
 62
     0
 48
10.0
100
AcDbMText
 10
676.4848398423764
 20
644.8950529936391
 30
0.0
 40
25.0
 41
0.0
 71
     5
 72
     1
  1
\A1;600
 73
     1
 44
1.0
  0
SOLID
  5
A0E
330
9DF
100
AcDbEntity
  8
0
  6
ByBlock
 62
     0
 48
10.0
100
AcDbTrace
 10
616.4848398423764
 20
750.3117196603057
 30
0.0
 11
616.4848398423764
 21
741.9783863269725
 31
0.0
 12
641.4848398423764
 22
746.1450529936391
 32
0.0
 13
641.4848398423764
 23
746.1450529936391
 33
0.0
  0
MTEXT
  5
A0F
330
9DF
100
AcDbEntity
  8
0
  6
ByBlock
 62
     0
 48
10.0
100
AcDbMText
 10
551.4848398423764
 20
785.7283863269725
 30
0.0
 40
25.0
 41
0.0
 71
     5
 72
     1
  1
\A1;3@60\P=180
 73
     1
 44
1.0
  0
LINE
  5
A10
330
9DF
100
AcDbEntity
  8
0
  6
ByBlock
 62
     0
 48
10.0
100
AcDbLine
 10
486.4848398423764
 20
746.1450529936391
 30
0.0
 11
616.4848398423764
 21
746.1450529936391
 31
0.0
  0
SOLID
  5
A11
330
9DF
100
AcDbEntity
  8
0
  6
ByBlock
 62
     0
 48
10.0
100
AcDbTrace
 10
486.4848398423764
 20
750.3117196603057
 30
0.0
 11
486.4848398423764
 21
741.9783863269725
 31
0.0
 12
461.4848398423764
 22
746.1450529936391
 32
0.0
 13
461.4848398423764
 23
746.1450529936391
 33
0.0
  0
SOLID
  5
A12
330
9DF
100
AcDbEntity
  8
0
  6
ByBlock
 62
     0
 48
10.0
100
AcDbTrace
 10
486.4848398423764
 20
750.3117196603057
 30
0.0
 11
486.4848398423764
 21
741.9783863269725
 31
0.0
 12
461.4848398423764
 22
746.1450529936391
 32
0.0
 13
461.4848398423764
 23
746.1450529936391
 33
0.0
  0
LINE
  5
A13
330
9DF
100
AcDbEntity
  8
0
  6
ByBlock
 62
     0
 48
10.0
100
AcDbLine
 10
486.4848398423764
 20
746.1450529936391
 30
0.0
 11
511.4848398423764
 21
746.1450529936391
 31
0.0
  0
POINT
  5
A14
330
9DF
100
AcDbEntity
  8
DEFPOINTS
  6
ByBlock
 62
     0
 48
10.0
100
AcDbPoint
 10
461.4848398423764
 20
746.1450529936391
 30
0.0
  0
MTEXT
  5
A15
330
9DF
100
AcDbEntity
  8
0
  6
ByBlock
 62
     0
 48
10.0
100
AcDbMText
 10
675.9774163921167
 20
796.6369111325408
 30
0.0
 40
25.0
 41
0.0
 71
     5
 72
     1
  1
\A1;2@35\P=70
 73
     1
 44
1.0
  0
SOLID
  5
A16
330
9DF
100
AcDbEntity
  8
0
  6
ByBlock
 62
     0
 48
10.0
100
AcDbTrace
 10
686.4848398423764
 20
750.3117196603057
 30
0.0
 11
686.4848398423764
 21
741.9783863269725
 31
0.0
 12
711.4848398423764
 22
746.1450529936391
 32
0.0
 13
711.4848398423764
 23
746.1450529936391
 33
0.0
  0
LINE
  5
A17
330
9DF
100
AcDbEntity
  8
0
  6
ByBlock
 62
     0
 48
10.0
100
AcDbLine
 10
641.4848398423764
 20
761.213431371535
 30
0.0
 11
641.4848398423764
 21
733.6450529936391
 31
0.0
  0
LINE
  5
A18
330
9DF
100
AcDbEntity
  8
0
  6
ByBlock
 62
     0
 48
10.0
100
AcDbLine
 10
641.4848398423764
 20
761.213431371535
 30
0.0
 11
641.4848398423764
 21
733.6450529936391
 31
0.0
  0
SOLID
  5
A19
330
9DF
100
AcDbEntity
  8
0
  6
ByBlock
 62
     0
 48
10.0
100
AcDbTrace
 10
666.4848398423764
 20
750.3117196603057
 30
0.0
 11
666.4848398423764
 21
741.9783863269725
 31
0.0
 12
641.4848398423764
 22
746.1450529936391
 32
0.0
 13
641.4848398423764
 23
746.1450529936391
 33
0.0
  0
LINE
  5
A1A
330
9DF
100
AcDbEntity
  8
0
  6
ByBlock
 62
     0
 48
10.0
100
AcDbLine
 10
666.4848398423764
 20
746.1450529936391
 30
0.0
 11
686.4848398423764
 21
746.1450529936391
 31
0.0
  0
POINT
  5
A1B
330
9DF
100
AcDbEntity
  8
DEFPOINTS
  6
ByBlock
 62
     0
 48
10.0
100
AcDbPoint
 10
641.4848398423764
 20
746.1450529936391
 30
0.0
  0
LINE
  5
A1C
330
9DF
100
AcDbEntity
  8
0
  6
ByBlock
 62
     0
 48
10.0
100
AcDbLine
 10
711.4848398423764
 20
761.213431371535
 30
0.0
 11
711.4848398423764
 21
733.6450529936391
 31
0.0
  0
LINE
  5
A1D
330
9DF
100
AcDbEntity
  8
0
  6
ByBlock
 62
     0
 48
10.0
100
AcDbLine
 10
711.4848398423764
 20
761.213431371535
 30
0.0
 11
711.4848398423764
 21
733.6450529936391
 31
0.0
  0
SOLID
  5
A1E
330
9DF
100
AcDbEntity
  8
0
  6
ByBlock
 62
     0
 48
10.0
100
AcDbTrace
 10
736.4848398423764
 20
750.3117196603057
 30
0.0
 11
736.4848398423764
 21
741.9783863269725
 31
0.0
 12
711.4848398423764
 22
746.1450529936391
 32
0.0
 13
711.4848398423764
 23
746.1450529936391
 33
0.0
  0
POINT
  5
A1F
330
9DF
100
AcDbEntity
  8
DEFPOINTS
  6
ByBlock
 62
     0
 48
10.0
100
AcDbPoint
 10
711.4848398423764
 20
746.1450529936391
 30
0.0
  0
SOLID
  5
A20
330
9DF
100
AcDbEntity
  8
0
  6
ByBlock
 62
     0
 48
10.0
100
AcDbTrace
 10
951.4848398423763
 20
630.3117196603058
 30
0.0
 11
951.4848398423763
 21
621.9783863269725
 31
0.0
 12
976.4848398423763
 22
626.1450529936391
 32
0.0
 13
976.4848398423763
 23
626.1450529936391
 33
0.0
  0
POINT
  5
A21
330
9DF
100
AcDbEntity
  8
DEFPOINTS
  6
ByBlock
 62
     0
 48
10.0
100
AcDbPoint
 10
976.4848398423763
 20
626.1450529936391
 30
0.0
  0
LINE
  5
A22
330
9DF
100
AcDbEntity
  8
0
  6
ByBlock
 62
     0
 48
10.0
100
AcDbLine
 10
936.4848398423765
 20
746.1450529936391
 30
0.0
 11
976.4848398423763
 21
746.1450529936391
 31
0.0
  0
LINE
  5
A23
330
9DF
100
AcDbEntity
  8
0
  6
ByBlock
 62
     0
 48
10.0
100
AcDbLine
 10
961.4848398423765
 20
746.1450529936391
 30
0.0
 11
986.4848398423765
 21
746.1450529936391
 31
0.0
  0
SOLID
  5
A24
330
9DF
100
AcDbEntity
  8
0
  6
ByBlock
 62
     0
 48
10.0
100
AcDbTrace
 10
866.4848398423764
 20
750.3117196603057
 30
0.0
 11
866.4848398423764
 21
741.9783863269725
 31
0.0
 12
891.4848398423764
 22
746.1450529936391
 32
0.0
 13
891.4848398423764
 23
746.1450529936391
 33
0.0
  0
SOLID
  5
A25
330
9DF
100
AcDbEntity
  8
0
  6
ByBlock
 62
     0
 48
10.0
100
AcDbTrace
 10
866.4848398423764
 20
750.3117196603057
 30
0.0
 11
866.4848398423764
 21
741.9783863269725
 31
0.0
 12
891.4848398423764
 22
746.1450529936391
 32
0.0
 13
891.4848398423764
 23
746.1450529936391
 33
0.0
  0
LINE
  5
A26
330
9DF
100
AcDbEntity
  8
0
  6
ByBlock
 62
     0
 48
10.0
100
AcDbLine
 10
866.4848398423764
 20
746.1450529936391
 30
0.0
 11
841.4848398423764
 21
746.1450529936391
 31
0.0
  0
SOLID
  5
A27
330
9DF
100
AcDbEntity
  8
0
  6
ByBlock
 62
     0
 48
10.0
100
AcDbTrace
 10
911.4848398423765
 20
750.3117196603057
 30
0.0
 11
911.4848398423765
 21
741.9783863269725
 31
0.0
 12
936.4848398423765
 22
746.1450529936391
 32
0.0
 13
936.4848398423765
 23
746.1450529936391
 33
0.0
  0
MTEXT
  5
A28
330
9DF
100
AcDbEntity
  8
0
  6
ByBlock
 62
     0
 48
10.0
100
AcDbMText
 10
913.9848398423763
 20
764.8950529936391
 30
0.0
 40
25.0
 41
0.0
 71
     5
 72
     1
  1
\A1;45
 73
     1
 44
1.0
  0
SOLID
  5
A29
330
9DF
100
AcDbEntity
  8
0
  6
ByBlock
 62
     0
 48
10.0
100
AcDbTrace
 10
916.4848398423764
 20
750.3117196603057
 30
0.0
 11
916.4848398423764
 21
741.9783863269725
 31
0.0
 12
891.4848398423764
 22
746.1450529936391
 32
0.0
 13
891.4848398423764
 23
746.1450529936391
 33
0.0
  0
LINE
  5
A2A
330
9DF
100
AcDbEntity
  8
0
  6
ByBlock
 62
     0
 48
10.0
100
AcDbLine
 10
891.4848398423764
 20
746.1450529936391
 30
0.0
 11
936.4848398423765
 21
746.1450529936391
 31
0.0
  0
LINE
  5
A2B
330
9DF
100
AcDbEntity
  8
0
  6
ByBlock
 62
     0
 48
10.0
100
AcDbLine
 10
911.4848398423765
 20
746.1450529936391
 30
0.0
 11
886.4848398423765
 21
746.1450529936391
 31
0.0
  0
POINT
  5
A2C
330
9DF
100
AcDbEntity
  8
DEFPOINTS
  6
ByBlock
 62
     0
 48
10.0
100
AcDbPoint
 10
891.4848398423764
 20
746.1450529936391
 30
0.0
  0
POINT
  5
A2D
330
9DF
100
AcDbEntity
  8
DEFPOINTS
  6
ByBlock
 62
     0
 48
10.0
100
AcDbPoint
 10
936.4848398423765
 20
746.1450529936391
 30
0.0
  0
LINE
  5
A2E
330
9DF
100
AcDbEntity
  8
0
  6
ByBlock
 62
     0
 48
5.0
100
AcDbLine
 10
976.4848019157126
 20
871.8527294332391
 30
0.0
 11
976.4848019157126
 21
752.5252647421532
 31
0.0
  0
MTEXT
  5
A2F
330
9DF
100
AcDbEntity
  8
0
  6
ByBlock
 62
     0
 48
10.0
100
AcDbMText
 10
1049.167424112039
 20
764.8950529936391
 30
0.0
 40
25.0
 41
0.0
 71
     5
 72
     1
  1
\A1;40
 73
     1
 44
1.0
  0
LINE
  5
A30
330
9DF
100
AcDbEntity
  8
0
  6
ByBlock
 62
     0
 48
10.0
100
AcDbLine
 10
1001.484839842376
 20
746.1450529936391
 30
0.0
 11
1071.850008381702
 21
746.1450529936391
 31
0.0
  0
SOLID
  5
A31
330
9DF
100
AcDbEntity
  8
0
  6
ByBlock
 62
     0
 48
10.0
100
AcDbTrace
 10
1001.484839842376
 20
750.3117196603057
 30
0.0
 11
1001.484839842376
 21
741.9783863269725
 31
0.0
 12
976.4848398423763
 22
746.1450529936391
 32
0.0
 13
976.4848398423763
 23
746.1450529936391
 33
0.0
  0
POINT
  5
A32
330
9DF
100
AcDbEntity
  8
DEFPOINTS
  6
ByBlock
 62
     0
 48
10.0
100
AcDbPoint
 10
976.4848398423763
 20
746.1450529936391
 30
0.0
  0
POINT
  5
A33
330
9DF
100
AcDbEntity
  8
DEFPOINTS
  6
ByBlock
 62
     0
 48
5.0
100
AcDbPoint
 10
976.4848019157126
 20
823.0067061125549
 30
0.0
  0
LINE
  5
A34
330
9DF
100
AcDbEntity
  8
WUWAGAKI
100
AcDbLine
 10
436.5177618986981
 20
1112.838911493965
 30
0.0
 11
521.7730106331727
 21
1112.838911493965
 31
0.0
  0
SOLID
  5
A35
330
9DF
100
AcDbEntity
  8
0
  6
ByBlock
 62
     0
100
AcDbTrace
 10
436.5765722260384
 20
1227.005578160632
 30
0.0
 11
436.5765722260384
 21
1218.672244827298
 31
0.0
 12
461.5765722260384
 22
1222.838911493965
 32
0.0
 13
461.5765722260384
 23
1222.838911493965
 33
0.0
  0
LINE
  5
A36
330
9DF
100
AcDbEntity
  8
WUWAGAKI
100
AcDbLine
 10
416.4848398423764
 20
1056.145052993639
 30
0.0
 11
936.4848398423765
 21
1056.145052993639
 31
0.0
  0
LINE
  5
A37
330
9DF
100
AcDbEntity
  8
WUWAGAKI
100
AcDbLine
 10
416.4848398423764
 20
1166.145052993639
 30
0.0
 11
936.4848398423765
 21
1166.145052993639
 31
0.0
  0
LINE
  5
A38
330
9DF
100
AcDbEntity
  8
HOZIXYO
 62
     5
 48
10.0
100
AcDbLine
 10
376.4848398423764
 20
1296.145052993639
 30
0.0
 11
976.4848398423763
 21
1296.145052993639
 31
0.0
  0
LINE
  5
A39
330
9DF
100
AcDbEntity
  8
HOZIXYO
 62
     5
 48
10.0
100
AcDbLine
 10
376.4848398423764
 20
926.1450529936391
 30
0.0
 11
976.4848398423763
 21
926.1450529936391
 31
0.0
  0
LINE
  5
A3A
330
9DF
100
AcDbEntity
  8
WUWAGAKI
100
AcDbLine
 10
976.4848398423763
 20
1306.145052993639
 30
0.0
 11
376.4848398423764
 21
1306.145052993639
 31
0.0
  0
LINE
  5
A3B
330
9DF
100
AcDbEntity
  8
WUWAGAKI
100
AcDbLine
 10
376.4848398423764
 20
916.1450529936391
 30
0.0
 11
976.4848398423763
 21
916.1450529936391
 31
0.0
  0
LINE
  5
A3C
330
9DF
100
AcDbEntity
  8
WUWAGAKI
100
AcDbLine
 10
436.5177618986981
 20
1222.838911493965
 30
0.0
 11
521.7730106331727
 21
1222.838911493965
 31
0.0
  0
LINE
  5
A3D
330
9DF
100
AcDbEntity
  8
WUWAGAKI
100
AcDbLine
 10
439.2356048225588
 20
1521.781067406388
 30
0.0
 11
679.5948341162616
 21
1521.781067406388
 31
0.0
  0
TEXT
  5
A3E
330
9DF
100
AcDbEntity
  8
WUWAGAKI
100
AcDbText
 10
445.0913324962252
 20
1533.084522054443
 30
0.0
 40
30.0
  1
D10-4L=560
100
AcDbText
  0
LINE
  5
A3F
330
9DF
100
AcDbEntity
  8
WUWAGAKI
100
AcDbLine
 10
416.4848398423764
 20
946.1450529936392
 30
0.0
 11
936.4848398423765
 21
946.1450529936392
 31
0.0
  0
LINE
  5
A40
330
9DF
100
AcDbEntity
  8
WUWAGAKI
100
AcDbLine
 10
416.4848398423764
 20
1276.145052993639
 30
0.0
 11
936.4848398423765
 21
1276.145052993639
 31
0.0
  0
LINE
  5
A41
330
9DF
100
AcDbEntity
  8
WUWAGAKI
 48
10.0
100
AcDbLine
 10
376.4848398423764
 20
1211.145052993639
 30
0.0
 11
391.4848398423764
 21
1181.145052993639
 31
0.0
  0
LINE
  5
A42
330
9DF
100
AcDbEntity
  8
WUWAGAKI
100
AcDbLine
 10
416.4848398423764
 20
1276.145052993639
 30
0.0
 11
416.4848398423764
 21
946.1450529936392
 31
0.0
  0
LINE
  5
A43
330
9DF
100
AcDbEntity
  8
0
  6
ByBlock
 62
     0
100
AcDbLine
 10
439.165861898698
 20
946.1450529936392
 30
0.0
 11
439.165861898698
 21
1218.06436326996
 31
0.0
  0
TEXT
  5
A44
330
9DF
100
AcDbEntity
  8
WUWAGAKI
100
AcDbText
 10
12.78858535455947
 20
1125.741020310339
 30
0.0
 40
30.0
  1
D10-4L=250
100
AcDbText
  0
LINE
  5
A45
330
9DF
100
AcDbEntity
  8
WUWAGAKI
100
AcDbLine
 10
440.0884127804729
 20
1112.838911493965
 30
0.0
 11
0.0000004126359272
 21
1112.838911493965
 31
0.0
  0
LINE
  5
A46
330
9DF
100
AcDbEntity
  8
WUWAGAKI
 48
10.0
100
AcDbLine
 10
391.4848398423764
 20
1041.145052993639
 30
0.0
 11
376.4848398423764
 21
1011.145052993639
 31
0.0
  0
LINE
  5
A47
330
9DF
100
AcDbEntity
  8
WUWAGAKI
100
AcDbLine
 10
376.4848398423764
 20
1011.145052993639
 30
0.0
 11
376.4848398423764
 21
916.1450529936391
 31
0.0
  0
SOLID
  5
A48
330
9DF
100
AcDbEntity
  8
0
  6
ByBlock
 62
     0
100
AcDbTrace
 10
434.9991952320315
 20
971.9404160331578
 30
0.0
 11
443.3325285653645
 21
971.9404160331578
 31
0.0
 12
439.165861898698
 22
946.9404160331578
 32
0.0
 13
439.165861898698
 23
946.9404160331578
 33
0.0
  0
POINT
  5
A49
330
9DF
100
AcDbEntity
  8
DEFPOINTS
  6
ByBlock
 62
     0
 48
10.0
100
AcDbPoint
 10
376.4848398423764
 20
896.1450529936392
 30
0.0
  0
POINT
  5
A4A
330
9DF
100
AcDbEntity
  8
DEFPOINTS
  6
ByBlock
 62
     0
 48
10.0
100
AcDbPoint
 10
376.4848398423764
 20
896.1450529936392
 30
0.0
  0
POINT
  5
A4B
330
9DF
100
AcDbEntity
  8
DEFPOINTS
  6
ByBlock
 62
     0
 48
10.0
100
AcDbPoint
 10
416.4848398423764
 20
896.1450529936392
 30
0.0
  0
POINT
  5
A4C
330
9DF
100
AcDbEntity
  8
DEFPOINTS
  6
ByBlock
 62
     0
 48
10.0
100
AcDbPoint
 10
416.4848398423764
 20
889.8950529936392
 30
0.0
  0
POINT
  5
A4D
330
9DF
100
AcDbEntity
  8
DEFPOINTS
  6
ByBlock
 62
     0
100
AcDbPoint
 10
376.4848398423764
 20
946.1450529936392
 30
0.0
  0
LINE
  5
A4E
330
9DF
100
AcDbEntity
  8
HOZIXYO
 62
     5
 48
10.0
100
AcDbLine
 10
306.2924379320757
 20
1031.450360193274
 30
0.0
 11
306.2924379320757
 21
1031.450360193274
 31
0.0
  0
POINT
  5
A4F
330
9DF
100
AcDbEntity
  8
DEFPOINTS
  6
ByBlock
 62
     0
100
AcDbPoint
 10
438.6324614934673
 20
976.9404160331578
 30
0.0
  0
LINE
  5
A50
330
9DF
100
AcDbEntity
  8
WUWAGAKI
100
AcDbLine
 10
391.4848398423764
 20
1181.145052993639
 30
0.0
 11
391.4848398423764
 21
1041.145052993639
 31
0.0
  0
LINE
  5
A51
330
9DF
100
AcDbEntity
  8
WUWAGAKI
100
AcDbLine
 10
391.4848398423764
 20
1181.145052993639
 30
0.0
 11
391.4848398423764
 21
1041.145052993639
 31
0.0
  0
SOLID
  5
A52
330
9DF
100
AcDbEntity
  8
0
  6
ByBlock
 62
     0
100
AcDbTrace
 10
434.9991952320315
 20
1081.940416033157
 30
0.0
 11
443.3325285653645
 21
1081.940416033157
 31
0.0
 12
439.165861898698
 22
1056.940416033157
 32
0.0
 13
439.165861898698
 23
1056.940416033157
 33
0.0
  0
POINT
  5
A53
330
9DF
100
AcDbEntity
  8
DEFPOINTS
  6
ByBlock
 62
     0
100
AcDbPoint
 10
416.9420663403961
 20
1143.751658655305
 30
0.0
  0
SOLID
  5
A54
330
9DF
100
AcDbEntity
  8
0
  6
ByBlock
 62
     0
100
AcDbTrace
 10
434.9991952320315
 20
1191.940416033157
 30
0.0
 11
443.3325285653645
 21
1191.940416033157
 31
0.0
 12
439.165861898698
 22
1166.940416033158
 32
0.0
 13
439.165861898698
 23
1166.940416033158
 33
0.0
  0
TEXT
  5
A55
330
9DF
100
AcDbEntity
  8
WUWAGAKI
100
AcDbText
 10
12.78858535455947
 20
1235.741020310339
 30
0.0
 40
30.0
  1
D10-7L=350
100
AcDbText
  0
LINE
  5
A56
330
9DF
100
AcDbEntity
  8
WUWAGAKI
100
AcDbLine
 10
440.0884127804729
 20
1222.838911493965
 30
0.0
 11
0.0000004126359272
 21
1222.838911493965
 31
0.0
  0
LINE
  5
A57
330
9DF
100
AcDbEntity
  8
WUWAGAKI
100
AcDbLine
 10
439.2356048225588
 20
1217.884902601787
 30
0.0
 11
439.2356048225588
 21
1374.231225250338
 31
0.0
  0
LINE
  5
A58
330
9DF
100
AcDbEntity
  8
WUWAGAKI
100
AcDbLine
 10
376.4848398423764
 20
1306.145052993639
 30
0.0
 11
376.4848398423764
 21
1211.145052993638
 31
0.0
  0
SOLID
  5
A59
330
9DF
100
AcDbEntity
  8
0
  6
ByBlock
 62
     0
100
AcDbTrace
 10
434.9991952320315
 20
1300.058786756625
 30
0.0
 11
443.3325285653645
 21
1300.058786756625
 31
0.0
 12
439.165861898698
 22
1275.058786756625
 32
0.0
 13
439.165861898698
 23
1275.058786756625
 33
0.0
  0
SOLID
  5
A5A
330
9DF
100
AcDbEntity
  8
0
  6
ByBlock
 62
     0
100
AcDbTrace
 10
391.5765722260384
 20
1227.005578160632
 30
0.0
 11
391.5765722260384
 21
1218.672244827298
 31
0.0
 12
416.5765722260385
 22
1222.838911493965
 32
0.0
 13
416.5765722260385
 23
1222.838911493965
 33
0.0
  0
POINT
  5
A5B
330
9DF
100
AcDbEntity
  8
DEFPOINTS
  6
ByBlock
 62
     0
100
AcDbPoint
 10
438.6324614934673
 20
1243.06436326996
 30
0.0
  0
LINE
  5
A5C
330
9DF
100
AcDbEntity
  8
WUWAGAKI
100
AcDbLine
 10
439.2356048225588
 20
1374.231225250338
 30
0.0
 11
439.2356048225588
 21
1521.781067406388
 31
0.0
  0
DIMENSION
  5
A5D
330
9DF
100
AcDbEntity
  8
WUWAGAKI
 48
10.0
100
AcDbDimension
  2
*D5
 10
1266.484839842376
 20
1306.145052993639
 30
0.0
 11
1247.734839842376
 21
1111.145052993639
 31
0.0
 12
-328.5141722589997
 22
-177.8366316301444
 32
0.0
 71
     5
 42
-1.0
  3
STANDARD
100
AcDbAlignedDimension
 13
996.4848398423765
 23
916.1450529936391
 33
0.0
 14
996.4848398423765
 24
1306.145052993639
 34
0.0
 50
90.0
100
AcDbRotatedDimension
1001
ACAD
1000
DSTYLE
1002
{
1070
    40
1040
10.0
1070
    41
1040
2.5
1070
    42
1040
0.625
1070
    43
1040
3.75
1070
    44
1040
1.25
1070
    73
1070
     0
1070
    74
1070
     0
1070
    77
1070
     1
1070
    78
1070
     8
1070
   140
1040
2.5
1070
   141
1040
2.5
1070
   143
1040
0.0394
1070
   147
1040
0.625
1070
   171
1070
     4
1070
   172
1070
     1
1070
   273
1070
     8
1070
   274
1070
     4
1070
   277
1070
     6
1002
}
  0
DIMENSION
  5
A5E
330
9DF
100
AcDbEntity
  8
WUWAGAKI
 48
10.0
100
AcDbDimension
  2
*D3
 10
1146.484839842376
 20
946.1450529936392
 30
0.0
 11
1127.734839842376
 21
1111.145052993639
 31
0.0
 12
-328.5141722589997
 22
-177.8366316301444
 32
0.0
  1
3@110=330
 71
     5
 42
-1.0
  3
STANDARD
100
AcDbAlignedDimension
 13
996.4848398423765
 23
1276.145052993639
 33
0.0
 14
996.4848398423765
 24
946.1450529936392
 34
0.0
 50
90.0
100
AcDbRotatedDimension
1001
ACAD
1000
DSTYLE
1002
{
1070
    40
1040
10.0
1070
    41
1040
2.5
1070
    42
1040
0.625
1070
    43
1040
3.75
1070
    44
1040
1.25
1070
    73
1070
     0
1070
    74
1070
     0
1070
    77
1070
     1
1070
    78
1070
     8
1070
   140
1040
2.5
1070
   141
1040
2.5
1070
   143
1040
0.0394
1070
   147
1040
0.625
1070
   171
1070
     4
1070
   172
1070
     1
1070
   273
1070
     8
1070
   274
1070
     4
1070
   277
1070
     6
1002
}
  0
DIMENSION
  5
A5F
330
9DF
100
AcDbEntity
  8
WUWAGAKI
 48
10.0
100
AcDbDimension
  2
*D2
 10
1146.484839842376
 20
1306.145052993639
 30
0.0
 11
1127.734839842376
 21
1378.406288948695
 31
0.0
 12
-328.5141722589997
 22
-177.8366316301444
 32
0.0
 71
     5
 42
-1.0
  3
STANDARD
100
AcDbAlignedDimension
 13
996.4848398423765
 23
1276.145052993639
 33
0.0
 14
996.4848398423765
 24
1306.145052993639
 34
0.0
 50
90.0
100
AcDbRotatedDimension
1001
ACAD
1000
DSTYLE
1002
{
1070
    40
1040
10.0
1070
    41
1040
2.5
1070
    42
1040
0.625
1070
    43
1040
3.75
1070
    44
1040
1.25
1070
    73
1070
     0
1070
    74
1070
     0
1070
    77
1070
     1
1070
    78
1070
     8
1070
   140
1040
2.5
1070
   141
1040
2.5
1070
   143
1040
0.0394
1070
   147
1040
0.625
1070
   171
1070
     4
1070
   172
1070
     1
1070
   273
1070
     8
1070
   274
1070
     4
1070
   277
1070
     6
1002
}
  0
LINE
  5
A60
330
9DF
100
AcDbEntity
  8
WUWAGAKI
 48
10.0
100
AcDbLine
 10
976.4848398423763
 20
1211.145052993639
 30
0.0
 11
961.4848398423765
 21
1181.145052993639
 31
0.0
  0
LINE
  5
A61
330
9DF
100
AcDbEntity
  8
WUWAGAKI
100
AcDbLine
 10
676.4848398423764
 20
1276.145052993639
 30
0.0
 11
676.4848398423764
 21
946.1450529936392
 31
0.0
  0
LINE
  5
A62
330
9DF
100
AcDbEntity
  8
WUWAGAKI
100
AcDbLine
 10
711.4848398423764
 20
1276.145052993639
 30
0.0
 11
711.4848398423764
 21
946.1450529936392
 31
0.0
  0
LINE
  5
A63
330
9DF
100
AcDbEntity
  8
WUWAGAKI
100
AcDbLine
 10
771.4848398423765
 20
1276.145052993639
 30
0.0
 11
771.4848398423765
 21
1056.145052993639
 31
0.0
  0
LINE
  5
A64
330
9DF
100
AcDbEntity
  8
WUWAGAKI
100
AcDbLine
 10
831.4848398423764
 20
1276.145052993639
 30
0.0
 11
831.4848398423764
 21
1056.145052993639
 31
0.0
  0
LINE
  5
A65
330
9DF
100
AcDbEntity
  8
WUWAGAKI
100
AcDbLine
 10
641.4848398423764
 20
1276.145052993639
 30
0.0
 11
641.4848398423764
 21
946.1450529936392
 31
0.0
  0
LINE
  5
A66
330
9DF
100
AcDbEntity
  8
WUWAGAKI
100
AcDbLine
 10
581.4848398423764
 20
1276.145052993639
 30
0.0
 11
581.4848398423764
 21
1056.145052993639
 31
0.0
  0
LINE
  5
A67
330
9DF
100
AcDbEntity
  8
WUWAGAKI
100
AcDbLine
 10
521.4848398423765
 20
1276.145052993639
 30
0.0
 11
521.4848398423765
 21
1056.145052993639
 31
0.0
  0
LINE
  5
A68
330
9DF
100
AcDbEntity
  8
WUWAGAKI
100
AcDbLine
 10
461.4848398423764
 20
1276.145052993639
 30
0.0
 11
461.4848398423764
 21
946.1450529936392
 31
0.0
  0
LINE
  5
A69
330
9DF
100
AcDbEntity
  8
WUWAGAKI
100
AcDbLine
 10
891.4848398423764
 20
1276.145052993639
 30
0.0
 11
891.4848398423764
 21
946.1450529936392
 31
0.0
  0
LINE
  5
A6A
330
9DF
100
AcDbEntity
  8
WUWAGAKI
100
AcDbLine
 10
936.4848398423765
 20
1276.145052993639
 30
0.0
 11
936.4848398423765
 21
946.1450529936392
 31
0.0
  0
LINE
  5
A6B
330
9DF
100
AcDbEntity
  8
0
  6
ByBlock
 62
     0
100
AcDbLine
 10
891.4848398423767
 20
1112.838911493965
 30
0.0
 11
485.630599699687
 21
1112.838911493965
 31
0.0
  0
ELLIPSE
  5
A6C
330
9DF
100
AcDbEntity
  8
上線
 48
5.0
100
AcDbEllipse
 10
801.4848019157124
 20
996.6332471005054
 30
0.0
 11
7.5
 21
0.0
 31
0.0
210
0.0
220
0.0
230
1.0
 40
1.0
 41
0.0
 42
3.141592653590005
  0
ELLIPSE
  5
A6D
330
9DF
100
AcDbEntity
  8
上線
 48
5.0
100
AcDbEllipse
 10
801.4848019157124
 20
985.6586698940793
 30
0.0
 11
7.5
 21
0.0
 31
0.0
210
0.0
220
0.0
230
1.0
 40
1.0
 41
3.141592653590005
 42
6.283185307179586
  0
LWPOLYLINE
  5
A6E
330
9DF
100
AcDbEntity
  8
上線
100
AcDbPolyline
 90
        8
 70
     1
 43
0.0
 10
729.4848019157125
 20
966.1450730727748
 10
873.4848019157125
 20
966.1450730727748
 42
0.4142135623730951
 10
876.4848019157126
 20
969.1450730727749
 10
876.4848019157126
 20
1013.145073072774
 42
0.4142135623730951
 10
873.4848019157125
 20
1016.145073072775
 10
729.4848019157125
 20
1016.145073072775
 42
0.4142135623730951
 10
726.4848019157125
 20
1013.145073072774
 10
726.4848019157125
 20
969.1450730727749
 42
0.4142135623730951
  0
LWPOLYLINE
  5
A6F
330
9DF
100
AcDbEntity
  8
上線
100
AcDbPolyline
 90
        8
 70
     1
 43
0.0
 10
479.4848019157125
 20
966.1450730727748
 10
623.4848019157125
 20
966.1450730727748
 42
0.4142135623730951
 10
626.4848019157125
 20
969.1450730727749
 10
626.4848019157125
 20
1013.145073072774
 42
0.4142135623730951
 10
623.4848019157125
 20
1016.145073072775
 10
479.4848019157125
 20
1016.145073072775
 42
0.4142135623730951
 10
476.4848019157125
 20
1013.145073072774
 10
476.4848019157125
 20
969.1450730727749
 42
0.4142135623730951
  0
POINT
  5
A70
330
9DF
100
AcDbEntity
  8
DEFPOINTS
  6
ByBlock
 62
     0
 48
10.0
100
AcDbPoint
 10
461.4848398423764
 20
889.8950529936392
 30
0.0
  0
POINT
  5
A71
330
9DF
100
AcDbEntity
  8
DEFPOINTS
  6
ByBlock
 62
     0
 48
10.0
100
AcDbPoint
 10
461.4848398423764
 20
889.8950529936392
 30
0.0
  0
POINT
  5
A72
330
9DF
100
AcDbEntity
  8
DEFPOINTS
  6
ByBlock
 62
     0
100
AcDbPoint
 10
461.4848398423764
 20
889.8950529936392
 30
0.0
  0
LINE
  5
A73
330
9DF
100
AcDbEntity
  8
上線
 48
5.0
100
AcDbLine
 10
531.4848019157125
 20
996.6332471005054
 30
0.0
 11
531.4848019157125
 21
985.6586698940793
 31
0.0
  0
LINE
  5
A74
330
9DF
100
AcDbEntity
  8
上線
 48
5.0
100
AcDbLine
 10
516.4848019157125
 20
996.6332471005038
 30
0.0
 11
516.4848019157125
 21
985.6586698940777
 31
0.0
  0
LINE
  5
A75
330
9DF
100
AcDbEntity
  8
上線
 48
5.0
100
AcDbLine
 10
503.9848019157125
 20
996.6332471005054
 30
0.0
 11
503.9848019157125
 21
985.6586698940793
 31
0.0
  0
LINE
  5
A76
330
9DF
100
AcDbEntity
  8
上線
 48
5.0
100
AcDbLine
 10
488.9848019157125
 20
996.6332471005038
 30
0.0
 11
488.9848019157125
 21
985.6586698940777
 31
0.0
  0
ELLIPSE
  5
A77
330
9DF
100
AcDbEntity
  8
上線
 48
5.0
100
AcDbEllipse
 10
496.4848019157125
 20
985.6586698940793
 30
0.0
 11
7.5
 21
0.0
 31
0.0
210
0.0
220
0.0
230
1.0
 40
1.0
 41
3.141592653590005
 42
6.283185307179586
  0
ELLIPSE
  5
A78
330
9DF
100
AcDbEntity
  8
上線
 48
5.0
100
AcDbEllipse
 10
523.9848019157125
 20
985.6586698940793
 30
0.0
 11
7.5
 21
0.0
 31
0.0
210
0.0
220
0.0
230
1.0
 40
1.0
 41
3.141592653590005
 42
6.283185307179586
  0
ELLIPSE
  5
A79
330
9DF
100
AcDbEntity
  8
上線
 48
5.0
100
AcDbEllipse
 10
496.4848019157125
 20
996.6332471005054
 30
0.0
 11
7.5
 21
0.0
 31
0.0
210
0.0
220
0.0
230
1.0
 40
1.0
 41
0.0
 42
3.141592653590005
  0
ELLIPSE
  5
A7A
330
9DF
100
AcDbEntity
  8
上線
 48
5.0
100
AcDbEllipse
 10
523.9848019157125
 20
996.6332471005054
 30
0.0
 11
7.5
 21
0.0
 31
0.0
210
0.0
220
0.0
230
1.0
 40
1.0
 41
0.0
 42
3.141592653590005
  0
LINE
  5
A7B
330
9DF
100
AcDbEntity
  8
上線
 48
5.0
100
AcDbLine
 10
613.9848019157125
 20
996.6332471005054
 30
0.0
 11
613.9848019157125
 21
985.6586698940793
 31
0.0
  0
LINE
  5
A7C
330
9DF
100
AcDbEntity
  8
上線
 48
5.0
100
AcDbLine
 10
598.9848019157125
 20
996.6332471005038
 30
0.0
 11
598.9848019157125
 21
985.6586698940777
 31
0.0
  0
LINE
  5
A7D
330
9DF
100
AcDbEntity
  8
上線
 48
5.0
100
AcDbLine
 10
558.9848019157125
 20
996.6332471005054
 30
0.0
 11
558.9848019157125
 21
985.6586698940793
 31
0.0
  0
LINE
  5
A7E
330
9DF
100
AcDbEntity
  8
上線
 48
5.0
100
AcDbLine
 10
586.4848019157125
 20
996.6332471005054
 30
0.0
 11
586.4848019157125
 21
985.6586698940793
 31
0.0
  0
LINE
  5
A7F
330
9DF
100
AcDbEntity
  8
上線
 48
5.0
100
AcDbLine
 10
571.4848019157125
 20
996.6332471005038
 30
0.0
 11
571.4848019157125
 21
985.6586698940777
 31
0.0
  0
LINE
  5
A80
330
9DF
100
AcDbEntity
  8
上線
 48
5.0
100
AcDbLine
 10
543.9848019157125
 20
996.6332471005038
 30
0.0
 11
543.9848019157125
 21
985.6586698940777
 31
0.0
  0
ELLIPSE
  5
A81
330
9DF
100
AcDbEntity
  8
上線
 48
5.0
100
AcDbEllipse
 10
578.9848019157125
 20
985.6586698940793
 30
0.0
 11
7.5
 21
0.0
 31
0.0
210
0.0
220
0.0
230
1.0
 40
1.0
 41
3.141592653590005
 42
6.283185307179586
  0
ELLIPSE
  5
A82
330
9DF
100
AcDbEntity
  8
上線
 48
5.0
100
AcDbEllipse
 10
551.4848019157125
 20
985.6586698940793
 30
0.0
 11
7.5
 21
0.0
 31
0.0
210
0.0
220
0.0
230
1.0
 40
1.0
 41
3.141592653590005
 42
6.283185307179586
  0
ELLIPSE
  5
A83
330
9DF
100
AcDbEntity
  8
上線
 48
5.0
100
AcDbEllipse
 10
606.4848019157125
 20
985.6586698940793
 30
0.0
 11
7.5
 21
0.0
 31
0.0
210
0.0
220
0.0
230
1.0
 40
1.0
 41
3.141592653590005
 42
6.283185307179586
  0
ELLIPSE
  5
A84
330
9DF
100
AcDbEntity
  8
上線
 48
5.0
100
AcDbEllipse
 10
578.9848019157125
 20
996.6332471005054
 30
0.0
 11
7.5
 21
0.0
 31
0.0
210
0.0
220
0.0
230
1.0
 40
1.0
 41
0.0
 42
3.141592653590005
  0
ELLIPSE
  5
A85
330
9DF
100
AcDbEntity
  8
上線
 48
5.0
100
AcDbEllipse
 10
551.4848019157125
 20
996.6332471005054
 30
0.0
 11
7.5
 21
0.0
 31
0.0
210
0.0
220
0.0
230
1.0
 40
1.0
 41
0.0
 42
3.141592653590005
  0
ELLIPSE
  5
A86
330
9DF
100
AcDbEntity
  8
上線
 48
5.0
100
AcDbEllipse
 10
606.4848019157125
 20
996.6332471005054
 30
0.0
 11
7.5
 21
0.0
 31
0.0
210
0.0
220
0.0
230
1.0
 40
1.0
 41
0.0
 42
3.141592653590005
  0
POINT
  5
A87
330
9DF
100
AcDbEntity
  8
DEFPOINTS
  6
ByBlock
 62
     0
 48
10.0
100
AcDbPoint
 10
641.4848398423764
 20
889.8950529936392
 30
0.0
  0
POINT
  5
A88
330
9DF
100
AcDbEntity
  8
DEFPOINTS
  6
ByBlock
 62
     0
 48
10.0
100
AcDbPoint
 10
641.4848398423764
 20
889.8950529936392
 30
0.0
  0
POINT
  5
A89
330
9DF
100
AcDbEntity
  8
DEFPOINTS
  6
ByBlock
 62
     0
100
AcDbPoint
 10
641.4848398423764
 20
889.8950529936392
 30
0.0
  0
POINT
  5
A8A
330
9DF
100
AcDbEntity
  8
DEFPOINTS
  6
ByBlock
 62
     0
 48
10.0
100
AcDbPoint
 10
711.4848398423764
 20
889.8950529936392
 30
0.0
  0
POINT
  5
A8B
330
9DF
100
AcDbEntity
  8
DEFPOINTS
  6
ByBlock
 62
     0
 48
10.0
100
AcDbPoint
 10
711.4848398423764
 20
889.8950529936392
 30
0.0
  0
POINT
  5
A8C
330
9DF
100
AcDbEntity
  8
DEFPOINTS
  6
ByBlock
 62
     0
100
AcDbPoint
 10
726.4848398423764
 20
916.1450529936391
 30
0.0
  0
LINE
  5
A8D
330
9DF
100
AcDbEntity
  8
上線
 48
5.0
100
AcDbLine
 10
793.9848019157125
 20
996.6332471005038
 30
0.0
 11
793.9848019157125
 21
985.6586698940777
 31
0.0
  0
LINE
  5
A8E
330
9DF
100
AcDbEntity
  8
上線
 48
5.0
100
AcDbLine
 10
766.4848019157125
 20
996.6332471005038
 30
0.0
 11
766.4848019157125
 21
985.6586698940777
 31
0.0
  0
LINE
  5
A8F
330
9DF
100
AcDbEntity
  8
上線
 48
5.0
100
AcDbLine
 10
781.4848019157125
 20
996.6332471005054
 30
0.0
 11
781.4848019157125
 21
985.6586698940793
 31
0.0
  0
LINE
  5
A90
330
9DF
100
AcDbEntity
  8
上線
 48
5.0
100
AcDbLine
 10
738.9848019157125
 20
996.6332471005038
 30
0.0
 11
738.9848019157125
 21
985.6586698940777
 31
0.0
  0
LINE
  5
A91
330
9DF
100
AcDbEntity
  8
上線
 48
5.0
100
AcDbLine
 10
753.9848019157125
 20
996.6332471005054
 30
0.0
 11
753.9848019157125
 21
985.6586698940793
 31
0.0
  0
ELLIPSE
  5
A92
330
9DF
100
AcDbEntity
  8
上線
 48
5.0
100
AcDbEllipse
 10
746.4848019157125
 20
985.6586698940793
 30
0.0
 11
7.5
 21
0.0
 31
0.0
210
0.0
220
0.0
230
1.0
 40
1.0
 41
3.141592653590005
 42
6.283185307179586
  0
ELLIPSE
  5
A93
330
9DF
100
AcDbEntity
  8
上線
 48
5.0
100
AcDbEllipse
 10
773.9848019157125
 20
985.6586698940793
 30
0.0
 11
7.5
 21
0.0
 31
0.0
210
0.0
220
0.0
230
1.0
 40
1.0
 41
3.141592653590005
 42
6.283185307179586
  0
ELLIPSE
  5
A94
330
9DF
100
AcDbEntity
  8
上線
 48
5.0
100
AcDbEllipse
 10
746.4848019157125
 20
996.6332471005054
 30
0.0
 11
7.5
 21
0.0
 31
0.0
210
0.0
220
0.0
230
1.0
 40
1.0
 41
0.0
 42
3.141592653590005
  0
ELLIPSE
  5
A95
330
9DF
100
AcDbEntity
  8
上線
 48
5.0
100
AcDbEllipse
 10
773.9848019157125
 20
996.6332471005054
 30
0.0
 11
7.5
 21
0.0
 31
0.0
210
0.0
220
0.0
230
1.0
 40
1.0
 41
0.0
 42
3.141592653590005
  0
SOLID
  5
A96
330
9DF
100
AcDbEntity
  8
0
  6
ByBlock
 62
     0
100
AcDbTrace
 10
616.5765722260385
 20
1117.005578160632
 30
0.0
 11
616.5765722260385
 21
1108.672244827298
 31
0.0
 12
641.5765722260385
 22
1112.838911493965
 32
0.0
 13
641.5765722260385
 23
1112.838911493965
 33
0.0
  0
SOLID
  5
A97
330
9DF
100
AcDbEntity
  8
0
  6
ByBlock
 62
     0
100
AcDbTrace
 10
616.5765722260385
 20
1117.005578160632
 30
0.0
 11
616.5765722260385
 21
1108.672244827298
 31
0.0
 12
641.5765722260385
 22
1112.838911493965
 32
0.0
 13
641.5765722260385
 23
1112.838911493965
 33
0.0
  0
SOLID
  5
A98
330
9DF
100
AcDbEntity
  8
0
  6
ByBlock
 62
     0
100
AcDbTrace
 10
496.5765722260385
 20
1117.005578160632
 30
0.0
 11
496.5765722260385
 21
1108.672244827298
 31
0.0
 12
521.5765722260385
 22
1112.838911493965
 32
0.0
 13
521.5765722260385
 23
1112.838911493965
 33
0.0
  0
SOLID
  5
A99
330
9DF
100
AcDbEntity
  8
0
  6
ByBlock
 62
     0
100
AcDbTrace
 10
556.5765722260384
 20
1117.005578160632
 30
0.0
 11
556.5765722260384
 21
1108.672244827298
 31
0.0
 12
581.5765722260384
 22
1112.838911493965
 32
0.0
 13
581.5765722260384
 23
1112.838911493965
 33
0.0
  0
SOLID
  5
A9A
330
9DF
100
AcDbEntity
  8
0
  6
ByBlock
 62
     0
100
AcDbTrace
 10
746.5765722260385
 20
1117.005578160632
 30
0.0
 11
746.5765722260385
 21
1108.672244827298
 31
0.0
 12
771.5765722260385
 22
1112.838911493965
 32
0.0
 13
771.5765722260385
 23
1112.838911493965
 33
0.0
  0
LINE
  5
A9B
330
9DF
100
AcDbEntity
  8
WUWAGAKI
 48
10.0
100
AcDbLine
 10
961.4848398423765
 20
1041.145052993639
 30
0.0
 11
976.4848398423763
 21
1011.145052993639
 31
0.0
  0
POINT
  5
A9C
330
9DF
100
AcDbEntity
  8
DEFPOINTS
  6
ByBlock
 62
     0
100
AcDbPoint
 10
876.4848398423763
 20
916.1450529936391
 30
0.0
  0
POINT
  5
A9D
330
9DF
100
AcDbEntity
  8
DEFPOINTS
  6
ByBlock
 62
     0
100
AcDbPoint
 10
876.4848398423763
 20
916.1450529936391
 30
0.0
  0
POINT
  5
A9E
330
9DF
100
AcDbEntity
  8
DEFPOINTS
  6
ByBlock
 62
     0
 48
10.0
100
AcDbPoint
 10
891.4848398423764
 20
889.8950529936392
 30
0.0
  0
POINT
  5
A9F
330
9DF
100
AcDbEntity
  8
DEFPOINTS
  6
ByBlock
 62
     0
 48
10.0
100
AcDbPoint
 10
891.4848398423764
 20
889.8950529936392
 30
0.0
  0
POINT
  5
AA0
330
9DF
100
AcDbEntity
  8
DEFPOINTS
  6
ByBlock
 62
     0
 48
10.0
100
AcDbPoint
 10
936.4848398423765
 20
896.1450529936392
 30
0.0
  0
POINT
  5
AA1
330
9DF
100
AcDbEntity
  8
DEFPOINTS
  6
ByBlock
 62
     0
 48
10.0
100
AcDbPoint
 10
936.4848398423765
 20
889.8950529936392
 30
0.0
  0
LINE
  5
AA2
330
9DF
100
AcDbEntity
  8
上線
 48
5.0
100
AcDbLine
 10
848.9848019157125
 20
996.6332471005038
 30
0.0
 11
848.9848019157125
 21
985.6586698940777
 31
0.0
  0
LINE
  5
AA3
330
9DF
100
AcDbEntity
  8
上線
 48
5.0
100
AcDbLine
 10
863.9848019157126
 20
996.6332471005054
 30
0.0
 11
863.9848019157126
 21
985.6586698940793
 31
0.0
  0
LINE
  5
AA4
330
9DF
100
AcDbEntity
  8
上線
 48
5.0
100
AcDbLine
 10
821.4848019157125
 20
996.6332471005038
 30
0.0
 11
821.4848019157125
 21
985.6586698940777
 31
0.0
  0
LINE
  5
AA5
330
9DF
100
AcDbEntity
  8
上線
 48
5.0
100
AcDbLine
 10
836.4848019157125
 20
996.6332471005054
 30
0.0
 11
836.4848019157125
 21
985.6586698940793
 31
0.0
  0
LINE
  5
AA6
330
9DF
100
AcDbEntity
  8
上線
 48
5.0
100
AcDbLine
 10
808.9848019157125
 20
996.6332471005054
 30
0.0
 11
808.9848019157125
 21
985.6586698940793
 31
0.0
  0
ELLIPSE
  5
AA7
330
9DF
100
AcDbEntity
  8
上線
 48
5.0
100
AcDbEllipse
 10
828.9848019157124
 20
985.6586698940793
 30
0.0
 11
7.5
 21
0.0
 31
0.0
210
0.0
220
0.0
230
1.0
 40
1.0
 41
3.141592653590005
 42
6.283185307179586
  0
ELLIPSE
  5
AA8
330
9DF
100
AcDbEntity
  8
上線
 48
5.0
100
AcDbEllipse
 10
856.4848019157125
 20
985.6586698940793
 30
0.0
 11
7.5
 21
0.0
 31
0.0
210
0.0
220
0.0
230
1.0
 40
1.0
 41
3.141592653590005
 42
6.283185307179586
  0
ELLIPSE
  5
AA9
330
9DF
100
AcDbEntity
  8
上線
 48
5.0
100
AcDbEllipse
 10
828.9848019157124
 20
996.6332471005054
 30
0.0
 11
7.5
 21
0.0
 31
0.0
210
0.0
220
0.0
230
1.0
 40
1.0
 41
0.0
 42
3.141592653590005
  0
ELLIPSE
  5
AAA
330
9DF
100
AcDbEntity
  8
上線
 48
5.0
100
AcDbEllipse
 10
856.4848019157125
 20
996.6332471005054
 30
0.0
 11
7.5
 21
0.0
 31
0.0
210
0.0
220
0.0
230
1.0
 40
1.0
 41
0.0
 42
3.141592653590005
  0
LINE
  5
AAB
330
9DF
100
AcDbEntity
  8
WUWAGAKI
100
AcDbLine
 10
976.4848398423763
 20
916.1450529936391
 30
0.0
 11
976.4848398423762
 21
1011.145052993638
 31
0.0
  0
LINE
  5
AAC
330
9DF
100
AcDbEntity
  8
WUWAGAKI
100
AcDbLine
 10
976.4848398423763
 20
976.1450529936391
 30
0.0
 11
976.4848398423763
 21
946.1450529936392
 31
0.0
  0
POINT
  5
AAD
330
9DF
100
AcDbEntity
  8
DEFPOINTS
  6
ByBlock
 62
     0
 48
10.0
100
AcDbPoint
 10
976.4848398423763
 20
896.1450529936392
 30
0.0
  0
POINT
  5
AAE
330
9DF
100
AcDbEntity
  8
DEFPOINTS
  6
ByBlock
 62
     0
 48
10.0
100
AcDbPoint
 10
976.4848398423763
 20
896.1450529936392
 30
0.0
  0
POINT
  5
AAF
330
9DF
100
AcDbEntity
  8
DEFPOINTS
  6
ByBlock
 62
     0
100
AcDbPoint
 10
1009.814888809407
 20
946.1450529936392
 30
0.0
  0
POINT
  5
AB0
330
9DF
100
AcDbEntity
  8
DEFPOINTS
  6
ByBlock
 62
     0
100
AcDbPoint
 10
1009.814888809407
 20
916.1450529936391
 30
0.0
  0
POINT
  5
AB1
330
9DF
100
AcDbEntity
  8
DEFPOINTS
  6
ByBlock
 62
     0
100
AcDbPoint
 10
976.4848398423763
 20
916.1450529936391
 30
0.0
  0
POINT
  5
AB2
330
9DF
100
AcDbEntity
  8
DEFPOINTS
  6
ByBlock
 62
     0
100
AcDbPoint
 10
976.4848398423763
 20
946.1450529936392
 30
0.0
  0
POINT
  5
AB3
330
9DF
100
AcDbEntity
  8
DEFPOINTS
  6
ByBlock
 62
     0
100
AcDbPoint
 10
976.4848398423763
 20
946.1450529936392
 30
0.0
  0
LINE
  5
AB4
330
9DF
100
AcDbEntity
  8
WUWAGAKI
100
AcDbLine
 10
961.4848398423761
 20
1041.145052993639
 30
0.0
 11
961.4848398423761
 21
1181.145052993639
 31
0.0
  0
SOLID
  5
AB5
330
9DF
100
AcDbEntity
  8
0
  6
ByBlock
 62
     0
100
AcDbTrace
 10
866.5765722260385
 20
1117.005578160632
 30
0.0
 11
866.5765722260385
 21
1108.672244827298
 31
0.0
 12
891.5765722260385
 22
1112.838911493965
 32
0.0
 13
891.5765722260385
 23
1112.838911493965
 33
0.0
  0
SOLID
  5
AB6
330
9DF
100
AcDbEntity
  8
0
  6
ByBlock
 62
     0
100
AcDbTrace
 10
806.5765722260385
 20
1117.005578160632
 30
0.0
 11
806.5765722260385
 21
1108.672244827298
 31
0.0
 12
831.5765722260385
 22
1112.838911493965
 32
0.0
 13
831.5765722260385
 23
1112.838911493965
 33
0.0
  0
LINE
  5
AB7
330
9DF
100
AcDbEntity
  8
0
  6
ByBlock
 62
     0
100
AcDbLine
 10
936.3166981036883
 20
1074.019930515523
 30
0.0
 11
936.3166981036883
 21
1065.557007493338
 31
0.0
  0
POINT
  5
AB8
330
9DF
100
AcDbEntity
  8
DEFPOINTS
  6
ByBlock
 62
     0
100
AcDbPoint
 10
936.3166981036883
 20
1080.269930515523
 30
0.0
  0
LINE
  5
AB9
330
9DF
100
AcDbEntity
  8
0
  6
ByBlock
 62
     0
100
AcDbLine
 10
936.4848398423765
 20
1222.838911493965
 30
0.0
 11
485.630599699687
 21
1222.838911493965
 31
0.0
  0
SOLID
  5
ABA
330
9DF
100
AcDbEntity
  8
0
  6
ByBlock
 62
     0
100
AcDbTrace
 10
616.5765722260385
 20
1227.005578160632
 30
0.0
 11
616.5765722260385
 21
1218.672244827298
 31
0.0
 12
641.5765722260385
 22
1222.838911493965
 32
0.0
 13
641.5765722260385
 23
1222.838911493965
 33
0.0
  0
SOLID
  5
ABB
330
9DF
100
AcDbEntity
  8
0
  6
ByBlock
 62
     0
100
AcDbTrace
 10
616.5765722260385
 20
1227.005578160632
 30
0.0
 11
616.5765722260385
 21
1218.672244827298
 31
0.0
 12
641.5765722260385
 22
1222.838911493965
 32
0.0
 13
641.5765722260385
 23
1222.838911493965
 33
0.0
  0
POINT
  5
ABC
330
9DF
100
AcDbEntity
  8
DEFPOINTS
  6
ByBlock
 62
     0
100
AcDbPoint
 10
460.630599699687
 20
1217.174608252007
 30
0.0
  0
POINT
  5
ABD
330
9DF
100
AcDbEntity
  8
DEFPOINTS
  6
ByBlock
 62
     0
100
AcDbPoint
 10
460.630599699687
 20
1206.542640440505
 30
0.0
  0
SOLID
  5
ABE
330
9DF
100
AcDbEntity
  8
0
  6
ByBlock
 62
     0
100
AcDbTrace
 10
686.5059837000753
 20
1227.005578160632
 30
0.0
 11
686.5059837000753
 21
1218.672244827298
 31
0.0
 12
711.5059837000753
 22
1222.838911493965
 32
0.0
 13
711.5059837000753
 23
1222.838911493965
 33
0.0
  0
SOLID
  5
ABF
330
9DF
100
AcDbEntity
  8
0
  6
ByBlock
 62
     0
100
AcDbTrace
 10
651.5765722260384
 20
1227.005578160632
 30
0.0
 11
651.5765722260384
 21
1218.672244827298
 31
0.0
 12
676.5765722260384
 22
1222.838911493965
 32
0.0
 13
676.5765722260384
 23
1222.838911493965
 33
0.0
  0
DIMENSION
  5
AC0
330
9DF
100
AcDbEntity
  8
WUWAGAKI
 48
10.0
100
AcDbDimension
  2
*D20
 10
976.4848398423763
 20
1451.145052993639
 30
0.0
 11
1047.552255572713
 21
1469.895052993639
 31
0.0
 12
-404.6047067692216
 22
-177.8366316301444
 32
0.0
 71
     5
 42
-1.0
  3
STANDARD
100
AcDbAlignedDimension
 13
961.4848398423765
 23
1331.145052993639
 33
0.0
 14
976.4848398423763
 24
1331.145052993639
 34
0.0
100
AcDbRotatedDimension
1001
ACAD
1000
DSTYLE
1002
{
1070
    40
1040
10.0
1070
    41
1040
2.5
1070
    42
1040
0.625
1070
    43
1040
3.75
1070
    44
1040
1.25
1070
    73
1070
     0
1070
    74
1070
     0
1070
    77
1070
     1
1070
    78
1070
     8
1070
   140
1040
2.5
1070
   141
1040
2.5
1070
   143
1040
0.0394
1070
   147
1040
0.625
1070
   171
1070
     4
1070
   172
1070
     1
1070
   273
1070
     8
1070
   274
1070
     4
1070
   277
1070
     6
1002
}
  0
SOLID
  5
AC1
330
9DF
100
AcDbEntity
  8
0
  6
ByBlock
 62
     0
100
AcDbTrace
 10
866.5765722260385
 20
1227.005578160632
 30
0.0
 11
866.5765722260385
 21
1218.672244827298
 31
0.0
 12
891.5765722260385
 22
1222.838911493965
 32
0.0
 13
891.5765722260385
 23
1222.838911493965
 33
0.0
  0
SOLID
  5
AC2
330
9DF
100
AcDbEntity
  8
0
  6
ByBlock
 62
     0
100
AcDbTrace
 10
911.5765722260384
 20
1227.005578160632
 30
0.0
 11
911.5765722260384
 21
1218.672244827298
 31
0.0
 12
936.5765722260384
 22
1222.838911493965
 32
0.0
 13
936.5765722260384
 23
1222.838911493965
 33
0.0
  0
LINE
  5
AC3
330
9DF
100
AcDbEntity
  8
WUWAGAKI
100
AcDbLine
 10
976.4848398423762
 20
1211.145052993638
 30
0.0
 11
976.4848398423763
 21
1306.145052993639
 31
0.0
  0
POINT
  5
AC4
330
9DF
100
AcDbEntity
  8
DEFPOINTS
  6
ByBlock
 62
     0
100
AcDbPoint
 10
1009.814888809407
 20
1276.145052993639
 30
0.0
  0
POINT
  5
AC5
330
9DF
100
AcDbEntity
  8
DEFPOINTS
  6
ByBlock
 62
     0
100
AcDbPoint
 10
1014.502388809407
 20
1276.145052993639
 30
0.0
  0
POINT
  5
AC6
330
9DF
100
AcDbEntity
  8
DEFPOINTS
  6
ByBlock
 62
     0
100
AcDbPoint
 10
1009.814888809407
 20
1306.145052993639
 30
0.0
  0
POINT
  5
AC7
330
9DF
100
AcDbEntity
  8
DEFPOINTS
  6
ByBlock
 62
     0
100
AcDbPoint
 10
1009.814888809407
 20
1306.145052993639
 30
0.0
  0
LINE
  5
AC8
330
9DF
100
AcDbEntity
  8
WUWAGAKI
100
AcDbLine
 10
1816.250029702273
 20
1296.145027618665
 30
0.0
 11
1816.250029702274
 21
926.1450276186646
 31
0.0
  0
POINT
  5
AC9
330
9DF
100
AcDbEntity
  8
DEFPOINTS
  6
ByBlock
 62
     0
 48
5.0
100
AcDbPoint
 10
1164.671880397523
 20
975.5599310654053
 30
0.0
  0
SOLID
  5
ACA
330
9DF
100
AcDbEntity
  8
0
  6
ByBlock
 62
     0
 48
10.0
100
AcDbTrace
 10
1667.083363035607
 20
1041.145052993639
 30
0.0
 11
1675.41669636894
 21
1041.145052993639
 31
0.0
 12
1671.250029702274
 22
1016.145052993639
 32
0.0
 13
1671.250029702274
 23
1016.145052993639
 33
0.0
  0
MTEXT
  5
ACB
330
9DF
100
AcDbEntity
  8
0
  6
ByBlock
 62
     0
 48
10.0
100
AcDbMText
 10
1652.500029702274
 20
991.1450529936391
 30
0.0
 40
25.0
 41
0.0
 71
     5
 72
     1
  1
\A1;50
 11
0.0000000000000001
 21
1.0
 31
0.0
 73
     1
 44
1.0
  0
LINE
  5
ACC
330
9DF
100
AcDbEntity
  8
0
  6
ByBlock
 62
     0
 48
10.0
100
AcDbLine
 10
1785.000029702274
 20
1016.145052993639
 30
0.0
 11
1658.750029702274
 21
1016.145052993639
 31
0.0
  0
LINE
  5
ACD
330
9DF
100
AcDbEntity
  8
0
  6
ByBlock
 62
     0
 48
10.0
100
AcDbLine
 10
1785.000029702274
 20
966.1450529936391
 30
0.0
 11
1658.750029702274
 21
966.1450529936391
 31
0.0
  0
MTEXT
  5
ACE
330
9DF
100
AcDbEntity
  8
0
  6
ByBlock
 62
     0
 48
10.0
100
AcDbMText
 10
1652.500029702274
 20
941.1450529936391
 30
0.0
 40
25.0
 41
0.0
 71
     5
 72
     1
  1
\A1;50
 11
0.0000000000000001
 21
1.0
 31
0.0
 73
     1
 44
1.0
  0
LINE
  5
ACF
330
9DF
100
AcDbEntity
  8
0
  6
ByBlock
 62
     0
 48
10.0
100
AcDbLine
 10
1785.000029702274
 20
916.1450529936391
 30
0.0
 11
1658.750029702274
 21
916.1450529936391
 31
0.0
  0
LINE
  5
AD0
330
9DF
100
AcDbEntity
  8
0
  6
ByBlock
 62
     0
 48
10.0
100
AcDbLine
 10
1785.000029702274
 20
966.1450529936391
 30
0.0
 11
1658.750029702274
 21
966.1450529936391
 31
0.0
  0
LINE
  5
AD1
330
9DF
100
AcDbEntity
  8
0
  6
ByBlock
 62
     0
 48
10.0
100
AcDbLine
 10
1671.250029702274
 20
966.1450529936391
 30
0.0
 11
1671.250029702274
 21
916.1450529936391
 31
0.0
  0
SOLID
  5
AD2
330
9DF
100
AcDbEntity
  8
0
  6
ByBlock
 62
     0
 48
10.0
100
AcDbTrace
 10
1667.083363035607
 20
891.1450529936391
 30
0.0
 11
1675.41669636894
 21
891.1450529936391
 31
0.0
 12
1671.250029702274
 22
916.1450529936391
 32
0.0
 13
1671.250029702274
 23
916.1450529936391
 33
0.0
  0
LINE
  5
AD3
330
9DF
100
AcDbEntity
  8
0
  6
ByBlock
 62
     0
 48
10.0
100
AcDbLine
 10
1671.250029702274
 20
941.1450529936391
 30
0.0
 11
1671.250029702274
 21
916.1450529936391
 31
0.0
  0
POINT
  5
AD4
330
9DF
100
AcDbEntity
  8
DEFPOINTS
  6
ByBlock
 62
     0
 48
10.0
100
AcDbPoint
 10
1671.250029702274
 20
916.1450529936391
 30
0.0
  0
POINT
  5
AD5
330
9DF
100
AcDbEntity
  8
DEFPOINTS
  6
ByBlock
 62
     0
 48
10.0
100
AcDbPoint
 10
1791.250029702274
 20
916.1450529936391
 30
0.0
  0
POINT
  5
AD6
330
9DF
100
AcDbEntity
  8
DEFPOINTS
  6
ByBlock
 62
     0
100
AcDbPoint
 10
1816.250029702274
 20
946.1450276186653
 30
0.0
  0
POINT
  5
AD7
330
9DF
100
AcDbEntity
  8
DEFPOINTS
  6
ByBlock
 62
     0
100
AcDbPoint
 10
1816.250029702274
 20
946.1450276186653
 30
0.0
  0
LINE
  5
AD8
330
9DF
100
AcDbEntity
  8
WUWAGAKI
100
AcDbLine
 10
1816.250029702274
 20
926.1450276186652
 30
0.0
 11
1826.250029702274
 21
916.1450276186652
 31
0.0
  0
LINE
  5
AD9
330
9DF
100
AcDbEntity
  8
0
  6
ByBlock
 62
     0
 48
10.0
100
AcDbLine
 10
1671.250029702274
 20
966.1450529936391
 30
0.0
 11
1671.250029702274
 21
1016.145052993639
 31
0.0
  0
LINE
  5
ADA
330
9DF
100
AcDbEntity
  8
0
  6
ByBlock
 62
     0
 48
10.0
100
AcDbLine
 10
1671.250029702274
 20
991.1450529936391
 30
0.0
 11
1671.250029702274
 21
1016.145052993639
 31
0.0
  0
LWPOLYLINE
  5
ADB
330
9DF
100
AcDbEntity
  8
上線
 48
10.0
100
AcDbPolyline
 90
        2
 70
     1
 43
5.0
 10
1668.750029702274
 20
966.1450529936391
 42
1.0
 10
1673.750029702274
 20
966.1450529936391
 42
1.0
  0
POINT
  5
ADC
330
9DF
100
AcDbEntity
  8
DEFPOINTS
  6
ByBlock
 62
     0
 48
10.0
100
AcDbPoint
 10
1671.250029702274
 20
1016.145052993639
 30
0.0
  0
POINT
  5
ADD
330
9DF
100
AcDbEntity
  8
DEFPOINTS
  6
ByBlock
 62
     0
 48
10.0
100
AcDbPoint
 10
1791.250029702274
 20
966.1450529936391
 30
0.0
  0
POINT
  5
ADE
330
9DF
100
AcDbEntity
  8
DEFPOINTS
  6
ByBlock
 62
     0
 48
10.0
100
AcDbPoint
 10
1791.250029702274
 20
966.1450529936391
 30
0.0
  0
POINT
  5
ADF
330
9DF
100
AcDbEntity
  8
DEFPOINTS
  6
ByBlock
 62
     0
 48
10.0
100
AcDbPoint
 10
1791.250029702274
 20
1016.145052993639
 30
0.0
  0
LINE
  5
AE0
330
9DF
100
AcDbEntity
  8
0
  6
ByBlock
 62
     0
 48
10.0
100
AcDbLine
 10
1671.250029702274
 20
1041.145052993639
 30
0.0
 11
1671.250029702274
 21
1066.145052993639
 31
0.0
  0
POINT
  5
AE1
330
9DF
100
AcDbEntity
  8
DEFPOINTS
  6
ByBlock
 62
     0
100
AcDbPoint
 10
1816.250029702274
 20
1101.777741529851
 30
0.0
  0
POINT
  5
AE2
330
9DF
100
AcDbEntity
  8
DEFPOINTS
  6
ByBlock
 62
     0
100
AcDbPoint
 10
1816.250029702274
 20
1121.777770142997
 30
0.0
  0
MTEXT
  5
AE3
102
{ACAD_REACTORS
330
AE4
102
}
330
9DF
100
AcDbEntity
  8
WUWAGAKI
 48
10.0
100
AcDbMText
 10
1752.773608243203
 20
1450.591690212532
 30
0.0
 40
25.0
 41
0.0
 71
     6
 72
     1
  1
\A1;面取り　10C
 73
     1
 44
1.0
  0
LEADER
  5
AE4
330
9DF
100
AcDbEntity
  8
WUWAGAKI
 48
10.0
100
AcDbLeader
  3
STANDARD
 73
     0
 75
     1
 40
32.30337078651685
 41
174.8595505617977
 76
     3
 10
1821.250029702274
 20
1301.145027618665
 30
0.0
 10
1784.023608243203
 20
1428.190004819274
 30
0.0
 10
1759.023608243204
 20
1428.190004819274
 30
0.0
340
AE3
1001
ACAD
1000
DSTYLE
1002
{
1070
    78
1070
     8
1070
   270
1070
     8
1070
   140
1040
2.5
1070
    74
1070
     0
1070
   172
1070
     1
1070
    73
1070
     0
1070
    77
1070
     1
1070
    40
1040
10.0
1070
   147
1040
0.625
1070
    42
1040
0.625
1070
    44
1040
1.25
1070
    43
1040
3.75
1070
   141
1040
2.5
1070
    41
1040
2.5
1070
   273
1070
     8
1070
   274
1070
     4
1070
   143
1040
0.0394
1070
   171
1070
     4
1002
}
  0
LINE
  5
AE5
330
9DF
100
AcDbEntity
  8
WUWAGAKI
100
AcDbLine
 10
1826.250029702274
 20
1306.145027618665
 30
0.0
 11
1816.250029702274
 21
1296.145027618665
 31
0.0
  0
DIMENSION
  5
AE6
330
9DF
100
AcDbEntity
  8
WUWAGAKI
 48
10.0
100
AcDbDimension
  2
*D10
 10
1916.250029702274
 20
746.1450529936391
 30
0.0
 11
1988.441040938229
 21
764.8950529936391
 31
0.0
 12
-242.4345034101843
 22
-177.8366316301444
 32
0.0
 71
     5
 42
-1.0
  3
STANDARD
100
AcDbAlignedDimension
 13
1891.250029702274
 23
896.1450529936392
 33
0.0
 14
1916.250029702274
 24
896.1450529936392
 34
0.0
100
AcDbRotatedDimension
1001
ACAD
1000
DSTYLE
1002
{
1070
    40
1040
10.0
1070
    41
1040
2.5
1070
    42
1040
0.625
1070
    43
1040
3.75
1070
    44
1040
1.25
1070
    73
1070
     0
1070
    74
1070
     0
1070
    77
1070
     1
1070
    78
1070
     8
1070
   140
1040
2.5
1070
   141
1040
2.5
1070
   143
1040
0.0394
1070
   147
1040
0.625
1070
   171
1070
     4
1070
   172
1070
     1
1070
   273
1070
     8
1070
   274
1070
     4
1070
   277
1070
     6
1002
}
  0
DIMENSION
  5
AE7
330
9DF
100
AcDbEntity
  8
WUWAGAKI
 48
10.0
100
AcDbDimension
  2
*D24
 10
2239.109002427086
 20
1011.145052993639
 30
0.0
 11
2220.359002427087
 21
1111.145052993639
 31
0.0
 12
-382.3312690943057
 22
-177.8366316301444
 32
0.0
 71
     5
 42
-1.0
  3
STANDARD
100
AcDbAlignedDimension
 13
2048.891812623802
 23
1211.145052993639
 33
0.0
 14
2048.891812623802
 24
1011.145052993639
 34
0.0
 50
90.0
100
AcDbRotatedDimension
1001
ACAD
1000
DSTYLE
1002
{
1070
    40
1040
10.0
1070
    41
1040
2.5
1070
    42
1040
0.625
1070
    43
1040
3.75
1070
    44
1040
1.25
1070
    73
1070
     0
1070
    74
1070
     0
1070
    77
1070
     1
1070
    78
1070
     8
1070
   140
1040
2.5
1070
   141
1040
2.5
1070
   143
1040
0.0394
1070
   147
1040
0.625
1070
   171
1070
     4
1070
   172
1070
     1
1070
   273
1070
     8
1070
   274
1070
     4
1070
   277
1070
     6
1002
}
  0
DIMENSION
  5
AE8
330
9DF
100
AcDbEntity
  8
WUWAGAKI
 48
10.0
100
AcDbDimension
  2
*D21
 10
2119.109002427087
 20
1211.145052993639
 30
0.0
 11
2100.359002427087
 21
1283.406288948695
 31
0.0
 12
-382.3312690943057
 22
-177.8366316301444
 32
0.0
 71
     5
 42
-1.0
  3
STANDARD
100
AcDbAlignedDimension
 13
1942.500029702274
 23
1181.145052993639
 33
0.0
 14
1942.500029702274
 24
1211.145052993639
 34
0.0
 50
90.0
100
AcDbRotatedDimension
1001
ACAD
1000
DSTYLE
1002
{
1070
    40
1040
10.0
1070
    41
1040
2.5
1070
    42
1040
0.625
1070
    43
1040
3.75
1070
    44
1040
1.25
1070
    73
1070
     0
1070
    74
1070
     0
1070
    77
1070
     1
1070
    78
1070
     8
1070
   140
1040
2.5
1070
   141
1040
2.5
1070
   143
1040
0.0394
1070
   147
1040
0.625
1070
   171
1070
     4
1070
   172
1070
     1
1070
   273
1070
     8
1070
   274
1070
     4
1070
   277
1070
     6
1002
}
  0
LINE
  5
AE9
330
9DF
100
AcDbEntity
  8
WUWAGAKI
100
AcDbLine
 10
1891.250029702274
 20
1236.145027618665
 30
0.0
 11
1891.250029702274
 21
986.1450276186653
 31
0.0
  0
LINE
  5
AEA
330
9DF
100
AcDbEntity
  8
WUWAGAKI
100
AcDbLine
 10
1916.250029702274
 20
968.145027618665
 30
0.0
 11
1916.250029702274
 21
1254.145027618665
 31
0.0
  0
DIMENSION
  5
AEB
330
9DF
100
AcDbEntity
  8
WUWAGAKI
 48
10.0
100
AcDbDimension
  2
*D22
 10
2119.109002427086
 20
1011.145052993639
 30
0.0
 11
2100.359002427086
 21
938.8838170385829
 31
0.0
 12
-382.3312690943057
 22
-177.8366316301444
 32
0.0
 71
     5
 42
-1.0
  3
STANDARD
100
AcDbAlignedDimension
 13
2048.891812623802
 23
1041.145052993639
 33
0.0
 14
2048.891812623802
 24
1011.145052993639
 34
0.0
 50
90.0
100
AcDbRotatedDimension
1001
ACAD
1000
DSTYLE
1002
{
1070
    40
1040
10.0
1070
    41
1040
2.5
1070
    42
1040
0.625
1070
    43
1040
3.75
1070
    44
1040
1.25
1070
    73
1070
     0
1070
    74
1070
     0
1070
    77
1070
     1
1070
    78
1070
     8
1070
   140
1040
2.5
1070
   141
1040
2.5
1070
   143
1040
0.0394
1070
   147
1040
0.625
1070
   171
1070
     4
1070
   172
1070
     1
1070
   273
1070
     8
1070
   274
1070
     4
1070
   277
1070
     6
1002
}
  0
SOLID
  5
AEC
330
9DF
100
AcDbEntity
  8
0
  6
ByBlock
 62
     0
 48
10.0
100
AcDbTrace
 10
2004.965937508664
 20
1041.145073072774
 30
0.0
 11
2013.299270841997
 21
1041.145073072774
 31
0.0
 12
2009.13260417533
 22
1016.145073072775
 32
0.0
 13
2009.13260417533
 23
1016.145073072775
 33
0.0
  0
LINE
  5
AED
330
9DF
100
AcDbEntity
  8
WUWAGAKI
100
AcDbLine
 10
2009.13260417533
 20
968.145027618665
 30
0.0
 11
2009.13260417533
 21
1062.957512228099
 31
0.0
  0
SOLID
  5
AEE
330
9DF
100
AcDbEntity
  8
0
  6
ByBlock
 62
     0
 48
10.0
100
AcDbTrace
 10
2004.965937508664
 20
951.145073072775
 30
0.0
 11
2013.299270841997
 21
951.145073072775
 31
0.0
 12
2009.13260417533
 22
976.145073072775
 32
0.0
 13
2009.13260417533
 23
976.145073072775
 33
0.0
  0
LINE
  5
AEF
330
9DF
100
AcDbEntity
  8
0
  6
ByBlock
 62
     0
 48
10.0
100
AcDbLine
 10
1941.250029702274
 20
976.145073072775
 30
0.0
 11
2021.63260417533
 21
976.145073072775
 31
0.0
  0
LINE
  5
AF0
330
9DF
100
AcDbEntity
  8
0
  6
ByBlock
 62
     0
 48
10.0
100
AcDbLine
 10
1941.250029702274
 20
1016.145073072775
 30
0.0
 11
2021.63260417533
 21
1016.145073072775
 31
0.0
  0
LINE
  5
AF1
330
9DF
100
AcDbEntity
  8
WUWAGAKI
 48
10.0
100
AcDbLine
 10
1891.250029702274
 20
986.1450276186653
 30
0.0
 11
1891.250029702273
 21
946.1450276186653
 31
0.0
  0
ARC
  5
AF2
330
9DF
100
AcDbEntity
  8
WUWAGAKI
100
AcDbCircle
 10
1862.250029702273
 20
968.145027618665
 30
0.0
 40
50.0
100
AcDbArc
 50
270.0000000000001
 51
0.0
  0
POINT
  5
AF3
330
9DF
100
AcDbEntity
  8
DEFPOINTS
  6
ByBlock
 62
     0
100
AcDbPoint
 10
1916.250029702274
 20
946.1450276186653
 30
0.0
  0
POINT
  5
AF4
330
9DF
100
AcDbEntity
  8
DEFPOINTS
  6
ByBlock
 62
     0
100
AcDbPoint
 10
1916.250029702274
 20
946.1450276186653
 30
0.0
  0
POINT
  5
AF5
330
9DF
100
AcDbEntity
  8
DEFPOINTS
  6
ByBlock
 62
     0
100
AcDbPoint
 10
1916.250029702274
 20
946.1450276186653
 30
0.0
  0
LWPOLYLINE
  5
AF6
330
9DF
100
AcDbEntity
  8
WUWAGAKI
 48
10.0
100
AcDbPolyline
 90
        2
 70
     1
 43
5.0
 10
1883.833901704078
 20
946.9633307635506
 42
1.0
 10
1888.833901704078
 20
946.9633307635506
 42
1.0
  0
POINT
  5
AF7
330
9DF
100
AcDbEntity
  8
DEFPOINTS
  6
ByBlock
 62
     0
 48
10.0
100
AcDbPoint
 10
1936.250029702274
 20
916.1450276186654
 30
0.0
  0
LINE
  5
AF8
330
9DF
100
AcDbEntity
  8
0
  6
ByBlock
 62
     0
 48
10.0
100
AcDbLine
 10
2009.13260417533
 20
951.145073072775
 30
0.0
 11
2009.132604175331
 21
932.0640646781148
 31
0.0
  0
LINE
  5
AF9
330
9DF
100
AcDbEntity
  8
点線
 48
5.0
100
AcDbLine
 10
1846.218846143356
 20
1016.145073072775
 30
0.0
 11
1846.218846143356
 21
966.1450730727748
 31
0.0
  0
LINE
  5
AFA
330
9DF
100
AcDbEntity
  8
点線
 48
10.0
100
AcDbLine
 10
1846.218846143356
 20
971.1450730727749
 30
0.0
 11
1912.220702292453
 21
966.432754017538
 31
0.0
  0
LINE
  5
AFB
330
9DF
100
AcDbEntity
  8
WUWAGAKI
 48
10.0
100
AcDbLine
 10
1912.250029702273
 20
968.145027618665
 30
0.0
 11
1916.250029702274
 21
968.145027618665
 31
0.0
  0
LINE
  5
AFC
330
9DF
100
AcDbEntity
  8
点線
 48
10.0
100
AcDbLine
 10
1846.218846143356
 20
1011.145073072775
 30
0.0
 11
1916.250029702274
 21
1016.145073072775
 31
0.0
  0
MTEXT
  5
AFD
330
9DF
100
AcDbEntity
  8
0
  6
ByBlock
 62
     0
 48
10.0
100
AcDbMText
 10
1990.38260417533
 20
994.9419216719732
 30
0.0
 40
25.0
 41
0.0
 71
     5
 72
     1
  1
\A1;40
 11
0.0000000000000001
 21
1.0
 31
0.0
 73
     1
 44
1.0
  0
LINE
  5
AFE
330
9DF
100
AcDbEntity
  8
0
  6
ByBlock
 62
     0
 48
10.0
100
AcDbLine
 10
2009.13260417533
 20
1016.145073072775
 30
0.0
 11
2009.13260417533
 21
976.145073072775
 31
0.0
  0
POINT
  5
AFF
330
9DF
100
AcDbEntity
  8
DEFPOINTS
  6
ByBlock
 62
     0
 48
10.0
100
AcDbPoint
 10
1941.250029702274
 20
976.145073072775
 30
0.0
  0
POINT
  5
B00
330
9DF
100
AcDbEntity
  8
DEFPOINTS
  6
ByBlock
 62
     0
 48
10.0
100
AcDbPoint
 10
2009.13260417533
 20
976.145073072775
 30
0.0
  0
POINT
  5
B01
330
9DF
100
AcDbEntity
  8
DEFPOINTS
  6
ByBlock
 62
     0
 48
10.0
100
AcDbPoint
 10
1941.250029702274
 20
1016.145073072775
 30
0.0
  0
LWPOLYLINE
  5
B02
330
9DF
100
AcDbEntity
  8
WUWAGAKI
 48
10.0
100
AcDbPolyline
 90
        2
 70
     1
 43
5.0
 10
1883.833901704078
 20
1056.96333076355
 42
1.0
 10
1888.833901704078
 20
1056.96333076355
 42
1.0
  0
LWPOLYLINE
  5
B03
330
9DF
100
AcDbEntity
  8
WUWAGAKI
 48
10.0
100
AcDbPolyline
 90
        2
 70
     1
 43
5.0
 10
1883.833901704078
 20
1166.96333076355
 42
1.0
 10
1888.833901704078
 20
1166.96333076355
 42
1.0
  0
DIMENSION
  5
B04
330
9DF
100
AcDbEntity
  8
WUWAGAKI
 48
10.0
100
AcDbDimension
  2
*D23
 10
2119.109002427087
 20
1041.145052993639
 30
0.0
 11
2100.359002427087
 21
1111.145052993639
 31
0.0
 12
-382.3312690943057
 22
-177.8366316301444
 32
0.0
 71
     5
 42
-1.0
  3
STANDARD
100
AcDbAlignedDimension
 13
2048.891812623802
 23
1181.145052993639
 33
0.0
 14
2048.891812623802
 24
1041.145052993639
 34
0.0
 50
90.0
100
AcDbRotatedDimension
1001
ACAD
1000
DSTYLE
1002
{
1070
    40
1040
10.0
1070
    41
1040
2.5
1070
    42
1040
0.625
1070
    43
1040
3.75
1070
    44
1040
1.25
1070
    73
1070
     0
1070
    74
1070
     0
1070
    77
1070
     1
1070
    78
1070
     8
1070
   140
1040
2.5
1070
   141
1040
2.5
1070
   143
1040
0.0394
1070
   147
1040
0.625
1070
   171
1070
     4
1070
   172
1070
     1
1070
   273
1070
     8
1070
   274
1070
     4
1070
   277
1070
     6
1002
}
  0
MTEXT
  5
B05
102
{ACAD_REACTORS
330
B06
102
}
330
9DF
100
AcDbEntity
  8
WUWAGAKI
 48
10.0
100
AcDbMText
 10
1977.884541394623
 20
1423.065178520399
 30
0.0
 40
30.0
 41
0.0
 71
     4
 72
     1
  1
\A1;R=50
 73
     1
 44
1.0
  0
LEADER
  5
B06
330
9DF
100
AcDbEntity
  8
WUWAGAKI
 48
10.0
100
AcDbLeader
  3
STANDARD
 73
     0
 74
     0
 75
     1
 40
30.0
 41
86.46067415730337
 76
     3
 10
1897.605368761602
 20
1289.500366677992
 30
0.0
 10
1954.447041394623
 20
1403.377678520399
 30
0.0
 10
1973.197041394623
 20
1403.377678520399
 30
0.0
340
B05
1001
ACAD
1000
DSTYLE
1002
{
1070
    78
1070
     8
1070
   270
1070
     8
1070
   140
1040
2.5
1070
    74
1070
     0
1070
   172
1070
     1
1070
    73
1070
     0
1070
    77
1070
     1
1070
    40
1040
7.5
1070
   147
1040
0.625
1070
    42
1040
0.625
1070
    44
1040
1.25
1070
    43
1040
3.75
1070
   141
1040
2.5
1070
    41
1040
2.5
1070
   273
1070
     8
1070
   274
1070
     4
1070
   143
1040
0.0394
1070
   171
1070
     4
1002
}
  0
ARC
  5
B07
330
9DF
100
AcDbEntity
  8
WUWAGAKI
100
AcDbCircle
 10
1862.250029702274
 20
1254.145027618665
 30
0.0
 40
50.0
100
AcDbArc
 50
0.0
 51
90.0
  0
LINE
  5
B08
330
9DF
100
AcDbEntity
  8
WUWAGAKI
 48
10.0
100
AcDbLine
 10
1891.250029702274
 20
1236.145027618665
 30
0.0
 11
1891.250029702273
 21
1276.145027618665
 31
0.0
  0
POINT
  5
B09
330
9DF
100
AcDbEntity
  8
DEFPOINTS
  6
ByBlock
 62
     0
100
AcDbPoint
 10
1916.250029702274
 20
1276.145027618665
 30
0.0
  0
LINE
  5
B0A
330
9DF
100
AcDbEntity
  8
WUWAGAKI
 48
10.0
100
AcDbLine
 10
1912.250029702274
 20
1254.145027618665
 30
0.0
 11
1916.250029702274
 21
1254.145027618665
 31
0.0
  0
LWPOLYLINE
  5
B0B
330
9DF
100
AcDbEntity
  8
WUWAGAKI
 48
10.0
100
AcDbPolyline
 90
        2
 70
     1
 43
5.0
 10
1883.833901704078
 20
1276.96333076355
 42
1.0
 10
1888.833901704078
 20
1276.96333076355
 42
1.0
  0
POINT
  5
B0C
330
9DF
100
AcDbEntity
  8
DEFPOINTS
  6
ByBlock
 62
     0
 48
10.0
100
AcDbPoint
 10
1936.250029702274
 20
1306.145027618665
 30
0.0
  0
POINT
  5
B0D
330
9DF
100
AcDbEntity
  8
DEFPOINTS
  6
ByBlock
 62
     0
 48
10.0
100
AcDbPoint
 10
2119.109002427087
 20
1306.145027618665
 30
0.0
  0
DIMENSION
  5
B0E
330
9DF
100
AcDbEntity
  8
WUWAGAKI
 48
10.0
100
AcDbDimension
  2
*D12
 10
376.4848398423764
 20
402.4999981074988
 30
0.0
 11
426.4848398423764
 21
421.2499981074988
 31
0.0
 12
-404.6047067692216
 22
-177.8366316301444
 32
0.0
 71
     5
 42
-1.0
  3
STANDARD
100
AcDbAlignedDimension
 13
476.4848398423764
 23
282.4999981074988
 33
0.0
 14
376.4848398423764
 24
282.4999981074988
 34
0.0
100
AcDbRotatedDimension
1001
ACAD
1000
DSTYLE
1002
{
1070
    40
1040
10.0
1070
    41
1040
2.5
1070
    42
1040
0.625
1070
    43
1040
3.75
1070
    44
1040
1.25
1070
    73
1070
     0
1070
    74
1070
     0
1070
    77
1070
     1
1070
    78
1070
     8
1070
   140
1040
2.5
1070
   141
1040
2.5
1070
   143
1040
0.0394
1070
   147
1040
0.625
1070
   171
1070
     4
1070
   172
1070
     1
1070
   273
1070
     8
1070
   274
1070
     4
1070
   277
1070
     6
1002
}
  0
LINE
  5
B0F
330
9DF
100
AcDbEntity
  8
HOZIXYO
 62
     5
 48
10.0
100
AcDbLine
 10
376.4848398423764
 20
247.4999981074988
 30
0.0
 11
976.4848398423763
 21
247.4999981074988
 31
0.0
  0
LINE
  5
B10
330
9DF
100
AcDbEntity
  8
WUWAGAKI
100
AcDbLine
 10
416.4848398423764
 20
192.4999981074988
 30
0.0
 11
936.4848398423765
 21
192.4999981074988
 31
0.0
  0
LWPOLYLINE
  5
B11
330
9DF
100
AcDbEntity
  8
WUWAGAKI
100
AcDbPolyline
 90
        4
 70
     1
 43
0.0
 10
376.4848398423764
 20
157.4999981074988
 10
976.4848398423763
 20
157.4999981074988
 10
976.4848398423763
 20
257.4999981074988
 10
376.4848398423764
 20
257.4999981074988
  0
LINE
  5
B12
330
9DF
100
AcDbEntity
  8
点線
 48
10.0
100
AcDbLine
 10
391.4848398423764
 20
157.4999981074988
 30
0.0
 11
391.4848398423764
 21
257.4999981074988
 31
0.0
  0
DIMENSION
  5
B13
330
9DF
100
AcDbEntity
  8
WUWAGAKI
 48
10.0
100
AcDbDimension
  2
*D19
 10
231.4848398423764
 20
257.4999981074988
 30
0.0
 11
212.7348398423764
 21
329.6910093434539
 31
0.0
 12
-404.6047067692216
 22
-177.8366316301444
 32
0.0
 71
     5
 42
-1.0
  3
STANDARD
100
AcDbAlignedDimension
 13
351.4848398423764
 23
232.4999981074988
 33
0.0
 14
351.4848398423764
 24
257.4999981074988
 34
0.0
 50
90.0
100
AcDbRotatedDimension
1001
ACAD
1000
DSTYLE
1002
{
1070
    40
1040
10.0
1070
    41
1040
2.5
1070
    42
1040
0.625
1070
    43
1040
3.75
1070
    44
1040
1.25
1070
    73
1070
     0
1070
    74
1070
     0
1070
    77
1070
     1
1070
    78
1070
     8
1070
   140
1040
2.5
1070
   141
1040
2.5
1070
   143
1040
0.0394
1070
   147
1040
0.625
1070
   171
1070
     4
1070
   172
1070
     1
1070
   273
1070
     8
1070
   274
1070
     4
1070
   277
1070
     6
1002
}
  0
LWPOLYLINE
  5
B14
330
9DF
100
AcDbEntity
  8
WUWAGAKI
100
AcDbPolyline
 90
        2
 70
     1
 43
5.0
 10
413.9835623719282
 20
187.9458783924474
 42
1.0
 10
418.9835623719281
 20
187.9458783924474
 42
1.0
  0
LINE
  5
B15
330
9DF
100
AcDbEntity
  8
点線
 48
10.0
100
AcDbLine
 10
961.4848398423765
 20
257.4999981074988
 30
0.0
 11
961.4848398423765
 21
157.4999981074988
 31
0.0
  0
LINE
  5
B16
330
9DF
100
AcDbEntity
  8
点線
 48
10.0
100
AcDbLine
 10
868.8970809311188
 20
233.8216389607132
 30
0.0
 11
878.8970809311187
 21
158.8216352440588
 31
0.0
  0
LINE
  5
B17
330
9DF
100
AcDbEntity
  8
点線
 48
10.0
100
AcDbLine
 10
734.0725229003064
 20
233.8216389607132
 30
0.0
 11
724.0725229003064
 21
158.8216352440588
 31
0.0
  0
LINE
  5
B18
330
9DF
100
AcDbEntity
  8
点線
 48
10.0
100
AcDbLine
 10
618.897080931119
 20
233.8216389607132
 30
0.0
 11
628.8970809311186
 21
158.8216352440588
 31
0.0
  0
LINE
  5
B19
330
9DF
100
AcDbEntity
  8
点線
 48
10.0
100
AcDbLine
 10
484.072522900306
 20
233.8216389607132
 30
0.0
 11
474.072522900306
 21
158.8216352440588
 31
0.0
  0
DIMENSION
  5
B1A
330
9DF
100
AcDbEntity
  8
WUWAGAKI
 48
10.0
100
AcDbDimension
  2
*D8
 10
1266.484839842376
 20
157.4999981074988
 30
0.0
 11
1247.734839842376
 21
207.4999981074988
 31
0.0
 12
-328.5141722589997
 22
-177.8366316301444
 32
0.0
 71
     5
 42
-1.0
  3
STANDARD
100
AcDbAlignedDimension
 13
996.4848398423765
 23
257.4999981074988
 33
0.0
 14
996.4848398423765
 24
157.4999981074988
 34
0.0
 50
90.0
100
AcDbRotatedDimension
1001
ACAD
1000
DSTYLE
1002
{
1070
    40
1040
10.0
1070
    41
1040
2.5
1070
    42
1040
0.625
1070
    43
1040
3.75
1070
    44
1040
1.25
1070
    73
1070
     0
1070
    74
1070
     0
1070
    77
1070
     1
1070
    78
1070
     8
1070
   140
1040
2.5
1070
   141
1040
2.5
1070
   143
1040
0.0394
1070
   147
1040
0.625
1070
   171
1070
     4
1070
   172
1070
     1
1070
   273
1070
     8
1070
   274
1070
     4
1070
   277
1070
     6
1002
}
  0
DIMENSION
  5
B1B
330
9DF
100
AcDbEntity
  8
WUWAGAKI
 48
10.0
100
AcDbDimension
  2
*D7
 10
1146.484839842376
 20
257.4999981074988
 30
0.0
 11
1127.734839842376
 21
219.9999981074988
 31
0.0
 12
-328.5141722589997
 22
-177.8366316301444
 32
0.0
 71
     5
 42
-1.0
  3
STANDARD
100
AcDbAlignedDimension
 13
996.4848398423765
 23
182.4999981074988
 33
0.0
 14
996.4848398423765
 24
257.4999981074988
 34
0.0
 50
90.0
100
AcDbRotatedDimension
1001
ACAD
1000
DSTYLE
1002
{
1070
    40
1040
10.0
1070
    41
1040
2.5
1070
    42
1040
0.625
1070
    43
1040
3.75
1070
    44
1040
1.25
1070
    73
1070
     0
1070
    74
1070
     0
1070
    77
1070
     1
1070
    78
1070
     8
1070
   140
1040
2.5
1070
   141
1040
2.5
1070
   143
1040
0.0394
1070
   147
1040
0.625
1070
   171
1070
     4
1070
   172
1070
     1
1070
   273
1070
     8
1070
   274
1070
     4
1070
   277
1070
     6
1002
}
  0
DIMENSION
  5
B1C
330
9DF
100
AcDbEntity
  8
WUWAGAKI
 48
10.0
100
AcDbDimension
  2
*D6
 10
1146.484839842376
 20
157.4999981074988
 30
0.0
 11
1127.734839842376
 21
85.30898687154376
 31
0.0
 12
-328.5141722589997
 22
-177.8366316301444
 32
0.0
 71
     5
 42
-1.0
  3
STANDARD
100
AcDbAlignedDimension
 13
996.4848398423765
 23
182.4999981074988
 33
0.0
 14
996.4848398423765
 24
157.4999981074988
 34
0.0
 50
90.0
100
AcDbRotatedDimension
1001
ACAD
1000
DSTYLE
1002
{
1070
    40
1040
10.0
1070
    41
1040
2.5
1070
    42
1040
0.625
1070
    43
1040
3.75
1070
    44
1040
1.25
1070
    73
1070
     0
1070
    74
1070
     0
1070
    77
1070
     1
1070
    78
1070
     8
1070
   140
1040
2.5
1070
   141
1040
2.5
1070
   143
1040
0.0394
1070
   147
1040
0.625
1070
   171
1070
     4
1070
   172
1070
     1
1070
   273
1070
     8
1070
   274
1070
     4
1070
   277
1070
     6
1002
}
  0
DIMENSION
  5
B1D
330
9DF
100
AcDbEntity
  8
WUWAGAKI
 48
10.0
100
AcDbDimension
  2
*D18
 10
868.9848019157125
 20
12.49999810749886
 30
0.0
 11
801.4848019157124
 21
31.24999810749887
 31
0.0
 12
-404.6047067692216
 22
-177.8366316301444
 32
0.0
 71
     5
 42
-1.0
  3
STANDARD
100
AcDbAlignedDimension
 13
733.9848019157125
 23
132.4999981074988
 33
0.0
 14
868.9848019157125
 24
132.4999981074988
 34
0.0
100
AcDbRotatedDimension
1001
ACAD
1000
DSTYLE
1002
{
1070
    40
1040
10.0
1070
    41
1040
2.5
1070
    42
1040
0.625
1070
    43
1040
3.75
1070
    44
1040
1.25
1070
    73
1070
     0
1070
    74
1070
     0
1070
    77
1070
     1
1070
    78
1070
     8
1070
   140
1040
2.5
1070
   141
1040
2.5
1070
   143
1040
0.0394
1070
   147
1040
0.625
1070
   171
1070
     4
1070
   172
1070
     1
1070
   273
1070
     8
1070
   274
1070
     4
1070
   277
1070
     6
1002
}
  0
DIMENSION
  5
B1E
330
9DF
100
AcDbEntity
  8
WUWAGAKI
 48
10.0
100
AcDbDimension
  2
*D17
 10
483.9848019157125
 20
12.49999810749886
 30
0.0
 11
551.4848019157125
 21
31.24999810749887
 31
0.0
 12
-404.6047067692216
 22
-177.8366316301444
 32
0.0
 71
     5
 42
-1.0
  3
STANDARD
100
AcDbAlignedDimension
 13
618.9848019157125
 23
132.4999981074988
 33
0.0
 14
483.9848019157125
 24
132.4999981074988
 34
0.0
100
AcDbRotatedDimension
1001
ACAD
1000
DSTYLE
1002
{
1070
    40
1040
10.0
1070
    41
1040
2.5
1070
    42
1040
0.625
1070
    43
1040
3.75
1070
    44
1040
1.25
1070
    73
1070
     0
1070
    74
1070
     0
1070
    77
1070
     1
1070
    78
1070
     8
1070
   140
1040
2.5
1070
   141
1040
2.5
1070
   143
1040
0.0394
1070
   147
1040
0.625
1070
   171
1070
     4
1070
   172
1070
     1
1070
   273
1070
     8
1070
   274
1070
     4
1070
   277
1070
     6
1002
}
  0
LWPOLYLINE
  5
B1F
330
9DF
100
AcDbEntity
  8
WUWAGAKI
100
AcDbPolyline
 90
        2
 70
     1
 43
5.0
 10
458.9835623719282
 20
187.9458783924474
 42
1.0
 10
463.9835623719282
 20
187.9458783924474
 42
1.0
  0
LWPOLYLINE
  5
B20
330
9DF
100
AcDbEntity
  8
WUWAGAKI
100
AcDbPolyline
 90
        2
 70
     1
 43
5.0
 10
518.9835623719281
 20
187.9458783924474
 42
1.0
 10
523.9835623719281
 20
187.9458783924474
 42
1.0
  0
LINE
  5
B21
330
9DF
100
AcDbEntity
  8
点線
 48
10.0
100
AcDbLine
 10
618.9848019157125
 20
157.4999981074988
 30
0.0
 11
618.9848019157125
 21
157.4999981074988
 31
0.0
  0
LWPOLYLINE
  5
B22
330
9DF
100
AcDbEntity
  8
WUWAGAKI
100
AcDbPolyline
 90
        2
 70
     1
 43
5.0
 10
578.9835623719282
 20
187.9458783924474
 42
1.0
 10
583.9835623719282
 20
187.9458783924474
 42
1.0
  0
LWPOLYLINE
  5
B23
330
9DF
100
AcDbEntity
  8
WUWAGAKI
100
AcDbPolyline
 90
        2
 70
     1
 43
5.0
 10
708.9835623719282
 20
187.9458783924474
 42
1.0
 10
713.9835623719282
 20
187.9458783924474
 42
1.0
  0
LWPOLYLINE
  5
B24
330
9DF
100
AcDbEntity
  8
WUWAGAKI
100
AcDbPolyline
 90
        2
 70
     1
 43
5.0
 10
638.9835623719282
 20
187.9458783924474
 42
1.0
 10
643.9835623719281
 20
187.9458783924474
 42
1.0
  0
LWPOLYLINE
  5
B25
330
9DF
100
AcDbEntity
  8
WUWAGAKI
100
AcDbPolyline
 90
        2
 70
     1
 43
5.0
 10
673.9835623719281
 20
187.9458783924474
 42
1.0
 10
678.9835623719282
 20
187.9458783924474
 42
1.0
  0
LWPOLYLINE
  5
B26
330
9DF
100
AcDbEntity
  8
WUWAGAKI
100
AcDbPolyline
 90
        2
 70
     1
 43
5.0
 10
768.9835623719281
 20
187.9458783924474
 42
1.0
 10
773.9835623719281
 20
187.9458783924474
 42
1.0
  0
LWPOLYLINE
  5
B27
330
9DF
100
AcDbEntity
  8
WUWAGAKI
100
AcDbPolyline
 90
        2
 70
     1
 43
5.0
 10
828.9835623719282
 20
187.9458783924474
 42
1.0
 10
833.9835623719281
 20
187.9458783924474
 42
1.0
  0
LWPOLYLINE
  5
B28
330
9DF
100
AcDbEntity
  8
WUWAGAKI
100
AcDbPolyline
 90
        2
 70
     1
 43
5.0
 10
888.9835623719282
 20
187.9458783924474
 42
1.0
 10
893.9835623719282
 20
187.9458783924474
 42
1.0
  0
LWPOLYLINE
  5
B29
330
9DF
100
AcDbEntity
  8
WUWAGAKI
100
AcDbPolyline
 90
        2
 70
     1
 43
5.0
 10
933.9835623719281
 20
187.9458783924474
 42
1.0
 10
938.9835623719282
 20
187.9458783924474
 42
1.0
  0
POINT
  5
B2A
330
9DF
100
AcDbEntity
  8
DEFPOINTS
  6
ByBlock
 62
     0
100
AcDbPoint
 10
976.4848398423763
 20
157.4999981074988
 30
0.0
  0
POINT
  5
B2B
330
9DF
100
AcDbEntity
  8
DEFPOINTS
  6
ByBlock
 62
     0
100
AcDbPoint
 10
976.4848398423763
 20
157.4999981074988
 30
0.0
  0
POINT
  5
B2C
330
9DF
100
AcDbEntity
  8
DEFPOINTS
  6
ByBlock
 62
     0
100
AcDbPoint
 10
976.4848398423763
 20
182.4999981074988
 30
0.0
  0
DIMENSION
  5
B2D
330
9DF
100
AcDbEntity
  8
WUWAGAKI
 48
10.0
100
AcDbDimension
  2
*D15
 10
876.4848398423763
 20
402.4999981074988
 30
0.0
 11
801.4848398423763
 21
421.2499981074988
 31
0.0
 12
-404.6047067692216
 22
-177.8366316301444
 32
0.0
 71
     5
 42
-1.0
  3
STANDARD
100
AcDbAlignedDimension
 13
726.4848398423764
 23
282.4999981074988
 33
0.0
 14
876.4848398423763
 24
282.4999981074988
 34
0.0
100
AcDbRotatedDimension
1001
ACAD
1000
DSTYLE
1002
{
1070
    40
1040
10.0
1070
    41
1040
2.5
1070
    42
1040
0.625
1070
    43
1040
3.75
1070
    44
1040
1.25
1070
    73
1070
     0
1070
    74
1070
     0
1070
    77
1070
     1
1070
    78
1070
     8
1070
   140
1040
2.5
1070
   141
1040
2.5
1070
   143
1040
0.0394
1070
   147
1040
0.625
1070
   171
1070
     4
1070
   172
1070
     1
1070
   273
1070
     8
1070
   274
1070
     4
1070
   277
1070
     6
1002
}
  0
LINE
  5
B2E
330
9DF
100
AcDbEntity
  8
点線
 48
5.0
100
AcDbLine
 10
726.4848019157125
 20
232.5000018241535
 30
0.0
 11
876.4848019157126
 21
232.5000018241535
 31
0.0
  0
DIMENSION
  5
B2F
330
9DF
100
AcDbEntity
  8
WUWAGAKI
 48
10.0
100
AcDbDimension
  2
*D14
 10
726.4848398423764
 20
402.4999981074988
 30
0.0
 11
676.4848398423764
 21
421.2499981074988
 31
0.0
 12
-404.6047067692216
 22
-177.8366316301444
 32
0.0
 71
     5
 42
-1.0
  3
STANDARD
100
AcDbAlignedDimension
 13
626.4848398423764
 23
282.4999981074988
 33
0.0
 14
726.4848398423764
 24
282.4999981074988
 34
0.0
100
AcDbRotatedDimension
1001
ACAD
1000
DSTYLE
1002
{
1070
    40
1040
10.0
1070
    41
1040
2.5
1070
    42
1040
0.625
1070
    43
1040
3.75
1070
    44
1040
1.25
1070
    73
1070
     0
1070
    74
1070
     0
1070
    77
1070
     1
1070
    78
1070
     8
1070
   140
1040
2.5
1070
   141
1040
2.5
1070
   143
1040
0.0394
1070
   147
1040
0.625
1070
   171
1070
     4
1070
   172
1070
     1
1070
   273
1070
     8
1070
   274
1070
     4
1070
   277
1070
     6
1002
}
  0
DIMENSION
  5
B30
330
9DF
100
AcDbEntity
  8
WUWAGAKI
 48
10.0
100
AcDbDimension
  2
*D13
 10
626.4848398423764
 20
402.4999981074988
 30
0.0
 11
551.4848398423764
 21
421.2499981074988
 31
0.0
 12
-404.6047067692216
 22
-177.8366316301444
 32
0.0
 71
     5
 42
-1.0
  3
STANDARD
100
AcDbAlignedDimension
 13
476.4848398423764
 23
282.4999981074988
 33
0.0
 14
626.4848398423764
 24
282.4999981074988
 34
0.0
100
AcDbRotatedDimension
1001
ACAD
1000
DSTYLE
1002
{
1070
    40
1040
10.0
1070
    41
1040
2.5
1070
    42
1040
0.625
1070
    43
1040
3.75
1070
    44
1040
1.25
1070
    73
1070
     0
1070
    74
1070
     0
1070
    77
1070
     1
1070
    78
1070
     8
1070
   140
1040
2.5
1070
   141
1040
2.5
1070
   143
1040
0.0394
1070
   147
1040
0.625
1070
   171
1070
     4
1070
   172
1070
     1
1070
   273
1070
     8
1070
   274
1070
     4
1070
   277
1070
     6
1002
}
  0
LINE
  5
B31
330
9DF
100
AcDbEntity
  8
点線
 48
5.0
100
AcDbLine
 10
476.4848019157125
 20
232.5000018241535
 30
0.0
 11
626.4848019157125
 21
232.5000018241535
 31
0.0
  0
LINE
  5
B32
330
9DF
100
AcDbEntity
  8
点線
 48
5.0
100
AcDbLine
 10
476.4848019157125
 20
257.5000018241535
 30
0.0
 11
476.4848019157125
 21
232.5000018241535
 31
0.0
  0
LINE
  5
B33
330
9DF
100
AcDbEntity
  8
点線
 48
5.0
100
AcDbLine
 10
626.4848019157125
 20
257.5000018241535
 30
0.0
 11
626.4848019157125
 21
232.5000018241535
 31
0.0
  0
LINE
  5
B34
330
9DF
100
AcDbEntity
  8
点線
 48
5.0
100
AcDbLine
 10
726.4848019157125
 20
257.5000018241535
 30
0.0
 11
726.4848019157125
 21
232.5000018241535
 31
0.0
  0
DIMENSION
  5
B35
330
9DF
100
AcDbEntity
  8
WUWAGAKI
 48
10.0
100
AcDbDimension
  2
*D16
 10
976.4848398423763
 20
402.4999981074988
 30
0.0
 11
926.4848398423763
 21
421.2499981074988
 31
0.0
 12
-404.6047067692216
 22
-177.8366316301444
 32
0.0
 71
     5
 42
-1.0
  3
STANDARD
100
AcDbAlignedDimension
 13
876.4848398423763
 23
282.4999981074988
 33
0.0
 14
976.4848398423763
 24
282.4999981074988
 34
0.0
100
AcDbRotatedDimension
1001
ACAD
1000
DSTYLE
1002
{
1070
    40
1040
10.0
1070
    41
1040
2.5
1070
    42
1040
0.625
1070
    43
1040
3.75
1070
    44
1040
1.25
1070
    73
1070
     0
1070
    74
1070
     0
1070
    77
1070
     1
1070
    78
1070
     8
1070
   140
1040
2.5
1070
   141
1040
2.5
1070
   143
1040
0.0394
1070
   147
1040
0.625
1070
   171
1070
     4
1070
   172
1070
     1
1070
   273
1070
     8
1070
   274
1070
     4
1070
   277
1070
     6
1002
}
  0
LINE
  5
B36
330
9DF
100
AcDbEntity
  8
点線
 48
5.0
100
AcDbLine
 10
876.4848019157126
 20
257.5000018241535
 30
0.0
 11
876.4848019157126
 21
232.5000018241535
 31
0.0
  0
POINT
  5
B37
330
9DF
100
AcDbEntity
  8
DEFPOINTS
  6
ByBlock
 62
     0
100
AcDbPoint
 10
976.4848398423763
 20
257.4999981074988
 30
0.0
  0
ENDBLK
  5
B39
330
9DF
100
AcDbEntity
  8
0
 48
10.0
100
AcDbBlockEnd
  0
ENDSEC
  0
SECTION
  2
ENTITIES
  0
MTEXT
  5
2A1
330
18
100
AcDbEntity
  8
WUWAGAKI
100
AcDbMText
 10
1018.005669278764
 20
1553.442351959825
 30
0.0
 40
25.0
 41
0.0
 71
     4
 72
     1
  1
\A1;
 73
     1
 44
1.0
  0
MTEXT
  5
2A3
330
18
100
AcDbEntity
  8
WUWAGAKI
100
AcDbMText
 10
951.6471190124358
 20
1460.340634108605
 30
0.0
 40
25.0
 41
0.0
 71
     6
 72
     1
  1
\A1;
 73
     1
 44
1.0
  0
MTEXT
  5
2A5
330
18
100
AcDbEntity
  8
WUWAGAKI
100
AcDbMText
 10
943.3611889411913
 20
1439.6513596721
 30
0.0
 40
25.0
 41
0.0
 71
     6
 72
     1
  1
\A1;
 73
     1
 44
1.0
  0
MTEXT
  5
2A7
330
18
100
AcDbEntity
  8
WUWAGAKI
100
AcDbMText
 10
1033.541789363156
 20
1560.683598257073
 30
0.0
 40
25.0
 41
0.0
 71
     4
 72
     1
  1
\A1;
 73
     1
 44
1.0
  0
MTEXT
  5
4D6
330
18
100
AcDbEntity
  8
WUWAGAKI
100
AcDbMText
 10
2387.712572267662
 20
1400.742121479525
 30
0.0
 40
18.75
 41
0.0
 71
     4
 72
     1
  1
\A1;
 73
     1
 44
1.0
  0
MTEXT
  5
4DA
330
18
100
AcDbEntity
  8
WUWAGAKI
100
AcDbMText
 10
370.986430000341
 20
463.0848684193534
 30
0.0
 40
18.75
 41
0.0
 71
     6
 72
     1
  1
\A1;
 73
     1
 44
1.0
  0
MTEXT
  5
507
330
18
100
AcDbEntity
  8
WUWAGAKI
100
AcDbMText
 10
2172.863012022839
 20
1634.144884918375
 30
0.0
 40
18.75
 41
0.0
 71
     4
 72
     1
  1
\A1;
 73
     1
 44
1.0
  0
LINE
  5
74D
330
18
100
AcDbEntity
  8
KIZIXYUNN
 48
10.0
100
AcDbLine
 10
968.6275485159745
 20
1427.914641164096
 30
0.0
 11
1042.913248515974
 21
1427.914641164096
 31
0.0
  0
MTEXT
  5
89C
330
18
100
AcDbEntity
  8
WUWAGAKI
 48
10.0
100
AcDbMText
 10
2125.71068610905
 20
1553.520811137873
 30
0.0
 40
25.0
 41
0.0
 71
     6
 72
     1
  1
\A1;
 73
     1
 44
1.0
  0
LINE
  5
F31
330
18
100
AcDbEntity
  8
KIZIXYUNN
 48
10.0
100
AcDbLine
 10
1089.611194445459
 20
1427.914641164096
 30
0.0
 11
1155.611194445459
 21
1427.914641164096
 31
0.0
  0
LINE
  5
1148
330
18
100
AcDbEntity
  8
KIZIXYUNN
 48
10.0
100
AcDbLine
 10
862.6111878800365
 20
1427.914641164096
 30
0.0
 11
905.6111944454592
 21
1427.914641164096
 31
0.0
  0
LINE
  5
1149
330
18
100
AcDbEntity
  8
KIZIXYUNN
 48
10.0
100
AcDbLine
 10
884.1111911627479
 20
1427.914641164096
 30
0.0
 11
884.1111911627479
 21
1319.896833305787
 31
0.0
  0
LINE
  5
120C
330
18
100
AcDbEntity
  8
KIZIXYUNN
 48
10.0
100
AcDbLine
 10
907.6111944454591
 20
1247.914641164096
 30
0.0
 11
1087.611194445459
 21
1247.914641164096
 31
0.0
  0
LINE
  5
120D
330
18
100
AcDbEntity
  8
KIZIXYUNN
 48
10.0
100
AcDbLine
 10
1157.611194445459
 20
1247.914641164096
 30
0.0
 11
1337.611194445459
 21
1247.914641164096
 31
0.0
  0
LINE
  5
1228
330
18
100
AcDbEntity
  8
KIZIXYUNN
 48
10.0
100
AcDbLine
 10
822.6111878800365
 20
1127.914641164096
 30
0.0
 11
822.6111878800365
 21
1092.914641164096
 31
0.0
  0
LINE
  5
1B45
330
18
100
AcDbEntity
  8
KIZIXYUNN
 48
10.0
100
AcDbLine
 10
3583.418588738684
 20
1468.730938264204
 30
0.0
 11
3583.418588738684
 21
1638.810039062772
 31
0.0
  0
LINE
  5
1B46
330
18
100
AcDbEntity
  8
KIZIXYUNN
 48
10.0
100
AcDbLine
 10
3583.418588271703
 20
1415.42479676453
 30
0.0
 11
3583.418588271703
 21
1654.324681432356
 31
0.0
  0
LINE
  5
1B52
330
18
100
AcDbEntity
  8
KIZIXYUNN
 48
10.0
100
AcDbLine
 10
3852.518583837803
 20
1303.730938264204
 30
0.0
 11
3789.318583837804
 21
1303.730938264204
 31
0.0
  0
LINE
  5
1B57
330
18
100
AcDbEntity
  8
KIZIXYUNN
 48
10.0
100
AcDbLine
 10
3612.676192705601
 20
1415.42479676453
 30
0.0
 11
3662.918583837804
 21
1415.42479676453
 31
0.0
  0
LINE
  5
1B58
330
18
100
AcDbEntity
  8
KIZIXYUNN
 48
10.0
100
AcDbLine
 10
3560.918612420472
 20
1468.730938264204
 30
0.0
 11
3605.918565056897
 21
1468.730938264204
 31
0.0
  0
LINE
  5
262D
330
18
100
AcDbEntity
  8
KIZIXYUNN
 48
10.0
100
AcDbLine
 10
5006.198707872334
 20
1236.014490801647
 30
0.0
 11
5006.198707872334
 21
1678.233887782366
 31
0.0
  0
LINE
  5
4752
330
18
100
AcDbEntity
  8
WUWAGAKI
100
AcDbLine
 10
-3117.168640600469
 20
636.0502790998489
 30
0.0
 11
-2753.780389678915
 21
636.0502790998489
 31
0.0
  0
TEXT
  5
4753
330
18
100
AcDbEntity
  8
WUWAGAKI
100
AcDbText
 10
-3015.253000208689
 20
643.9525214403342
 30
0.0
 40
15.0
  1
両面歩車道Ａ (水抜き)
100
AcDbText
  0
LINE
  5
4754
330
18
100
AcDbEntity
  8
WUWAGAKI
100
AcDbLine
 10
-3117.168640600469
 20
527.5668975383714
 30
0.0
 11
-2752.903115566994
 21
527.5668975383714
 31
0.0
  0
LINE
  5
4755
330
18
100
AcDbEntity
  8
WUWAGAKI
100
AcDbLine
 10
-4154.308417506649
 20
504.7337193911039
 30
0.0
 11
-2730.735444631009
 21
504.7337193911039
 31
0.0
  0
TEXT
  5
4756
330
18
100
AcDbEntity
  8
WUWAGAKI
100
AcDbText
 10
-3011.232392495783
 20
579.3672823060187
 30
0.0
 40
15.0
  1
S＝　1：5
100
AcDbText
  0
TEXT
  5
4757
330
18
100
AcDbEntity
  8
WUWAGAKI
100
AcDbText
 10
-3014.42642977866
 20
611.0663364856613
 30
0.0
 40
17.5
  1
150/190 × 200 × 600
100
AcDbText
  0
LINE
  5
4758
330
18
100
AcDbEntity
  8
WUWAGAKI
100
AcDbLine
 10
-3117.168640600469
 20
571.2431293901086
 30
0.0
 11
-2752.903115566994
 21
571.2431293901086
 31
0.0
  0
LINE
  5
4759
330
18
100
AcDbEntity
  8
WUWAGAKI
100
AcDbLine
 10
-3117.168640600469
 20
604.0814841116439
 30
0.0
 11
-2752.903115566994
 21
604.0814841116439
 31
0.0
  0
LINE
  5
475A
330
18
100
AcDbEntity
  8
WUWAGAKI
100
AcDbLine
 10
-3117.168640600469
 20
636.0502790998489
 30
0.0
 11
-2753.780389678915
 21
636.0502790998489
 31
0.0
  0
LINE
  5
475B
330
18
100
AcDbEntity
  8
WUWAGAKI
100
AcDbLine
 10
-3117.168640600469
 20
667.5603750815612
 30
0.0
 11
-2752.903115566994
 21
667.5603750815612
 31
0.0
  0
TEXT
  5
475C
330
18
100
AcDbEntity
  8
WUWAGAKI
100
AcDbText
 10
-3037.60016296731
 20
538.1027531405002
 30
0.0
 40
20.0
  1
㈱　ウ　チ　コ　ン
100
AcDbText
  0
LINE
  5
475D
330
18
100
AcDbEntity
  8
WUWAGAKI
100
AcDbLine
 10
-3117.168640600469
 20
667.5603750815612
 30
0.0
 11
-3117.168640600469
 21
527.5668975383714
 31
0.0
  0
LINE
  5
475E
330
18
100
AcDbEntity
  8
WUWAGAKI
100
AcDbLine
 10
-3033.1298167443
 20
667.5603750815612
 30
0.0
 11
-3033.129816744299
 21
571.2431293901086
 31
0.0
  0
TEXT
  5
475F
330
18
100
AcDbEntity
  8
WUWAGAKI
100
AcDbText
 10
-3102.209159346375
 20
611.0992948266934
 30
0.0
 40
15.0
  1
寸　法
100
AcDbText
  0
TEXT
  5
4760
330
18
100
AcDbEntity
  8
WUWAGAKI
100
AcDbText
 10
-3092.993240092681
 20
578.9333104961997
 30
0.0
 40
15.0
  1
縮尺
100
AcDbText
  0
TEXT
  5
4761
330
18
100
AcDbEntity
  8
WUWAGAKI
100
AcDbText
 10
-3101.324088717568
 20
644.8122415056873
 30
0.0
 40
15.0
  1
種　別
100
AcDbText
  0
LINE
  5
4762
330
18
100
AcDbEntity
  8
WUWAGAKI
100
AcDbLine
 10
-2730.735444631009
 20
504.7337193911039
 30
0.0
 11
-2730.735444631009
 21
1480.117003323145
 31
0.0
  0
LINE
  5
4763
330
18
100
AcDbEntity
  8
WUWAGAKI
100
AcDbLine
 10
-2752.903115566994
 20
527.5668975383714
 30
0.0
 11
-2752.903115566994
 21
667.5603750815612
 31
0.0
  0
LINE
  5
4764
330
18
100
AcDbEntity
  8
WUWAGAKI
100
AcDbLine
 10
-2901.73998801633
 20
604.0814841116439
 30
0.0
 11
-2901.73998801633
 21
571.2431293901086
 31
0.0
  0
TEXT
  5
4765
330
18
100
AcDbEntity
  8
WUWAGAKI
100
AcDbText
 10
-2892.764062765614
 20
579.3837614765325
 30
0.0
 40
15.0
  1
重量
100
AcDbText
  0
TEXT
  5
4766
330
18
100
AcDbEntity
  8
WUWAGAKI
100
AcDbText
 10
-2818.81255126046
 20
578.7376329843445
 30
0.0
 40
15.0
  1
36㎏
100
AcDbText
  0
LINE
  5
4767
330
18
100
AcDbEntity
  8
WUWAGAKI
100
AcDbLine
 10
-2840.33051242889
 20
604.0814841116439
 30
0.0
 11
-2840.33051242889
 21
571.2431293901086
 31
0.0
  0
LINE
  5
4768
330
18
100
AcDbEntity
  8
WUWAGAKI
100
AcDbLine
 10
-2730.735444631009
 20
1480.117003323145
 30
0.0
 11
-4154.308417506649
 21
1480.117003323145
 31
0.0
  0
LINE
  5
4769
330
18
100
AcDbEntity
  8
WUWAGAKI
100
AcDbLine
 10
-4154.308417506649
 20
1480.117003323145
 30
0.0
 11
-4154.308417506649
 21
504.7337193911039
 31
0.0
  0
LINE
  5
483E
330
18
100
AcDbEntity
  8
OBJECT
 48
10.0
100
AcDbLine
 10
-3918.345097448043
 20
884.894558600703
 30
0.0
 11
-3728.345097448043
 21
884.894558600703
 31
0.0
  0
LINE
  5
483F
330
18
100
AcDbEntity
  8
OBJECT
 48
10.0
100
AcDbLine
 10
-3880.245346205802
 20
1084.894558600703
 30
0.0
 11
-3766.444848690285
 21
1084.894558600703
 31
0.0
  0
LINE
  5
4840
330
18
100
AcDbEntity
  8
OBJECT
 48
10.0
100
AcDbLine
 10
-3900.146090010002
 20
1066.884632981123
 30
0.0
 11
-3918.345097448043
 21
884.894558600703
 31
0.0
  0
LINE
  5
4842
330
18
100
AcDbEntity
  8
OBJECT
 48
10.0
100
AcDbLine
 10
-3746.544104886086
 20
1066.884632981123
 30
0.0
 11
-3728.345097448043
 21
884.894558600703
 31
0.0
  0
ARC
  5
4843
330
18
100
AcDbEntity
  8
OBJECT
 48
10.0
100
AcDbCircle
 10
-3880.245346205802
 20
1064.894558600703
 30
0.0
 40
20.0
100
AcDbArc
 50
90.0
 51
174.2894068625003
  0
ARC
  5
4844
330
18
100
AcDbEntity
  8
OBJECT
 48
10.0
100
AcDbCircle
 10
-3766.444848690285
 20
1064.894558600703
 30
0.0
 40
20.0
100
AcDbArc
 50
5.710593137499633
 51
90.0
  0
LINE
  5
4846
330
18
100
AcDbEntity
  8
OBJECT
 48
10.0
100
AcDbLine
 10
-2978.345097448043
 20
884.894558600703
 30
0.0
 11
-2978.345097448043
 21
1084.894558600703
 31
0.0
  0
LINE
  5
4847
330
18
100
AcDbEntity
  8
OBJECT
 48
10.0
100
AcDbLine
 10
-2978.345097448043
 20
1084.894558600703
 30
0.0
 11
-3578.345097448043
 21
1084.894558600703
 31
0.0
  0
LINE
  5
4848
330
18
100
AcDbEntity
  8
OBJECT
 48
10.0
100
AcDbLine
 10
-3578.345097448043
 20
1084.894558600703
 30
0.0
 11
-3578.345097448043
 21
884.894558600703
 31
0.0
  0
LINE
  5
499C
330
18
100
AcDbEntity
  8
OBJECT
 48
10.0
100
AcDbLine
 10
-3578.345097448043
 20
884.894558600703
 30
0.0
 11
-3428.345097448044
 21
884.894558600703
 31
0.0
  0
LINE
  5
49BC
330
18
100
AcDbEntity
  8
OBJECT
 48
10.0
100
AcDbLine
 10
-3128.345097448043
 20
884.894558600703
 30
0.0
 11
-2978.345097448043
 21
884.894558600703
 31
0.0
  0
LINE
  5
49D9
330
18
100
AcDbEntity
  8
OBJECT
 48
10.0
100
AcDbLine
 10
-3428.345097448044
 20
884.894558600703
 30
0.0
 11
-3417.177565409857
 21
959.3447721886104
 31
0.0
  0
LINE
  5
49DA
330
18
100
AcDbEntity
  8
OBJECT
 48
10.0
100
AcDbLine
 10
-3387.509474823808
 20
984.894558600703
 30
0.0
 11
-3169.180720072279
 21
984.894558600703
 31
0.0
  0
LINE
  5
49DB
330
18
100
AcDbEntity
  8
OBJECT
 48
10.0
100
AcDbLine
 10
-3139.51262948623
 20
959.3447721886104
 30
0.0
 11
-3128.345097448043
 21
884.894558600703
 31
0.0
  0
ARC
  5
49DC
330
18
100
AcDbEntity
  8
OBJECT
 48
10.0
100
AcDbCircle
 10
-3387.509474823808
 20
954.8945586007031
 30
0.0
 40
30.0
100
AcDbArc
 50
90.0
 51
171.4692343900518
  0
ARC
  5
49DD
330
18
100
AcDbEntity
  8
OBJECT
 48
10.0
100
AcDbCircle
 10
-3169.180720072279
 20
954.8945586007031
 30
0.0
 40
30.0
100
AcDbArc
 50
8.530765609948126
 51
90.0
  0
LINE
  5
49DE
330
18
100
AcDbEntity
  8
点線
 62
     5
 48
10.0
100
AcDbLine
 10
-3738.345097448044
 20
984.8945586007031
 30
0.0
 11
-3908.345097448044
 21
984.8945586007031
 31
0.0
  0
LINE
  5
4A3A
330
18
100
AcDbEntity
  8
WUWAGAKI
 48
10.0
100
AcDbLine
 10
-3890.329070838582
 20
1074.438625203475
 30
0.0
 11
-3856.598465279052
 21
1021.007775672661
 31
0.0
210
0.0
220
0.0
230
-1.0
1001
ACAD
1000
DSTYLE
1002
{
1070
    78
1070
     8
1070
   270
1070
     8
1070
   140
1040
2.5
1070
    74
1070
     0
1070
   172
1070
     1
1070
    73
1070
     0
1070
    77
1070
     1
1070
    40
1040
10.0
1070
   147
1040
0.625
1070
    42
1040
0.625
1070
    44
1040
1.25
1070
    43
1040
3.75
1070
   141
1040
2.5
1070
    41
1040
2.5
1070
   273
1070
     8
1070
   274
1070
     4
1070
   143
1040
0.0394
1070
   171
1070
     4
1002
}
  0
LINE
  5
4A3B
330
18
100
AcDbEntity
  8
OBJECT
 48
10.0
100
AcDbLine
 10
-4028.345094526904
 20
1084.894549993212
 30
0.0
 11
-4028.345094526904
 21
884.8945499932124
 31
0.0
  0
LINE
  5
4A42
330
18
100
AcDbEntity
  8
OBJECT
 48
10.0
100
AcDbLine
 10
-3728.345106055534
 20
774.8945615218429
 30
0.0
 11
-3918.345097448043
 21
774.8945615218428
 31
0.0
  0
SOLID
  5
4A45
330
18
100
AcDbEntity
  8
0
  6
ByBlock
 62
     0
 48
10.0
100
AcDbTrace
 10
-4026.26176411471
 20
897.3945696674929
 30
0.0
 11
-4030.428430781377
 21
897.3945696674929
 31
0.0
 12
-4028.345097448045
 22
884.8945696674929
 32
0.0
 13
-4028.345097448045
 23
884.8945696674929
 33
0.0
  0
LINE
  5
4A46
330
18
100
AcDbEntity
  8
0
 48
10.0
100
AcDbLine
 10
-3918.345097448043
 20
874.894558600703
 30
0.0
 11
-3918.345097448043
 21
764.894558600703
 31
0.0
  0
SOLID
  5
4A47
330
18
100
AcDbEntity
  8
0
  6
ByBlock
 62
     0
 48
10.0
100
AcDbTrace
 10
-3905.845086381253
 20
776.9778919340369
 30
0.0
 11
-3905.845086381253
 21
772.81122526737
 31
0.0
 12
-3918.345086381254
 22
774.894558600703
 32
0.0
 13
-3918.345086381254
 23
774.894558600703
 33
0.0
  0
LINE
  5
4A48
330
18
100
AcDbEntity
  8
0
 48
10.0
100
AcDbLine
 10
-3928.345097448044
 20
884.894558600703
 30
0.0
 11
-4038.345097448043
 21
884.894558600703
 31
0.0
  0
MTEXT
  5
4A49
330
18
100
AcDbEntity
  8
0
  6
ByBlock
 62
     0
 48
10.0
100
AcDbMText
 10
-4038.345097448043
 20
984.894558600703
 30
0.0
 40
12.5
 41
0.0
 71
     5
 72
     1
  1
200
 11
0.0000000000000001
 21
1.0
 31
0.0
 73
     1
 44
1.0
  0
LINE
  5
4A5F
330
18
100
AcDbEntity
  8
0
 48
10.0
100
AcDbLine
 10
-3728.345097448043
 20
874.894558600703
 30
0.0
 11
-3728.345097448043
 21
764.894558600703
 31
0.0
  0
MTEXT
  5
4A60
330
18
100
AcDbEntity
  8
0
  6
ByBlock
 62
     0
 48
10.0
100
AcDbMText
 10
-3823.345097448044
 20
784.8945644429825
 30
0.0
 40
12.5
 41
0.0
 71
     5
 72
     1
  1
190
 73
     1
 44
1.0
  0
SOLID
  5
4A61
330
18
100
AcDbEntity
  8
0
  6
ByBlock
 62
     0
 48
10.0
100
AcDbTrace
 10
-3740.845097448051
 20
776.9778919340358
 30
0.0
 11
-3740.845097448051
 21
772.8112252673688
 31
0.0
 12
-3728.34509744805
 22
774.8945586007018
 32
0.0
 13
-3728.34509744805
 23
774.8945586007018
 33
0.0
  0
LINE
  5
4A62
330
18
100
AcDbEntity
  8
OBJECT
 48
10.0
100
AcDbLine
 10
-3856.598465279052
 20
1021.007775672661
 30
0.0
 11
-3821.598465279052
 21
1021.007775672661
 31
0.0
  0
MTEXT
  5
4A63
330
18
100
AcDbEntity
  8
0
  6
ByBlock
 62
     0
 48
10.0
100
AcDbMText
 10
-3839.098465279052
 20
1031.007775672661
 30
0.0
 40
10.0
 41
0.0
 71
     5
 72
     1
  1
20R
 73
     1
 44
1.0
  0
LINE
  5
4A64
330
18
100
AcDbEntity
  8
OBJECT
 48
10.0
100
AcDbLine
 10
-3748.345106055534
 20
1194.894555679563
 30
0.0
 11
-3898.345097448044
 21
1194.894555679563
 31
0.0
  0
LINE
  5
4A65
330
18
100
AcDbEntity
  8
上線
100
AcDbLine
 10
-3830.842737584251
 20
1328.129341619533
 30
0.0
 11
-3917.847454390695
 21
1328.129341619533
 31
0.0
  0
LINE
  5
4A66
330
18
100
AcDbEntity
  8
上線
100
AcDbLine
 10
-3831.842737334251
 20
1327.129341869533
 30
0.0
 11
-3916.847454640695
 21
1327.129341869533
 31
0.0
  0
LINE
  5
4A67
330
18
100
AcDbEntity
  8
上線
100
AcDbLine
 10
-3917.847454390695
 20
1294.894555679563
 30
0.0
 11
-3830.842737584251
 21
1294.894555679563
 31
0.0
  0
LINE
  5
4A68
330
18
100
AcDbEntity
  8
上線
100
AcDbLine
 10
-3916.847454640695
 20
1295.894555429563
 30
0.0
 11
-3831.842737334251
 21
1295.894555429563
 31
0.0
  0
MTEXT
  5
4A69
330
18
100
AcDbEntity
  8
上線
 48
10.0
100
AcDbMText
 10
-3909.829166586909
 20
1322.276566171156
 30
0.0
 40
16.6666625
 41
186.068586816175
 71
     1
 72
     5
  1
\fＭＳ Ｐ明朝|b0|i0|c128|p18;側面図
 73
     1
 44
1.0
  0
LINE
  5
4A6C
330
18
100
AcDbEntity
  8
0
 48
10.0
100
AcDbLine
 10
-3898.345097448044
 20
1094.894558600703
 30
0.0
 11
-3898.345097448044
 21
1204.894558600703
 31
0.0
  0
LINE
  5
4A6D
330
18
100
AcDbEntity
  8
0
 48
10.0
100
AcDbLine
 10
-3928.345097448044
 20
1084.894558600703
 30
0.0
 11
-4038.345097448043
 21
1084.894558600703
 31
0.0
  0
SOLID
  5
4A6E
330
18
100
AcDbEntity
  8
0
  6
ByBlock
 62
     0
 48
10.0
100
AcDbTrace
 10
-4026.261764114711
 20
1072.394558600696
 30
0.0
 11
-4030.428430781379
 21
1072.394558600696
 31
0.0
 12
-4028.345097448045
 22
1084.894558600696
 32
0.0
 13
-4028.345097448045
 23
1084.894558600696
 33
0.0
  0
SOLID
  5
4A6F
330
18
100
AcDbEntity
  8
0
  6
ByBlock
 62
     0
 48
10.0
100
AcDbTrace
 10
-3888.69549896231
 20
1068.066429578175
 30
0.0
 11
-3885.183438178382
 21
1070.308424261734
 31
0.0
 12
-3893.665452621021
 22
1079.72360927174
 32
0.0
 13
-3893.665452621021
 23
1079.72360927174
 33
0.0
  0
SOLID
  5
4A71
330
18
100
AcDbEntity
  8
0
  6
ByBlock
 62
     0
 48
10.0
100
AcDbTrace
 10
-3885.845086381254
 20
1192.811225267369
 30
0.0
 11
-3885.845086381254
 21
1196.977891934036
 31
0.0
 12
-3898.345086381254
 22
1194.894558600702
 32
0.0
 13
-3898.345086381254
 23
1194.894558600702
 33
0.0
  0
LINE
  5
4A72
330
18
100
AcDbEntity
  8
上線
100
AcDbLine
 10
-3917.847454390695
 20
1328.129341619533
 30
0.0
 11
-3917.847454390695
 21
1294.894555679563
 31
0.0
  0
LINE
  5
4A73
330
18
100
AcDbEntity
  8
上線
100
AcDbLine
 10
-3916.847454640695
 20
1327.129341869533
 30
0.0
 11
-3916.847454640695
 21
1295.894555429563
 31
0.0
  0
MTEXT
  5
4A76
330
18
100
AcDbEntity
  8
0
  6
ByBlock
 62
     0
 48
10.0
100
AcDbMText
 10
-3823.345097448044
 20
1204.894558600703
 30
0.0
 40
12.5
 41
0.0
 71
     5
 72
     1
  1
150
 73
     1
 44
1.0
  0
LINE
  5
4A78
330
18
100
AcDbEntity
  8
0
 48
10.0
100
AcDbLine
 10
-3748.345097448044
 20
1094.894558600703
 30
0.0
 11
-3748.345097448044
 21
1204.894558600703
 31
0.0
  0
SOLID
  5
4A7B
330
18
100
AcDbEntity
  8
0
  6
ByBlock
 62
     0
 48
10.0
100
AcDbTrace
 10
-3760.84509744805
 20
1192.81122526737
 30
0.0
 11
-3760.84509744805
 21
1196.977891934037
 31
0.0
 12
-3748.34509744805
 22
1194.894558600704
 32
0.0
 13
-3748.34509744805
 23
1194.894558600704
 33
0.0
  0
LINE
  5
4A7D
330
18
100
AcDbEntity
  8
上線
100
AcDbLine
 10
-3830.842737584251
 20
1294.894555679563
 30
0.0
 11
-3830.842737584251
 21
1328.129341619533
 31
0.0
  0
LINE
  5
4A7E
330
18
100
AcDbEntity
  8
上線
100
AcDbLine
 10
-3831.842737334251
 20
1295.894555429563
 30
0.0
 11
-3831.842737334251
 21
1327.129341869533
 31
0.0
  0
LINE
  5
4B2C
330
18
100
AcDbEntity
  8
OBJECT
 48
10.0
100
AcDbLine
 10
-2978.345106055534
 20
1194.894555679563
 30
0.0
 11
-3578.345106055534
 21
1194.894555679563
 31
0.0
  0
LINE
  5
4B2D
330
18
100
AcDbEntity
  8
0
 48
10.0
100
AcDbLine
 10
-3578.345097448043
 20
1094.894558600703
 30
0.0
 11
-3578.345097448043
 21
1204.894558600703
 31
0.0
  0
SOLID
  5
4B2E
330
18
100
AcDbEntity
  8
0
  6
ByBlock
 62
     0
 48
10.0
100
AcDbTrace
 10
-3565.845086381254
 20
1192.811225267369
 30
0.0
 11
-3565.845086381254
 21
1196.977891934036
 31
0.0
 12
-3578.345086381254
 22
1194.894558600702
 32
0.0
 13
-3578.345086381254
 23
1194.894558600702
 33
0.0
  0
LINE
  5
4B2F
330
18
100
AcDbEntity
  8
0
 48
10.0
100
AcDbLine
 10
-2978.345097448043
 20
1094.894558600703
 30
0.0
 11
-2978.345097448043
 21
1204.894558600703
 31
0.0
  0
MTEXT
  5
4B30
330
18
100
AcDbEntity
  8
0
  6
ByBlock
 62
     0
 48
10.0
100
AcDbMText
 10
-3278.345097448044
 20
1204.894558600703
 30
0.0
 40
12.5
 41
0.0
 71
     5
 72
     1
  1
600
 73
     1
 44
1.0
  0
SOLID
  5
4B31
330
18
100
AcDbEntity
  8
0
  6
ByBlock
 62
     0
 48
10.0
100
AcDbTrace
 10
-2990.84509744805
 20
1192.81122526737
 30
0.0
 11
-2990.84509744805
 21
1196.977891934037
 31
0.0
 12
-2978.34509744805
 22
1194.894558600704
 32
0.0
 13
-2978.34509744805
 23
1194.894558600704
 33
0.0
  0
SOLID
  5
4B37
330
18
100
AcDbEntity
  8
0
  6
ByBlock
 62
     0
 48
10.0
100
AcDbTrace
 10
-2870.428430781376
 20
972.3945586006962
 30
0.0
 11
-2866.261764114709
 21
972.3945586006962
 31
0.0
 12
-2868.345097448042
 22
984.8945586006962
 32
0.0
 13
-2868.345097448042
 23
984.8945586006962
 33
0.0
  0
LINE
  5
4B38
330
18
100
AcDbEntity
  8
OBJECT
 48
10.0
100
AcDbLine
 10
-2868.345100369183
 20
1084.894558600703
 30
0.0
 11
-2868.345100369183
 21
884.8945499932124
 31
0.0
  0
LINE
  5
4B39
330
18
100
AcDbEntity
  8
0
 48
10.0
100
AcDbLine
 10
-2968.345097448044
 20
884.894558600703
 30
0.0
 11
-2858.345097448044
 21
884.894558600703
 31
0.0
  0
SOLID
  5
4B3A
330
18
100
AcDbEntity
  8
0
  6
ByBlock
 62
     0
 48
10.0
100
AcDbTrace
 10
-2870.428430781378
 20
897.3945696674929
 30
0.0
 11
-2866.26176411471
 21
897.3945696674929
 31
0.0
 12
-2868.345097448044
 22
884.8945696674929
 32
0.0
 13
-2868.345097448044
 23
884.8945696674929
 33
0.0
  0
MTEXT
  5
4B3B
330
18
100
AcDbEntity
  8
0
  6
ByBlock
 62
     0
 48
10.0
100
AcDbMText
 10
-2878.345103290323
 20
934.894558600703
 30
0.0
 40
12.5
 41
0.0
 71
     5
 72
     1
  1
100
 11
0.0000000000000001
 21
1.0
 31
0.0
 73
     1
 44
1.0
  0
LINE
  5
4B3C
330
18
100
AcDbEntity
  8
0
 48
10.0
100
AcDbLine
 10
-2968.345097448044
 20
984.894558600703
 30
0.0
 11
-2858.345097448044
 21
984.894558600703
 31
0.0
  0
MTEXT
  5
4B47
330
18
100
AcDbEntity
  8
上線
 48
10.0
100
AcDbMText
 10
-3313.82918526246
 20
1322.276561405552
 30
0.0
 40
16.6666625
 41
186.0686
 71
     1
 72
     5
  1
正面図
 73
     1
 44
1.0
  0
LINE
  5
4B48
330
18
100
AcDbEntity
  8
上線
100
AcDbLine
 10
-3235.842756009803
 20
1327.129337103928
 30
0.0
 11
-3320.847473316247
 21
1327.129337103928
 31
0.0
  0
LINE
  5
4B49
330
18
100
AcDbEntity
  8
上線
100
AcDbLine
 10
-3234.842756259803
 20
1328.129336853928
 30
0.0
 11
-3321.847473066247
 21
1328.129336853928
 31
0.0
  0
LINE
  5
4B4A
330
18
100
AcDbEntity
  8
上線
100
AcDbLine
 10
-3320.847473316247
 20
1295.894550663958
 30
0.0
 11
-3235.842756009803
 21
1295.894550663958
 31
0.0
  0
LINE
  5
4B4B
330
18
100
AcDbEntity
  8
上線
100
AcDbLine
 10
-3321.847473066247
 20
1294.894550913958
 30
0.0
 11
-3234.842756259803
 21
1294.894550913958
 31
0.0
  0
LINE
  5
4B4C
330
18
100
AcDbEntity
  8
上線
100
AcDbLine
 10
-3320.847473316247
 20
1327.129337103928
 30
0.0
 11
-3320.847473316247
 21
1295.894550663958
 31
0.0
  0
LINE
  5
4B4D
330
18
100
AcDbEntity
  8
上線
100
AcDbLine
 10
-3321.847473066247
 20
1328.129336853928
 30
0.0
 11
-3321.847473066247
 21
1294.894550913958
 31
0.0
  0
LINE
  5
4B4E
330
18
100
AcDbEntity
  8
上線
100
AcDbLine
 10
-3235.842756009803
 20
1295.894550663958
 30
0.0
 11
-3235.842756009803
 21
1327.129337103928
 31
0.0
  0
LINE
  5
4B4F
330
18
100
AcDbEntity
  8
上線
100
AcDbLine
 10
-3234.842756259803
 20
1294.894550913958
 30
0.0
 11
-3234.842756259803
 21
1328.129336853928
 31
0.0
  0
SOLID
  5
4B50
330
18
100
AcDbEntity
  8
0
  6
ByBlock
 62
     0
 48
10.0
100
AcDbTrace
 10
-2870.428430781376
 20
997.3945586007099
 30
0.0
 11
-2866.261764114709
 21
997.3945586007099
 31
0.0
 12
-2868.345097448042
 22
984.8945586007099
 32
0.0
 13
-2868.345097448042
 23
984.8945586007099
 33
0.0
  0
LINE
  5
4B51
330
18
100
AcDbEntity
  8
0
 48
10.0
100
AcDbLine
 10
-2968.345097448044
 20
1084.894558600703
 30
0.0
 11
-2858.345097448044
 21
1084.894558600703
 31
0.0
  0
SOLID
  5
4B52
330
18
100
AcDbEntity
  8
0
  6
ByBlock
 62
     0
 48
10.0
100
AcDbTrace
 10
-2870.428430781378
 20
1072.394547533913
 30
0.0
 11
-2866.26176411471
 21
1072.394547533913
 31
0.0
 12
-2868.345097448044
 22
1084.894547533913
 32
0.0
 13
-2868.345097448044
 23
1084.894547533913
 33
0.0
  0
MTEXT
  5
4B53
330
18
100
AcDbEntity
  8
0
  6
ByBlock
 62
     0
 48
10.0
100
AcDbMText
 10
-2878.345103290323
 20
1034.894558600703
 30
0.0
 40
12.5
 41
0.0
 71
     5
 72
     1
  1
100
 11
0.0000000000000001
 21
1.0
 31
0.0
 73
     1
 44
1.0
  0
LINE
  5
4B5D
330
18
100
AcDbEntity
  8
WUWAGAKI
 48
10.0
100
AcDbLine
 10
-3403.74978316461
 20
972.3417808445976
 30
0.0
 11
-3370.01917760508
 21
918.9109313137844
 31
0.0
210
0.0
220
0.0
230
-1.0
1001
ACAD
1000
DSTYLE
1002
{
1070
    78
1070
     8
1070
   270
1070
     8
1070
   140
1040
2.5
1070
    74
1070
     0
1070
   172
1070
     1
1070
    73
1070
     0
1070
    77
1070
     1
1070
    40
1040
10.0
1070
   147
1040
0.625
1070
    42
1040
0.625
1070
    44
1040
1.25
1070
    43
1040
3.75
1070
   141
1040
2.5
1070
    41
1040
2.5
1070
   273
1070
     8
1070
   274
1070
     4
1070
   143
1040
0.0394
1070
   171
1070
     4
1002
}
  0
LINE
  5
4B5E
330
18
100
AcDbEntity
  8
OBJECT
 48
10.0
100
AcDbLine
 10
-3370.01917760508
 20
918.9109313137844
 30
0.0
 11
-3335.01917760508
 21
918.9109313137844
 31
0.0
  0
MTEXT
  5
4B5F
330
18
100
AcDbEntity
  8
0
  6
ByBlock
 62
     0
 48
10.0
100
AcDbMText
 10
-3352.51917760508
 20
928.9109313137844
 30
0.0
 40
10.0
 41
0.0
 71
     5
 72
     1
  1
30R
 73
     1
 44
1.0
  0
SOLID
  5
4B60
330
18
100
AcDbEntity
  8
0
  6
ByBlock
 62
     0
 48
10.0
100
AcDbTrace
 10
-3402.116211288339
 20
965.969585219298
 30
0.0
 11
-3398.60415050441
 21
968.211579902857
 31
0.0
 12
-3407.086164947048
 22
977.626764912863
 32
0.0
 13
-3407.086164947048
 23
977.626764912863
 33
0.0
  0
LINE
  5
4B74
330
18
100
AcDbEntity
  8
0
 48
10.0
100
AcDbLine
 10
-3578.345097448043
 20
874.894558600703
 30
0.0
 11
-3578.345097448043
 21
764.894558600703
 31
0.0
  0
LINE
  5
4B75
330
18
100
AcDbEntity
  8
0
 48
10.0
100
AcDbLine
 10
-3428.345097448044
 20
874.894558600703
 30
0.0
 11
-3428.345097448044
 21
764.894558600703
 31
0.0
  0
LINE
  5
4B78
330
18
100
AcDbEntity
  8
OBJECT
 48
10.0
100
AcDbLine
 10
-2978.345106055534
 20
774.8945615218429
 30
0.0
 11
-3578.345097448043
 21
774.8945615218426
 31
0.0
  0
MTEXT
  5
4B7A
330
18
100
AcDbEntity
  8
0
  6
ByBlock
 62
     0
 48
10.0
100
AcDbMText
 10
-3503.345097448043
 20
784.8945644429825
 30
0.0
 40
12.5
 41
0.0
 71
     5
 72
     1
  1
150
 73
     1
 44
1.0
  0
SOLID
  5
4B7B
330
18
100
AcDbEntity
  8
0
  6
ByBlock
 62
     0
 48
10.0
100
AcDbTrace
 10
-3565.845086381254
 20
776.9778919340369
 30
0.0
 11
-3565.845086381254
 21
772.81122526737
 31
0.0
 12
-3578.345086381254
 22
774.894558600703
 32
0.0
 13
-3578.345086381254
 23
774.894558600703
 33
0.0
  0
SOLID
  5
4B7D
330
18
100
AcDbEntity
  8
0
  6
ByBlock
 62
     0
 48
10.0
100
AcDbTrace
 10
-3440.84509744805
 20
776.9778919340358
 30
0.0
 11
-3440.84509744805
 21
772.8112252673688
 31
0.0
 12
-3428.345097448051
 22
774.8945586007018
 32
0.0
 13
-3428.345097448051
 23
774.8945586007018
 33
0.0
  0
LINE
  5
4B8C
330
18
100
AcDbEntity
  8
0
 48
10.0
100
AcDbLine
 10
-3143.345097448044
 20
874.894558600703
 30
0.0
 11
-3143.345097448044
 21
814.894558600703
 31
0.0
  0
LINE
  5
4B8D
330
18
100
AcDbEntity
  8
0
 48
10.0
100
AcDbLine
 10
-3413.345097448043
 20
874.894558600703
 30
0.0
 11
-3413.345097448043
 21
814.894558600703
 31
0.0
  0
LINE
  5
4B8E
330
18
100
AcDbEntity
  8
OBJECT
 48
10.0
100
AcDbLine
 10
-3128.345097448044
 20
824.8945615218428
 30
0.0
 11
-3428.345097448044
 21
824.8945615218426
 31
0.0
  0
SOLID
  5
4B8F
330
18
100
AcDbEntity
  8
0
  6
ByBlock
 62
     0
 48
10.0
100
AcDbTrace
 10
-3400.845086381254
 20
826.9778919340369
 30
0.0
 11
-3400.845086381254
 21
822.81122526737
 31
0.0
 12
-3413.345086381254
 22
824.894558600703
 32
0.0
 13
-3413.345086381254
 23
824.894558600703
 33
0.0
  0
MTEXT
  5
4B90
330
18
100
AcDbEntity
  8
0
  6
ByBlock
 62
     0
 48
10.0
100
AcDbMText
 10
-3278.345097448044
 20
834.8945644429825
 30
0.0
 40
12.5
 41
0.0
 71
     5
 72
     1
  1
270
 73
     1
 44
1.0
  0
SOLID
  5
4B91
330
18
100
AcDbEntity
  8
0
  6
ByBlock
 62
     0
 48
10.0
100
AcDbTrace
 10
-3155.84509744805
 20
826.9778919340359
 30
0.0
 11
-3155.84509744805
 21
822.8112252673689
 31
0.0
 12
-3143.345097448051
 22
824.8945586007019
 32
0.0
 13
-3143.345097448051
 23
824.8945586007019
 33
0.0
  0
SOLID
  5
4B93
330
18
100
AcDbEntity
  8
0
  6
ByBlock
 62
     0
 48
10.0
100
AcDbTrace
 10
-3415.845097448037
 20
776.9778919340358
 30
0.0
 11
-3415.845097448037
 21
772.8112252673688
 31
0.0
 12
-3428.345097448037
 22
774.8945586007018
 32
0.0
 13
-3428.345097448037
 23
774.8945586007018
 33
0.0
  0
SOLID
  5
4B94
330
18
100
AcDbEntity
  8
0
  6
ByBlock
 62
     0
 48
10.0
100
AcDbTrace
 10
-3140.845106055541
 20
776.9778919340358
 30
0.0
 11
-3140.845106055541
 21
772.8112252673688
 31
0.0
 12
-3128.345106055541
 22
774.8945586007018
 32
0.0
 13
-3128.345106055541
 23
774.8945586007018
 33
0.0
  0
SOLID
  5
4B95
330
18
100
AcDbEntity
  8
0
  6
ByBlock
 62
     0
 48
10.0
100
AcDbTrace
 10
-3115.845106055527
 20
776.9778919340358
 30
0.0
 11
-3115.845106055527
 21
772.8112252673688
 31
0.0
 12
-3128.345106055527
 22
774.8945586007018
 32
0.0
 13
-3128.345106055527
 23
774.8945586007018
 33
0.0
  0
LINE
  5
4B96
330
18
100
AcDbEntity
  8
0
 48
10.0
100
AcDbLine
 10
-3128.345106055534
 20
874.894558600703
 30
0.0
 11
-3128.345106055534
 21
764.894558600703
 31
0.0
  0
SOLID
  5
4B97
330
18
100
AcDbEntity
  8
0
  6
ByBlock
 62
     0
 48
10.0
100
AcDbTrace
 10
-2990.845117122324
 20
776.9778919340369
 30
0.0
 11
-2990.845117122324
 21
772.81122526737
 31
0.0
 12
-2978.345117122324
 22
774.894558600703
 32
0.0
 13
-2978.345117122324
 23
774.894558600703
 33
0.0
  0
LINE
  5
4B98
330
18
100
AcDbEntity
  8
0
 48
10.0
100
AcDbLine
 10
-2978.345106055534
 20
874.894558600703
 30
0.0
 11
-2978.345106055534
 21
764.894558600703
 31
0.0
  0
MTEXT
  5
4B99
330
18
100
AcDbEntity
  8
0
  6
ByBlock
 62
     0
 48
10.0
100
AcDbMText
 10
-3278.345097448044
 20
784.8945644429825
 30
0.0
 40
12.5
 41
0.0
 71
     5
 72
     1
  1
300
 73
     1
 44
1.0
  0
MTEXT
  5
4B9A
330
18
100
AcDbEntity
  8
0
  6
ByBlock
 62
     0
 48
10.0
100
AcDbMText
 10
-3053.345106055534
 20
784.8945644429825
 30
0.0
 40
12.5
 41
0.0
 71
     5
 72
     1
  1
150
 73
     1
 44
1.0
  0
MTEXT
  5
4BA2
330
18
100
AcDbEntity
  8
0
  6
ByBlock
 62
     0
 48
10.0
100
AcDbMText
 10
-3453.345099424573
 20
834.8945615218426
 30
0.0
 40
12.5
 41
0.0
 71
     5
 72
     1
  1
15
 73
     1
 44
1.0
  0
LINE
  5
4BA3
330
18
100
AcDbEntity
  8
OBJECT
 48
10.0
100
AcDbLine
 10
-3428.345097448044
 20
824.8945615218426
 30
0.0
 11
-3465.845097448044
 21
824.8945615218426
 31
0.0
  0
SOLID
  5
4BA4
330
18
100
AcDbEntity
  8
0
  6
ByBlock
 62
     0
 48
10.0
100
AcDbTrace
 10
-3440.845101401096
 20
822.8112281885099
 30
0.0
 11
-3440.845101401096
 21
826.9778948551769
 31
0.0
 12
-3428.345101401096
 22
824.8945615218438
 32
0.0
 13
-3428.345101401096
 23
824.8945615218438
 33
0.0
  0
SOLID
  5
4BA5
330
18
100
AcDbEntity
  8
0
  6
ByBlock
 62
     0
 48
10.0
100
AcDbTrace
 10
-3115.845093494991
 20
822.8112281885099
 30
0.0
 11
-3115.845093494991
 21
826.9778948551769
 31
0.0
 12
-3128.345093494992
 22
824.8945615218438
 32
0.0
 13
-3128.345093494992
 23
824.8945615218438
 33
0.0
  0
LINE
  5
4BA6
330
18
100
AcDbEntity
  8
OBJECT
 48
10.0
100
AcDbLine
 10
-3128.345097448044
 20
824.8945615218426
 30
0.0
 11
-3090.845097448044
 21
824.8945615218426
 31
0.0
  0
MTEXT
  5
4BA7
330
18
100
AcDbEntity
  8
0
  6
ByBlock
 62
     0
 48
10.0
100
AcDbMText
 10
-3103.345099424573
 20
834.8945615218426
 30
0.0
 40
12.5
 41
0.0
 71
     5
 72
     1
  1
15
 73
     1
 44
1.0
  0
ENDSEC
  0
SECTION
  2
OBJECTS
  0
DICTIONARY
  5
C
330
0
100
AcDbDictionary
281
     1
  3
ACAD_GROUP
350
D
  3
ACAD_LAYOUT
350
121F
  3
ACAD_MLINESTYLE
350
1B
  3
ACAD_PLOTSETTINGS
350
1220
  3
ACAD_PLOTSTYLENAME
350
121D
  3
CONTENTDICTIONARY
350
11A
  0
DICTIONARY
  5
D
102
{ACAD_REACTORS
330
C
102
}
330
C
100
AcDbDictionary
281
     1
  3
*A1
350
3115
  3
*A2
350
4453
  3
*A3
350
471F
  0
DICTIONARY
  5
121F
102
{ACAD_REACTORS
330
C
102
}
330
C
100
AcDbDictionary
281
     1
  3
Model
350
1221
  3
ﾚｲｱｳﾄ1
350
1222
  0
DICTIONARY
  5
1B
102
{ACAD_REACTORS
330
C
102
}
330
C
100
AcDbDictionary
281
     1
  3
STANDARD
350
1C
  0
DICTIONARY
  5
1220
102
{ACAD_REACTORS
330
C
102
}
330
C
100
AcDbDictionary
281
     1
  0
ACDBDICTIONARYWDFLT
  5
121D
102
{ACAD_REACTORS
330
C
102
}
330
C
100
AcDbDictionary
281
     1
  3
Normal
350
121E
100
AcDbDictionaryWithDefault
340
121E
  0
DICTIONARY
  5
11A
102
{ACAD_REACTORS
330
C
102
}
330
C
100
AcDbDictionary
281
     1
  0
GROUP
  5
3115
102
{ACAD_REACTORS
330
D
102
}
330
D
100
AcDbGroup
300

 70
     1
 71
     1
  0
GROUP
  5
4453
102
{ACAD_REACTORS
330
D
102
}
330
D
100
AcDbGroup
300

 70
     1
 71
     1
  0
GROUP
  5
471F
102
{ACAD_REACTORS
330
D
102
}
330
D
100
AcDbGroup
300

 70
     1
 71
     1
  0
LAYOUT
  5
1221
102
{ACAD_REACTORS
330
121F
102
}
330
121F
100
AcDbPlotSettings
  1

  2
Canon LBP3800 LIPSLX
  4
A4
  6

 40
5.873749732971191
 41
5.873747825622558
 42
5.873748779296875
 43
5.873748779296875
 44
209.9733276367187
 45
296.9259948730469
 46
0.0
 47
0.0
 48
0.0
 49
0.0
140
0.0
141
0.0
142
1.0
143
1.0
 70
 11952
 72
     1
 73
     1
 74
     0
  7

 75
     0
147
1.0
148
2303.945699531905
149
285.2784225387868
100
AcDbLayout
  1
Model
 70
     1
 71
     0
 10
0.0
 20
0.0
 11
12.0
 21
9.0
 12
0.0
 22
0.0
 32
0.0
 14
0.0
 24
0.0
 34
0.0
 15
0.0
 25
0.0
 35
0.0
146
0.0
 13
0.0
 23
0.0
 33
0.0
 16
1.0
 26
0.0
 36
0.0
 17
0.0
 27
1.0
 37
0.0
 76
     0
330
18
  0
LAYOUT
  5
1222
102
{ACAD_REACTORS
330
121F
102
}
330
121F
100
AcDbPlotSettings
  1

  2
Canon LBP3800 LIPSLX
  4

  6

 40
0.0
 41
0.0
 42
0.0
 43
0.0
 44
0.0
 45
0.0
 46
0.0
 47
0.0
 48
0.0
 49
0.0
140
0.0
141
0.0
142
1.0
143
1.0
 70
   688
 72
     0
 73
     0
 74
     5
  7

 75
    16
147
1.0
148
0.0
149
0.0
100
AcDbLayout
  1
ﾚｲｱｳﾄ1
 70
     1
 71
     1
 10
0.0
 20
0.0
 11
420.0
 21
297.0
 12
0.0
 22
0.0
 32
0.0
 14
1.000000000000000E+20
 24
1.000000000000000E+20
 34
1.000000000000000E+20
 15
-1.000000000000000E+20
 25
-1.000000000000000E+20
 35
-1.000000000000000E+20
146
0.0
 13
0.0
 23
0.0
 33
0.0
 16
1.0
 26
0.0
 36
0.0
 17
0.0
 27
1.0
 37
0.0
 76
     0
330
15
  0
MLINESTYLE
  5
1C
102
{ACAD_REACTORS
330
1B
102
}
330
1B
100
AcDbMlineStyle
  2
STANDARD
 70
     0
  3

 62
   256
 51
90.0
 52
90.0
 71
     2
 49
0.5
 62
   256
  6
BYLAYER
 49
-0.5
 62
   256
  6
BYLAYER
  0
ACDBPLACEHOLDER
  5
121E
102
{ACAD_REACTORS
330
121D
102
}
330
121D
  0
ENDSEC
  0
EOF
