  0
SECTION
  2
HEADER
  9
$ACADVER
  1
AC1015
  9
$ACADMAINTVER
 70
     6
  9
$DWGCODEPAGE
  3
ANSI_932
  9
$INSBASE
 10
0.0
 20
0.0
 30
0.0
  9
$EXTMIN
 10
710.0813698183028
 20
984.8549298695507
 30
0.0
  9
$EXTMAX
 10
8873.539972893871
 20
6350.283708942551
 30
0.0
  9
$LIMMIN
 10
0.0
 20
0.0
  9
$LIMMAX
 10
4455.0
 20
3150.0
  9
$ORTHOMODE
 70
     0
  9
$REGENMODE
 70
     1
  9
$FILLMODE
 70
     1
  9
$QTEXTMODE
 70
     0
  9
$MIRRTEXT
 70
     1
  9
$LTSCALE
 40
5.0
  9
$ATTMODE
 70
     1
  9
$TEXTSIZE
 40
2.5
  9
$TRACEWID
 40
1.0
  9
$TEXTSTYLE
  7
STANDARD
  9
$CLAYER
  8
OBJECT
  9
$CELTYPE
  6
BYLAYER
  9
$CECOLOR
 62
   256
  9
$CELTSCALE
 40
1.0
  9
$DISPSILH
 70
     0
  9
$DIMSCALE
 40
15.0
  9
$DIMASZ
 40
2.5
  9
$DIMEXO
 40
0.625
  9
$DIMDLI
 40
3.75
  9
$DIMRND
 40
0.0
  9
$DIMDLE
 40
0.0
  9
$DIMEXE
 40
1.25
  9
$DIMTP
 40
0.0
  9
$DIMTM
 40
0.0
  9
$DIMTXT
 40
2.5
  9
$DIMCEN
 40
2.5
  9
$DIMTSZ
 40
0.0
  9
$DIMTOL
 70
     0
  9
$DIMLIM
 70
     0
  9
$DIMTIH
 70
     0
  9
$DIMTOH
 70
     0
  9
$DIMSE1
 70
     0
  9
$DIMSE2
 70
     0
  9
$DIMTAD
 70
     1
  9
$DIMZIN
 70
     8
  9
$DIMBLK
  1

  9
$DIMASO
 70
     1
  9
$DIMSHO
 70
     1
  9
$DIMPOST
  1

  9
$DIMAPOST
  1

  9
$DIMALT
 70
     0
  9
$DIMALTD
 70
     4
  9
$DIMALTF
 40
0.0394
  9
$DIMLFAC
 40
1.0
  9
$DIMTOFL
 70
     1
  9
$DIMTVP
 40
0.0
  9
$DIMTIX
 70
     0
  9
$DIMSOXD
 70
     0
  9
$DIMSAH
 70
     0
  9
$DIMBLK1
  1

  9
$DIMBLK2
  1

  9
$DIMSTYLE
  2
STANDARD
  9
$DIMCLRD
 70
     0
  9
$DIMCLRE
 70
     0
  9
$DIMCLRT
 70
     0
  9
$DIMTFAC
 40
1.0
  9
$DIMGAP
 40
0.625
  9
$DIMJUST
 70
     0
  9
$DIMSD1
 70
     0
  9
$DIMSD2
 70
     0
  9
$DIMTOLJ
 70
     1
  9
$DIMTZIN
 70
     0
  9
$DIMALTZ
 70
     0
  9
$DIMALTTZ
 70
     0
  9
$DIMUPT
 70
     0
  9
$DIMDEC
 70
     4
  9
$DIMTDEC
 70
     4
  9
$DIMALTU
 70
     8
  9
$DIMALTTD
 70
     4
  9
$DIMTXSTY
  7
STANDARD
  9
$DIMAUNIT
 70
     0
  9
$DIMADEC
 70
     0
  9
$DIMALTRND
 40
0.0
  9
$DIMAZIN
 70
     0
  9
$DIMDSEP
 70
    46
  9
$DIMATFIT
 70
     3
  9
$DIMFRAC
 70
     0
  9
$DIMLDRBLK
  1

  9
$DIMLUNIT
 70
     6
  9
$DIMLWD
 70
    -2
  9
$DIMLWE
 70
    -2
  9
$DIMTMOVE
 70
     0
  9
$LUNITS
 70
     2
  9
$LUPREC
 70
     4
  9
$SKETCHINC
 40
1.0
  9
$FILLETRAD
 40
10.0
  9
$AUNITS
 70
     0
  9
$AUPREC
 70
     0
  9
$MENU
  1
acad
  9
$ELEVATION
 40
0.0
  9
$PELEVATION
 40
0.0
  9
$THICKNESS
 40
0.0
  9
$LIMCHECK
 70
     0
  9
$CHAMFERA
 40
10.0
  9
$CHAMFERB
 40
10.0
  9
$CHAMFERC
 40
20.0
  9
$CHAMFERD
 40
0.0
  9
$SKPOLY
 70
     0
  9
$TDCREATE
 40
2452111.335768865
  9
$TDUCREATE
 40
2452110.960768866
  9
$TDUPDATE
 40
2454547.715399444
  9
$TDUUPDATE
 40
2454547.340399444
  9
$TDINDWG
 40
1.2583849653
  9
$TDUSRTIMER
 40
1.2583849653
  9
$USRTIMER
 70
     1
  9
$ANGBASE
 50
0.0
  9
$ANGDIR
 70
     0
  9
$PDMODE
 70
     0
  9
$PDSIZE
 40
0.0
  9
$PLINEWID
 40
0.0
  9
$SPLFRAME
 70
     0
  9
$SPLINETYPE
 70
     6
  9
$SPLINESEGS
 70
     8
  9
$HANDSEED
  5
3F95
  9
$SURFTAB1
 70
     6
  9
$SURFTAB2
 70
     6
  9
$SURFTYPE
 70
     6
  9
$SURFU
 70
     6
  9
$SURFV
 70
     6
  9
$UCSBASE
  2

  9
$UCSNAME
  2

  9
$UCSORG
 10
0.0
 20
0.0
 30
0.0
  9
$UCSXDIR
 10
1.0
 20
0.0
 30
0.0
  9
$UCSYDIR
 10
0.0
 20
1.0
 30
0.0
  9
$UCSORTHOREF
  2

  9
$UCSORTHOVIEW
 70
     0
  9
$UCSORGTOP
 10
0.0
 20
0.0
 30
0.0
  9
$UCSORGBOTTOM
 10
0.0
 20
0.0
 30
0.0
  9
$UCSORGLEFT
 10
0.0
 20
0.0
 30
0.0
  9
$UCSORGRIGHT
 10
0.0
 20
0.0
 30
0.0
  9
$UCSORGFRONT
 10
0.0
 20
0.0
 30
0.0
  9
$UCSORGBACK
 10
0.0
 20
0.0
 30
0.0
  9
$PUCSBASE
  2

  9
$PUCSNAME
  2

  9
$PUCSORG
 10
0.0
 20
0.0
 30
0.0
  9
$PUCSXDIR
 10
1.0
 20
0.0
 30
0.0
  9
$PUCSYDIR
 10
0.0
 20
1.0
 30
0.0
  9
$PUCSORTHOREF
  2

  9
$PUCSORTHOVIEW
 70
     0
  9
$PUCSORGTOP
 10
0.0
 20
0.0
 30
0.0
  9
$PUCSORGBOTTOM
 10
0.0
 20
0.0
 30
0.0
  9
$PUCSORGLEFT
 10
0.0
 20
0.0
 30
0.0
  9
$PUCSORGRIGHT
 10
0.0
 20
0.0
 30
0.0
  9
$PUCSORGFRONT
 10
0.0
 20
0.0
 30
0.0
  9
$PUCSORGBACK
 10
0.0
 20
0.0
 30
0.0
  9
$USERI1
 70
     0
  9
$USERI2
 70
     0
  9
$USERI3
 70
     0
  9
$USERI4
 70
     0
  9
$USERI5
 70
     0
  9
$USERR1
 40
0.0
  9
$USERR2
 40
0.0
  9
$USERR3
 40
0.0
  9
$USERR4
 40
0.0
  9
$USERR5
 40
0.0
  9
$WORLDVIEW
 70
     1
  9
$SHADEDGE
 70
     3
  9
$SHADEDIF
 70
    70
  9
$TILEMODE
 70
     1
  9
$MAXACTVP
 70
    48
  9
$PINSBASE
 10
0.0
 20
0.0
 30
0.0
  9
$PLIMCHECK
 70
     0
  9
$PEXTMIN
 10
1.000000000000000E+20
 20
1.000000000000000E+20
 30
1.000000000000000E+20
  9
$PEXTMAX
 10
-1.000000000000000E+20
 20
-1.000000000000000E+20
 30
-1.000000000000000E+20
  9
$PLIMMIN
 10
0.0
 20
0.0
  9
$PLIMMAX
 10
420.0
 20
297.0
  9
$UNITMODE
 70
     0
  9
$VISRETAIN
 70
     1
  9
$PLINEGEN
 70
     0
  9
$PSLTSCALE
 70
     1
  9
$TREEDEPTH
 70
  3020
  9
$CMLSTYLE
  2
STANDARD
  9
$CMLJUST
 70
     0
  9
$CMLSCALE
 40
20.0
  9
$PROXYGRAPHICS
 70
     1
  9
$MEASUREMENT
 70
     1
  9
$CELWEIGHT
370
    -1
  9
$ENDCAPS
280
     0
  9
$JOINSTYLE
280
     0
  9
$LWDISPLAY
290
     0
  9
$INSUNITS
 70
     0
  9
$HYPERLINKBASE
  1

  9
$STYLESHEET
  1

  9
$XEDIT
290
     1
  9
$CEPSNTYPE
380
     0
  9
$PSTYLEMODE
290
     1
  9
$FINGERPRINTGUID
  2
{C9668057-E409-4CFD-A4F9-6C0551275C13}
  9
$VERSIONGUID
  2
{72002688-707E-40F0-A25A-3DC43F096A4A}
  9
$EXTNAMES
290
     1
  9
$PSVPSCALE
 40
0.0
  9
$OLESTARTUP
290
     0
  0
ENDSEC
  0
SECTION
  2
CLASSES
  0
CLASS
  1
LWPOLYLINE
  2
AcDbPolyline
  3
AutoCAD 2000
 90
    32768
280
     0
281
     1
  0
CLASS
  1
DICTIONARYVAR
  2
AcDbDictionaryVar
  3
AutoCAD 2000
 90
        0
280
     0
281
     0
  0
CLASS
  1
HATCH
  2
AcDbHatch
  3
AutoCAD 2000
 90
    32768
280
     0
281
     1
  0
CLASS
  1
ACDBDICTIONARYWDFLT
  2
AcDbDictionaryWithDefault
  3
AutoCAD 2000
 90
        0
280
     0
281
     0
  0
CLASS
  1
ACDBPLACEHOLDER
  2
AcDbPlaceHolder
  3
AutoCAD 2000
 90
        0
280
     0
281
     0
  0
CLASS
  1
LAYOUT
  2
AcDbLayout
  3
AutoCAD 2000
 90
        0
280
     0
281
     0
  0
ENDSEC
  0
SECTION
  2
TABLES
  0
TABLE
  2
VPORT
  5
8
330
0
100
AcDbSymbolTable
 70
     3
  0
VPORT
  5
3F94
330
8
100
AcDbSymbolTableRecord
100
AcDbViewportTableRecord
  2
*Active
 70
     0
 10
0.0
 20
0.0
 11
1.0
 21
1.0
 12
6877.316110094279
 22
4863.608133817329
 13
0.0
 23
0.0
 14
10.0
 24
10.0
 15
10.0
 25
10.0
 16
0.0
 26
0.0
 36
1.0
 17
0.0
 27
0.0
 37
0.0
 40
3245.283306986954
 41
1.731203007518796
 42
50.0
 43
0.0
 44
0.0
 50
0.0
 51
0.0
 71
     0
 72
   100
 73
     1
 74
     1
 75
     0
 76
     0
 77
     0
 78
     0
281
     0
 65
     1
110
0.0
120
0.0
130
0.0
111
1.0
121
0.0
131
0.0
112
0.0
122
1.0
132
0.0
 79
     0
146
0.0
  0
ENDTAB
  0
TABLE
  2
LTYPE
  5
5
330
0
100
AcDbSymbolTable
 70
    46
  0
LTYPE
  5
12
330
5
100
AcDbSymbolTableRecord
100
AcDbLinetypeTableRecord
  2
BYBLOCK
 70
     0
  3

 72
    65
 73
     0
 40
0.0
  0
LTYPE
  5
13
330
5
100
AcDbSymbolTableRecord
100
AcDbLinetypeTableRecord
  2
BYLAYER
 70
     0
  3

 72
    65
 73
     0
 40
0.0
  0
LTYPE
  5
14
330
5
100
AcDbSymbolTableRecord
100
AcDbLinetypeTableRecord
  2
CONTINUOUS
 70
     0
  3
Solid line
 72
    65
 73
     0
 40
0.0
  0
LTYPE
  5
128
330
5
100
AcDbSymbolTableRecord
100
AcDbLinetypeTableRecord
  2
ACAD_ISO02W100
 70
     0
  3
ISO dash __ __ __ __ __ __ __ __ __ __ __ __ __
 72
    65
 73
     2
 40
15.0
 49
12.0
 74
     0
 49
-3.0
 74
     0
  0
LTYPE
  5
129
330
5
100
AcDbSymbolTableRecord
100
AcDbLinetypeTableRecord
  2
ACAD_ISO03W100
 70
     0
  3
ISO dash space __    __    __    __    __    __
 72
    65
 73
     2
 40
30.0
 49
12.0
 74
     0
 49
-18.0
 74
     0
  0
LTYPE
  5
12A
330
5
100
AcDbSymbolTableRecord
100
AcDbLinetypeTableRecord
  2
ACAD_ISO04W100
 70
     0
  3
ISO long-dash dot ____ . ____ . ____ . ____ . _
 72
    65
 73
     4
 40
30.5
 49
24.0
 74
     0
 49
-3.0
 74
     0
 49
0.5
 74
     0
 49
-3.0
 74
     0
  0
LTYPE
  5
12B
330
5
100
AcDbSymbolTableRecord
100
AcDbLinetypeTableRecord
  2
ACAD_ISO05W100
 70
     0
  3
ISO long-dash double-dot ____ .. ____ .. ____ .
 72
    65
 73
     8
 40
37.5
 49
24.0
 74
     0
 49
-3.0
 74
     0
 49
0.5
 74
     0
 49
-3.0
 74
     0
 49
0.5
 74
     0
 49
-3.0
 74
     0
 49
0.5
 74
     0
 49
-3.0
 74
     0
  0
LTYPE
  5
12C
330
5
100
AcDbSymbolTableRecord
100
AcDbLinetypeTableRecord
  2
ACAD_ISO06W100
 70
     0
  3
ISO long-dash triple-dot ____ ... ____ ... ____
 72
    65
 73
     8
 40
37.5
 49
24.0
 74
     0
 49
-3.0
 74
     0
 49
0.5
 74
     0
 49
-3.0
 74
     0
 49
0.5
 74
     0
 49
-3.0
 74
     0
 49
0.5
 74
     0
 49
-3.0
 74
     0
  0
LTYPE
  5
12D
330
5
100
AcDbSymbolTableRecord
100
AcDbLinetypeTableRecord
  2
ACAD_ISO07W100
 70
     0
  3
ISO dot . . . . . . . . . . . . . . . . . . . .
 72
    65
 73
     2
 40
3.5
 49
0.5
 74
     0
 49
-3.0
 74
     0
  0
LTYPE
  5
12E
330
5
100
AcDbSymbolTableRecord
100
AcDbLinetypeTableRecord
  2
ACAD_ISO08W100
 70
     0
  3
ISO long-dash short-dash ____ __ ____ __ ____ _
 72
    65
 73
     4
 40
36.0
 49
24.0
 74
     0
 49
-3.0
 74
     0
 49
6.0
 74
     0
 49
-3.0
 74
     0
  0
LTYPE
  5
12F
330
5
100
AcDbSymbolTableRecord
100
AcDbLinetypeTableRecord
  2
ACAD_ISO09W100
 70
     0
  3
ISO long-dash double-short-dash ____ __ __ ____
 72
    65
 73
     6
 40
45.0
 49
24.0
 74
     0
 49
-3.0
 74
     0
 49
6.0
 74
     0
 49
-3.0
 74
     0
 49
6.0
 74
     0
 49
-3.0
 74
     0
  0
LTYPE
  5
130
330
5
100
AcDbSymbolTableRecord
100
AcDbLinetypeTableRecord
  2
ACAD_ISO10W100
 70
     0
  3
ISO dash dot __ . __ . __ . __ . __ . __ . __ .
 72
    65
 73
     4
 40
18.5
 49
12.0
 74
     0
 49
-3.0
 74
     0
 49
0.5
 74
     0
 49
-3.0
 74
     0
  0
LTYPE
  5
131
330
5
100
AcDbSymbolTableRecord
100
AcDbLinetypeTableRecord
  2
ACAD_ISO11W100
 70
     0
  3
ISO double-dash dot __ __ . __ __ . __ __ . __ 
 72
    65
 73
     6
 40
33.5
 49
12.0
 74
     0
 49
-3.0
 74
     0
 49
12.0
 74
     0
 49
-3.0
 74
     0
 49
0.5
 74
     0
 49
-3.0
 74
     0
  0
LTYPE
  5
132
330
5
100
AcDbSymbolTableRecord
100
AcDbLinetypeTableRecord
  2
ACAD_ISO12W100
 70
     0
  3
ISO dash double-dot __ . . __ . . __ . . __ . .
 72
    65
 73
     6
 40
22.0
 49
12.0
 74
     0
 49
-3.0
 74
     0
 49
0.5
 74
     0
 49
-3.0
 74
     0
 49
0.5
 74
     0
 49
-3.0
 74
     0
  0
LTYPE
  5
133
330
5
100
AcDbSymbolTableRecord
100
AcDbLinetypeTableRecord
  2
ACAD_ISO13W100
 70
     0
  3
ISO double-dash double-dot __ __ . . __ __ . . 
 72
    65
 73
     8
 40
37.0
 49
12.0
 74
     0
 49
-3.0
 74
     0
 49
12.0
 74
     0
 49
-3.0
 74
     0
 49
0.5
 74
     0
 49
-3.0
 74
     0
 49
0.5
 74
     0
 49
-3.0
 74
     0
  0
LTYPE
  5
134
330
5
100
AcDbSymbolTableRecord
100
AcDbLinetypeTableRecord
  2
ACAD_ISO14W100
 70
     0
  3
ISO dash triple-dot __ . . . __ . . . __ . . . 
 72
    65
 73
     8
 40
25.5
 49
12.0
 74
     0
 49
-3.0
 74
     0
 49
0.5
 74
     0
 49
-3.0
 74
     0
 49
0.5
 74
     0
 49
-3.0
 74
     0
 49
0.5
 74
     0
 49
-3.0
 74
     0
  0
LTYPE
  5
135
330
5
100
AcDbSymbolTableRecord
100
AcDbLinetypeTableRecord
  2
ACAD_ISO15W100
 70
     0
  3
ISO double-dash triple-dot __ __ . . . __ __ . 
 72
    65
 73
    10
 40
40.49999999999999
 49
12.0
 74
     0
 49
-3.0
 74
     0
 49
12.0
 74
     0
 49
-3.0
 74
     0
 49
0.5
 74
     0
 49
-3.0
 74
     0
 49
0.5
 74
     0
 49
-3.0
 74
     0
 49
0.5
 74
     0
 49
-3.0
 74
     0
  0
LTYPE
  5
136
330
5
100
AcDbSymbolTableRecord
100
AcDbLinetypeTableRecord
  2
BATTING
 70
     0
  3
Batting SSSSSSSSSSSSSSSSSSSSSSSSSSSSSSSSSSSSSSS
 72
    65
 73
     4
 40
10.16253999999999
 49
0.00254
 74
     0
 49
-2.54
 74
     4
 75
   134
340
127
 46
2.54
 50
0.0
 44
-2.54
 45
0.0
 49
-5.08
 74
     4
 75
   134
340
127
 46
2.54
 50
180.0
 44
2.54
 45
0.0
 49
-2.54
 74
     0
  0
LTYPE
  5
137
330
5
100
AcDbSymbolTableRecord
100
AcDbLinetypeTableRecord
  2
BORDER
 70
     0
  3
Border __ __ . __ __ . __ __ . __ __ . __ __ .
 72
    65
 73
     6
 40
44.45
 49
12.7
 74
     0
 49
-6.349999999999999
 74
     0
 49
12.7
 74
     0
 49
-6.349999999999999
 74
     0
 49
0.0
 74
     0
 49
-6.349999999999999
 74
     0
  0
LTYPE
  5
138
330
5
100
AcDbSymbolTableRecord
100
AcDbLinetypeTableRecord
  2
BORDER2
 70
     0
  3
Border (.5x) __.__.__.__.__.__.__.__.__.__.__.
 72
    65
 73
     6
 40
22.225
 49
6.349999999999999
 74
     0
 49
-3.174999999999999
 74
     0
 49
6.349999999999999
 74
     0
 49
-3.174999999999999
 74
     0
 49
0.0
 74
     0
 49
-3.174999999999999
 74
     0
  0
LTYPE
  5
139
330
5
100
AcDbSymbolTableRecord
100
AcDbLinetypeTableRecord
  2
BORDERX2
 70
     0
  3
Border (2x) ____  ____  .  ____  ____  .  ___
 72
    65
 73
     6
 40
88.9
 49
25.4
 74
     0
 49
-12.7
 74
     0
 49
25.4
 74
     0
 49
-12.7
 74
     0
 49
0.0
 74
     0
 49
-12.7
 74
     0
  0
LTYPE
  5
13A
330
5
100
AcDbSymbolTableRecord
100
AcDbLinetypeTableRecord
  2
CENTER
 70
     0
  3
Center ____ _ ____ _ ____ _ ____ _ ____ _ ____
 72
    65
 73
     4
 40
50.8
 49
31.75
 74
     0
 49
-6.349999999999999
 74
     0
 49
6.349999999999999
 74
     0
 49
-6.349999999999999
 74
     0
  0
LTYPE
  5
13B
330
5
100
AcDbSymbolTableRecord
100
AcDbLinetypeTableRecord
  2
CENTER2
 70
     0
  3
Center (.5x) ___ _ ___ _ ___ _ ___ _ ___ _ ___
 72
    65
 73
     4
 40
28.57499999999999
 49
19.05
 74
     0
 49
-3.174999999999999
 74
     0
 49
3.174999999999999
 74
     0
 49
-3.174999999999999
 74
     0
  0
LTYPE
  5
13C
330
5
100
AcDbSymbolTableRecord
100
AcDbLinetypeTableRecord
  2
CENTERX2
 70
     0
  3
Center (2x) ________  __  ________  __  _____
 72
    65
 73
     4
 40
101.6
 49
63.5
 74
     0
 49
-12.7
 74
     0
 49
12.7
 74
     0
 49
-12.7
 74
     0
  0
LTYPE
  5
13D
330
5
100
AcDbSymbolTableRecord
100
AcDbLinetypeTableRecord
  2
DASHDOT
 70
     0
  3
Dash dot __ . __ . __ . __ . __ . __ . __ . __
 72
    65
 73
     4
 40
25.4
 49
12.7
 74
     0
 49
-6.349999999999999
 74
     0
 49
0.0
 74
     0
 49
-6.349999999999999
 74
     0
  0
LTYPE
  5
13E
330
5
100
AcDbSymbolTableRecord
100
AcDbLinetypeTableRecord
  2
DASHDOT2
 70
     0
  3
Dash dot (.5x) _._._._._._._._._._._._._._._.
 72
    65
 73
     4
 40
12.7
 49
6.349999999999999
 74
     0
 49
-3.174999999999999
 74
     0
 49
0.0
 74
     0
 49
-3.174999999999999
 74
     0
  0
LTYPE
  5
13F
330
5
100
AcDbSymbolTableRecord
100
AcDbLinetypeTableRecord
  2
DASHDOTX2
 70
     0
  3
Dash dot (2x) ____  .  ____  .  ____  .  ___
 72
    65
 73
     4
 40
50.8
 49
25.4
 74
     0
 49
-12.7
 74
     0
 49
0.0
 74
     0
 49
-12.7
 74
     0
  0
LTYPE
  5
140
330
5
100
AcDbSymbolTableRecord
100
AcDbLinetypeTableRecord
  2
DASHED
 70
     0
  3
Dashed __ __ __ __ __ __ __ __ __ __ __ __ __ _
 72
    65
 73
     2
 40
19.04999999999999
 49
12.7
 74
     0
 49
-6.349999999999999
 74
     0
  0
LTYPE
  5
141
330
5
100
AcDbSymbolTableRecord
100
AcDbLinetypeTableRecord
  2
DASHED2
 70
     0
  3
Dashed (.5x) _ _ _ _ _ _ _ _ _ _ _ _ _ _ _ _ _
 72
    65
 73
     2
 40
9.524999999999998
 49
6.349999999999999
 74
     0
 49
-3.174999999999999
 74
     0
  0
LTYPE
  5
142
330
5
100
AcDbSymbolTableRecord
100
AcDbLinetypeTableRecord
  2
DASHEDX2
 70
     0
  3
Dashed (2x) ____  ____  ____  ____  ____  ___
 72
    65
 73
     2
 40
38.09999999999999
 49
25.4
 74
     0
 49
-12.7
 74
     0
  0
LTYPE
  5
143
330
5
100
AcDbSymbolTableRecord
100
AcDbLinetypeTableRecord
  2
DIVIDE
 70
     0
  3
Divide ____ . . ____ . . ____ . . ____ . . ____
 72
    65
 73
     6
 40
31.74999999999999
 49
12.7
 74
     0
 49
-6.349999999999999
 74
     0
 49
0.0
 74
     0
 49
-6.349999999999999
 74
     0
 49
0.0
 74
     0
 49
-6.349999999999999
 74
     0
  0
LTYPE
  5
144
330
5
100
AcDbSymbolTableRecord
100
AcDbLinetypeTableRecord
  2
DIVIDE2
 70
     0
  3
Divide (.5x) __..__..__..__..__..__..__..__.._
 72
    65
 73
     6
 40
15.87499999999999
 49
6.349999999999999
 74
     0
 49
-3.174999999999999
 74
     0
 49
0.0
 74
     0
 49
-3.174999999999999
 74
     0
 49
0.0
 74
     0
 49
-3.174999999999999
 74
     0
  0
LTYPE
  5
145
330
5
100
AcDbSymbolTableRecord
100
AcDbLinetypeTableRecord
  2
DIVIDEX2
 70
     0
  3
Divide (2x) ________  .  .  ________  .  .  _
 72
    65
 73
     6
 40
63.49999999999999
 49
25.4
 74
     0
 49
-12.7
 74
     0
 49
0.0
 74
     0
 49
-12.7
 74
     0
 49
0.0
 74
     0
 49
-12.7
 74
     0
  0
LTYPE
  5
146
330
5
100
AcDbSymbolTableRecord
100
AcDbLinetypeTableRecord
  2
DOT
 70
     0
  3
Dot . . . . . . . . . . . . . . . . . . . . . .
 72
    65
 73
     2
 40
6.349999999999999
 49
0.0
 74
     0
 49
-6.349999999999999
 74
     0
  0
LTYPE
  5
147
330
5
100
AcDbSymbolTableRecord
100
AcDbLinetypeTableRecord
  2
DOT2
 70
     0
  3
Dot (.5x) .....................................
 72
    65
 73
     2
 40
3.174999999999999
 49
0.0
 74
     0
 49
-3.174999999999999
 74
     0
  0
LTYPE
  5
148
330
5
100
AcDbSymbolTableRecord
100
AcDbLinetypeTableRecord
  2
DOTX2
 70
     0
  3
Dot (2x) .  .  .  .  .  .  .  .  .  .  .  .  . 
 72
    65
 73
     2
 40
12.7
 49
0.0
 74
     0
 49
-12.7
 74
     0
  0
LTYPE
  5
149
330
5
100
AcDbSymbolTableRecord
100
AcDbLinetypeTableRecord
  2
FENCELINE1
 70
     0
  3
Fenceline circle ----0-----0----0-----0----0---
 72
    65
 73
     4
 40
36.82999999999999
 49
6.349999999999999
 74
     0
 49
-2.54
 74
     4
 75
   133
340
127
 46
2.54
 50
0.0
 44
-2.54
 45
0.0
 49
-2.54
 74
     0
 49
25.4
 74
     0
  0
LTYPE
  5
14A
330
5
100
AcDbSymbolTableRecord
100
AcDbLinetypeTableRecord
  2
FENCELINE2
 70
     0
  3
Fenceline square ----[]-----[]----[]-----[]----
 72
    65
 73
     4
 40
36.82999999999999
 49
6.349999999999999
 74
     0
 49
-2.54
 74
     4
 75
   132
340
127
 46
2.54
 50
0.0
 44
-2.54
 45
0.0
 49
-2.54
 74
     0
 49
25.4
 74
     0
  0
LTYPE
  5
14B
330
5
100
AcDbSymbolTableRecord
100
AcDbLinetypeTableRecord
  2
GAS_LINE
 70
     0
  3
Gas line ----GAS----GAS----GAS----GAS----GAS---
 72
    65
 73
     3
 40
24.13
 49
12.7
 74
     0
 49
-5.08
 74
     2
 75
     0
340
F
 46
2.54
 50
0.0
 44
-2.54
 45
-1.27
  9
GAS
 49
-6.349999999999999
 74
     0
  0
LTYPE
  5
14C
330
5
100
AcDbSymbolTableRecord
100
AcDbLinetypeTableRecord
  2
HIDDEN
 70
     0
  3
Hidden __ __ __ __ __ __ __ __ __ __ __ __ __ _
 72
    65
 73
     2
 40
9.524999999999998
 49
6.349999999999999
 74
     0
 49
-3.174999999999999
 74
     0
  0
LTYPE
  5
14D
330
5
100
AcDbSymbolTableRecord
100
AcDbLinetypeTableRecord
  2
HIDDEN2
 70
     0
  3
Hidden (.5x) _ _ _ _ _ _ _ _ _ _ _ _ _ _ _ _ _
 72
    65
 73
     2
 40
4.762499999999999
 49
3.174999999999999
 74
     0
 49
-1.587499999999999
 74
     0
  0
LTYPE
  5
14E
330
5
100
AcDbSymbolTableRecord
100
AcDbLinetypeTableRecord
  2
HIDDENX2
 70
     0
  3
Hidden (2x) ____ ____ ____ ____ ____ ____ ____
 72
    65
 73
     2
 40
19.04999999999999
 49
12.7
 74
     0
 49
-6.349999999999999
 74
     0
  0
LTYPE
  5
14F
330
5
100
AcDbSymbolTableRecord
100
AcDbLinetypeTableRecord
  2
HOT_WATER_SUPPLY
 70
     0
  3
Hot water supply ---- HW ---- HW ---- HW ----
 72
    65
 73
     3
 40
22.86
 49
12.7
 74
     0
 49
-5.08
 74
     2
 75
     0
340
F
 46
2.54
 50
0.0
 44
-2.54
 45
-1.27
  9
HW
 49
-5.08
 74
     0
  0
LTYPE
  5
150
330
5
100
AcDbSymbolTableRecord
100
AcDbLinetypeTableRecord
  2
PHANTOM
 70
     0
  3
Phantom ______  __  __  ______  __  __  ______
 72
    65
 73
     6
 40
63.5
 49
31.75
 74
     0
 49
-6.349999999999999
 74
     0
 49
6.349999999999999
 74
     0
 49
-6.349999999999999
 74
     0
 49
6.349999999999999
 74
     0
 49
-6.349999999999999
 74
     0
  0
LTYPE
  5
151
330
5
100
AcDbSymbolTableRecord
100
AcDbLinetypeTableRecord
  2
PHANTOM2
 70
     0
  3
Phantom (.5x) ___ _ _ ___ _ _ ___ _ _ ___ _ _
 72
    65
 73
     6
 40
31.75
 49
15.875
 74
     0
 49
-3.174999999999999
 74
     0
 49
3.174999999999999
 74
     0
 49
-3.174999999999999
 74
     0
 49
3.174999999999999
 74
     0
 49
-3.174999999999999
 74
     0
  0
LTYPE
  5
152
330
5
100
AcDbSymbolTableRecord
100
AcDbLinetypeTableRecord
  2
PHANTOMX2
 70
     0
  3
Phantom (2x) ____________    ____    ____   _
 72
    65
 73
     6
 40
127.0
 49
63.5
 74
     0
 49
-12.7
 74
     0
 49
12.7
 74
     0
 49
-12.7
 74
     0
 49
12.7
 74
     0
 49
-12.7
 74
     0
  0
LTYPE
  5
153
330
5
100
AcDbSymbolTableRecord
100
AcDbLinetypeTableRecord
  2
TRACKS
 70
     0
  3
Tracks -|-|-|-|-|-|-|-|-|-|-|-|-|-|-|-|-|-|-|-|
 72
    65
 73
     2
 40
7.62
 49
3.81
 74
     4
 75
   130
340
127
 46
6.349999999999999
 50
0.0
 44
0.0
 45
0.0
 49
3.81
 74
     0
  0
LTYPE
  5
154
330
5
100
AcDbSymbolTableRecord
100
AcDbLinetypeTableRecord
  2
ZIGZAG
 70
     0
  3
Zig zag /\/\/\/\/\/\/\/\/\/\/\/\/\/\/\/\/\/\/\/
 72
    65
 73
     4
 40
20.32254
 49
0.00254
 74
     0
 49
-5.08
 74
     4
 75
   131
340
127
 46
5.08
 50
0.0
 44
-5.08
 45
0.0
 49
-10.16
 74
     4
 75
   131
340
127
 46
5.08
 50
180.0
 44
5.08
 45
0.0
 49
-5.08
 74
     0
  0
ENDTAB
  0
TABLE
  2
LAYER
  5
2
330
0
100
AcDbSymbolTable
 70
    10
  0
LAYER
  5
E
330
2
100
AcDbSymbolTableRecord
100
AcDbLayerTableRecord
  2
0
 70
     0
 62
     7
  6
CONTINUOUS
370
    -3
390
15FD
  0
LAYER
  5
20
330
2
100
AcDbSymbolTableRecord
100
AcDbLayerTableRecord
  2
DEFPOINTS
 70
     0
 62
     7
  6
CONTINUOUS
290
     0
370
    -3
390
15FD
  0
LAYER
  5
21
330
2
100
AcDbSymbolTableRecord
100
AcDbLayerTableRecord
  2
OBJECT
 70
     0
 62
     7
  6
CONTINUOUS
370
    -3
390
15FD
  0
LAYER
  5
155
330
2
100
AcDbSymbolTableRecord
100
AcDbLayerTableRecord
  2
上書線
 70
     0
 62
     7
  6
CONTINUOUS
370
    -3
390
15FD
  0
LAYER
  5
156
330
2
100
AcDbSymbolTableRecord
100
AcDbLayerTableRecord
  2
基準線
 70
     0
 62
    -1
  6
CONTINUOUS
370
    -3
390
15FD
  0
LAYER
  5
157
330
2
100
AcDbSymbolTableRecord
100
AcDbLayerTableRecord
  2
点線
 70
     0
 62
     5
  6
HIDDEN
370
    -3
390
15FD
  0
LAYER
  5
158
330
2
100
AcDbSymbolTableRecord
100
AcDbLayerTableRecord
  2
寸法線
 70
     0
 62
     2
  6
CONTINUOUS
370
    -3
390
15FD
  0
LAYER
  5
19D7
330
2
100
AcDbSymbolTableRecord
100
AcDbLayerTableRecord
  2
上線
 70
     0
 62
     7
  6
CONTINUOUS
370
    -3
390
15FD
  0
LAYER
  5
2EB9
330
2
100
AcDbSymbolTableRecord
100
AcDbLayerTableRecord
  2
中心線
 70
     0
 62
     6
  6
CENTER
370
    -3
390
15FD
  0
LAYER
  5
394C
330
2
100
AcDbSymbolTableRecord
100
AcDbLayerTableRecord
  2
WUWAGAKI
 70
     0
 62
     7
  6
CONTINUOUS
370
    -3
390
15FD
  0
ENDTAB
  0
TABLE
  2
STYLE
  5
3
330
0
100
AcDbSymbolTable
 70
     3
  0
STYLE
  5
F
330
3
100
AcDbSymbolTableRecord
100
AcDbTextStyleTableRecord
  2
STANDARD
 70
     0
 40
0.0
 41
1.0
 50
0.0
 71
     0
 42
2.5
  3
MS PMincho.ttf
  4

1001
ACAD
1000
MS PMincho
1071
    32786
  0
STYLE
  5
22
330
3
100
AcDbSymbolTableRecord
100
AcDbTextStyleTableRecord
  2
ADESK1
 70
     0
 40
0.0
 41
1.0
 50
0.0
 71
     0
 42
5.0
  3
romans
  4
bigfont
  0
STYLE
  5
127
330
3
100
AcDbSymbolTableRecord
100
AcDbTextStyleTableRecord
  2

 70
     1
 40
0.0
 41
1.0
 50
0.0
 71
     0
 42
2.5
  3
ltypeshp.shx
  4

  0
ENDTAB
  0
TABLE
  2
VIEW
  5
6
330
0
100
AcDbSymbolTable
 70
     0
  0
ENDTAB
  0
TABLE
  2
UCS
  5
7
330
0
100
AcDbSymbolTable
 70
     0
  0
ENDTAB
  0
TABLE
  2
APPID
  5
9
330
0
100
AcDbSymbolTable
 70
     2
  0
APPID
  5
10
330
9
100
AcDbSymbolTableRecord
100
AcDbRegAppTableRecord
  2
ACAD
 70
     0
  0
APPID
  5
1213
330
9
100
AcDbSymbolTableRecord
100
AcDbRegAppTableRecord
  2
DRAWINGVARIABLESXDATA
 70
     0
  0
ENDTAB
  0
TABLE
  2
DIMSTYLE
  5
A
330
0
100
AcDbSymbolTable
 70
     2
100
AcDbDimStyleTable
 71
     1
340
1D
  0
DIMSTYLE
105
1D
330
A
100
AcDbSymbolTableRecord
100
AcDbDimStyleTableRecord
  2
STANDARD
 70
     0
340
F
  0
DIMSTYLE
105
23
330
A
100
AcDbSymbolTableRecord
100
AcDbDimStyleTableRecord
  2
JIS
 70
     0
 41
2.5
 42
1.0
 43
7.0
 44
1.0
 73
     0
 74
     0
 77
     1
 78
     8
140
2.5
141
0.0
143
0.0394
147
0.0
172
     1
174
     1
175
     1
340
F
  0
ENDTAB
  0
TABLE
  2
BLOCK_RECORD
  5
1
330
0
100
AcDbSymbolTable
 70
     3
  0
BLOCK_RECORD
  5
18
330
1
100
AcDbSymbolTableRecord
100
AcDbBlockTableRecord
  2
*MODEL_SPACE
340
1600
  0
BLOCK_RECORD
  5
15
330
1
100
AcDbSymbolTableRecord
100
AcDbBlockTableRecord
  2
*PAPER_SPACE
340
1601
  0
BLOCK_RECORD
  5
24
330
1
100
AcDbSymbolTableRecord
100
AcDbBlockTableRecord
  2
JIS_A4L
340
0
  0
BLOCK_RECORD
  5
3437
330
1
100
AcDbSymbolTableRecord
100
AcDbBlockTableRecord
  2
*D1
340
0
  0
BLOCK_RECORD
  5
3445
330
1
100
AcDbSymbolTableRecord
100
AcDbBlockTableRecord
  2
A$C23BB6A77
340
0
  0
ENDTAB
  0
ENDSEC
  0
SECTION
  2
BLOCKS
  0
BLOCK
  5
19
330
18
100
AcDbEntity
  8
0
100
AcDbBlockBegin
  2
*MODEL_SPACE
 70
     2
 10
0.0
 20
0.0
 30
0.0
  3
*MODEL_SPACE
  1

  0
ENDBLK
  5
1A
330
18
100
AcDbEntity
  8
0
100
AcDbBlockEnd
  0
BLOCK
  5
16
330
15
100
AcDbEntity
 67
     1
  8
0
100
AcDbBlockBegin
  2
*PAPER_SPACE
 70
     0
 10
0.0
 20
0.0
 30
0.0
  3
*PAPER_SPACE
  1

  0
ENDBLK
  5
17
330
15
100
AcDbEntity
 67
     1
  8
0
100
AcDbBlockEnd
  0
BLOCK
  5
A1
330
24
100
AcDbEntity
  8
0
100
AcDbBlockBegin
  2
JIS_A4L
 70
     2
 10
0.0
 20
0.0
 30
0.0
  3
JIS_A4L
  1

  0
LINE
  5
25
330
24
100
AcDbEntity
  8
0
100
AcDbLine
 10
0.0
 20
0.0
 30
0.0
 11
0.0
 21
10.0
 31
0.0
  0
LINE
  5
26
330
24
100
AcDbEntity
  8
0
100
AcDbLine
 10
0.0
 20
210.0
 30
0.0
 11
25.0
 21
210.0
 31
0.0
  0
LINE
  5
27
330
24
100
AcDbEntity
  8
0
100
AcDbLine
 10
297.0
 20
210.0
 30
0.0
 11
297.0
 21
200.0
 31
0.0
  0
LINE
  5
28
330
24
100
AcDbEntity
  8
0
100
AcDbLine
 10
297.0
 20
0.0
 30
0.0
 11
287.0
 21
0.0
 31
0.0
  0
LINE
  5
29
330
24
100
AcDbEntity
  8
0
100
AcDbLine
 10
25.0
 20
10.0
 30
0.0
 11
25.0
 21
200.0
 31
0.0
  0
LINE
  5
2A
330
24
100
AcDbEntity
  8
0
100
AcDbLine
 10
287.0
 20
10.0
 30
0.0
 11
25.0
 21
10.0
 31
0.0
  0
LINE
  5
2B
330
24
100
AcDbEntity
  8
0
100
AcDbLine
 10
287.0
 20
200.0
 30
0.0
 11
287.0
 21
10.0
 31
0.0
  0
LINE
  5
2C
330
24
100
AcDbEntity
  8
0
100
AcDbLine
 10
25.0
 20
200.0
 30
0.0
 11
287.0
 21
200.0
 31
0.0
  0
LINE
  5
2D
330
24
100
AcDbEntity
  8
0
100
AcDbLine
 10
0.0
 20
200.0
 30
0.0
 11
0.0
 21
210.0
 31
0.0
  0
LINE
  5
2E
330
24
100
AcDbEntity
  8
0
100
AcDbLine
 10
25.0
 20
0.0
 30
0.0
 11
0.0
 21
0.0
 31
0.0
  0
LINE
  5
2F
330
24
100
AcDbEntity
  8
0
100
AcDbLine
 10
297.0
 20
10.0
 30
0.0
 11
297.0
 21
0.0
 31
0.0
  0
LINE
  5
30
330
24
100
AcDbEntity
  8
0
100
AcDbLine
 10
287.0
 20
210.0
 30
0.0
 11
297.0
 21
210.0
 31
0.0
  0
ATTDEF
  5
31
330
24
100
AcDbEntity
  8
0
 62
     0
100
AcDbText
 10
19.0
 20
10.0
 30
0.0
 40
3.0
  1

 50
90.0
  7
ADESK1
100
AcDbAttributeDefinition
  3

  2
USER
 70
     8
  0
ATTDEF
  5
32
330
24
100
AcDbEntity
  8
0
 62
     0
100
AcDbText
 10
19.0
 20
70.0
 30
0.0
 40
3.0
  1

 50
90.0
  7
ADESK1
100
AcDbAttributeDefinition
  3

  2
REVDATE
 70
     8
  0
ATTDEF
  5
33
330
24
100
AcDbEntity
  8
0
 62
     0
100
AcDbText
 10
19.0
 20
118.0
 30
0.0
 40
3.0
  1

 50
90.0
  7
ADESK1
100
AcDbAttributeDefinition
  3

  2
FNAME
 70
     8
  0
LINE
  5
34
330
24
100
AcDbEntity
  8
OBJECT
100
AcDbLine
 10
130.0
 20
16.0
 30
0.0
 11
25.0
 21
16.0
 31
0.0
  0
LINE
  5
35
330
24
100
AcDbEntity
  8
OBJECT
100
AcDbLine
 10
130.0
 20
22.0
 30
0.0
 11
25.0
 21
22.0
 31
0.0
  0
LINE
  5
36
330
24
100
AcDbEntity
  8
OBJECT
100
AcDbLine
 10
130.0
 20
28.0
 30
0.0
 11
25.0
 21
28.0
 31
0.0
  0
LINE
  5
37
330
24
100
AcDbEntity
  8
OBJECT
100
AcDbLine
 10
130.0
 20
34.0
 30
0.0
 11
25.0
 21
34.0
 31
0.0
  0
LINE
  5
38
330
24
100
AcDbEntity
  8
OBJECT
100
AcDbLine
 10
130.0
 20
40.0
 30
0.0
 11
25.0
 21
40.0
 31
0.0
  0
LINE
  5
39
330
24
100
AcDbEntity
  8
OBJECT
100
AcDbLine
 10
28.0
 20
11.53589799999999
 30
0.0
 11
30.0
 21
15.0
 31
0.0
  0
LINE
  5
3A
330
24
100
AcDbEntity
  8
OBJECT
100
AcDbLine
 10
32.0
 20
11.53589799999999
 30
0.0
 11
30.0
 21
15.0
 31
0.0
  0
LINE
  5
3B
330
24
100
AcDbEntity
  8
OBJECT
100
AcDbLine
 10
35.0
 20
10.0
 30
0.0
 11
35.0
 21
40.0
 31
0.0
  0
LINE
  5
3C
330
24
100
AcDbEntity
  8
OBJECT
100
AcDbLine
 10
50.0
 20
10.0
 30
0.0
 11
50.0
 21
40.0
 31
0.0
  0
LINE
  5
3D
330
24
100
AcDbEntity
  8
OBJECT
100
AcDbLine
 10
80.0
 20
10.0
 30
0.0
 11
80.0
 21
40.0
 31
0.0
  0
LINE
  5
3E
330
24
100
AcDbEntity
  8
OBJECT
100
AcDbLine
 10
28.0
 20
11.53589799999999
 30
0.0
 11
32.0
 21
11.53589799999999
 31
0.0
  0
LINE
  5
3F
330
24
100
AcDbEntity
  8
OBJECT
100
AcDbLine
 10
39.5
 20
13.0
 30
0.0
 11
40.49999999999999
 21
13.0
 31
0.0
  0
LINE
  5
40
330
24
100
AcDbEntity
  8
OBJECT
100
AcDbLine
 10
44.5
 20
13.0
 30
0.0
 11
45.49999999999999
 21
13.0
 31
0.0
  0
LINE
  5
41
330
24
100
AcDbEntity
  8
OBJECT
100
AcDbLine
 10
32.0
 20
17.535898
 30
0.0
 11
30.0
 21
20.99999999999999
 31
0.0
  0
LINE
  5
42
330
24
100
AcDbEntity
  8
OBJECT
100
AcDbLine
 10
28.0
 20
17.535898
 30
0.0
 11
32.0
 21
17.535898
 31
0.0
  0
LINE
  5
43
330
24
100
AcDbEntity
  8
OBJECT
100
AcDbLine
 10
28.0
 20
17.535898
 30
0.0
 11
30.0
 21
20.99999999999999
 31
0.0
  0
LINE
  5
44
330
24
100
AcDbEntity
  8
OBJECT
100
AcDbLine
 10
32.0
 20
23.53589799999999
 30
0.0
 11
30.0
 21
26.99999999999999
 31
0.0
  0
LINE
  5
45
330
24
100
AcDbEntity
  8
OBJECT
100
AcDbLine
 10
28.0
 20
23.53589799999999
 30
0.0
 11
32.0
 21
23.53589799999999
 31
0.0
  0
LINE
  5
46
330
24
100
AcDbEntity
  8
OBJECT
100
AcDbLine
 10
28.0
 20
23.53589799999999
 30
0.0
 11
30.0
 21
26.99999999999999
 31
0.0
  0
LINE
  5
47
330
24
100
AcDbEntity
  8
OBJECT
100
AcDbLine
 10
28.0
 20
35.53589799999999
 30
0.0
 11
30.0
 21
39.0
 31
0.0
  0
LINE
  5
48
330
24
100
AcDbEntity
  8
OBJECT
100
AcDbLine
 10
32.0
 20
35.53589799999999
 30
0.0
 11
30.0
 21
39.0
 31
0.0
  0
LINE
  5
49
330
24
100
AcDbEntity
  8
OBJECT
100
AcDbLine
 10
28.0
 20
35.53589799999999
 30
0.0
 11
32.0
 21
35.53589799999999
 31
0.0
  0
LINE
  5
4A
330
24
100
AcDbEntity
  8
OBJECT
100
AcDbLine
 10
32.0
 20
29.53589799999999
 30
0.0
 11
30.0
 21
33.0
 31
0.0
  0
LINE
  5
4B
330
24
100
AcDbEntity
  8
OBJECT
100
AcDbLine
 10
28.0
 20
29.53589799999999
 30
0.0
 11
32.0
 21
29.53589799999999
 31
0.0
  0
LINE
  5
4C
330
24
100
AcDbEntity
  8
OBJECT
100
AcDbLine
 10
28.0
 20
29.53589799999999
 30
0.0
 11
30.0
 21
33.0
 31
0.0
  0
LINE
  5
4D
330
24
100
AcDbEntity
  8
OBJECT
100
AcDbLine
 10
39.5
 20
19.0
 30
0.0
 11
40.49999999999999
 21
19.0
 31
0.0
  0
LINE
  5
4E
330
24
100
AcDbEntity
  8
OBJECT
100
AcDbLine
 10
44.5
 20
19.0
 30
0.0
 11
45.49999999999999
 21
19.0
 31
0.0
  0
LINE
  5
4F
330
24
100
AcDbEntity
  8
OBJECT
100
AcDbLine
 10
39.5
 20
25.0
 30
0.0
 11
40.49999999999999
 21
25.0
 31
0.0
  0
LINE
  5
50
330
24
100
AcDbEntity
  8
OBJECT
100
AcDbLine
 10
44.5
 20
25.0
 30
0.0
 11
45.49999999999999
 21
25.0
 31
0.0
  0
LINE
  5
51
330
24
100
AcDbEntity
  8
OBJECT
100
AcDbLine
 10
39.5
 20
31.0
 30
0.0
 11
40.49999999999999
 21
31.0
 31
0.0
  0
LINE
  5
52
330
24
100
AcDbEntity
  8
OBJECT
100
AcDbLine
 10
39.5
 20
37.0
 30
0.0
 11
40.49999999999999
 21
37.0
 31
0.0
  0
LINE
  5
53
330
24
100
AcDbEntity
  8
OBJECT
100
AcDbLine
 10
44.5
 20
31.0
 30
0.0
 11
45.49999999999999
 21
31.0
 31
0.0
  0
LINE
  5
54
330
24
100
AcDbEntity
  8
OBJECT
100
AcDbLine
 10
44.5
 20
37.0
 30
0.0
 11
45.49999999999999
 21
37.0
 31
0.0
  0
LINE
  5
55
330
24
100
AcDbEntity
  8
OBJECT
100
AcDbLine
 10
120.0
 20
10.0
 30
0.0
 11
120.0
 21
40.0
 31
0.0
  0
LINE
  5
56
330
24
100
AcDbEntity
  8
OBJECT
100
AcDbLine
 10
130.0
 20
40.0
 30
0.0
 11
130.0
 21
10.0
 31
0.0
  0
LINE
  5
57
330
24
100
AcDbEntity
  8
0
100
AcDbLine
 10
156.0
 20
10.0
 30
0.0
 11
156.0
 21
0.0
 31
0.0
  0
LINE
  5
58
330
24
100
AcDbEntity
  8
0
100
AcDbLine
 10
156.0
 20
200.0
 30
0.0
 11
156.0
 21
210.0
 31
0.0
  0
LINE
  5
59
330
24
100
AcDbEntity
  8
0
100
AcDbLine
 10
287.0
 20
105.0
 30
0.0
 11
297.0
 21
105.0
 31
0.0
  0
LINE
  5
5A
330
24
100
AcDbEntity
  8
0
100
AcDbLine
 10
25.0
 20
105.0
 30
0.0
 11
0.0
 21
105.0
 31
0.0
  0
TEXT
  5
5B
330
24
100
AcDbEntity
  8
0
100
AcDbText
 10
1.0
 20
1.0
 30
0.0
 40
3.0
  1
この図枠はサンプルです。社内の規格やプロッタの出力範囲に合わせて適当に変更してご利用ください。
  7
ADESK1
100
AcDbText
  0
LINE
  5
5C
330
24
100
AcDbEntity
  8
0
100
AcDbLine
 10
25.0
 20
152.5
 30
0.0
 11
20.0
 21
152.5
 31
0.0
  0
LINE
  5
5D
330
24
100
AcDbEntity
  8
0
100
AcDbLine
 10
25.0
 20
105.0
 30
0.0
 11
20.0
 21
105.0
 31
0.0
  0
LINE
  5
5E
330
24
100
AcDbEntity
  8
0
100
AcDbLine
 10
25.0
 20
57.5
 30
0.0
 11
20.0
 21
57.5
 31
0.0
  0
LINE
  5
5F
330
24
100
AcDbEntity
  8
0
100
AcDbLine
 10
68.66666666666668
 20
10.0
 30
0.0
 11
68.66666666666668
 21
5.0
 31
0.0
  0
LINE
  5
60
330
24
100
AcDbEntity
  8
0
100
AcDbLine
 10
112.3333333333333
 20
10.0
 30
0.0
 11
112.3333333333333
 21
5.0
 31
0.0
  0
LINE
  5
61
330
24
100
AcDbEntity
  8
0
100
AcDbLine
 10
156.0
 20
10.0
 30
0.0
 11
156.0
 21
5.0
 31
0.0
  0
LINE
  5
62
330
24
100
AcDbEntity
  8
0
100
AcDbLine
 10
199.6666666666666
 20
10.0
 30
0.0
 11
199.6666666666666
 21
5.0
 31
0.0
  0
LINE
  5
63
330
24
100
AcDbEntity
  8
0
100
AcDbLine
 10
243.3333333333333
 20
10.0
 30
0.0
 11
243.3333333333333
 21
5.0
 31
0.0
  0
LINE
  5
64
330
24
100
AcDbEntity
  8
0
100
AcDbLine
 10
287.0
 20
57.5
 30
0.0
 11
292.0
 21
57.5
 31
0.0
  0
LINE
  5
65
330
24
100
AcDbEntity
  8
0
100
AcDbLine
 10
287.0
 20
105.0
 30
0.0
 11
292.0
 21
105.0
 31
0.0
  0
LINE
  5
66
330
24
100
AcDbEntity
  8
0
100
AcDbLine
 10
287.0
 20
152.5
 30
0.0
 11
292.0
 21
152.5
 31
0.0
  0
LINE
  5
67
330
24
100
AcDbEntity
  8
0
100
AcDbLine
 10
243.3333333333333
 20
200.0
 30
0.0
 11
243.3333333333333
 21
205.0
 31
0.0
  0
LINE
  5
68
330
24
100
AcDbEntity
  8
0
100
AcDbLine
 10
199.6666666666666
 20
200.0
 30
0.0
 11
199.6666666666666
 21
205.0
 31
0.0
  0
LINE
  5
69
330
24
100
AcDbEntity
  8
0
100
AcDbLine
 10
156.0
 20
200.0
 30
0.0
 11
156.0
 21
205.0
 31
0.0
  0
LINE
  5
6A
330
24
100
AcDbEntity
  8
0
100
AcDbLine
 10
112.3333333333333
 20
200.0
 30
0.0
 11
112.3333333333333
 21
205.0
 31
0.0
  0
LINE
  5
6B
330
24
100
AcDbEntity
  8
0
100
AcDbLine
 10
68.66666666666666
 20
200.0
 30
0.0
 11
68.66666666666666
 21
205.0
 31
0.0
  0
TEXT
  5
6C
330
24
100
AcDbEntity
  8
0
100
AcDbText
 10
45.61904761904761
 20
201.0
 30
0.0
 40
3.0
  1
1
  7
ADESK1
 72
     1
 11
46.83333333333332
 21
201.0
 31
0.0
100
AcDbText
  0
TEXT
  5
6D
330
24
100
AcDbEntity
  8
0
100
AcDbText
 10
21.66139736003921
 20
176.25
 30
0.0
 40
3.0
  1
A
  7
ADESK1
 72
     1
 11
22.94711164575349
 21
176.25
 31
0.0
100
AcDbText
  0
TEXT
  5
6E
330
24
100
AcDbEntity
  8
0
100
AcDbText
 10
89.07142857142856
 20
201.0
 30
0.0
 40
3.0
  1
2
  7
ADESK1
 72
     1
 11
90.5
 21
201.0
 31
0.0
100
AcDbText
  0
TEXT
  5
6F
330
24
100
AcDbEntity
  8
0
100
AcDbText
 10
132.7380952380952
 20
201.0
 30
0.0
 40
3.0
  1
3
  7
ADESK1
 72
     1
 11
134.1666666666666
 21
201.0
 31
0.0
100
AcDbText
  0
TEXT
  5
70
330
24
100
AcDbEntity
  8
0
100
AcDbText
 10
176.3333333333333
 20
201.0
 30
0.0
 40
3.0
  1
4
  7
ADESK1
 72
     1
 11
177.8333333333333
 21
201.0
 31
0.0
100
AcDbText
  0
TEXT
  5
71
330
24
100
AcDbEntity
  8
0
100
AcDbText
 10
220.0714285714286
 20
201.0
 30
0.0
 40
3.0
  1
5
  7
ADESK1
 72
     1
 11
221.4999999999999
 21
201.0
 31
0.0
100
AcDbText
  0
TEXT
  5
72
330
24
100
AcDbEntity
  8
0
100
AcDbText
 10
263.6666666666666
 20
201.0
 30
0.0
 40
3.0
  1
6
  7
ADESK1
 72
     1
 11
265.1666666666666
 21
201.0
 31
0.0
100
AcDbText
  0
TEXT
  5
73
330
24
100
AcDbEntity
  8
0
100
AcDbText
 10
21.37568307432492
 20
128.75
 30
0.0
 40
3.0
  1
B
  7
ADESK1
 72
     1
 11
22.94711164575349
 21
128.75
 31
0.0
100
AcDbText
  0
TEXT
  5
74
330
24
100
AcDbEntity
  8
0
100
AcDbText
 10
21.44711164575349
 20
81.25
 30
0.0
 40
3.0
  1
C
  7
ADESK1
 72
     1
 11
22.94711164575349
 21
81.25
 31
0.0
100
AcDbText
  0
TEXT
  5
75
330
24
100
AcDbEntity
  8
0
100
AcDbText
 10
21.37568307432492
 20
33.75
 30
0.0
 40
3.0
  1
D
  7
ADESK1
 72
     1
 11
22.94711164575349
 21
33.75
 31
0.0
100
AcDbText
  0
TEXT
  5
76
330
24
100
AcDbEntity
  8
0
100
AcDbText
 10
45.61904761904759
 20
6.230338100985607
 30
0.0
 40
3.0
  1
1
  7
ADESK1
 72
     1
 11
46.83333333333331
 21
6.230338100985607
 31
0.0
100
AcDbText
  0
TEXT
  5
77
330
24
100
AcDbEntity
  8
0
100
AcDbText
 10
89.07142857142856
 20
6.230338100985607
 30
0.0
 40
3.0
  1
2
  7
ADESK1
 72
     1
 11
90.5
 21
6.230338100985607
 31
0.0
100
AcDbText
  0
TEXT
  5
78
330
24
100
AcDbEntity
  8
0
100
AcDbText
 10
132.7380952380952
 20
6.230338100985607
 30
0.0
 40
3.0
  1
3
  7
ADESK1
 72
     1
 11
134.1666666666666
 21
6.230338100985607
 31
0.0
100
AcDbText
  0
TEXT
  5
79
330
24
100
AcDbEntity
  8
0
100
AcDbText
 10
176.3333333333333
 20
6.230338100985607
 30
0.0
 40
3.0
  1
4
  7
ADESK1
 72
     1
 11
177.8333333333333
 21
6.230338100985607
 31
0.0
100
AcDbText
  0
TEXT
  5
7A
330
24
100
AcDbEntity
  8
0
100
AcDbText
 10
220.0714285714286
 20
6.230338100985607
 30
0.0
 40
3.0
  1
5
  7
ADESK1
 72
     1
 11
221.4999999999999
 21
6.230338100985607
 31
0.0
100
AcDbText
  0
TEXT
  5
7B
330
24
100
AcDbEntity
  8
0
100
AcDbText
 10
263.6666666666666
 20
6.230338100985607
 30
0.0
 40
3.0
  1
6
  7
ADESK1
 72
     1
 11
265.1666666666666
 21
6.230338100985607
 31
0.0
100
AcDbText
  0
TEXT
  5
7C
330
24
100
AcDbEntity
  8
0
100
AcDbText
 10
287.9530581679809
 20
176.25
 30
0.0
 40
3.0
  1
A
  7
ADESK1
 72
     1
 11
289.2387724536952
 21
176.25
 31
0.0
100
AcDbText
  0
TEXT
  5
7D
330
24
100
AcDbEntity
  8
0
100
AcDbText
 10
287.6673438822666
 20
128.75
 30
0.0
 40
3.0
  1
B
  7
ADESK1
 72
     1
 11
289.2387724536952
 21
128.75
 31
0.0
100
AcDbText
  0
TEXT
  5
7E
330
24
100
AcDbEntity
  8
0
100
AcDbText
 10
287.7387724536952
 20
81.25
 30
0.0
 40
3.0
  1
C
  7
ADESK1
 72
     1
 11
289.2387724536952
 21
81.25
 31
0.0
100
AcDbText
  0
TEXT
  5
7F
330
24
100
AcDbEntity
  8
0
100
AcDbText
 10
287.6673438822666
 20
33.75
 30
0.0
 40
3.0
  1
D
  7
ADESK1
 72
     1
 11
289.2387724536952
 21
33.75
 31
0.0
100
AcDbText
  0
LINE
  5
80
330
24
100
AcDbEntity
  8
0
 62
     0
100
AcDbLine
 10
157.2978723404242
 20
49.00000000000036
 30
0.0
 11
287.0
 21
49.00000000000036
 31
0.0
  0
LINE
  5
81
330
24
100
AcDbEntity
  8
0
 62
     0
100
AcDbLine
 10
157.2978723404242
 20
13.00000000000004
 30
0.0
 11
287.0
 21
13.00000000000004
 31
0.0
  0
LINE
  5
82
330
24
100
AcDbEntity
  8
0
 62
     0
100
AcDbLine
 10
157.2978723404242
 20
37.00000000000024
 30
0.0
 11
287.0
 21
37.00000000000024
 31
0.0
  0
LINE
  5
83
330
24
100
AcDbEntity
  8
0
 62
     0
100
AcDbLine
 10
195.1276595744673
 20
22.00000000000012
 30
0.0
 11
287.0
 21
22.00000000000012
 31
0.0
  0
LINE
  5
84
330
24
100
AcDbEntity
  8
0
 62
     0
100
AcDbLine
 10
157.2978723404242
 20
10.0
 30
0.0
 11
287.0
 21
10.0
 31
0.0
  0
LINE
  5
85
330
24
100
AcDbEntity
  8
0
 62
     0
100
AcDbLine
 10
287.0
 20
49.00000000000036
 30
0.0
 11
157.2978723404242
 21
49.00000000000036
 31
0.0
  0
LINE
  5
86
330
24
100
AcDbEntity
  8
0
 62
     0
100
AcDbLine
 10
180.7163120567365
 20
37.00000000000024
 30
0.0
 11
180.7163120567365
 21
10.0
 31
0.0
  0
LINE
  5
87
330
24
100
AcDbEntity
  8
0
 62
     0
100
AcDbLine
 10
162.702127659573
 20
37.00000000000024
 30
0.0
 11
162.702127659573
 21
10.0
 31
0.0
  0
LINE
  5
88
330
24
100
AcDbEntity
  8
0
 62
     0
100
AcDbLine
 10
189.7234042553184
 20
37.00000000000024
 30
0.0
 11
189.7234042553184
 21
10.0
 31
0.0
  0
LINE
  5
89
330
24
100
AcDbEntity
  8
0
 62
     0
100
AcDbLine
 10
195.1276595744673
 20
25.00000000000012
 30
0.0
 11
195.1276595744673
 21
10.0
 31
0.0
  0
LINE
  5
8A
330
24
100
AcDbEntity
  8
0
 62
     0
100
AcDbLine
 10
157.2978723404242
 20
49.00000000000036
 30
0.0
 11
157.2978723404242
 21
10.0
 31
0.0
  0
LINE
  5
8B
330
24
100
AcDbEntity
  8
0
 62
     0
100
AcDbLine
 10
225.7517730496447
 20
49.00000000000036
 30
0.0
 11
225.7517730496447
 21
10.0
 31
0.0
  0
LINE
  5
8C
330
24
100
AcDbEntity
  8
0
 62
     0
100
AcDbLine
 10
205.7659574468077
 20
22.00000000000007
 30
0.0
 11
205.7659574468077
 21
10.0
 31
0.0
  0
LINE
  5
8D
330
24
100
AcDbEntity
  8
0
 62
     0
100
AcDbLine
 10
216.4042553191484
 20
22.00000000000007
 30
0.0
 11
216.4042553191484
 21
10.0
 31
0.0
  0
LINE
  5
8E
330
24
100
AcDbEntity
  8
0
 62
     0
100
AcDbLine
 10
157.2978723404242
 20
16.00000000000008
 30
0.0
 11
195.1276595744673
 21
16.00000000000008
 31
0.0
  0
LINE
  5
8F
330
24
100
AcDbEntity
  8
0
 62
     0
100
AcDbLine
 10
157.2978723404242
 20
10.0
 30
0.0
 11
157.2978723404242
 21
13.00000000000004
 31
0.0
  0
TEXT
  5
90
330
24
100
AcDbEntity
  8
0
 62
     0
100
AcDbText
 10
198.7174935280942
 20
10.48329012996929
 30
0.0
 40
1.791674070777747
  1
製図
  7
ADESK1
 72
     1
 11
200.5688900678978
 21
10.48329012996929
 31
0.0
100
AcDbText
  0
TEXT
  5
91
330
24
100
AcDbEntity
  8
0
 62
     0
100
AcDbText
 10
209.2960689314087
 20
10.48329012996929
 30
0.0
 40
1.791674070777747
  1
設計
  7
ADESK1
 72
     1
 11
211.2071879402383
 21
10.48329012996929
 31
0.0
100
AcDbText
  0
TEXT
  5
92
330
24
100
AcDbEntity
  8
0
 62
     0
100
AcDbText
 10
219.2447163844405
 20
10.55220101068186
 30
0.0
 40
1.791674070777747
  1
照査
  7
ADESK1
 72
     1
 11
221.1558353932701
 21
10.55220101068186
 31
0.0
100
AcDbText
  0
LINE
  5
93
330
24
100
AcDbEntity
  8
0
 62
     0
100
AcDbLine
 10
157.2978723404242
 20
25.00000000000012
 30
0.0
 11
195.1276595744673
 21
25.00000000000012
 31
0.0
  0
LINE
  5
94
330
24
100
AcDbEntity
  8
0
 62
     0
100
AcDbLine
 10
157.2978723404242
 20
22.00000000000007
 30
0.0
 11
195.1276595744673
 21
22.00000000000012
 31
0.0
  0
LINE
  5
95
330
24
100
AcDbEntity
  8
0
 62
     0
100
AcDbLine
 10
157.2978723404242
 20
19.00000000000007
 30
0.0
 11
195.1276595744673
 21
19.00000000000012
 31
0.0
  0
LINE
  5
96
330
24
100
AcDbEntity
  8
0
 62
     0
100
AcDbLine
 10
157.2978723404242
 20
34.00000000000024
 30
0.0
 11
225.7517730496447
 21
34.00000000000024
 31
0.0
  0
LINE
  5
97
330
24
100
AcDbEntity
  8
0
 62
     0
100
AcDbLine
 10
157.2978723404242
 20
31.0000000000002
 30
0.0
 11
225.7517730496447
 21
31.0000000000002
 31
0.0
  0
LINE
  5
98
330
24
100
AcDbEntity
  8
0
 62
     0
100
AcDbLine
 10
157.2978723404242
 20
28.00000000000015
 30
0.0
 11
225.7517730496447
 21
28.00000000000015
 31
0.0
  0
LINE
  5
99
330
24
100
AcDbEntity
  8
0
 62
     0
100
AcDbLine
 10
195.1276595744673
 20
25.00000000000012
 30
0.0
 11
225.7517730496447
 21
25.00000000000012
 31
0.0
  0
LINE
  5
9A
330
24
100
AcDbEntity
  8
0
 62
     0
100
AcDbLine
 10
195.1276595744673
 20
49.00000000000036
 30
0.0
 11
195.1276595744673
 21
25.00000000000012
 31
0.0
  0
LINE
  5
9B
330
24
100
AcDbEntity
  8
0
 62
     0
100
AcDbLine
 10
202.3333333333325
 20
37.00000000000024
 30
0.0
 11
202.3333333333325
 21
25.00000000000012
 31
0.0
  0
LINE
  5
9C
330
24
100
AcDbEntity
  8
0
 62
     0
100
AcDbLine
 10
213.1418439716305
 20
49.00000000000036
 30
0.0
 11
213.1418439716305
 21
22.00000000000012
 31
0.0
  0
LINE
  5
9D
330
24
100
AcDbEntity
  8
0
 62
     0
100
AcDbLine
 10
279.7943262411347
 20
22.00000000000012
 30
0.0
 11
279.7943262411347
 21
10.0
 31
0.0
  0
LINE
  5
9E
330
24
100
AcDbEntity
  8
0
 62
     0
100
AcDbLine
 10
287.0
 20
49.00000000000036
 30
0.0
 11
287.0
 21
10.0
 31
0.0
  0
LINE
  5
9F
330
24
100
AcDbEntity
  8
0
 62
     0
100
AcDbLine
 10
287.0
 20
10.0
 30
0.0
 11
287.0
 21
49.00000000000036
 31
0.0
  0
LINE
  5
A0
330
24
100
AcDbEntity
  8
0
 62
     0
100
AcDbLine
 10
279.7943262411347
 20
16.00000000000008
 30
0.0
 11
287.0
 21
16.00000000000008
 31
0.0
  0
ENDBLK
  5
A2
330
24
100
AcDbEntity
  8
0
100
AcDbBlockEnd
  0
BLOCK
  5
3443
330
3437
100
AcDbEntity
  8
0
100
AcDbBlockBegin
  2
*D1
 70
     1
 10
0.0
 20
0.0
 30
0.0
  3
*D1
  1

  0
LINE
  5
3438
330
3437
100
AcDbEntity
  8
OBJECT
 62
     0
370
    -2
100
AcDbLine
 10
-8068.568047744786
 20
3998.303038975791
 30
0.0
 11
-7757.422052324407
 21
3998.303038975791
 31
0.0
  0
LINE
  5
3439
330
3437
100
AcDbEntity
  8
OBJECT
 62
     0
370
    -2
100
AcDbLine
 10
-8068.568047744786
 20
4078.303038975791
 30
0.0
 11
-7757.422052324407
 21
4078.303038975791
 31
0.0
  0
LINE
  5
343A
330
3437
100
AcDbEntity
  8
OBJECT
 62
     0
370
    -2
100
AcDbLine
 10
-7776.172052324408
 20
3960.803038975791
 30
0.0
 11
-7776.172052324408
 21
3923.303038975791
 31
0.0
  0
LINE
  5
343B
330
3437
100
AcDbEntity
  8
OBJECT
 62
     0
370
    -2
100
AcDbLine
 10
-7776.172052324408
 20
4115.803038975792
 30
0.0
 11
-7776.172052324408
 21
4153.303038975791
 31
0.0
  0
LINE
  5
343C
330
3437
100
AcDbEntity
  8
OBJECT
 62
     0
370
    -2
100
AcDbLine
 10
-7776.172052324408
 20
3998.303038975791
 30
0.0
 11
-7776.172052324408
 21
4078.303038975791
 31
0.0
  0
SOLID
  5
343D
330
3437
100
AcDbEntity
  8
OBJECT
 62
     0
100
AcDbTrace
 10
-7782.422052324408
 20
3960.803038975791
 30
0.0
 11
-7769.922052324408
 21
3960.803038975791
 31
0.0
 12
-7776.172052324408
 22
3998.303038975791
 32
0.0
 13
-7776.172052324408
 23
3998.303038975791
 33
0.0
  0
SOLID
  5
343E
330
3437
100
AcDbEntity
  8
OBJECT
 62
     0
100
AcDbTrace
 10
-7782.422052324408
 20
4115.803038975792
 30
0.0
 11
-7769.922052324408
 21
4115.803038975792
 31
0.0
 12
-7776.172052324408
 22
4078.303038975791
 32
0.0
 13
-7776.172052324408
 23
4078.303038975791
 33
0.0
  0
MTEXT
  5
343F
330
3437
100
AcDbEntity
  8
OBJECT
 62
     0
100
AcDbMText
 10
-7804.297052324407
 20
4038.303038975789
 30
0.0
 40
37.5
 41
0.0
 71
     5
 72
     1
  1
\A1;80
 11
0.0000000000000001
 21
1.0
 31
0.0
 73
     1
 44
1.0
  0
POINT
  5
3440
330
3437
100
AcDbEntity
  8
DEFPOINTS
 62
     0
100
AcDbPoint
 10
-8077.943047744787
 20
3998.303038975791
 30
0.0
  0
POINT
  5
3441
330
3437
100
AcDbEntity
  8
DEFPOINTS
 62
     0
100
AcDbPoint
 10
-8077.943047744787
 20
4078.303038975791
 30
0.0
  0
POINT
  5
3442
330
3437
100
AcDbEntity
  8
DEFPOINTS
 62
     0
100
AcDbPoint
 10
-7776.172052324408
 20
4078.303038975791
 30
0.0
  0
ENDBLK
  5
3444
330
3437
100
AcDbEntity
  8
0
100
AcDbBlockEnd
  0
BLOCK
  5
3447
330
3445
100
AcDbEntity
  8
0
100
AcDbBlockBegin
  2
A$C23BB6A77
 70
     0
 10
0.0
 20
0.0
 30
0.0
  3
A$C23BB6A77
  1

  0
DIMENSION
  5
3446
330
3445
100
AcDbEntity
  8
OBJECT
100
AcDbDimension
  2
*D1
 10
301.7709854312124
 20
154.9999934708971
 30
0.0
 11
273.6459854312115
 21
114.9999934708962
 31
0.0
 12
8077.94303775562
 22
-3923.303045504894
 32
0.0
 71
     5
 42
79.99999999999954
  3
STANDARD
100
AcDbAlignedDimension
 13
-0.0000099891658465
 23
74.99999347089761
 33
0.0
 14
-0.0000099891658465
 24
154.9999934708971
 34
0.0
 50
90.0
100
AcDbRotatedDimension
1001
ACAD
1000
DSTYLE
1002
{
1070
    40
1040
15.0
1070
    41
1040
2.5
1070
    42
1040
0.625
1070
    43
1040
3.75
1070
    44
1040
1.25
1070
    73
1070
     0
1070
    74
1070
     0
1070
    77
1070
     1
1070
    78
1070
     8
1070
   140
1040
2.5
1070
   141
1040
2.5
1070
   143
1040
0.0394
1070
   147
1040
0.625
1070
   171
1070
     4
1070
   172
1070
     1
1070
   273
1070
     8
1070
   274
1070
     4
1070
   277
1070
     6
1002
}
  0
ENDBLK
  5
3448
330
3445
100
AcDbEntity
  8
0
100
AcDbBlockEnd
  0
ENDSEC
  0
SECTION
  2
ENTITIES
  0
MTEXT
  5
938
330
18
100
AcDbEntity
  8
上書線
100
AcDbMText
 10
1865.739761775792
 20
499.0283937835011
 30
0.0
 40
37.5
 41
0.0
 71
     4
 72
     1
  1
\A1;
 73
     1
 44
1.0
  0
LINE
  5
123E
330
18
100
AcDbEntity
  8
基準線
100
AcDbLine
 10
710.0813698183028
 20
2117.506972677286
 30
0.0
 11
731.0813698183028
 21
2117.506972677286
 31
0.0
  0
LINE
  5
14BB
330
18
100
AcDbEntity
  8
基準線
100
AcDbLine
 10
1281.296189060135
 20
2744.451732006984
 30
0.0
 11
1631.12377476475
 21
2744.451732006984
 31
0.0
  0
LINE
  5
14BC
330
18
100
AcDbEntity
  8
基準線
100
AcDbLine
 10
1131.296189060135
 20
2594.451732006984
 30
0.0
 11
1604.134047986604
 21
2594.451732006984
 31
0.0
  0
LINE
  5
1546
330
18
100
AcDbEntity
  8
基準線
100
AcDbLine
 10
2000.40772718317
 20
1104.126411816217
 30
0.0
 11
2000.40772718317
 21
1262.163674897728
 31
0.0
  0
LINE
  5
154B
330
18
100
AcDbEntity
  8
基準線
100
AcDbLine
 10
2550.40772718317
 20
1049.126411816217
 30
0.0
 11
2550.40772718317
 21
1211.614819254876
 31
0.0
  0
LINE
  5
154C
330
18
100
AcDbEntity
  8
基準線
100
AcDbLine
 10
2150.40772718317
 20
1049.126411816217
 30
0.0
 11
2150.40772718317
 21
1226.779475202555
 31
0.0
  0
LINE
  5
15CA
330
18
100
AcDbEntity
  8
基準線
100
AcDbLine
 10
3419.935833980378
 20
2804.85492986955
 30
0.0
 11
3776.432100616551
 21
2804.85492986955
 31
0.0
  0
LINE
  5
15CC
330
18
100
AcDbEntity
  8
基準線
100
AcDbLine
 10
3776.432100616551
 20
2804.85492986955
 30
0.0
 11
4171.357345948922
 21
2804.85492986955
 31
0.0
  0
LINE
  5
15D0
330
18
100
AcDbEntity
  8
基準線
100
AcDbLine
 10
3419.935833980378
 20
2684.85492986955
 30
0.0
 11
3776.432100616551
 21
2684.85492986955
 31
0.0
  0
LINE
  5
15D1
330
18
100
AcDbEntity
  8
基準線
100
AcDbLine
 10
3598.183967298465
 20
2684.85492986955
 30
0.0
 11
3598.183967298465
 21
984.8549298695507
 31
0.0
  0
LINE
  5
15D2
330
18
100
AcDbEntity
  8
基準線
100
AcDbLine
 10
3776.432100616551
 20
2484.854929869551
 30
0.0
 11
4171.357345948921
 21
2484.85492986955
 31
0.0
  0
LINE
  5
15D3
330
18
100
AcDbEntity
  8
基準線
100
AcDbLine
 10
3973.894723282737
 20
2684.854929869551
 30
0.0
 11
3973.894723282734
 21
984.8549298695507
 31
0.0
  0
LINE
  5
15D4
330
18
100
AcDbEntity
  8
基準線
100
AcDbLine
 10
3419.935833980378
 20
2684.85492986955
 30
0.0
 11
3419.935833980378
 21
2584.85492986955
 31
0.0
  0
LINE
  5
15D5
330
18
100
AcDbEntity
  8
基準線
100
AcDbLine
 10
3419.935833980378
 20
2634.85492986955
 30
0.0
 11
4114.659436953616
 21
2634.85492986955
 31
0.0
  0
HATCH
  5
36C8
330
18
100
AcDbEntity
  8
OBJECT
100
AcDbHatch
 10
0.0
 20
0.0
 30
0.0
210
0.0
220
0.0
230
1.0
  2
AR-SAND
 70
     0
 71
     1
 91
        2
 92
        1
 93
        4
 72
     1
 10
5498.654819360723
 20
5270.001090680817
 11
6110.654819360722
 21
5270.001090680817
 72
     1
 10
6110.654819360722
 20
5270.001090680817
 11
6110.654819360722
 21
5682.001090680817
 72
     1
 10
6110.654819360722
 20
5682.001090680817
 11
5498.654819360723
 21
5682.001090680817
 72
     1
 10
5498.654819360723
 20
5682.001090680817
 11
5498.654819360723
 21
5270.001090680817
 97
        4
330
36F6
330
36CB
330
3788
330
36CC
 92
       16
 93
        4
 72
     1
 10
5504.654819360722
 20
5276.001090680817
 11
6104.654819360722
 21
5276.001090680817
 72
     1
 10
6104.654819360722
 20
5276.001090680817
 11
6104.654819360722
 21
5676.001090680816
 72
     1
 10
6104.654819360722
 20
5676.001090680816
 11
5504.654819360722
 21
5676.001090680816
 72
     1
 10
5504.654819360722
 20
5676.001090680816
 11
5504.654819360722
 21
5276.001090680817
 97
        4
330
36F7
330
36CD
330
3789
330
36CE
 75
     0
 76
     1
 52
90.0
 41
1.0
 77
     0
 78
     4
 53
127.5
 43
10263.26157080065
 44
-692.0324479175615
 45
-48.94132373293423
 46
-1.600031295984042
 79
     6
 49
0.0
 49
-38.608
 49
0.0
 49
-43.18
 49
0.0
 49
-41.275
 53
97.49999999999998
 43
10263.26157080065
 44
-692.0324479175615
 45
-71.68251005683543
 46
44.95232831380027
 79
     6
 49
0.0
 49
-20.828
 49
0.0
 49
-34.79799999999999
 49
0.0
 49
-13.33499999999999
 53
57.49999999999997
 43
10263.26157080065
 44
-723.2744479175616
 45
-0.1437184678545643
 46
79.09923702414579
 79
     6
 49
0.0
 49
-12.69999999999999
 49
0.0
 49
-45.71999999999998
 49
0.0
 49
-59.68999999999998
 53
47.49999999999999
 43
10263.26157080065
 44
-723.2744479175616
 45
-22.29293232572162
 46
76.35564524722972
 79
     6
 49
0.0
 49
-6.349999999999999
 49
0.0
 49
-29.97199999999999
 49
0.0
 49
-34.29
 98
        1
 10
10263.26157080065
 20
-692.0324479175615
  0
HATCH
  5
36C9
330
18
100
AcDbEntity
  8
OBJECT
100
AcDbHatch
 10
0.0
 20
0.0
 30
0.0
210
0.0
220
0.0
230
1.0
  2
AR-SAND
 70
     0
 71
     0
 91
        1
 92
        1
 93
        4
 72
     1
 10
5704.654819360722
 20
5676.001090680816
 11
6104.654819360722
 21
5676.001090680816
 72
     1
 10
6104.654819360722
 20
5676.001090680816
 11
6104.654819360722
 21
5626.001090680817
 72
     1
 10
6104.654819360722
 20
5626.001090680817
 11
5729.654819360722
 21
5626.001090680817
 72
     1
 10
5729.654819360722
 20
5626.001090680817
 11
5704.654819360722
 21
5676.001090680816
 97
        0
 75
     0
 76
     1
 52
90.0
 41
1.0
 77
     0
 78
     4
 53
127.5
 43
10263.26157080065
 44
-692.0324479175615
 45
-48.94132373293423
 46
-1.600031295984042
 79
     6
 49
0.0
 49
-38.608
 49
0.0
 49
-43.18
 49
0.0
 49
-41.275
 53
97.49999999999998
 43
10263.26157080065
 44
-692.0324479175615
 45
-71.68251005683543
 46
44.95232831380027
 79
     6
 49
0.0
 49
-20.828
 49
0.0
 49
-34.79799999999999
 49
0.0
 49
-13.33499999999999
 53
57.49999999999997
 43
10263.26157080065
 44
-723.2744479175616
 45
-0.1437184678545643
 46
79.09923702414579
 79
     6
 49
0.0
 49
-12.69999999999999
 49
0.0
 49
-45.71999999999998
 49
0.0
 49
-59.68999999999998
 53
47.49999999999999
 43
10263.26157080065
 44
-723.2744479175616
 45
-22.29293232572162
 46
76.35564524722972
 79
     6
 49
0.0
 49
-6.349999999999999
 49
0.0
 49
-29.97199999999999
 49
0.0
 49
-34.29
 98
        1
 10
10263.26157080065
 20
-692.0324479175615
  0
LINE
  5
36CA
330
18
100
AcDbEntity
  8
OBJECT
100
AcDbLine
 10
5707.154822741475
 20
5671.00108391931
 30
0.0
 11
5902.154819360722
 21
5281.001090680817
 31
0.0
  0
LINE
  5
36CB
102
{ACAD_REACTORS
330
36C8
102
}
330
18
100
AcDbEntity
  8
OBJECT
100
AcDbLine
 10
6110.654819360722
 20
5270.001090680817
 30
0.0
 11
6110.654819360722
 21
5682.001090680817
 31
0.0
  0
LINE
  5
36CC
102
{ACAD_REACTORS
330
36C8
102
}
330
18
100
AcDbEntity
  8
OBJECT
100
AcDbLine
 10
5498.654819360723
 20
5270.001090680817
 30
0.0
 11
5498.654819360723
 21
5682.001090680817
 31
0.0
  0
LINE
  5
36CD
102
{ACAD_REACTORS
330
36C8
102
}
330
18
100
AcDbEntity
  8
OBJECT
100
AcDbLine
 10
6104.654819360722
 20
5276.001090680817
 30
0.0
 11
6104.654819360722
 21
5676.001090680816
 31
0.0
  0
LINE
  5
36CE
102
{ACAD_REACTORS
330
36C8
102
}
330
18
100
AcDbEntity
  8
OBJECT
100
AcDbLine
 10
5504.654819360722
 20
5276.001090680817
 30
0.0
 11
5504.654819360722
 21
5676.001090680816
 31
0.0
  0
LINE
  5
36CF
330
18
100
AcDbEntity
  8
OBJECT
100
AcDbLine
 10
5304.654819360722
 20
5746.001090680817
 30
0.0
 11
5304.654819360722
 21
5206.001090680817
 31
0.0
  0
LINE
  5
36D0
330
18
100
AcDbEntity
  8
OBJECT
100
AcDbLine
 10
6304.654819360722
 20
5206.001090680817
 30
0.0
 11
6304.654819360722
 21
5746.001090680817
 31
0.0
  0
ARC
  5
36D1
330
18
100
AcDbEntity
  8
上線
100
AcDbCircle
 10
6970.364003294474
 20
3956.001090680816
 30
0.0
 40
50.0
100
AcDbArc
 50
270.0
 51
359.1815445383053
  0
LINE
  5
36D2
330
18
100
AcDbEntity
  8
点線
100
AcDbLine
 10
6675.369105075009
 20
4856.001090680816
 30
0.0
 11
7075.369105075009
 21
4856.001090680816
 31
0.0
  0
LINE
  5
36D3
330
18
100
AcDbEntity
  8
上線
100
AcDbLine
 10
7144.654819360723
 20
4906.001090680817
 30
0.0
 11
6604.654819360722
 21
4906.001090680817
 31
0.0
  0
LINE
  5
36D4
330
18
100
AcDbEntity
  8
OBJECT
100
AcDbLine
 10
7144.654819360723
 20
3606.001090680816
 30
0.0
 11
6604.654819360722
 21
3606.001090680816
 31
0.0
  0
LINE
  5
36D5
330
18
100
AcDbEntity
  8
OBJECT
100
AcDbLine
 10
5571.124213733471
 20
5543.189824955247
 30
0.0
 11
5571.124213733471
 21
5664.3498191294
 31
0.0
  0
LINE
  5
36D6
330
18
100
AcDbEntity
  8
OBJECT
100
AcDbLine
 10
5568.508497106223
 20
5543.189824955247
 30
0.0
 11
5568.508497106223
 21
5664.3498191294
 31
0.0
  0
LINE
  5
36D7
330
18
100
AcDbEntity
  8
OBJECT
100
AcDbLine
 10
5551.50631744193
 20
5543.189824955247
 30
0.0
 11
5551.50631744193
 21
5664.3498191294
 31
0.0
  0
LINE
  5
36D8
330
18
100
AcDbEntity
  8
OBJECT
100
AcDbLine
 10
5686.215874855474
 20
5543.189804996885
 30
0.0
 11
5686.215874855474
 21
5664.349799171038
 31
0.0
  0
LINE
  5
36D9
330
18
100
AcDbEntity
  8
OBJECT
100
AcDbLine
 10
5610.360006316555
 20
5543.189813839472
 30
0.0
 11
5610.360006316555
 21
5664.349808013623
 31
0.0
  0
LINE
  5
36DA
330
18
100
AcDbEntity
  8
OBJECT
100
AcDbLine
 10
5607.744289689305
 20
5543.189813839472
 30
0.0
 11
5607.744289689305
 21
5664.349808013623
 31
0.0
  0
LINE
  5
36DB
330
18
100
AcDbEntity
  8
OBJECT
100
AcDbLine
 10
5627.362185980847
 20
5543.189822682058
 30
0.0
 11
5627.362185980847
 21
5664.349816856208
 31
0.0
  0
LINE
  5
36DC
330
18
100
AcDbEntity
  8
OBJECT
100
AcDbLine
 10
5629.977902608096
 20
5543.189822682058
 30
0.0
 11
5629.977902608096
 21
5664.349816856208
 31
0.0
  0
LINE
  5
36DD
330
18
100
AcDbEntity
  8
OBJECT
100
AcDbLine
 10
5669.213695191179
 20
5543.189831524643
 30
0.0
 11
5669.213695191179
 21
5664.349825698799
 31
0.0
  0
LINE
  5
36DE
330
18
100
AcDbEntity
  8
OBJECT
100
AcDbLine
 10
5666.597978563931
 20
5543.189831524643
 30
0.0
 11
5666.597978563931
 21
5664.349825698799
 31
0.0
  0
LINE
  5
36DF
330
18
100
AcDbEntity
  8
OBJECT
100
AcDbLine
 10
5646.980082272389
 20
5543.189822682058
 30
0.0
 11
5646.980082272389
 21
5664.349816856208
 31
0.0
  0
LINE
  5
36E0
330
18
100
AcDbEntity
  8
OBJECT
100
AcDbLine
 10
5649.595798899637
 20
5543.189822682058
 30
0.0
 11
5649.595798899637
 21
5664.349816856208
 31
0.0
  0
LINE
  5
36E1
330
18
100
AcDbEntity
  8
OBJECT
100
AcDbLine
 10
5588.126393397765
 20
5543.189833797835
 30
0.0
 11
5588.126393397765
 21
5664.349827971988
 31
0.0
  0
LINE
  5
36E2
330
18
100
AcDbEntity
  8
OBJECT
100
AcDbLine
 10
5590.742110025013
 20
5543.189833797835
 30
0.0
 11
5590.742110025013
 21
5664.349827971988
 31
0.0
  0
LINE
  5
36E3
330
18
100
AcDbEntity
  8
OBJECT
100
AcDbLine
 10
5548.890600814681
 20
5543.189824955247
 30
0.0
 11
5548.890600814681
 21
5664.3498191294
 31
0.0
  0
LINE
  5
36E4
330
18
100
AcDbEntity
  8
OBJECT
100
AcDbLine
 10
5529.27270452314
 20
5543.189816112659
 30
0.0
 11
5529.27270452314
 21
5664.349810286815
 31
0.0
  0
LINE
  5
36E5
330
18
100
AcDbEntity
  8
OBJECT
100
AcDbLine
 10
5531.888421150387
 20
5543.189816112659
 30
0.0
 11
5531.888421150387
 21
5664.349810286815
 31
0.0
  0
LINE
  5
36E6
330
18
100
AcDbEntity
  8
OBJECT
100
AcDbLine
 10
5688.83159148272
 20
5543.189804996885
 30
0.0
 11
5688.83159148272
 21
5664.349799171038
 31
0.0
  0
LINE
  5
36E7
330
18
100
AcDbEntity
  8
OBJECT
100
AcDbLine
 10
5705.833771147013
 20
5543.189813839472
 30
0.0
 11
5705.833771147013
 21
5664.349808013623
 31
0.0
  0
LINE
  5
36E8
330
18
100
AcDbEntity
  8
OBJECT
100
AcDbLine
 10
5708.449487774263
 20
5543.189813839472
 30
0.0
 11
5708.449487774263
 21
5664.349808013623
 31
0.0
  0
LINE
  5
36E9
330
18
100
AcDbEntity
  8
OBJECT
100
AcDbLine
 10
5512.27053598797
 20
5664.349814583022
 30
0.0
 11
5512.27053598797
 21
5287.652362232233
 31
0.0
  0
LINE
  5
36EA
330
18
100
AcDbEntity
  8
OBJECT
100
AcDbLine
 10
5509.654819360722
 20
5671.001087300062
 30
0.0
 11
5509.654819360722
 21
5281.001094061572
 31
0.0
  0
LINE
  5
36EB
330
18
100
AcDbEntity
  8
OBJECT
100
AcDbLine
 10
5725.451667438557
 20
5543.189813839472
 30
0.0
 11
5725.451667438557
 21
5634.407394525148
 31
0.0
  0
LINE
  5
36F4
330
18
100
AcDbEntity
  8
点線
100
AcDbLine
 10
5304.654819360722
 20
5626.001090680817
 30
0.0
 11
5729.654819360722
 21
5626.001090680817
 31
0.0
  0
LINE
  5
36F5
330
18
100
AcDbEntity
  8
点線
100
AcDbLine
 10
5304.654819360722
 20
5326.001090680817
 30
0.0
 11
5879.654819360722
 21
5326.001090680817
 31
0.0
  0
LINE
  5
36F6
102
{ACAD_REACTORS
330
36C8
102
}
330
18
100
AcDbEntity
  8
OBJECT
100
AcDbLine
 10
5498.654819360723
 20
5270.001090680817
 30
0.0
 11
6110.654819360722
 21
5270.001090680817
 31
0.0
  0
LINE
  5
36F7
102
{ACAD_REACTORS
330
36C8
102
}
330
18
100
AcDbEntity
  8
OBJECT
100
AcDbLine
 10
5504.654819360722
 20
5276.001090680817
 30
0.0
 11
6104.654819360722
 21
5276.001090680817
 31
0.0
  0
LINE
  5
36F8
330
18
100
AcDbEntity
  8
OBJECT
100
AcDbLine
 10
5304.654819360722
 20
5206.001090680817
 30
0.0
 11
6304.654819360722
 21
5206.001090680817
 31
0.0
  0
LINE
  5
36F9
330
18
100
AcDbEntity
  8
OBJECT
100
AcDbLine
 10
5838.249184224748
 20
5408.812360952765
 30
0.0
 11
5512.27053598797
 21
5408.812360952765
 31
0.0
  0
LINE
  5
36FA
330
18
100
AcDbEntity
  8
OBJECT
100
AcDbLine
 10
5834.944820593468
 20
5415.421088215324
 30
0.0
 11
5512.27053598797
 21
5415.421088215324
 31
0.0
  0
LINE
  5
36FB
330
18
100
AcDbEntity
  8
OBJECT
100
AcDbLine
 10
5774.364821233202
 20
5536.581086935857
 30
0.0
 11
5512.27053598797
 21
5536.581086935857
 31
0.0
  0
LINE
  5
36FC
330
18
100
AcDbEntity
  8
OBJECT
100
AcDbLine
 10
5771.060454496696
 20
5543.189820408868
 30
0.0
 11
5512.27053598797
 21
5543.189820408868
 31
0.0
  0
LINE
  5
36FD
330
18
100
AcDbEntity
  8
OBJECT
100
AcDbLine
 10
5902.154817670345
 20
5281.00109406157
 30
0.0
 11
5509.654819360722
 21
5281.001094061572
 31
0.0
  0
LINE
  5
36FE
330
18
100
AcDbEntity
  8
OBJECT
100
AcDbLine
 10
5898.829181311826
 20
5287.652366778609
 30
0.0
 11
5512.27053598797
 21
5287.652366778612
 31
0.0
  0
LINE
  5
3705
330
18
100
AcDbEntity
  8
OBJECT
100
AcDbLine
 10
6604.654819360722
 20
3606.001090680816
 30
0.0
 11
6604.654819360722
 21
4906.001090680817
 31
0.0
  0
LINE
  5
3706
330
18
100
AcDbEntity
  8
点線
100
AcDbLine
 10
6725.369105075009
 20
4856.001090680816
 30
0.0
 11
6725.369105075007
 21
3606.001090680816
 31
0.0
  0
LINE
  5
3707
330
18
100
AcDbEntity
  8
点線
100
AcDbLine
 10
7023.940533646436
 20
4856.001090680816
 30
0.0
 11
7023.940533646436
 21
3606.001090680816
 31
0.0
  0
ARC
  5
370D
330
18
100
AcDbEntity
  8
上線
100
AcDbCircle
 10
6778.94563542697
 20
3956.001090680816
 30
0.0
 40
50.0
100
AcDbArc
 50
180.8184554616945
 51
270.0
  0
LINE
  5
3713
330
18
100
AcDbEntity
  8
上線
100
AcDbLine
 10
6970.364003294474
 20
3906.001090680817
 30
0.0
 11
6778.94563542697
 21
3906.001090680817
 31
0.0
  0
HATCH
  5
3716
330
18
100
AcDbEntity
  8
OBJECT
100
AcDbHatch
 10
0.0
 20
0.0
 30
0.0
210
0.0
220
0.0
230
1.0
  2
AR-SAND
 70
     0
 71
     0
 91
        1
 92
        1
 93
        4
 72
     1
 10
5904.654819360722
 20
5276.001090680817
 11
6104.654819360722
 21
5276.001090680817
 72
     1
 10
6104.654819360722
 20
5276.001090680817
 11
6104.654819360722
 21
5326.001090680817
 72
     1
 10
6104.654819360722
 20
5326.001090680817
 11
5879.654819360722
 21
5326.001090680817
 72
     1
 10
5879.654819360722
 20
5326.001090680817
 11
5904.654819360722
 21
5276.001090680817
 97
        0
 75
     0
 76
     1
 52
90.0
 41
1.0
 77
     0
 78
     4
 53
127.5
 43
10263.26157080065
 44
-692.0324479175615
 45
-48.94132373293423
 46
-1.600031295984042
 79
     6
 49
0.0
 49
-38.608
 49
0.0
 49
-43.18
 49
0.0
 49
-41.275
 53
97.49999999999998
 43
10263.26157080065
 44
-692.0324479175615
 45
-71.68251005683543
 46
44.95232831380027
 79
     6
 49
0.0
 49
-20.828
 49
0.0
 49
-34.79799999999999
 49
0.0
 49
-13.33499999999999
 53
57.49999999999997
 43
10263.26157080065
 44
-723.2744479175616
 45
-0.1437184678545643
 46
79.09923702414579
 79
     6
 49
0.0
 49
-12.69999999999999
 49
0.0
 49
-45.71999999999998
 49
0.0
 49
-59.68999999999998
 53
47.49999999999999
 43
10263.26157080065
 44
-723.2744479175616
 45
-22.29293232572162
 46
76.35564524722972
 79
     6
 49
0.0
 49
-6.349999999999999
 49
0.0
 49
-29.97199999999999
 49
0.0
 49
-34.29
 98
        1
 10
10263.26157080065
 20
-692.0324479175615
  0
LINE
  5
3717
330
18
100
AcDbEntity
  8
OBJECT
100
AcDbLine
 10
5729.654819360722
 20
5626.001090680817
 30
0.0
 11
6104.654819360722
 21
5626.001090680817
 31
0.0
  0
LINE
  5
3718
330
18
100
AcDbEntity
  8
OBJECT
100
AcDbLine
 10
5879.654819360722
 20
5326.001090680817
 30
0.0
 11
6104.654819360722
 21
5326.001090680817
 31
0.0
  0
LINE
  5
3721
330
18
100
AcDbEntity
  8
上線
 48
10.0
100
AcDbLine
 10
6725.369105075009
 20
4806.001090680816
 30
0.0
 11
7023.940533646436
 21
4806.001090680816
 31
0.0
  0
LINE
  5
3722
330
18
100
AcDbEntity
  8
点線
100
AcDbLine
 10
6675.369105075009
 20
4856.001090680816
 30
0.0
 11
6675.369105075009
 21
4906.001090680817
 31
0.0
  0
LINE
  5
3727
330
18
100
AcDbEntity
  8
点線
100
AcDbLine
 10
6104.654819360722
 20
5626.001090680817
 30
0.0
 11
6304.654819360722
 21
5626.001090680817
 31
0.0
  0
LINE
  5
3728
330
18
100
AcDbEntity
  8
点線
100
AcDbLine
 10
6104.654819360722
 20
5326.001090680817
 30
0.0
 11
6304.654819360722
 21
5326.001090680817
 31
0.0
  0
LINE
  5
3729
330
18
100
AcDbEntity
  8
OBJECT
100
AcDbLine
 10
6104.654819360722
 20
5276.001090680817
 30
0.0
 11
6104.654819360722
 21
5326.001090680817
 31
0.0
  0
LINE
  5
372C
330
18
100
AcDbEntity
  8
OBJECT
100
AcDbLine
 10
5826.156865523512
 20
5415.421088215324
 30
0.0
 11
5826.156865523512
 21
5432.996998355235
 31
0.0
  0
LINE
  5
372D
330
18
100
AcDbEntity
  8
OBJECT
100
AcDbLine
 10
5823.541148896264
 20
5415.421088215324
 30
0.0
 11
5823.541148896264
 21
5438.228431609732
 31
0.0
  0
LINE
  5
372E
330
18
100
AcDbEntity
  8
OBJECT
100
AcDbLine
 10
5806.538969231972
 20
5415.421079372737
 30
0.0
 11
5806.538969231972
 21
5472.232790938317
 31
0.0
  0
LINE
  5
372F
330
18
100
AcDbEntity
  8
OBJECT
100
AcDbLine
 10
5803.923252604723
 20
5415.421079372737
 30
0.0
 11
5803.923252604723
 21
5477.464224192816
 31
0.0
  0
LINE
  5
3730
330
18
100
AcDbEntity
  8
OBJECT
100
AcDbLine
 10
5823.541148896264
 20
5408.812360952765
 30
0.0
 11
5823.541148896264
 21
5287.652366778612
 31
0.0
  0
LINE
  5
3731
330
18
100
AcDbEntity
  8
OBJECT
100
AcDbLine
 10
5803.923252604723
 20
5408.812369795352
 30
0.0
 11
5803.923252604723
 21
5287.652375621201
 31
0.0
  0
LINE
  5
3732
330
18
100
AcDbEntity
  8
OBJECT
100
AcDbLine
 10
5806.538969231972
 20
5408.812369795352
 30
0.0
 11
5806.538969231972
 21
5287.652375621201
 31
0.0
  0
LINE
  5
3733
330
18
100
AcDbEntity
  8
OBJECT
100
AcDbLine
 10
5826.156865523512
 20
5408.812360952765
 30
0.0
 11
5826.156865523512
 21
5287.652366778612
 31
0.0
  0
LINE
  5
3734
330
18
100
AcDbEntity
  8
OBJECT
100
AcDbLine
 10
5845.774761815054
 20
5393.761205772153
 30
0.0
 11
5845.774761815054
 21
5287.652382190596
 31
0.0
  0
LINE
  5
3735
330
18
100
AcDbEntity
  8
OBJECT
100
AcDbLine
 10
5843.159045187807
 20
5398.992639026648
 30
0.0
 11
5843.159045187807
 21
5287.652382190596
 31
0.0
  0
LINE
  5
3736
330
18
100
AcDbEntity
  8
OBJECT
100
AcDbLine
 10
5885.010554398139
 20
5315.289620605985
 30
0.0
 11
5885.010554398139
 21
5287.652373348009
 31
0.0
  0
LINE
  5
3737
330
18
100
AcDbEntity
  8
OBJECT
100
AcDbLine
 10
5882.394837770888
 20
5320.521053860482
 30
0.0
 11
5882.394837770888
 21
5287.652373348009
 31
0.0
  0
LINE
  5
3738
330
18
100
AcDbEntity
  8
OBJECT
100
AcDbLine
 10
5865.392658106596
 20
5354.525413189069
 30
0.0
 11
5865.392658106596
 21
5287.652373348009
 31
0.0
  0
LINE
  5
3739
330
18
100
AcDbEntity
  8
OBJECT
100
AcDbLine
 10
5862.776941479348
 20
5359.756846443564
 30
0.0
 11
5862.776941479348
 21
5287.652373348009
 31
0.0
  0
LINE
  5
373A
330
18
100
AcDbEntity
  8
OBJECT
100
AcDbLine
 10
5666.597978563931
 20
5415.421099331101
 30
0.0
 11
5666.597978563931
 21
5536.581093505255
 31
0.0
  0
LINE
  5
373B
330
18
100
AcDbEntity
  8
OBJECT
100
AcDbLine
 10
5669.213695191179
 20
5415.421099331101
 30
0.0
 11
5669.213695191179
 21
5536.581093505255
 31
0.0
  0
LINE
  5
373C
330
18
100
AcDbEntity
  8
OBJECT
100
AcDbLine
 10
5686.215874855474
 20
5415.421072803341
 30
0.0
 11
5686.215874855474
 21
5536.581066977494
 31
0.0
  0
LINE
  5
373D
330
18
100
AcDbEntity
  8
OBJECT
100
AcDbLine
 10
5688.83159148272
 20
5415.421072803341
 30
0.0
 11
5688.83159148272
 21
5536.581066977494
 31
0.0
  0
LINE
  5
373E
330
18
100
AcDbEntity
  8
OBJECT
100
AcDbLine
 10
5728.067384065805
 20
5415.421081645927
 30
0.0
 11
5728.067384065805
 21
5536.581075820079
 31
0.0
  0
LINE
  5
373F
330
18
100
AcDbEntity
  8
OBJECT
100
AcDbLine
 10
5725.451667438557
 20
5415.421081645927
 30
0.0
 11
5725.451667438557
 21
5536.581075820079
 31
0.0
  0
LINE
  5
3740
330
18
100
AcDbEntity
  8
OBJECT
100
AcDbLine
 10
5745.069563730097
 20
5415.421090488513
 30
0.0
 11
5745.069563730097
 21
5536.581084662667
 31
0.0
  0
LINE
  5
3741
330
18
100
AcDbEntity
  8
OBJECT
100
AcDbLine
 10
5747.685280357346
 20
5415.421090488513
 30
0.0
 11
5747.685280357346
 21
5536.581084662667
 31
0.0
  0
LINE
  5
3742
330
18
100
AcDbEntity
  8
OBJECT
100
AcDbLine
 10
5708.449487774263
 20
5415.421081645927
 30
0.0
 11
5708.449487774263
 21
5536.581075820079
 31
0.0
  0
LINE
  5
3743
330
18
100
AcDbEntity
  8
OBJECT
100
AcDbLine
 10
5705.833771147013
 20
5415.421081645927
 30
0.0
 11
5705.833771147013
 21
5536.581075820079
 31
0.0
  0
LINE
  5
3744
330
18
100
AcDbEntity
  8
OBJECT
100
AcDbLine
 10
5767.303176648888
 20
5415.42107053015
 30
0.0
 11
5767.303176648888
 21
5536.581064704304
 31
0.0
  0
LINE
  5
3745
330
18
100
AcDbEntity
  8
OBJECT
100
AcDbLine
 10
5764.687460021639
 20
5415.42107053015
 30
0.0
 11
5764.687460021639
 21
5536.581064704304
 31
0.0
  0
LINE
  5
3746
330
18
100
AcDbEntity
  8
OBJECT
100
AcDbLine
 10
5786.92107294043
 20
5415.421079372737
 30
0.0
 11
5786.92107294043
 21
5511.4685835214
 31
0.0
  0
LINE
  5
3747
330
18
100
AcDbEntity
  8
OBJECT
100
AcDbLine
 10
5784.305356313181
 20
5415.421079372737
 30
0.0
 11
5784.305356313181
 21
5516.700016775899
 31
0.0
  0
LINE
  5
3748
330
18
100
AcDbEntity
  8
OBJECT
100
AcDbLine
 10
5666.597978563931
 20
5408.812349836989
 30
0.0
 11
5666.597978563931
 21
5287.652355662834
 31
0.0
  0
LINE
  5
3749
330
18
100
AcDbEntity
  8
OBJECT
100
AcDbLine
 10
5669.213695191179
 20
5408.812349836989
 30
0.0
 11
5669.213695191179
 21
5287.652355662834
 31
0.0
  0
LINE
  5
374A
330
18
100
AcDbEntity
  8
OBJECT
100
AcDbLine
 10
5686.215874855474
 20
5408.81237636475
 30
0.0
 11
5686.215874855474
 21
5287.652382190596
 31
0.0
  0
LINE
  5
374B
330
18
100
AcDbEntity
  8
OBJECT
100
AcDbLine
 10
5688.83159148272
 20
5408.81237636475
 30
0.0
 11
5688.83159148272
 21
5287.652382190596
 31
0.0
  0
LINE
  5
374C
330
18
100
AcDbEntity
  8
OBJECT
100
AcDbLine
 10
5728.067384065805
 20
5408.812367522163
 30
0.0
 11
5728.067384065805
 21
5287.652373348009
 31
0.0
  0
LINE
  5
374D
330
18
100
AcDbEntity
  8
OBJECT
100
AcDbLine
 10
5725.451667438557
 20
5408.812367522163
 30
0.0
 11
5725.451667438557
 21
5287.652373348009
 31
0.0
  0
LINE
  5
374E
330
18
100
AcDbEntity
  8
OBJECT
100
AcDbLine
 10
5745.069563730097
 20
5408.812358679575
 30
0.0
 11
5745.069563730097
 21
5287.652364505424
 31
0.0
  0
LINE
  5
374F
330
18
100
AcDbEntity
  8
OBJECT
100
AcDbLine
 10
5747.685280357346
 20
5408.812358679575
 30
0.0
 11
5747.685280357346
 21
5287.652364505424
 31
0.0
  0
LINE
  5
3750
330
18
100
AcDbEntity
  8
OBJECT
100
AcDbLine
 10
5784.305356313181
 20
5408.812369795352
 30
0.0
 11
5784.305356313181
 21
5287.652375621201
 31
0.0
  0
LINE
  5
3751
330
18
100
AcDbEntity
  8
OBJECT
100
AcDbLine
 10
5786.92107294043
 20
5408.812369795352
 30
0.0
 11
5786.92107294043
 21
5287.652375621201
 31
0.0
  0
LINE
  5
3752
330
18
100
AcDbEntity
  8
OBJECT
100
AcDbLine
 10
5767.303176648888
 20
5408.812378637938
 30
0.0
 11
5767.303176648888
 21
5287.652384463785
 31
0.0
  0
LINE
  5
3753
330
18
100
AcDbEntity
  8
OBJECT
100
AcDbLine
 10
5764.687460021639
 20
5408.812378637938
 30
0.0
 11
5764.687460021639
 21
5287.652384463785
 31
0.0
  0
LINE
  5
3754
330
18
100
AcDbEntity
  8
OBJECT
100
AcDbLine
 10
5708.449487774263
 20
5408.812367522163
 30
0.0
 11
5708.449487774263
 21
5287.652373348009
 31
0.0
  0
LINE
  5
3755
330
18
100
AcDbEntity
  8
OBJECT
100
AcDbLine
 10
5705.833771147013
 20
5408.812367522163
 30
0.0
 11
5705.833771147013
 21
5287.652373348009
 31
0.0
  0
LINE
  5
3756
330
18
100
AcDbEntity
  8
OBJECT
100
AcDbLine
 10
5767.303176648888
 20
5543.189802723695
 30
0.0
 11
5767.303176648888
 21
5550.704376104484
 31
0.0
  0
LINE
  5
3757
330
18
100
AcDbEntity
  8
OBJECT
100
AcDbLine
 10
5764.687460021639
 20
5543.189802723695
 30
0.0
 11
5764.687460021639
 21
5555.935809358982
 31
0.0
  0
LINE
  5
3758
330
18
100
AcDbEntity
  8
OBJECT
100
AcDbLine
 10
5728.067384065805
 20
5543.189813839472
 30
0.0
 11
5728.067384065805
 21
5629.175961270652
 31
0.0
  0
LINE
  5
3759
330
18
100
AcDbEntity
  8
OBJECT
100
AcDbLine
 10
5747.685280357346
 20
5543.189822682058
 30
0.0
 11
5747.685280357346
 21
5589.940168687569
 31
0.0
  0
LINE
  5
375A
330
18
100
AcDbEntity
  8
OBJECT
100
AcDbLine
 10
5745.069563730097
 20
5543.189822682058
 30
0.0
 11
5745.069563730097
 21
5595.171601942066
 31
0.0
  0
LINE
  5
375B
330
18
100
AcDbEntity
  8
OBJECT
100
AcDbLine
 10
5531.888421150387
 20
5415.421083919117
 30
0.0
 11
5531.888421150387
 21
5536.58107809327
 31
0.0
  0
LINE
  5
375C
330
18
100
AcDbEntity
  8
OBJECT
100
AcDbLine
 10
5548.890600814681
 20
5415.421092761702
 30
0.0
 11
5548.890600814681
 21
5536.581086935857
 31
0.0
  0
LINE
  5
375D
330
18
100
AcDbEntity
  8
OBJECT
100
AcDbLine
 10
5551.50631744193
 20
5415.421092761702
 30
0.0
 11
5551.50631744193
 21
5536.581086935857
 31
0.0
  0
LINE
  5
375E
330
18
100
AcDbEntity
  8
OBJECT
100
AcDbLine
 10
5590.742110025013
 20
5415.42110160429
 30
0.0
 11
5590.742110025013
 21
5536.581095778443
 31
0.0
  0
LINE
  5
375F
330
18
100
AcDbEntity
  8
OBJECT
100
AcDbLine
 10
5588.126393397765
 20
5415.42110160429
 30
0.0
 11
5588.126393397765
 21
5536.581095778443
 31
0.0
  0
LINE
  5
3760
330
18
100
AcDbEntity
  8
OBJECT
100
AcDbLine
 10
5568.508497106223
 20
5415.421092761702
 30
0.0
 11
5568.508497106223
 21
5536.581086935857
 31
0.0
  0
LINE
  5
3761
330
18
100
AcDbEntity
  8
OBJECT
100
AcDbLine
 10
5571.124213733471
 20
5415.421092761702
 30
0.0
 11
5571.124213733471
 21
5536.581086935857
 31
0.0
  0
LINE
  5
3762
330
18
100
AcDbEntity
  8
OBJECT
100
AcDbLine
 10
5649.595798899637
 20
5415.421090488513
 30
0.0
 11
5649.595798899637
 21
5536.581084662667
 31
0.0
  0
LINE
  5
3763
330
18
100
AcDbEntity
  8
OBJECT
100
AcDbLine
 10
5646.980082272389
 20
5415.421090488513
 30
0.0
 11
5646.980082272389
 21
5536.581084662667
 31
0.0
  0
LINE
  5
3764
330
18
100
AcDbEntity
  8
OBJECT
100
AcDbLine
 10
5629.977902608096
 20
5415.421090488513
 30
0.0
 11
5629.977902608096
 21
5536.581084662667
 31
0.0
  0
LINE
  5
3765
330
18
100
AcDbEntity
  8
OBJECT
100
AcDbLine
 10
5627.362185980847
 20
5415.421090488513
 30
0.0
 11
5627.362185980847
 21
5536.581084662667
 31
0.0
  0
LINE
  5
3766
330
18
100
AcDbEntity
  8
OBJECT
100
AcDbLine
 10
5607.744289689305
 20
5415.421081645927
 30
0.0
 11
5607.744289689305
 21
5536.581075820079
 31
0.0
  0
LINE
  5
3767
330
18
100
AcDbEntity
  8
OBJECT
100
AcDbLine
 10
5610.360006316555
 20
5415.421081645927
 30
0.0
 11
5610.360006316555
 21
5536.581075820079
 31
0.0
  0
LINE
  5
3768
330
18
100
AcDbEntity
  8
OBJECT
100
AcDbLine
 10
5531.888421150387
 20
5408.812365248974
 30
0.0
 11
5531.888421150387
 21
5287.652371074819
 31
0.0
  0
LINE
  5
3769
330
18
100
AcDbEntity
  8
OBJECT
100
AcDbLine
 10
5548.890600814681
 20
5408.812356406386
 30
0.0
 11
5548.890600814681
 21
5287.652362232233
 31
0.0
  0
LINE
  5
376A
330
18
100
AcDbEntity
  8
OBJECT
100
AcDbLine
 10
5590.742110025013
 20
5408.812347563799
 30
0.0
 11
5590.742110025013
 21
5287.652353389646
 31
0.0
  0
LINE
  5
376B
330
18
100
AcDbEntity
  8
OBJECT
100
AcDbLine
 10
5588.126393397765
 20
5408.812347563799
 30
0.0
 11
5588.126393397765
 21
5287.652353389646
 31
0.0
  0
LINE
  5
376C
330
18
100
AcDbEntity
  8
OBJECT
100
AcDbLine
 10
5649.595798899637
 20
5408.812358679575
 30
0.0
 11
5649.595798899637
 21
5287.652364505424
 31
0.0
  0
LINE
  5
376D
330
18
100
AcDbEntity
  8
OBJECT
100
AcDbLine
 10
5646.980082272389
 20
5408.812358679575
 30
0.0
 11
5646.980082272389
 21
5287.652364505424
 31
0.0
  0
LINE
  5
376E
330
18
100
AcDbEntity
  8
OBJECT
100
AcDbLine
 10
5629.977902608096
 20
5408.812358679575
 30
0.0
 11
5629.977902608096
 21
5287.652364505424
 31
0.0
  0
LINE
  5
376F
330
18
100
AcDbEntity
  8
OBJECT
100
AcDbLine
 10
5627.362185980847
 20
5408.812358679575
 30
0.0
 11
5627.362185980847
 21
5287.652364505424
 31
0.0
  0
LINE
  5
3770
330
18
100
AcDbEntity
  8
OBJECT
100
AcDbLine
 10
5607.744289689305
 20
5408.812367522163
 30
0.0
 11
5607.744289689305
 21
5287.652373348009
 31
0.0
  0
LINE
  5
3771
330
18
100
AcDbEntity
  8
OBJECT
100
AcDbLine
 10
5610.360006316555
 20
5408.812367522163
 30
0.0
 11
5610.360006316555
 21
5287.652373348009
 31
0.0
  0
LINE
  5
3772
330
18
100
AcDbEntity
  8
OBJECT
100
AcDbLine
 10
5551.50631744193
 20
5408.812356406386
 30
0.0
 11
5551.50631744193
 21
5287.652362232233
 31
0.0
  0
LINE
  5
3773
330
18
100
AcDbEntity
  8
OBJECT
100
AcDbLine
 10
5568.508497106223
 20
5408.812356406386
 30
0.0
 11
5568.508497106223
 21
5287.652362232233
 31
0.0
  0
LINE
  5
3774
330
18
100
AcDbEntity
  8
OBJECT
100
AcDbLine
 10
5571.124213733471
 20
5408.812356406386
 30
0.0
 11
5571.124213733471
 21
5287.652362232233
 31
0.0
  0
LINE
  5
377E
330
18
100
AcDbEntity
  8
OBJECT
100
AcDbLine
 10
5529.27270452314
 20
5415.421083919117
 30
0.0
 11
5529.27270452314
 21
5536.58107809327
 31
0.0
  0
LINE
  5
377F
330
18
100
AcDbEntity
  8
OBJECT
100
AcDbLine
 10
5529.27270452314
 20
5408.812365248974
 30
0.0
 11
5529.27270452314
 21
5287.652371074819
 31
0.0
  0
LINE
  5
3788
102
{ACAD_REACTORS
330
36C8
102
}
330
18
100
AcDbEntity
  8
OBJECT
100
AcDbLine
 10
5498.654819360723
 20
5682.001090680817
 30
0.0
 11
6110.654819360722
 21
5682.001090680817
 31
0.0
  0
LINE
  5
3789
102
{ACAD_REACTORS
330
36C8
102
}
330
18
100
AcDbEntity
  8
OBJECT
100
AcDbLine
 10
5504.654819360722
 20
5676.001090680816
 30
0.0
 11
6104.654819360722
 21
5676.001090680816
 31
0.0
  0
LINE
  5
378A
330
18
100
AcDbEntity
  8
OBJECT
100
AcDbLine
 10
6304.654819360722
 20
5746.001090680817
 30
0.0
 11
5304.654819360722
 21
5746.001090680817
 31
0.0
  0
LINE
  5
378B
330
18
100
AcDbEntity
  8
OBJECT
100
AcDbLine
 10
5710.480457409619
 20
5664.349814583023
 30
0.0
 11
5512.27053598797
 21
5664.349814583022
 31
0.0
  0
LINE
  5
378C
330
18
100
AcDbEntity
  8
OBJECT
100
AcDbLine
 10
5707.154821051098
 20
5671.001087300062
 30
0.0
 11
5509.654819360722
 21
5671.001087300062
 31
0.0
  0
LINE
  5
378D
330
18
100
AcDbEntity
  8
OBJECT
100
AcDbLine
 10
6304.654819360722
 20
3606.001090680816
 30
0.0
 11
6304.654819360722
 21
4906.001090680817
 31
0.0
  0
LINE
  5
378E
330
18
100
AcDbEntity
  8
点線
100
AcDbLine
 10
6104.654819360722
 20
4856.001090680816
 30
0.0
 11
6104.654819360722
 21
3606.001090680816
 31
0.0
  0
LINE
  5
378F
330
18
100
AcDbEntity
  8
OBJECT
100
AcDbLine
 10
7144.654819360723
 20
4906.001090680817
 30
0.0
 11
7144.654819360723
 21
3606.001090680816
 31
0.0
  0
LINE
  5
3790
330
18
100
AcDbEntity
  8
OBJECT
100
AcDbLine
 10
5304.654819360722
 20
4906.001090680817
 30
0.0
 11
5304.654819360722
 21
3606.001090680816
 31
0.0
  0
LINE
  5
3791
330
18
100
AcDbEntity
  8
点線
100
AcDbLine
 10
5504.654819360722
 20
4856.001090680816
 30
0.0
 11
5504.654819360722
 21
3606.001090680816
 31
0.0
  0
LINE
  5
3792
330
18
100
AcDbEntity
  8
OBJECT
100
AcDbLine
 10
5304.654819360722
 20
3606.001090680816
 30
0.0
 11
6304.654819360722
 21
3606.001090680816
 31
0.0
  0
LINE
  5
3793
330
18
100
AcDbEntity
  8
点線
100
AcDbLine
 10
5504.654819360722
 20
3906.001090680814
 30
0.0
 11
5304.654819360722
 21
3906.001090680814
 31
0.0
  0
LINE
  5
3794
330
18
100
AcDbEntity
  8
点線
100
AcDbLine
 10
6104.654819360722
 20
3906.001090680814
 30
0.0
 11
6304.654819360722
 21
3906.001090680814
 31
0.0
  0
LINE
  5
3797
330
18
100
AcDbEntity
  8
OBJECT
100
AcDbLine
 10
5304.654819360722
 20
4906.001090680817
 30
0.0
 11
6304.654819360722
 21
4906.001090680817
 31
0.0
  0
LINE
  5
3798
330
18
100
AcDbEntity
  8
点線
100
AcDbLine
 10
5504.654819360722
 20
4856.001090680816
 30
0.0
 11
6104.654819360722
 21
4856.001090680816
 31
0.0
  0
LINE
  5
379D
330
18
100
AcDbEntity
  8
点線
100
AcDbLine
 10
5504.654819360722
 20
4806.001090680815
 30
0.0
 11
5304.654819360722
 21
4806.001090680815
 31
0.0
  0
LINE
  5
379E
330
18
100
AcDbEntity
  8
点線
100
AcDbLine
 10
7075.369105075009
 20
4856.001090680816
 30
0.0
 11
7075.369105075009
 21
4906.001090680817
 31
0.0
  0
LINE
  5
379F
330
18
100
AcDbEntity
  8
点線
100
AcDbLine
 10
5504.654819360722
 20
4906.001090680817
 30
0.0
 11
5504.654819360722
 21
4856.001090680816
 31
0.0
  0
LINE
  5
37A7
330
18
100
AcDbEntity
  8
点線
100
AcDbLine
 10
6104.654819360722
 20
4806.001090680815
 30
0.0
 11
6304.654819360722
 21
4806.001090680815
 31
0.0
  0
LINE
  5
37A8
330
18
100
AcDbEntity
  8
点線
100
AcDbLine
 10
6104.654819360722
 20
4856.001090680816
 30
0.0
 11
6104.654819360722
 21
4906.001090680817
 31
0.0
  0
LINE
  5
3931
330
18
100
AcDbEntity
  8
OBJECT
100
AcDbLine
 10
6725.369105075009
 20
4806.001090680816
 30
0.0
 11
6728.950736686996
 21
3955.286877841668
 31
0.0
  0
LINE
  5
3932
330
18
100
AcDbEntity
  8
OBJECT
100
AcDbLine
 10
7023.940533646436
 20
4806.001090680816
 30
0.0
 11
7020.358902034449
 21
3955.286877841668
 31
0.0
  0
LINE
  5
3A7A
330
18
100
AcDbEntity
  8
OBJECT
 48
10.0
100
AcDbLine
 10
7144.654845183215
 20
5086.001081917398
 30
0.0
 11
7257.154845183215
 21
5086.001081917398
 31
0.0
  0
LINE
  5
3A7B
330
18
100
AcDbEntity
  8
WUWAGAKI
100
AcDbLine
 10
8873.539972893871
 20
6350.283708942551
 30
0.0
 11
4602.821054266954
 21
6350.283708942551
 31
0.0
  0
LINE
  5
3A7C
330
18
100
AcDbEntity
  8
WUWAGAKI
100
AcDbLine
 10
4602.821054266954
 20
3424.133857146428
 30
0.0
 11
8873.539972893871
 21
3424.133857146428
 31
0.0
  0
LINE
  5
3A7D
330
18
100
AcDbEntity
  8
0
 48
10.0
100
AcDbLine
 10
7144.654845183239
 20
4936.001090680821
 30
0.0
 11
7144.654845183239
 21
5266.00109068082
 31
0.0
  0
LINE
  5
3A7E
330
18
100
AcDbEntity
  8
0
 48
10.0
100
AcDbLine
 10
6604.654845183194
 20
4936.001090680816
 30
0.0
 11
6604.654845183194
 21
5266.001090680816
 31
0.0
  0
LINE
  5
3A7F
330
18
100
AcDbEntity
  8
WUWAGAKI
100
AcDbLine
 10
4602.821054266954
 20
6350.283708942551
 30
0.0
 11
4602.821054266954
 21
3424.133857146428
 31
0.0
  0
MTEXT
  5
3A80
330
18
100
AcDbEntity
  8
0
  6
ByBlock
 62
     0
 48
10.0
100
AcDbMText
 10
7049.654845183238
 20
5146.0010819174
 30
0.0
 40
37.5
 41
0.0
 71
     5
 72
     1
  1
50
 73
     1
 44
1.0
  0
MTEXT
  5
3AA5
330
18
100
AcDbEntity
  8
0
  6
ByBlock
 62
     0
 48
10.0
100
AcDbMText
 10
6887.560183418067
 20
4017.986769349304
 30
0.0
 40
30.0
 41
0.0
 71
     5
 72
     1
  1
50R
 73
     1
 44
1.0
  0
LINE
  5
3AA6
330
18
100
AcDbEntity
  8
OBJECT
 48
10.0
100
AcDbLine
 10
6835.060183418066
 20
3987.986769349305
 30
0.0
 11
6940.060183418068
 21
3987.986769349305
 31
0.0
  0
SOLID
  5
3AA8
330
18
100
AcDbEntity
  8
0
  6
ByBlock
 62
     0
 48
10.0
100
AcDbTrace
 10
6770.389705966597
 20
3947.608523601515
 30
0.0
 11
6777.781075965879
 21
3937.527965604375
 31
0.0
 12
6743.843716974821
 22
3920.39413460509
 32
0.0
 13
6743.843716974821
 23
3920.39413460509
 33
0.0
  0
LINE
  5
3AA9
330
18
100
AcDbEntity
  8
WUWAGAKI
 48
10.0
100
AcDbLine
 10
6758.908448629387
 20
3931.557304413707
 30
0.0
 11
6835.060183418066
 21
3987.986769349305
 31
0.0
210
0.0
220
0.0
230
-1.0
1001
ACAD
1000
DSTYLE
1002
{
1070
    78
1070
     8
1070
   270
1070
     8
1070
   140
1040
2.5
1070
    74
1070
     0
1070
   172
1070
     1
1070
    73
1070
     0
1070
    77
1070
     1
1070
    40
1040
10.0
1070
   147
1040
0.625
1070
    42
1040
0.625
1070
    44
1040
1.25
1070
    43
1040
3.75
1070
   141
1040
2.5
1070
    41
1040
2.5
1070
   273
1070
     8
1070
   274
1070
     4
1070
   143
1040
0.0394
1070
   171
1070
     4
1002
}
  0
LINE
  5
3AAE
330
18
100
AcDbEntity
  8
0
 48
10.0
100
AcDbLine
 10
7019.654845183239
 20
4586.001080585625
 30
0.0
 11
7019.654845183239
 21
4766.001080585625
 31
0.0
  0
LINE
  5
3AAF
330
18
100
AcDbEntity
  8
0
 48
10.0
100
AcDbLine
 10
6729.654845183194
 20
4586.001080585625
 30
0.0
 11
6729.654845183194
 21
4766.001080585625
 31
0.0
  0
LINE
  5
3AB0
330
18
100
AcDbEntity
  8
OBJECT
 48
10.0
100
AcDbLine
 10
6729.654845183194
 20
4736.001081917398
 30
0.0
 11
7019.654845183239
 21
4736.0010819174
 31
0.0
  0
LINE
  5
3AB1
330
18
100
AcDbEntity
  8
OBJECT
 48
10.0
100
AcDbLine
 10
6649.654845183194
 20
5086.001081917398
 30
0.0
 11
7144.654845183239
 21
5086.001081917401
 31
0.0
  0
MTEXT
  5
3AB2
330
18
100
AcDbEntity
  8
0
  6
ByBlock
 62
     0
 48
10.0
100
AcDbMText
 10
6874.654845183238
 20
4766.001090680818
 30
0.0
 40
37.5
 41
0.0
 71
     5
 72
     1
  1
290
 73
     1
 44
1.0
  0
MTEXT
  5
3AB3
330
18
100
AcDbEntity
  8
0
  6
ByBlock
 62
     0
 48
10.0
100
AcDbMText
 10
6874.654845183238
 20
5116.001090680818
 30
0.0
 40
37.5
 41
0.0
 71
     5
 72
     1
  1
300
 73
     1
 44
1.0
  0
SOLID
  5
3AB8
330
18
100
AcDbEntity
  8
0
  6
ByBlock
 62
     0
 48
10.0
100
AcDbTrace
 10
6767.154845183201
 20
4729.751099444241
 30
0.0
 11
6767.154845183201
 21
4742.251099444239
 31
0.0
 12
6729.654845183201
 22
4736.001099444242
 32
0.0
 13
6729.654845183201
 23
4736.001099444242
 33
0.0
  0
MTEXT
  5
3AB9
330
18
100
AcDbEntity
  8
0
  6
ByBlock
 62
     0
 48
10.0
100
AcDbMText
 10
6664.654845183195
 20
5116.001083893933
 30
0.0
 40
37.5
 41
0.0
 71
     5
 72
     1
  1
120
 73
     1
 44
1.0
  0
SOLID
  5
3ABA
330
18
100
AcDbEntity
  8
0
  6
ByBlock
 62
     0
 48
10.0
100
AcDbTrace
 10
6687.154845183188
 20
5079.751099444241
 30
0.0
 11
6687.154845183188
 21
5092.251099444239
 31
0.0
 12
6724.654845183188
 22
5086.001099444242
 32
0.0
 13
6724.654845183188
 23
5086.001099444242
 33
0.0
  0
SOLID
  5
3ABB
330
18
100
AcDbEntity
  8
0
  6
ByBlock
 62
     0
 48
10.0
100
AcDbTrace
 10
6642.154857042348
 20
5092.251081917396
 30
0.0
 11
6642.154857042348
 21
5079.751081917395
 31
0.0
 12
6604.654857042348
 22
5086.001081917395
 32
0.0
 13
6604.654857042348
 23
5086.001081917395
 33
0.0
  0
LINE
  5
3ABC
330
18
100
AcDbEntity
  8
0
 48
10.0
100
AcDbLine
 10
6724.654845183194
 20
4936.001080585626
 30
0.0
 11
6724.654845183194
 21
5116.001080585625
 31
0.0
  0
SOLID
  5
3ABD
330
18
100
AcDbEntity
  8
0
  6
ByBlock
 62
     0
 48
10.0
100
AcDbTrace
 10
6762.154845183201
 20
5079.751099444241
 30
0.0
 11
6762.154845183201
 21
5092.251099444239
 31
0.0
 12
6724.654845183201
 22
5086.001099444242
 32
0.0
 13
6724.654845183201
 23
5086.001099444242
 33
0.0
  0
SOLID
  5
3ABE
330
18
100
AcDbEntity
  8
0
  6
ByBlock
 62
     0
 48
10.0
100
AcDbTrace
 10
6982.154950344282
 20
4729.75109068082
 30
0.0
 11
6982.154950344282
 21
4742.251090680818
 31
0.0
 12
7019.654950344282
 22
4736.001090680821
 32
0.0
 13
7019.654950344282
 23
4736.001090680821
 33
0.0
  0
LINE
  5
3AC0
330
18
100
AcDbEntity
  8
0
 48
10.0
100
AcDbLine
 10
7024.654845183238
 20
4936.001080585626
 30
0.0
 11
7024.654845183238
 21
5116.001080585625
 31
0.0
  0
SOLID
  5
3AC1
330
18
100
AcDbEntity
  8
0
  6
ByBlock
 62
     0
 48
10.0
100
AcDbTrace
 10
6987.154950344283
 20
5079.75109068082
 30
0.0
 11
6987.154950344283
 21
5092.251090680818
 31
0.0
 12
7024.654950344284
 22
5086.001090680822
 32
0.0
 13
7024.654950344284
 23
5086.001090680822
 33
0.0
  0
LINE
  5
3AC2
330
18
100
AcDbEntity
  8
0
 48
10.0
100
AcDbLine
 10
7074.654845183238
 20
4936.001090680816
 30
0.0
 11
7074.654845183238
 21
5116.001090680817
 31
0.0
  0
MTEXT
  5
3AC3
330
18
100
AcDbEntity
  8
0
  6
ByBlock
 62
     0
 48
10.0
100
AcDbMText
 10
7109.654845183237
 20
5116.0010819174
 30
0.0
 40
37.5
 41
0.0
 71
     5
 72
     1
  1
70
 73
     1
 44
1.0
  0
LWPOLYLINE
  5
3AC4
330
18
100
AcDbEntity
  8
上線
 48
10.0
100
AcDbPolyline
 90
        2
 70
     1
 43
5.0
 10
7072.154845183238
 20
5085.979144309592
 42
1.0
 10
7077.154845183237
 20
5085.979144309592
 42
1.0
  0
SOLID
  5
3AC5
330
18
100
AcDbEntity
  8
0
  6
ByBlock
 62
     0
 48
10.0
100
AcDbTrace
 10
7182.15485704237
 20
5092.251081917396
 30
0.0
 11
7182.15485704237
 21
5079.751081917395
 31
0.0
 12
7144.65485704237
 22
5086.001081917395
 32
0.0
 13
7144.65485704237
 23
5086.001081917395
 33
0.0
  0
MTEXT
  5
3AC6
330
18
100
AcDbEntity
  8
0
  6
ByBlock
 62
     0
 48
10.0
100
AcDbMText
 10
5804.654819360722
 20
6106.001090680817
 30
0.0
 40
37.5
 41
0.0
 71
     5
 72
     1
  1
1000
 73
     1
 44
1.0
  0
MTEXT
  5
3AC7
330
18
100
AcDbEntity
  8
0
  6
ByBlock
 62
     0
 48
10.0
100
AcDbMText
 10
5804.654819360722
 20
5956.001090680818
 30
0.0
 40
37.5
 41
0.0
 71
     5
 72
     1
  1
600
 73
     1
 44
1.0
  0
LINE
  5
3AC8
330
18
100
AcDbEntity
  8
OBJECT
 48
10.0
100
AcDbLine
 10
5304.654819360722
 20
5926.001079940867
 30
0.0
 11
6304.654819360722
 21
5926.001079940867
 31
0.0
  0
LINE
  5
3AC9
330
18
100
AcDbEntity
  8
OBJECT
 48
10.0
100
AcDbLine
 10
6304.654819360722
 20
6076.001081917395
 30
0.0
 11
5304.654819360722
 21
6076.001081917397
 31
0.0
  0
LINE
  5
3AD9
330
18
100
AcDbEntity
  8
0
 48
10.0
100
AcDbLine
 10
5274.654819360723
 20
5676.001116503332
 30
0.0
 11
5094.654819360722
 21
5676.001116503332
 31
0.0
  0
LINE
  5
3ADA
330
18
100
AcDbEntity
  8
0
 48
10.0
100
AcDbLine
 10
5274.654829455913
 20
5626.001116503331
 30
0.0
 11
5094.654829455913
 21
5626.001116503331
 31
0.0
  0
LINE
  5
3ADB
330
18
100
AcDbEntity
  8
0
 48
10.0
100
AcDbLine
 10
5274.654829455913
 20
5326.001116503288
 30
0.0
 11
5094.654829455913
 21
5326.001116503288
 31
0.0
  0
LINE
  5
3ADC
330
18
100
AcDbEntity
  8
0
 48
10.0
100
AcDbLine
 10
5274.654819360719
 20
5746.001116503332
 30
0.0
 11
4944.654819360718
 21
5746.001116503332
 31
0.0
  0
LINE
  5
3ADD
330
18
100
AcDbEntity
  8
0
 48
10.0
100
AcDbLine
 10
5274.654819360723
 20
5206.001116503288
 30
0.0
 11
4944.654819360722
 21
5206.001116503288
 31
0.0
  0
LINE
  5
3ADE
330
18
100
AcDbEntity
  8
OBJECT
 48
10.0
100
AcDbLine
 10
5124.65482812414
 20
5251.001116503289
 30
0.0
 11
5124.654828124139
 21
5746.001116503332
 31
0.0
  0
LINE
  5
3ADF
330
18
100
AcDbEntity
  8
OBJECT
 48
10.0
100
AcDbLine
 10
4974.654819360717
 20
5251.001116503289
 30
0.0
 11
4974.654819360717
 21
5746.00111650331
 31
0.0
  0
MTEXT
  5
3AE0
330
18
100
AcDbEntity
  8
0
  6
ByBlock
 62
     0
 48
10.0
100
AcDbMText
 10
5064.654828124139
 20
5651.001116503332
 30
0.0
 40
37.5
 41
0.0
 71
     5
 72
     1
  1
50
 11
0.0000000000000001
 21
1.0
 31
0.0
 73
     1
 44
1.0
  0
MTEXT
  5
3AE1
330
18
100
AcDbEntity
  8
0
  6
ByBlock
 62
     0
 48
10.0
100
AcDbMText
 10
5094.654826147607
 20
5266.001116503288
 30
0.0
 40
37.5
 41
0.0
 71
     5
 72
     1
  1
120
 11
0.0000000000000001
 21
1.0
 31
0.0
 73
     1
 44
1.0
  0
SOLID
  5
3AE2
330
18
100
AcDbEntity
  8
0
  6
ByBlock
 62
     0
 48
10.0
100
AcDbTrace
 10
4980.904819360719
 20
5243.50111650331
 30
0.0
 11
4968.404819360719
 21
5243.50111650331
 31
0.0
 12
4974.654819360717
 22
5206.00111650331
 32
0.0
 13
4974.654819360717
 23
5206.00111650331
 33
0.0
  0
SOLID
  5
3AE3
330
18
100
AcDbEntity
  8
0
  6
ByBlock
 62
     0
 48
10.0
100
AcDbTrace
 10
5118.404828124142
 20
5243.501128362442
 30
0.0
 11
5130.904828124144
 21
5243.501128362442
 31
0.0
 12
5124.654828124143
 22
5206.001128362442
 32
0.0
 13
5124.654828124143
 23
5206.001128362442
 33
0.0
  0
SOLID
  5
3AE4
330
18
100
AcDbEntity
  8
0
  6
ByBlock
 62
     0
 48
10.0
100
AcDbTrace
 10
5130.904810597297
 20
5363.501116503295
 30
0.0
 11
5118.4048105973
 21
5363.501116503295
 31
0.0
 12
5124.654810597296
 22
5326.001116503295
 32
0.0
 13
5124.654810597296
 23
5326.001116503295
 33
0.0
  0
SOLID
  5
3AE5
330
18
100
AcDbEntity
  8
0
  6
ByBlock
 62
     0
 48
10.0
100
AcDbTrace
 10
5130.904810597297
 20
5288.501116503282
 30
0.0
 11
5118.4048105973
 21
5288.501116503282
 31
0.0
 12
5124.654810597296
 22
5326.001116503282
 32
0.0
 13
5124.654810597296
 23
5326.001116503282
 33
0.0
  0
MTEXT
  5
3AE6
330
18
100
AcDbEntity
  8
0
  6
ByBlock
 62
     0
 48
10.0
100
AcDbMText
 10
4944.654819360718
 20
5476.001116503332
 30
0.0
 40
37.5
 41
0.0
 71
     5
 72
     1
  1
540
 11
0.0000000000000001
 21
1.0
 31
0.0
 73
     1
 44
1.0
  0
MTEXT
  5
3AE7
330
18
100
AcDbEntity
  8
0
  6
ByBlock
 62
     0
 48
10.0
100
AcDbMText
 10
5094.65481936072
 20
5476.001116503332
 30
0.0
 40
37.5
 41
0.0
 71
     5
 72
     1
  1
300
 11
0.0000000000000001
 21
1.0
 31
0.0
 73
     1
 44
1.0
  0
SOLID
  5
3AE8
330
18
100
AcDbEntity
  8
0
  6
ByBlock
 62
     0
 48
10.0
100
AcDbTrace
 10
5130.904819360718
 20
5588.501221664377
 30
0.0
 11
5118.40481936072
 21
5588.501221664377
 31
0.0
 12
5124.654819360717
 22
5626.001221664377
 32
0.0
 13
5124.654819360717
 23
5626.001221664377
 33
0.0
  0
SOLID
  5
3AE9
330
18
100
AcDbEntity
  8
0
  6
ByBlock
 62
     0
 48
10.0
100
AcDbTrace
 10
5118.404828124142
 20
5783.501128362464
 30
0.0
 11
5130.904828124144
 21
5783.501128362464
 31
0.0
 12
5124.654828124143
 22
5746.001128362465
 32
0.0
 13
5124.654828124143
 23
5746.001128362465
 33
0.0
  0
LINE
  5
3AEA
330
18
100
AcDbEntity
  8
OBJECT
 48
10.0
100
AcDbLine
 10
5124.65482812414
 20
5746.00111650331
 30
0.0
 11
5124.65482812414
 21
5858.50111650331
 31
0.0
  0
SOLID
  5
3AEB
330
18
100
AcDbEntity
  8
0
  6
ByBlock
 62
     0
 48
10.0
100
AcDbTrace
 10
4980.904819360719
 20
5708.50111650331
 30
0.0
 11
4968.404819360719
 21
5708.50111650331
 31
0.0
 12
4974.654819360717
 22
5746.00111650331
 32
0.0
 13
4974.654819360717
 23
5746.00111650331
 33
0.0
  0
LWPOLYLINE
  5
3AEC
330
18
100
AcDbEntity
  8
上線
 48
10.0
100
AcDbPolyline
 90
        2
 70
     1
 43
5.0
 10
5124.676765731946
 20
5673.501116503332
 42
1.0
 10
5124.676765731946
 20
5678.501116503333
 42
1.0
  0
MTEXT
  5
3AED
330
18
100
AcDbEntity
  8
0
  6
ByBlock
 62
     0
 48
10.0
100
AcDbMText
 10
5094.654828124138
 20
5711.001116503332
 30
0.0
 40
37.5
 41
0.0
 71
     5
 72
     1
  1
70
 11
0.0000000000000001
 21
1.0
 31
0.0
 73
     1
 44
1.0
  0
SOLID
  5
3B4E
330
18
100
AcDbEntity
  8
0
  6
ByBlock
 62
     0
 48
10.0
100
AcDbTrace
 10
5467.154819360719
 20
5919.751090680815
 30
0.0
 11
5467.154819360719
 21
5932.251090680814
 31
0.0
 12
5504.65481936072
 22
5926.001090680816
 32
0.0
 13
5504.65481936072
 23
5926.001090680816
 33
0.0
  0
LINE
  5
3B4F
330
18
100
AcDbEntity
  8
0
 48
10.0
100
AcDbLine
 10
5304.654819360722
 20
5776.001090680817
 30
0.0
 11
5304.654819360722
 21
6106.001090680816
 31
0.0
  0
SOLID
  5
3B50
330
18
100
AcDbEntity
  8
0
  6
ByBlock
 62
     0
 48
10.0
100
AcDbTrace
 10
5342.154819360744
 20
6069.751090680818
 30
0.0
 11
5342.154819360744
 21
6082.251090680819
 31
0.0
 12
5304.654819360744
 22
6076.00109068082
 32
0.0
 13
5304.654819360744
 23
6076.00109068082
 33
0.0
  0
SOLID
  5
3B51
330
18
100
AcDbEntity
  8
0
  6
ByBlock
 62
     0
 48
10.0
100
AcDbTrace
 10
5342.154831219876
 20
5919.751079940869
 30
0.0
 11
5342.154831219876
 21
5932.25107994087
 31
0.0
 12
5304.654831219877
 22
5926.001079940871
 32
0.0
 13
5304.654831219877
 23
5926.001079940871
 33
0.0
  0
MTEXT
  5
3B52
330
18
100
AcDbEntity
  8
0
  6
ByBlock
 62
     0
 48
10.0
100
AcDbMText
 10
5404.654819360722
 20
5956.001081917396
 30
0.0
 40
37.5
 41
0.0
 71
     5
 72
     1
  1
200
 73
     1
 44
1.0
  0
LINE
  5
3B53
330
18
100
AcDbEntity
  8
0
 48
10.0
100
AcDbLine
 10
5504.654819360722
 20
5776.001090680817
 30
0.0
 11
5504.654819360722
 21
5956.001090680817
 31
0.0
  0
SOLID
  5
3B56
330
18
100
AcDbEntity
  8
0
  6
ByBlock
 62
     0
 48
10.0
100
AcDbTrace
 10
5542.154754921027
 20
5919.751090680815
 30
0.0
 11
5542.154754921027
 21
5932.251090680814
 31
0.0
 12
5504.654754921027
 22
5926.001090680816
 32
0.0
 13
5504.654754921027
 23
5926.001090680816
 33
0.0
  0
MTEXT
  5
3B57
330
18
100
AcDbEntity
  8
0
  6
ByBlock
 62
     0
 48
10.0
100
AcDbMText
 10
6457.204631755004
 20
5408.313840812369
 30
0.0
 40
30.0
 41
0.0
 71
     5
 72
     1
  1
グレーチング
 73
     1
 44
1.0
  0
LINE
  5
3B58
330
18
100
AcDbEntity
  8
OBJECT
 48
10.0
100
AcDbLine
 10
5853.498444294945
 20
5378.31384081237
 30
0.0
 11
6584.704631755002
 21
5378.31384081237
 31
0.0
  0
LINE
  5
3B5C
330
18
100
AcDbEntity
  8
WUWAGAKI
 48
10.0
100
AcDbLine
 10
5988.818334570074
 20
5618.660748744536
 30
0.0
 11
6339.704631755003
 21
5469.379073677131
 31
0.0
210
0.0
220
0.0
230
-1.0
1001
ACAD
1000
DSTYLE
1002
{
1070
    78
1070
     8
1070
   270
1070
     8
1070
   140
1040
2.5
1070
    74
1070
     0
1070
   172
1070
     1
1070
    73
1070
     0
1070
    77
1070
     1
1070
    40
1040
10.0
1070
   147
1040
0.625
1070
    42
1040
0.625
1070
    44
1040
1.25
1070
    43
1040
3.75
1070
   141
1040
2.5
1070
    41
1040
2.5
1070
   273
1070
     8
1070
   274
1070
     4
1070
   143
1040
0.0394
1070
   171
1070
     4
1002
}
  0
SOLID
  5
3B62
330
18
100
AcDbEntity
  8
0
  6
ByBlock
 62
     0
 48
10.0
100
AcDbTrace
 10
5890.421992351429
 20
5384.285832044206
 30
0.0
 11
5890.362018484013
 21
5371.785975919625
 31
0.0
 12
5852.892437043977
 22
5378.215825584156
 32
0.0
 13
5852.892437043977
 23
5378.215825584156
 33
0.0
  0
SOLID
  5
3B6A
330
18
100
AcDbEntity
  8
0
  6
ByBlock
 62
     0
 48
10.0
100
AcDbTrace
 10
6008.473072785539
 20
5616.885312702347
 30
0.0
 11
6003.521566513287
 21
5605.407831025785
 31
0.0
 12
5971.56487461972
 22
5626.001090680817
 32
0.0
 13
5971.56487461972
 23
5626.001090680817
 33
0.0
  0
LINE
  5
3B6C
330
18
100
AcDbEntity
  8
OBJECT
 48
10.0
100
AcDbLine
 10
6339.704631755003
 20
5469.379073677131
 30
0.0
 11
6444.704631755003
 21
5469.379073677131
 31
0.0
  0
MTEXT
  5
3B6D
330
18
100
AcDbEntity
  8
0
  6
ByBlock
 62
     0
 48
10.0
100
AcDbMText
 10
6392.204631755004
 20
5499.379073677132
 30
0.0
 40
30.0
 41
0.0
 71
     5
 72
     1
  1
受枠
 73
     1
 44
1.0
  0
MTEXT
  5
3B6E
330
18
100
AcDbEntity
  8
0
  6
ByBlock
 62
     0
 48
10.0
100
AcDbMText
 10
6204.654819360722
 20
5956.001081917396
 30
0.0
 40
37.5
 41
0.0
 71
     5
 72
     1
  1
200
 73
     1
 44
1.0
  0
LINE
  5
3B6F
330
18
100
AcDbEntity
  8
0
 48
10.0
100
AcDbLine
 10
6104.654819360722
 20
5776.001090680817
 30
0.0
 11
6104.654819360722
 21
5956.001090680817
 31
0.0
  0
SOLID
  5
3B70
330
18
100
AcDbEntity
  8
0
  6
ByBlock
 62
     0
 48
10.0
100
AcDbTrace
 10
6067.154883800418
 20
5919.751090680815
 30
0.0
 11
6067.154883800418
 21
5932.251090680814
 31
0.0
 12
6104.654883800417
 22
5926.001090680816
 32
0.0
 13
6104.654883800417
 23
5926.001090680816
 33
0.0
  0
SOLID
  5
3B71
330
18
100
AcDbEntity
  8
0
  6
ByBlock
 62
     0
 48
10.0
100
AcDbTrace
 10
6142.154819360725
 20
5919.751090680815
 30
0.0
 11
6142.154819360725
 21
5932.251090680814
 31
0.0
 12
6104.654819360725
 22
5926.001090680816
 32
0.0
 13
6104.654819360725
 23
5926.001090680816
 33
0.0
  0
LINE
  5
3B72
330
18
100
AcDbEntity
  8
0
 48
10.0
100
AcDbLine
 10
6304.654819360722
 20
5776.001090680817
 30
0.0
 11
6304.654819360722
 21
6106.001090680816
 31
0.0
  0
SOLID
  5
3B73
330
18
100
AcDbEntity
  8
0
  6
ByBlock
 62
     0
 48
10.0
100
AcDbTrace
 10
6267.154807501568
 20
5919.751079940869
 30
0.0
 11
6267.154807501568
 21
5932.25107994087
 31
0.0
 12
6304.654807501568
 22
5926.001079940871
 32
0.0
 13
6304.654807501568
 23
5926.001079940871
 33
0.0
  0
SOLID
  5
3B74
330
18
100
AcDbEntity
  8
0
  6
ByBlock
 62
     0
 48
10.0
100
AcDbTrace
 10
6267.154819360701
 20
6069.751090680818
 30
0.0
 11
6267.154819360701
 21
6082.251090680819
 31
0.0
 12
6304.654819360701
 22
6076.00109068082
 32
0.0
 13
6304.654819360701
 23
6076.00109068082
 33
0.0
  0
LINE
  5
3B75
330
18
100
AcDbEntity
  8
OBJECT
 48
10.0
100
AcDbLine
 10
6649.654845183194
 20
5236.001090680822
 30
0.0
 11
7144.654845183215
 21
5236.001090680822
 31
0.0
  0
MTEXT
  5
3B76
330
18
100
AcDbEntity
  8
0
  6
ByBlock
 62
     0
 48
10.0
100
AcDbMText
 10
6874.654845183238
 20
5266.00109068082
 30
0.0
 40
37.5
 41
0.0
 71
     5
 72
     1
  1
540
 73
     1
 44
1.0
  0
SOLID
  5
3B77
330
18
100
AcDbEntity
  8
0
  6
ByBlock
 62
     0
 48
10.0
100
AcDbTrace
 10
6642.154845183217
 20
5229.751090680821
 30
0.0
 11
6642.154845183217
 21
5242.25109068082
 31
0.0
 12
6604.654845183216
 22
5236.001090680822
 32
0.0
 13
6604.654845183216
 23
5236.001090680822
 33
0.0
  0
SOLID
  5
3B78
330
18
100
AcDbEntity
  8
0
  6
ByBlock
 62
     0
 48
10.0
100
AcDbTrace
 10
7107.154845183216
 20
5229.751090680821
 30
0.0
 11
7107.154845183216
 21
5242.25109068082
 31
0.0
 12
7144.654845183215
 22
5236.001090680822
 32
0.0
 13
7144.654845183215
 23
5236.001090680822
 33
0.0
  0
LINE
  5
3B79
330
18
100
AcDbEntity
  8
WUWAGAKI
100
AcDbLine
 10
8873.539972893871
 20
3424.133857146428
 30
0.0
 11
8873.539972893871
 21
6350.283708942551
 31
0.0
  0
TEXT
  5
3C8F
330
18
100
AcDbEntity
  8
WUWAGAKI
100
AcDbText
 10
8609.308653005518
 20
3646.145597926151
 30
0.0
 40
45.0
  1
892㎏
100
AcDbText
  0
TEXT
  5
3E96
330
18
100
AcDbEntity
  8
WUWAGAKI
100
AcDbText
 10
7786.766586508855
 20
3646.732630461716
 30
0.0
 40
45.0
  1
縮尺
100
AcDbText
  0
TEXT
  5
3E97
330
18
100
AcDbEntity
  8
WUWAGAKI
100
AcDbText
 10
7759.118828747775
 20
3743.230583453197
 30
0.0
 40
45.0
  1
寸　法
100
AcDbText
  0
TEXT
  5
3E98
330
18
100
AcDbEntity
  8
WUWAGAKI
100
AcDbText
 10
7761.774040634195
 20
3844.369423490178
 30
0.0
 40
45.0
  1
種　別
100
AcDbText
  0
LINE
  5
3E99
330
18
100
AcDbEntity
  8
WUWAGAKI
100
AcDbLine
 10
7714.240384985493
 20
3912.6138242178
 30
0.0
 11
8807.036960085916
 21
3912.6138242178
 31
0.0
  0
LINE
  5
3E9A
330
18
100
AcDbEntity
  8
WUWAGAKI
100
AcDbLine
 10
7714.240384985493
 20
3623.662087143442
 30
0.0
 11
8807.036960085914
 21
3623.662087143442
 31
0.0
  0
LINE
  5
3E9B
330
18
100
AcDbEntity
  8
WUWAGAKI
100
AcDbLine
 10
7714.240384985493
 20
3722.177151308048
 30
0.0
 11
8807.036960085914
 21
3722.177151308048
 31
0.0
  0
LINE
  5
3E9C
330
18
100
AcDbEntity
  8
WUWAGAKI
100
AcDbLine
 10
7714.240384985493
 20
3492.633391588231
 30
0.0
 11
8807.036960085916
 21
3492.633391588231
 31
0.0
  0
LINE
  5
3E9D
330
18
100
AcDbEntity
  8
WUWAGAKI
100
AcDbLine
 10
7714.240384985493
 20
3818.083536272663
 30
0.0
 11
8804.405137750153
 21
3818.083536272663
 31
0.0
  0
LINE
  5
3E9E
330
18
100
AcDbEntity
  8
WUWAGAKI
100
AcDbLine
 10
7714.240384985493
 20
3818.083536272663
 30
0.0
 11
8804.405137750153
 21
3818.083536272663
 31
0.0
  0
LINE
  5
3EAB
330
18
100
AcDbEntity
  8
OBJECT
 48
10.0
100
AcDbLine
 10
4974.654828124144
 20
4906.001090680817
 30
0.0
 11
4974.65482812414
 21
3606.001090680816
 31
0.0
  0
LINE
  5
3EAC
330
18
100
AcDbEntity
  8
OBJECT
 48
10.0
100
AcDbLine
 10
5124.654830100673
 20
3606.001090680816
 30
0.0
 11
5124.654830100673
 21
4906.001090680817
 31
0.0
  0
SOLID
  5
3EAF
330
18
100
AcDbEntity
  8
0
  6
ByBlock
 62
     0
 48
10.0
100
AcDbTrace
 10
5130.904819360726
 20
3868.501090680816
 30
0.0
 11
5118.404819360726
 21
3868.501090680816
 31
0.0
 12
5124.654819360722
 22
3906.001090680817
 32
0.0
 13
5124.654819360722
 23
3906.001090680817
 33
0.0
  0
LINE
  5
3EB0
330
18
100
AcDbEntity
  8
0
 48
10.0
100
AcDbLine
 10
5274.654819360723
 20
3606.001090680816
 30
0.0
 11
4944.654819360722
 21
3606.001090680816
 31
0.0
  0
MTEXT
  5
3EB1
330
18
100
AcDbEntity
  8
0
  6
ByBlock
 62
     0
 48
10.0
100
AcDbMText
 10
5094.654828124141
 20
3756.001090680817
 30
0.0
 40
37.5
 41
0.0
 71
     5
 72
     1
  1
300
 11
0.0000000000000001
 21
1.0
 31
0.0
 73
     1
 44
1.0
  0
SOLID
  5
3EB2
330
18
100
AcDbEntity
  8
0
  6
ByBlock
 62
     0
 48
10.0
100
AcDbTrace
 10
4980.904819360723
 20
3643.501090680837
 30
0.0
 11
4968.404819360719
 21
3643.501090680837
 31
0.0
 12
4974.654819360718
 22
3606.001090680837
 32
0.0
 13
4974.654819360718
 23
3606.001090680837
 33
0.0
  0
SOLID
  5
3EB3
330
18
100
AcDbEntity
  8
0
  6
ByBlock
 62
     0
 48
10.0
100
AcDbTrace
 10
5130.904830100669
 20
3643.50110253997
 30
0.0
 11
5118.404830100669
 21
3643.50110253997
 31
0.0
 12
5124.654830100669
 22
3606.00110253997
 32
0.0
 13
5124.654830100669
 23
3606.00110253997
 33
0.0
  0
LINE
  5
3EB4
330
18
100
AcDbEntity
  8
0
 48
10.0
100
AcDbLine
 10
5274.654819360723
 20
3906.001090680817
 30
0.0
 11
5094.654819360722
 21
3906.001090680817
 31
0.0
  0
SOLID
  5
3EB5
330
18
100
AcDbEntity
  8
0
  6
ByBlock
 62
     0
 48
10.0
100
AcDbTrace
 10
5130.904819360726
 20
3943.501090680817
 30
0.0
 11
5118.404819360726
 21
3943.501090680817
 31
0.0
 12
5124.654819360722
 22
3906.001090680817
 32
0.0
 13
5124.654819360722
 23
3906.001090680817
 33
0.0
  0
MTEXT
  5
3EB6
330
18
100
AcDbEntity
  8
0
  6
ByBlock
 62
     0
 48
10.0
100
AcDbMText
 10
4944.654819360722
 20
4256.001090680816
 30
0.0
 40
37.5
 41
0.0
 71
     5
 72
     1
  1
1300
 11
0.0000000000000001
 21
1.0
 31
0.0
 73
     1
 44
1.0
  0
MTEXT
  5
3EB7
330
18
100
AcDbEntity
  8
0
  6
ByBlock
 62
     0
 48
10.0
100
AcDbMText
 10
5094.654819360722
 20
4356.001090680816
 30
0.0
 40
37.5
 41
0.0
 71
     5
 72
     1
  1
900
 11
0.0000000000000001
 21
1.0
 31
0.0
 73
     1
 44
1.0
  0
LINE
  5
3EB9
330
18
100
AcDbEntity
  8
0
 48
10.0
100
AcDbLine
 10
5274.654819360723
 20
4906.001090680817
 30
0.0
 11
4944.654819360722
 21
4906.001090680817
 31
0.0
  0
LINE
  5
3EBA
330
18
100
AcDbEntity
  8
0
 48
10.0
100
AcDbLine
 10
5274.654819360723
 20
4806.001090680816
 30
0.0
 11
5094.654819360722
 21
4806.001090680816
 31
0.0
  0
SOLID
  5
3EBB
330
18
100
AcDbEntity
  8
0
  6
ByBlock
 62
     0
 48
10.0
100
AcDbTrace
 10
5130.904819360726
 20
4843.50109068082
 30
0.0
 11
5118.404819360726
 21
4843.50109068082
 31
0.0
 12
5124.654819360722
 22
4806.001090680819
 32
0.0
 13
5124.654819360722
 23
4806.001090680819
 33
0.0
  0
MTEXT
  5
3EBC
330
18
100
AcDbEntity
  8
0
  6
ByBlock
 62
     0
 48
10.0
100
AcDbMText
 10
5094.654828124141
 20
4856.001090680816
 30
0.0
 40
37.5
 41
0.0
 71
     5
 72
     1
  1
100
 11
0.0000000000000001
 21
1.0
 31
0.0
 73
     1
 44
1.0
  0
SOLID
  5
3EBD
330
18
100
AcDbEntity
  8
0
  6
ByBlock
 62
     0
 48
10.0
100
AcDbTrace
 10
5130.904819360726
 20
4768.501155120511
 30
0.0
 11
5118.404819360726
 21
4768.501155120511
 31
0.0
 12
5124.654819360722
 22
4806.001155120512
 32
0.0
 13
5124.654819360722
 23
4806.001155120512
 33
0.0
  0
SOLID
  5
3EBE
330
18
100
AcDbEntity
  8
0
  6
ByBlock
 62
     0
 48
10.0
100
AcDbTrace
 10
4980.904819360723
 20
4868.501090680794
 30
0.0
 11
4968.404819360719
 21
4868.501090680794
 31
0.0
 12
4974.654819360718
 22
4906.001090680795
 32
0.0
 13
4974.654819360718
 23
4906.001090680795
 33
0.0
  0
SOLID
  5
3EBF
330
18
100
AcDbEntity
  8
0
  6
ByBlock
 62
     0
 48
10.0
100
AcDbTrace
 10
5130.904830100669
 20
4868.501078821662
 30
0.0
 11
5118.404830100669
 21
4868.501078821662
 31
0.0
 12
5124.654830100669
 22
4906.001078821662
 32
0.0
 13
5124.654830100669
 23
4906.001078821662
 33
0.0
  0
LINE
  5
3EEE
330
18
100
AcDbEntity
  8
WUWAGAKI
100
AcDbLine
 10
7714.240384985493
 20
3912.6138242178
 30
0.0
 11
7714.240384985493
 21
3492.633391588231
 31
0.0
  0
LINE
  5
3F39
330
18
100
AcDbEntity
  8
WUWAGAKI
100
AcDbLine
 10
8807.036960085916
 20
3492.633391588231
 30
0.0
 11
8807.036960085916
 21
3912.6138242178
 31
0.0
  0
TEXT
  5
3F3A
330
18
100
AcDbEntity
  8
WUWAGAKI
100
AcDbText
 10
7980.693259916832
 20
3841.790263294118
 30
0.0
 40
45.0
  1
集水桝
100
AcDbText
  0
LINE
  5
3F3B
330
18
100
AcDbEntity
  8
WUWAGAKI
100
AcDbLine
 10
7966.356856554
 20
3912.6138242178
 30
0.0
 11
7966.356856554
 21
3623.662087143442
 31
0.0
  0
TEXT
  5
3F3C
330
18
100
AcDbEntity
  8
WUWAGAKI
100
AcDbText
 10
7980.464863935046
 20
3755.449643326222
 30
0.0
 40
34.44525
  1
300×U900×1000×120/120×H1300
100
AcDbText
  0
TEXT
  5
3F3D
330
18
100
AcDbEntity
  8
WUWAGAKI
100
AcDbText
 10
8387.454118490055
 20
3648.083983402714
 30
0.0
 40
45.0
  1
重量
100
AcDbText
  0
TEXT
  5
3F3E
330
18
100
AcDbEntity
  8
WUWAGAKI
100
AcDbText
 10
7952.945817884968
 20
3524.240958394617
 30
0.0
 40
60.0
  1
㈱　ウ　チ　コ　ン
100
AcDbText
  0
TEXT
  5
3F3F
330
18
100
AcDbEntity
  8
WUWAGAKI
100
AcDbText
 10
8000.693259916833
 20
3648.034545891173
 30
0.0
 40
45.0
  1
S＝　1：15
100
AcDbText
  0
LINE
  5
3F40
330
18
100
AcDbEntity
  8
WUWAGAKI
100
AcDbLine
 10
8360.526342737911
 20
3722.177151308048
 30
0.0
 11
8360.526342737911
 21
3623.662087143442
 31
0.0
  0
LINE
  5
3F42
330
18
100
AcDbEntity
  8
WUWAGAKI
100
AcDbLine
 10
8544.754769500228
 20
3722.177151308048
 30
0.0
 11
8544.754769500228
 21
3623.662087143442
 31
0.0
  0
VIEWPORT
  5
298
330
15
100
AcDbEntity
 67
     1
  8
0
100
AcDbViewport
 10
291.7632241813602
 20
148.5
 30
0.0
 40
583.5264483627204
 41
297.0
 68
     1
 69
     1
 12
291.7632241813602
 22
148.5
 13
0.0
 23
0.0
 14
10.0
 24
10.0
 15
10.0
 25
10.0
 16
0.0
 26
0.0
 36
1.0
 17
0.0
 27
0.0
 37
0.0
 42
50.0
 43
0.0
 44
0.0
 45
297.0
 50
0.0
 51
0.0
 72
   100
 90
    32800
  1

281
     0
 71
     1
 74
     0
110
0.0
120
0.0
130
0.0
111
1.0
121
0.0
131
0.0
112
0.0
122
1.0
132
0.0
 79
     0
146
0.0
  0
ENDSEC
  0
SECTION
  2
OBJECTS
  0
DICTIONARY
  5
C
330
0
100
AcDbDictionary
281
     1
  3
ACAD_GROUP
350
D
  3
ACAD_LAYOUT
350
15FE
  3
ACAD_MLINESTYLE
350
1B
  3
ACAD_PLOTSETTINGS
350
15FF
  3
ACAD_PLOTSTYLENAME
350
15FC
  3
ACDBVARIABLEDICTIONARY
350
B2A
  3
DRAWINGVARIABLESDICT
350
1212
  0
DICTIONARY
  5
D
102
{ACAD_REACTORS
330
C
102
}
330
C
100
AcDbDictionary
281
     1
  3
*A1
350
1DE1
  3
*A2
350
2483
  3
*A3
350
2486
  3
*A4
350
2971
  3
*A5
350
3003
  3
*A6
350
34F4
  0
DICTIONARY
  5
15FE
102
{ACAD_REACTORS
330
C
102
}
330
C
100
AcDbDictionary
281
     1
  3
Model
350
1600
  3
ﾚｲｱｳﾄ1
350
1601
  0
DICTIONARY
  5
1B
102
{ACAD_REACTORS
330
C
102
}
330
C
100
AcDbDictionary
281
     1
  3
STANDARD
350
1C
  0
DICTIONARY
  5
15FF
102
{ACAD_REACTORS
330
C
102
}
330
C
100
AcDbDictionary
281
     1
  0
ACDBDICTIONARYWDFLT
  5
15FC
102
{ACAD_REACTORS
330
C
102
}
330
C
100
AcDbDictionary
281
     1
  3
Normal
350
15FD
100
AcDbDictionaryWithDefault
340
15FD
  0
DICTIONARY
  5
B2A
102
{ACAD_REACTORS
330
C
102
}
330
C
100
AcDbDictionary
281
     1
  3
SORTENTS
350
B2B
  0
DICTIONARY
  5
1212
102
{ACAD_REACTORS
330
C
102
}
330
C
100
AcDbDictionary
281
     1
1001
DRAWINGVARIABLESXDATA
1000
POLARANG
1000
0.785398
1000
POLARMODE
1000
0
  0
GROUP
  5
1DE1
102
{ACAD_REACTORS
330
D
102
}
330
D
100
AcDbGroup
300

 70
     1
 71
     1
  0
GROUP
  5
2483
102
{ACAD_REACTORS
330
D
102
}
330
D
100
AcDbGroup
300

 70
     1
 71
     1
  0
GROUP
  5
2486
102
{ACAD_REACTORS
330
D
102
}
330
D
100
AcDbGroup
300

 70
     1
 71
     1
  0
GROUP
  5
2971
102
{ACAD_REACTORS
330
D
102
}
330
D
100
AcDbGroup
300

 70
     1
 71
     1
  0
GROUP
  5
3003
102
{ACAD_REACTORS
330
D
102
}
330
D
100
AcDbGroup
300

 70
     1
 71
     1
  0
GROUP
  5
34F4
102
{ACAD_REACTORS
330
D
102
}
330
D
100
AcDbGroup
300

 70
     1
 71
     1
  0
LAYOUT
  5
1600
102
{ACAD_REACTORS
330
15FE
102
}
330
15FE
100
AcDbPlotSettings
  1

  2
Canon LBP3800 LIPSLX
  4
A4
  6

 40
5.873749732971191
 41
5.873747825622558
 42
5.873748779296875
 43
5.873748779296875
 44
209.9733276367187
 45
296.9259948730469
 46
0.0
 47
0.0
 48
0.0
 49
0.0
140
0.0
141
0.0
142
1.0
143
1.0
 70
 11952
 72
     1
 73
     1
 74
     0
  7

 75
     0
147
1.0
148
-1119.838883806218
149
-2764.341960111367
100
AcDbLayout
  1
Model
 70
     1
 71
     0
 10
0.0
 20
0.0
 11
12.0
 21
9.0
 12
0.0
 22
0.0
 32
0.0
 14
0.0
 24
0.0
 34
0.0
 15
0.0
 25
0.0
 35
0.0
146
0.0
 13
0.0
 23
0.0
 33
0.0
 16
1.0
 26
0.0
 36
0.0
 17
0.0
 27
1.0
 37
0.0
 76
     0
330
18
  0
LAYOUT
  5
1601
102
{ACAD_REACTORS
330
15FE
102
}
330
15FE
100
AcDbPlotSettings
  1

  2
Canon LBP3800 LIPSLX
  4

  6

 40
0.0
 41
0.0
 42
0.0
 43
0.0
 44
0.0
 45
0.0
 46
0.0
 47
0.0
 48
0.0
 49
0.0
140
0.0
141
0.0
142
1.0
143
1.0
 70
   688
 72
     0
 73
     0
 74
     5
  7

 75
    16
147
1.0
148
0.0
149
0.0
100
AcDbLayout
  1
ﾚｲｱｳﾄ1
 70
     1
 71
     1
 10
0.0
 20
0.0
 11
420.0
 21
297.0
 12
0.0
 22
0.0
 32
0.0
 14
1.000000000000000E+20
 24
1.000000000000000E+20
 34
1.000000000000000E+20
 15
-1.000000000000000E+20
 25
-1.000000000000000E+20
 35
-1.000000000000000E+20
146
0.0
 13
0.0
 23
0.0
 33
0.0
 16
1.0
 26
0.0
 36
0.0
 17
0.0
 27
1.0
 37
0.0
 76
     0
330
15
331
298
  0
MLINESTYLE
  5
1C
102
{ACAD_REACTORS
330
1B
102
}
330
1B
100
AcDbMlineStyle
  2
STANDARD
 70
     0
  3

 62
   256
 51
90.0
 52
90.0
 71
     2
 49
0.5
 62
   256
  6
BYLAYER
 49
-0.5
 62
   256
  6
BYLAYER
  0
ACDBPLACEHOLDER
  5
15FD
102
{ACAD_REACTORS
330
15FC
102
}
330
15FC
  0
DICTIONARYVAR
  5
B2B
102
{ACAD_REACTORS
330
B2A
102
}
330
B2A
100
DictionaryVariables
280
     0
  1
96
  0
ENDSEC
  0
EOF
