  0
SECTION
  2
HEADER
  9
$ACADVER
  1
AC1015
  9
$ACADMAINTVER
 70
     6
  9
$DWGCODEPAGE
  3
ANSI_932
  9
$INSBASE
 10
0.0
 20
0.0
 30
0.0
  9
$EXTMIN
 10
710.0813698183028
 20
984.8549298695507
 30
0.0
  9
$EXTMAX
 10
8755.041576165037
 20
6369.719828752412
 30
0.0
  9
$LIMMIN
 10
0.0
 20
0.0
  9
$LIMMAX
 10
4455.0
 20
3150.0
  9
$ORTHOMODE
 70
     0
  9
$REGENMODE
 70
     1
  9
$FILLMODE
 70
     1
  9
$QTEXTMODE
 70
     0
  9
$MIRRTEXT
 70
     1
  9
$LTSCALE
 40
5.0
  9
$ATTMODE
 70
     1
  9
$TEXTSIZE
 40
2.5
  9
$TRACEWID
 40
1.0
  9
$TEXTSTYLE
  7
STANDARD
  9
$CLAYER
  8
OBJECT
  9
$CELTYPE
  6
BYLAYER
  9
$CECOLOR
 62
   256
  9
$CELTSCALE
 40
1.0
  9
$DISPSILH
 70
     0
  9
$DIMSCALE
 40
15.0
  9
$DIMASZ
 40
2.5
  9
$DIMEXO
 40
0.625
  9
$DIMDLI
 40
3.75
  9
$DIMRND
 40
0.0
  9
$DIMDLE
 40
0.0
  9
$DIMEXE
 40
1.25
  9
$DIMTP
 40
0.0
  9
$DIMTM
 40
0.0
  9
$DIMTXT
 40
2.5
  9
$DIMCEN
 40
2.5
  9
$DIMTSZ
 40
0.0
  9
$DIMTOL
 70
     0
  9
$DIMLIM
 70
     0
  9
$DIMTIH
 70
     0
  9
$DIMTOH
 70
     0
  9
$DIMSE1
 70
     0
  9
$DIMSE2
 70
     0
  9
$DIMTAD
 70
     1
  9
$DIMZIN
 70
     8
  9
$DIMBLK
  1

  9
$DIMASO
 70
     1
  9
$DIMSHO
 70
     1
  9
$DIMPOST
  1

  9
$DIMAPOST
  1

  9
$DIMALT
 70
     0
  9
$DIMALTD
 70
     4
  9
$DIMALTF
 40
0.0394
  9
$DIMLFAC
 40
1.0
  9
$DIMTOFL
 70
     1
  9
$DIMTVP
 40
0.0
  9
$DIMTIX
 70
     0
  9
$DIMSOXD
 70
     0
  9
$DIMSAH
 70
     0
  9
$DIMBLK1
  1

  9
$DIMBLK2
  1

  9
$DIMSTYLE
  2
STANDARD
  9
$DIMCLRD
 70
     0
  9
$DIMCLRE
 70
     0
  9
$DIMCLRT
 70
     0
  9
$DIMTFAC
 40
1.0
  9
$DIMGAP
 40
0.625
  9
$DIMJUST
 70
     0
  9
$DIMSD1
 70
     0
  9
$DIMSD2
 70
     0
  9
$DIMTOLJ
 70
     1
  9
$DIMTZIN
 70
     0
  9
$DIMALTZ
 70
     0
  9
$DIMALTTZ
 70
     0
  9
$DIMUPT
 70
     0
  9
$DIMDEC
 70
     4
  9
$DIMTDEC
 70
     4
  9
$DIMALTU
 70
     8
  9
$DIMALTTD
 70
     4
  9
$DIMTXSTY
  7
STANDARD
  9
$DIMAUNIT
 70
     0
  9
$DIMADEC
 70
     0
  9
$DIMALTRND
 40
0.0
  9
$DIMAZIN
 70
     0
  9
$DIMDSEP
 70
    46
  9
$DIMATFIT
 70
     3
  9
$DIMFRAC
 70
     0
  9
$DIMLDRBLK
  1

  9
$DIMLUNIT
 70
     6
  9
$DIMLWD
 70
    -2
  9
$DIMLWE
 70
    -2
  9
$DIMTMOVE
 70
     0
  9
$LUNITS
 70
     2
  9
$LUPREC
 70
     4
  9
$SKETCHINC
 40
1.0
  9
$FILLETRAD
 40
10.0
  9
$AUNITS
 70
     0
  9
$AUPREC
 70
     0
  9
$MENU
  1
acad
  9
$ELEVATION
 40
0.0
  9
$PELEVATION
 40
0.0
  9
$THICKNESS
 40
0.0
  9
$LIMCHECK
 70
     0
  9
$CHAMFERA
 40
10.0
  9
$CHAMFERB
 40
10.0
  9
$CHAMFERC
 40
20.0
  9
$CHAMFERD
 40
0.0
  9
$SKPOLY
 70
     0
  9
$TDCREATE
 40
2452111.335768865
  9
$TDUCREATE
 40
2452110.960768866
  9
$TDUPDATE
 40
2454547.715043703
  9
$TDUUPDATE
 40
2454547.340043703
  9
$TDINDWG
 40
1.2493311574
  9
$TDUSRTIMER
 40
1.2493311574
  9
$USRTIMER
 70
     1
  9
$ANGBASE
 50
0.0
  9
$ANGDIR
 70
     0
  9
$PDMODE
 70
     0
  9
$PDSIZE
 40
0.0
  9
$PLINEWID
 40
0.0
  9
$SPLFRAME
 70
     0
  9
$SPLINETYPE
 70
     6
  9
$SPLINESEGS
 70
     8
  9
$HANDSEED
  5
3BC5
  9
$SURFTAB1
 70
     6
  9
$SURFTAB2
 70
     6
  9
$SURFTYPE
 70
     6
  9
$SURFU
 70
     6
  9
$SURFV
 70
     6
  9
$UCSBASE
  2

  9
$UCSNAME
  2

  9
$UCSORG
 10
0.0
 20
0.0
 30
0.0
  9
$UCSXDIR
 10
1.0
 20
0.0
 30
0.0
  9
$UCSYDIR
 10
0.0
 20
1.0
 30
0.0
  9
$UCSORTHOREF
  2

  9
$UCSORTHOVIEW
 70
     0
  9
$UCSORGTOP
 10
0.0
 20
0.0
 30
0.0
  9
$UCSORGBOTTOM
 10
0.0
 20
0.0
 30
0.0
  9
$UCSORGLEFT
 10
0.0
 20
0.0
 30
0.0
  9
$UCSORGRIGHT
 10
0.0
 20
0.0
 30
0.0
  9
$UCSORGFRONT
 10
0.0
 20
0.0
 30
0.0
  9
$UCSORGBACK
 10
0.0
 20
0.0
 30
0.0
  9
$PUCSBASE
  2

  9
$PUCSNAME
  2

  9
$PUCSORG
 10
0.0
 20
0.0
 30
0.0
  9
$PUCSXDIR
 10
1.0
 20
0.0
 30
0.0
  9
$PUCSYDIR
 10
0.0
 20
1.0
 30
0.0
  9
$PUCSORTHOREF
  2

  9
$PUCSORTHOVIEW
 70
     0
  9
$PUCSORGTOP
 10
0.0
 20
0.0
 30
0.0
  9
$PUCSORGBOTTOM
 10
0.0
 20
0.0
 30
0.0
  9
$PUCSORGLEFT
 10
0.0
 20
0.0
 30
0.0
  9
$PUCSORGRIGHT
 10
0.0
 20
0.0
 30
0.0
  9
$PUCSORGFRONT
 10
0.0
 20
0.0
 30
0.0
  9
$PUCSORGBACK
 10
0.0
 20
0.0
 30
0.0
  9
$USERI1
 70
     0
  9
$USERI2
 70
     0
  9
$USERI3
 70
     0
  9
$USERI4
 70
     0
  9
$USERI5
 70
     0
  9
$USERR1
 40
0.0
  9
$USERR2
 40
0.0
  9
$USERR3
 40
0.0
  9
$USERR4
 40
0.0
  9
$USERR5
 40
0.0
  9
$WORLDVIEW
 70
     1
  9
$SHADEDGE
 70
     3
  9
$SHADEDIF
 70
    70
  9
$TILEMODE
 70
     1
  9
$MAXACTVP
 70
    48
  9
$PINSBASE
 10
0.0
 20
0.0
 30
0.0
  9
$PLIMCHECK
 70
     0
  9
$PEXTMIN
 10
1.000000000000000E+20
 20
1.000000000000000E+20
 30
1.000000000000000E+20
  9
$PEXTMAX
 10
-1.000000000000000E+20
 20
-1.000000000000000E+20
 30
-1.000000000000000E+20
  9
$PLIMMIN
 10
0.0
 20
0.0
  9
$PLIMMAX
 10
420.0
 20
297.0
  9
$UNITMODE
 70
     0
  9
$VISRETAIN
 70
     1
  9
$PLINEGEN
 70
     0
  9
$PSLTSCALE
 70
     1
  9
$TREEDEPTH
 70
  3020
  9
$CMLSTYLE
  2
STANDARD
  9
$CMLJUST
 70
     0
  9
$CMLSCALE
 40
20.0
  9
$PROXYGRAPHICS
 70
     1
  9
$MEASUREMENT
 70
     1
  9
$CELWEIGHT
370
    -1
  9
$ENDCAPS
280
     0
  9
$JOINSTYLE
280
     0
  9
$LWDISPLAY
290
     0
  9
$INSUNITS
 70
     0
  9
$HYPERLINKBASE
  1

  9
$STYLESHEET
  1

  9
$XEDIT
290
     1
  9
$CEPSNTYPE
380
     0
  9
$PSTYLEMODE
290
     1
  9
$FINGERPRINTGUID
  2
{C9668057-E409-4CFD-A4F9-6C0551275C13}
  9
$VERSIONGUID
  2
{66109309-38AD-46D0-8243-1C448E444ADD}
  9
$EXTNAMES
290
     1
  9
$PSVPSCALE
 40
0.0
  9
$OLESTARTUP
290
     0
  0
ENDSEC
  0
SECTION
  2
CLASSES
  0
CLASS
  1
LWPOLYLINE
  2
AcDbPolyline
  3
AutoCAD 2000
 90
    32768
280
     0
281
     1
  0
CLASS
  1
DICTIONARYVAR
  2
AcDbDictionaryVar
  3
AutoCAD 2000
 90
        0
280
     0
281
     0
  0
CLASS
  1
HATCH
  2
AcDbHatch
  3
AutoCAD 2000
 90
    32768
280
     0
281
     1
  0
CLASS
  1
ACDBDICTIONARYWDFLT
  2
AcDbDictionaryWithDefault
  3
AutoCAD 2000
 90
        0
280
     0
281
     0
  0
CLASS
  1
ACDBPLACEHOLDER
  2
AcDbPlaceHolder
  3
AutoCAD 2000
 90
        0
280
     0
281
     0
  0
CLASS
  1
LAYOUT
  2
AcDbLayout
  3
AutoCAD 2000
 90
        0
280
     0
281
     0
  0
ENDSEC
  0
SECTION
  2
TABLES
  0
TABLE
  2
VPORT
  5
8
330
0
100
AcDbSymbolTable
 70
     3
  0
VPORT
  5
3BC4
330
8
100
AcDbSymbolTableRecord
100
AcDbViewportTableRecord
  2
*Active
 70
     0
 10
0.0
 20
0.0
 11
1.0
 21
1.0
 12
6772.577530613796
 22
4959.244888685528
 13
0.0
 23
0.0
 14
10.0
 24
10.0
 15
10.0
 25
10.0
 16
0.0
 26
0.0
 36
1.0
 17
0.0
 27
0.0
 37
0.0
 40
3302.928704077784
 41
1.731203007518796
 42
50.0
 43
0.0
 44
0.0
 50
0.0
 51
0.0
 71
     0
 72
   100
 73
     1
 74
     1
 75
     0
 76
     0
 77
     0
 78
     0
281
     0
 65
     1
110
0.0
120
0.0
130
0.0
111
1.0
121
0.0
131
0.0
112
0.0
122
1.0
132
0.0
 79
     0
146
0.0
  0
ENDTAB
  0
TABLE
  2
LTYPE
  5
5
330
0
100
AcDbSymbolTable
 70
    46
  0
LTYPE
  5
12
330
5
100
AcDbSymbolTableRecord
100
AcDbLinetypeTableRecord
  2
BYBLOCK
 70
     0
  3

 72
    65
 73
     0
 40
0.0
  0
LTYPE
  5
13
330
5
100
AcDbSymbolTableRecord
100
AcDbLinetypeTableRecord
  2
BYLAYER
 70
     0
  3

 72
    65
 73
     0
 40
0.0
  0
LTYPE
  5
14
330
5
100
AcDbSymbolTableRecord
100
AcDbLinetypeTableRecord
  2
CONTINUOUS
 70
     0
  3
Solid line
 72
    65
 73
     0
 40
0.0
  0
LTYPE
  5
128
330
5
100
AcDbSymbolTableRecord
100
AcDbLinetypeTableRecord
  2
ACAD_ISO02W100
 70
     0
  3
ISO dash __ __ __ __ __ __ __ __ __ __ __ __ __
 72
    65
 73
     2
 40
15.0
 49
12.0
 74
     0
 49
-3.0
 74
     0
  0
LTYPE
  5
129
330
5
100
AcDbSymbolTableRecord
100
AcDbLinetypeTableRecord
  2
ACAD_ISO03W100
 70
     0
  3
ISO dash space __    __    __    __    __    __
 72
    65
 73
     2
 40
30.0
 49
12.0
 74
     0
 49
-18.0
 74
     0
  0
LTYPE
  5
12A
330
5
100
AcDbSymbolTableRecord
100
AcDbLinetypeTableRecord
  2
ACAD_ISO04W100
 70
     0
  3
ISO long-dash dot ____ . ____ . ____ . ____ . _
 72
    65
 73
     4
 40
30.5
 49
24.0
 74
     0
 49
-3.0
 74
     0
 49
0.5
 74
     0
 49
-3.0
 74
     0
  0
LTYPE
  5
12B
330
5
100
AcDbSymbolTableRecord
100
AcDbLinetypeTableRecord
  2
ACAD_ISO05W100
 70
     0
  3
ISO long-dash double-dot ____ .. ____ .. ____ .
 72
    65
 73
     8
 40
37.5
 49
24.0
 74
     0
 49
-3.0
 74
     0
 49
0.5
 74
     0
 49
-3.0
 74
     0
 49
0.5
 74
     0
 49
-3.0
 74
     0
 49
0.5
 74
     0
 49
-3.0
 74
     0
  0
LTYPE
  5
12C
330
5
100
AcDbSymbolTableRecord
100
AcDbLinetypeTableRecord
  2
ACAD_ISO06W100
 70
     0
  3
ISO long-dash triple-dot ____ ... ____ ... ____
 72
    65
 73
     8
 40
37.5
 49
24.0
 74
     0
 49
-3.0
 74
     0
 49
0.5
 74
     0
 49
-3.0
 74
     0
 49
0.5
 74
     0
 49
-3.0
 74
     0
 49
0.5
 74
     0
 49
-3.0
 74
     0
  0
LTYPE
  5
12D
330
5
100
AcDbSymbolTableRecord
100
AcDbLinetypeTableRecord
  2
ACAD_ISO07W100
 70
     0
  3
ISO dot . . . . . . . . . . . . . . . . . . . .
 72
    65
 73
     2
 40
3.5
 49
0.5
 74
     0
 49
-3.0
 74
     0
  0
LTYPE
  5
12E
330
5
100
AcDbSymbolTableRecord
100
AcDbLinetypeTableRecord
  2
ACAD_ISO08W100
 70
     0
  3
ISO long-dash short-dash ____ __ ____ __ ____ _
 72
    65
 73
     4
 40
36.0
 49
24.0
 74
     0
 49
-3.0
 74
     0
 49
6.0
 74
     0
 49
-3.0
 74
     0
  0
LTYPE
  5
12F
330
5
100
AcDbSymbolTableRecord
100
AcDbLinetypeTableRecord
  2
ACAD_ISO09W100
 70
     0
  3
ISO long-dash double-short-dash ____ __ __ ____
 72
    65
 73
     6
 40
45.0
 49
24.0
 74
     0
 49
-3.0
 74
     0
 49
6.0
 74
     0
 49
-3.0
 74
     0
 49
6.0
 74
     0
 49
-3.0
 74
     0
  0
LTYPE
  5
130
330
5
100
AcDbSymbolTableRecord
100
AcDbLinetypeTableRecord
  2
ACAD_ISO10W100
 70
     0
  3
ISO dash dot __ . __ . __ . __ . __ . __ . __ .
 72
    65
 73
     4
 40
18.5
 49
12.0
 74
     0
 49
-3.0
 74
     0
 49
0.5
 74
     0
 49
-3.0
 74
     0
  0
LTYPE
  5
131
330
5
100
AcDbSymbolTableRecord
100
AcDbLinetypeTableRecord
  2
ACAD_ISO11W100
 70
     0
  3
ISO double-dash dot __ __ . __ __ . __ __ . __ 
 72
    65
 73
     6
 40
33.5
 49
12.0
 74
     0
 49
-3.0
 74
     0
 49
12.0
 74
     0
 49
-3.0
 74
     0
 49
0.5
 74
     0
 49
-3.0
 74
     0
  0
LTYPE
  5
132
330
5
100
AcDbSymbolTableRecord
100
AcDbLinetypeTableRecord
  2
ACAD_ISO12W100
 70
     0
  3
ISO dash double-dot __ . . __ . . __ . . __ . .
 72
    65
 73
     6
 40
22.0
 49
12.0
 74
     0
 49
-3.0
 74
     0
 49
0.5
 74
     0
 49
-3.0
 74
     0
 49
0.5
 74
     0
 49
-3.0
 74
     0
  0
LTYPE
  5
133
330
5
100
AcDbSymbolTableRecord
100
AcDbLinetypeTableRecord
  2
ACAD_ISO13W100
 70
     0
  3
ISO double-dash double-dot __ __ . . __ __ . . 
 72
    65
 73
     8
 40
37.0
 49
12.0
 74
     0
 49
-3.0
 74
     0
 49
12.0
 74
     0
 49
-3.0
 74
     0
 49
0.5
 74
     0
 49
-3.0
 74
     0
 49
0.5
 74
     0
 49
-3.0
 74
     0
  0
LTYPE
  5
134
330
5
100
AcDbSymbolTableRecord
100
AcDbLinetypeTableRecord
  2
ACAD_ISO14W100
 70
     0
  3
ISO dash triple-dot __ . . . __ . . . __ . . . 
 72
    65
 73
     8
 40
25.5
 49
12.0
 74
     0
 49
-3.0
 74
     0
 49
0.5
 74
     0
 49
-3.0
 74
     0
 49
0.5
 74
     0
 49
-3.0
 74
     0
 49
0.5
 74
     0
 49
-3.0
 74
     0
  0
LTYPE
  5
135
330
5
100
AcDbSymbolTableRecord
100
AcDbLinetypeTableRecord
  2
ACAD_ISO15W100
 70
     0
  3
ISO double-dash triple-dot __ __ . . . __ __ . 
 72
    65
 73
    10
 40
40.49999999999999
 49
12.0
 74
     0
 49
-3.0
 74
     0
 49
12.0
 74
     0
 49
-3.0
 74
     0
 49
0.5
 74
     0
 49
-3.0
 74
     0
 49
0.5
 74
     0
 49
-3.0
 74
     0
 49
0.5
 74
     0
 49
-3.0
 74
     0
  0
LTYPE
  5
136
330
5
100
AcDbSymbolTableRecord
100
AcDbLinetypeTableRecord
  2
BATTING
 70
     0
  3
Batting SSSSSSSSSSSSSSSSSSSSSSSSSSSSSSSSSSSSSSS
 72
    65
 73
     4
 40
10.16253999999999
 49
0.00254
 74
     0
 49
-2.54
 74
     4
 75
   134
340
127
 46
2.54
 50
0.0
 44
-2.54
 45
0.0
 49
-5.08
 74
     4
 75
   134
340
127
 46
2.54
 50
180.0
 44
2.54
 45
0.0
 49
-2.54
 74
     0
  0
LTYPE
  5
137
330
5
100
AcDbSymbolTableRecord
100
AcDbLinetypeTableRecord
  2
BORDER
 70
     0
  3
Border __ __ . __ __ . __ __ . __ __ . __ __ .
 72
    65
 73
     6
 40
44.45
 49
12.7
 74
     0
 49
-6.349999999999999
 74
     0
 49
12.7
 74
     0
 49
-6.349999999999999
 74
     0
 49
0.0
 74
     0
 49
-6.349999999999999
 74
     0
  0
LTYPE
  5
138
330
5
100
AcDbSymbolTableRecord
100
AcDbLinetypeTableRecord
  2
BORDER2
 70
     0
  3
Border (.5x) __.__.__.__.__.__.__.__.__.__.__.
 72
    65
 73
     6
 40
22.225
 49
6.349999999999999
 74
     0
 49
-3.174999999999999
 74
     0
 49
6.349999999999999
 74
     0
 49
-3.174999999999999
 74
     0
 49
0.0
 74
     0
 49
-3.174999999999999
 74
     0
  0
LTYPE
  5
139
330
5
100
AcDbSymbolTableRecord
100
AcDbLinetypeTableRecord
  2
BORDERX2
 70
     0
  3
Border (2x) ____  ____  .  ____  ____  .  ___
 72
    65
 73
     6
 40
88.9
 49
25.4
 74
     0
 49
-12.7
 74
     0
 49
25.4
 74
     0
 49
-12.7
 74
     0
 49
0.0
 74
     0
 49
-12.7
 74
     0
  0
LTYPE
  5
13A
330
5
100
AcDbSymbolTableRecord
100
AcDbLinetypeTableRecord
  2
CENTER
 70
     0
  3
Center ____ _ ____ _ ____ _ ____ _ ____ _ ____
 72
    65
 73
     4
 40
50.8
 49
31.75
 74
     0
 49
-6.349999999999999
 74
     0
 49
6.349999999999999
 74
     0
 49
-6.349999999999999
 74
     0
  0
LTYPE
  5
13B
330
5
100
AcDbSymbolTableRecord
100
AcDbLinetypeTableRecord
  2
CENTER2
 70
     0
  3
Center (.5x) ___ _ ___ _ ___ _ ___ _ ___ _ ___
 72
    65
 73
     4
 40
28.57499999999999
 49
19.05
 74
     0
 49
-3.174999999999999
 74
     0
 49
3.174999999999999
 74
     0
 49
-3.174999999999999
 74
     0
  0
LTYPE
  5
13C
330
5
100
AcDbSymbolTableRecord
100
AcDbLinetypeTableRecord
  2
CENTERX2
 70
     0
  3
Center (2x) ________  __  ________  __  _____
 72
    65
 73
     4
 40
101.6
 49
63.5
 74
     0
 49
-12.7
 74
     0
 49
12.7
 74
     0
 49
-12.7
 74
     0
  0
LTYPE
  5
13D
330
5
100
AcDbSymbolTableRecord
100
AcDbLinetypeTableRecord
  2
DASHDOT
 70
     0
  3
Dash dot __ . __ . __ . __ . __ . __ . __ . __
 72
    65
 73
     4
 40
25.4
 49
12.7
 74
     0
 49
-6.349999999999999
 74
     0
 49
0.0
 74
     0
 49
-6.349999999999999
 74
     0
  0
LTYPE
  5
13E
330
5
100
AcDbSymbolTableRecord
100
AcDbLinetypeTableRecord
  2
DASHDOT2
 70
     0
  3
Dash dot (.5x) _._._._._._._._._._._._._._._.
 72
    65
 73
     4
 40
12.7
 49
6.349999999999999
 74
     0
 49
-3.174999999999999
 74
     0
 49
0.0
 74
     0
 49
-3.174999999999999
 74
     0
  0
LTYPE
  5
13F
330
5
100
AcDbSymbolTableRecord
100
AcDbLinetypeTableRecord
  2
DASHDOTX2
 70
     0
  3
Dash dot (2x) ____  .  ____  .  ____  .  ___
 72
    65
 73
     4
 40
50.8
 49
25.4
 74
     0
 49
-12.7
 74
     0
 49
0.0
 74
     0
 49
-12.7
 74
     0
  0
LTYPE
  5
140
330
5
100
AcDbSymbolTableRecord
100
AcDbLinetypeTableRecord
  2
DASHED
 70
     0
  3
Dashed __ __ __ __ __ __ __ __ __ __ __ __ __ _
 72
    65
 73
     2
 40
19.04999999999999
 49
12.7
 74
     0
 49
-6.349999999999999
 74
     0
  0
LTYPE
  5
141
330
5
100
AcDbSymbolTableRecord
100
AcDbLinetypeTableRecord
  2
DASHED2
 70
     0
  3
Dashed (.5x) _ _ _ _ _ _ _ _ _ _ _ _ _ _ _ _ _
 72
    65
 73
     2
 40
9.524999999999998
 49
6.349999999999999
 74
     0
 49
-3.174999999999999
 74
     0
  0
LTYPE
  5
142
330
5
100
AcDbSymbolTableRecord
100
AcDbLinetypeTableRecord
  2
DASHEDX2
 70
     0
  3
Dashed (2x) ____  ____  ____  ____  ____  ___
 72
    65
 73
     2
 40
38.09999999999999
 49
25.4
 74
     0
 49
-12.7
 74
     0
  0
LTYPE
  5
143
330
5
100
AcDbSymbolTableRecord
100
AcDbLinetypeTableRecord
  2
DIVIDE
 70
     0
  3
Divide ____ . . ____ . . ____ . . ____ . . ____
 72
    65
 73
     6
 40
31.74999999999999
 49
12.7
 74
     0
 49
-6.349999999999999
 74
     0
 49
0.0
 74
     0
 49
-6.349999999999999
 74
     0
 49
0.0
 74
     0
 49
-6.349999999999999
 74
     0
  0
LTYPE
  5
144
330
5
100
AcDbSymbolTableRecord
100
AcDbLinetypeTableRecord
  2
DIVIDE2
 70
     0
  3
Divide (.5x) __..__..__..__..__..__..__..__.._
 72
    65
 73
     6
 40
15.87499999999999
 49
6.349999999999999
 74
     0
 49
-3.174999999999999
 74
     0
 49
0.0
 74
     0
 49
-3.174999999999999
 74
     0
 49
0.0
 74
     0
 49
-3.174999999999999
 74
     0
  0
LTYPE
  5
145
330
5
100
AcDbSymbolTableRecord
100
AcDbLinetypeTableRecord
  2
DIVIDEX2
 70
     0
  3
Divide (2x) ________  .  .  ________  .  .  _
 72
    65
 73
     6
 40
63.49999999999999
 49
25.4
 74
     0
 49
-12.7
 74
     0
 49
0.0
 74
     0
 49
-12.7
 74
     0
 49
0.0
 74
     0
 49
-12.7
 74
     0
  0
LTYPE
  5
146
330
5
100
AcDbSymbolTableRecord
100
AcDbLinetypeTableRecord
  2
DOT
 70
     0
  3
Dot . . . . . . . . . . . . . . . . . . . . . .
 72
    65
 73
     2
 40
6.349999999999999
 49
0.0
 74
     0
 49
-6.349999999999999
 74
     0
  0
LTYPE
  5
147
330
5
100
AcDbSymbolTableRecord
100
AcDbLinetypeTableRecord
  2
DOT2
 70
     0
  3
Dot (.5x) .....................................
 72
    65
 73
     2
 40
3.174999999999999
 49
0.0
 74
     0
 49
-3.174999999999999
 74
     0
  0
LTYPE
  5
148
330
5
100
AcDbSymbolTableRecord
100
AcDbLinetypeTableRecord
  2
DOTX2
 70
     0
  3
Dot (2x) .  .  .  .  .  .  .  .  .  .  .  .  . 
 72
    65
 73
     2
 40
12.7
 49
0.0
 74
     0
 49
-12.7
 74
     0
  0
LTYPE
  5
149
330
5
100
AcDbSymbolTableRecord
100
AcDbLinetypeTableRecord
  2
FENCELINE1
 70
     0
  3
Fenceline circle ----0-----0----0-----0----0---
 72
    65
 73
     4
 40
36.82999999999999
 49
6.349999999999999
 74
     0
 49
-2.54
 74
     4
 75
   133
340
127
 46
2.54
 50
0.0
 44
-2.54
 45
0.0
 49
-2.54
 74
     0
 49
25.4
 74
     0
  0
LTYPE
  5
14A
330
5
100
AcDbSymbolTableRecord
100
AcDbLinetypeTableRecord
  2
FENCELINE2
 70
     0
  3
Fenceline square ----[]-----[]----[]-----[]----
 72
    65
 73
     4
 40
36.82999999999999
 49
6.349999999999999
 74
     0
 49
-2.54
 74
     4
 75
   132
340
127
 46
2.54
 50
0.0
 44
-2.54
 45
0.0
 49
-2.54
 74
     0
 49
25.4
 74
     0
  0
LTYPE
  5
14B
330
5
100
AcDbSymbolTableRecord
100
AcDbLinetypeTableRecord
  2
GAS_LINE
 70
     0
  3
Gas line ----GAS----GAS----GAS----GAS----GAS---
 72
    65
 73
     3
 40
24.13
 49
12.7
 74
     0
 49
-5.08
 74
     2
 75
     0
340
F
 46
2.54
 50
0.0
 44
-2.54
 45
-1.27
  9
GAS
 49
-6.349999999999999
 74
     0
  0
LTYPE
  5
14C
330
5
100
AcDbSymbolTableRecord
100
AcDbLinetypeTableRecord
  2
HIDDEN
 70
     0
  3
Hidden __ __ __ __ __ __ __ __ __ __ __ __ __ _
 72
    65
 73
     2
 40
9.524999999999998
 49
6.349999999999999
 74
     0
 49
-3.174999999999999
 74
     0
  0
LTYPE
  5
14D
330
5
100
AcDbSymbolTableRecord
100
AcDbLinetypeTableRecord
  2
HIDDEN2
 70
     0
  3
Hidden (.5x) _ _ _ _ _ _ _ _ _ _ _ _ _ _ _ _ _
 72
    65
 73
     2
 40
4.762499999999999
 49
3.174999999999999
 74
     0
 49
-1.587499999999999
 74
     0
  0
LTYPE
  5
14E
330
5
100
AcDbSymbolTableRecord
100
AcDbLinetypeTableRecord
  2
HIDDENX2
 70
     0
  3
Hidden (2x) ____ ____ ____ ____ ____ ____ ____
 72
    65
 73
     2
 40
19.04999999999999
 49
12.7
 74
     0
 49
-6.349999999999999
 74
     0
  0
LTYPE
  5
14F
330
5
100
AcDbSymbolTableRecord
100
AcDbLinetypeTableRecord
  2
HOT_WATER_SUPPLY
 70
     0
  3
Hot water supply ---- HW ---- HW ---- HW ----
 72
    65
 73
     3
 40
22.86
 49
12.7
 74
     0
 49
-5.08
 74
     2
 75
     0
340
F
 46
2.54
 50
0.0
 44
-2.54
 45
-1.27
  9
HW
 49
-5.08
 74
     0
  0
LTYPE
  5
150
330
5
100
AcDbSymbolTableRecord
100
AcDbLinetypeTableRecord
  2
PHANTOM
 70
     0
  3
Phantom ______  __  __  ______  __  __  ______
 72
    65
 73
     6
 40
63.5
 49
31.75
 74
     0
 49
-6.349999999999999
 74
     0
 49
6.349999999999999
 74
     0
 49
-6.349999999999999
 74
     0
 49
6.349999999999999
 74
     0
 49
-6.349999999999999
 74
     0
  0
LTYPE
  5
151
330
5
100
AcDbSymbolTableRecord
100
AcDbLinetypeTableRecord
  2
PHANTOM2
 70
     0
  3
Phantom (.5x) ___ _ _ ___ _ _ ___ _ _ ___ _ _
 72
    65
 73
     6
 40
31.75
 49
15.875
 74
     0
 49
-3.174999999999999
 74
     0
 49
3.174999999999999
 74
     0
 49
-3.174999999999999
 74
     0
 49
3.174999999999999
 74
     0
 49
-3.174999999999999
 74
     0
  0
LTYPE
  5
152
330
5
100
AcDbSymbolTableRecord
100
AcDbLinetypeTableRecord
  2
PHANTOMX2
 70
     0
  3
Phantom (2x) ____________    ____    ____   _
 72
    65
 73
     6
 40
127.0
 49
63.5
 74
     0
 49
-12.7
 74
     0
 49
12.7
 74
     0
 49
-12.7
 74
     0
 49
12.7
 74
     0
 49
-12.7
 74
     0
  0
LTYPE
  5
153
330
5
100
AcDbSymbolTableRecord
100
AcDbLinetypeTableRecord
  2
TRACKS
 70
     0
  3
Tracks -|-|-|-|-|-|-|-|-|-|-|-|-|-|-|-|-|-|-|-|
 72
    65
 73
     2
 40
7.62
 49
3.81
 74
     4
 75
   130
340
127
 46
6.349999999999999
 50
0.0
 44
0.0
 45
0.0
 49
3.81
 74
     0
  0
LTYPE
  5
154
330
5
100
AcDbSymbolTableRecord
100
AcDbLinetypeTableRecord
  2
ZIGZAG
 70
     0
  3
Zig zag /\/\/\/\/\/\/\/\/\/\/\/\/\/\/\/\/\/\/\/
 72
    65
 73
     4
 40
20.32254
 49
0.00254
 74
     0
 49
-5.08
 74
     4
 75
   131
340
127
 46
5.08
 50
0.0
 44
-5.08
 45
0.0
 49
-10.16
 74
     4
 75
   131
340
127
 46
5.08
 50
180.0
 44
5.08
 45
0.0
 49
-5.08
 74
     0
  0
ENDTAB
  0
TABLE
  2
LAYER
  5
2
330
0
100
AcDbSymbolTable
 70
    10
  0
LAYER
  5
E
330
2
100
AcDbSymbolTableRecord
100
AcDbLayerTableRecord
  2
0
 70
     0
 62
     7
  6
CONTINUOUS
370
    -3
390
15FD
  0
LAYER
  5
20
330
2
100
AcDbSymbolTableRecord
100
AcDbLayerTableRecord
  2
DEFPOINTS
 70
     0
 62
     7
  6
CONTINUOUS
290
     0
370
    -3
390
15FD
  0
LAYER
  5
21
330
2
100
AcDbSymbolTableRecord
100
AcDbLayerTableRecord
  2
OBJECT
 70
     0
 62
     7
  6
CONTINUOUS
370
    -3
390
15FD
  0
LAYER
  5
155
330
2
100
AcDbSymbolTableRecord
100
AcDbLayerTableRecord
  2
上書線
 70
     0
 62
     7
  6
CONTINUOUS
370
    -3
390
15FD
  0
LAYER
  5
156
330
2
100
AcDbSymbolTableRecord
100
AcDbLayerTableRecord
  2
基準線
 70
     0
 62
    -1
  6
CONTINUOUS
370
    -3
390
15FD
  0
LAYER
  5
157
330
2
100
AcDbSymbolTableRecord
100
AcDbLayerTableRecord
  2
点線
 70
     0
 62
     5
  6
HIDDEN
370
    -3
390
15FD
  0
LAYER
  5
158
330
2
100
AcDbSymbolTableRecord
100
AcDbLayerTableRecord
  2
寸法線
 70
     0
 62
     2
  6
CONTINUOUS
370
    -3
390
15FD
  0
LAYER
  5
19D7
330
2
100
AcDbSymbolTableRecord
100
AcDbLayerTableRecord
  2
上線
 70
     0
 62
     7
  6
CONTINUOUS
370
    -3
390
15FD
  0
LAYER
  5
2EB9
330
2
100
AcDbSymbolTableRecord
100
AcDbLayerTableRecord
  2
中心線
 70
     0
 62
     6
  6
CENTER
370
    -3
390
15FD
  0
LAYER
  5
393E
330
2
100
AcDbSymbolTableRecord
100
AcDbLayerTableRecord
  2
WUWAGAKI
 70
     0
 62
     7
  6
CONTINUOUS
370
    -3
390
15FD
  0
ENDTAB
  0
TABLE
  2
STYLE
  5
3
330
0
100
AcDbSymbolTable
 70
     3
  0
STYLE
  5
F
330
3
100
AcDbSymbolTableRecord
100
AcDbTextStyleTableRecord
  2
STANDARD
 70
     0
 40
0.0
 41
1.0
 50
0.0
 71
     0
 42
2.5
  3
MS PMincho.ttf
  4

1001
ACAD
1000
MS PMincho
1071
    32786
  0
STYLE
  5
22
330
3
100
AcDbSymbolTableRecord
100
AcDbTextStyleTableRecord
  2
ADESK1
 70
     0
 40
0.0
 41
1.0
 50
0.0
 71
     0
 42
5.0
  3
romans
  4
bigfont
  0
STYLE
  5
127
330
3
100
AcDbSymbolTableRecord
100
AcDbTextStyleTableRecord
  2

 70
     1
 40
0.0
 41
1.0
 50
0.0
 71
     0
 42
2.5
  3
ltypeshp.shx
  4

  0
ENDTAB
  0
TABLE
  2
VIEW
  5
6
330
0
100
AcDbSymbolTable
 70
     0
  0
ENDTAB
  0
TABLE
  2
UCS
  5
7
330
0
100
AcDbSymbolTable
 70
     0
  0
ENDTAB
  0
TABLE
  2
APPID
  5
9
330
0
100
AcDbSymbolTable
 70
     2
  0
APPID
  5
10
330
9
100
AcDbSymbolTableRecord
100
AcDbRegAppTableRecord
  2
ACAD
 70
     0
  0
APPID
  5
1213
330
9
100
AcDbSymbolTableRecord
100
AcDbRegAppTableRecord
  2
DRAWINGVARIABLESXDATA
 70
     0
  0
ENDTAB
  0
TABLE
  2
DIMSTYLE
  5
A
330
0
100
AcDbSymbolTable
 70
     2
100
AcDbDimStyleTable
 71
     1
340
1D
  0
DIMSTYLE
105
1D
330
A
100
AcDbSymbolTableRecord
100
AcDbDimStyleTableRecord
  2
STANDARD
 70
     0
340
F
  0
DIMSTYLE
105
23
330
A
100
AcDbSymbolTableRecord
100
AcDbDimStyleTableRecord
  2
JIS
 70
     0
 41
2.5
 42
1.0
 43
7.0
 44
1.0
 73
     0
 74
     0
 77
     1
 78
     8
140
2.5
141
0.0
143
0.0394
147
0.0
172
     1
174
     1
175
     1
340
F
  0
ENDTAB
  0
TABLE
  2
BLOCK_RECORD
  5
1
330
0
100
AcDbSymbolTable
 70
     3
  0
BLOCK_RECORD
  5
18
330
1
100
AcDbSymbolTableRecord
100
AcDbBlockTableRecord
  2
*MODEL_SPACE
340
1600
  0
BLOCK_RECORD
  5
15
330
1
100
AcDbSymbolTableRecord
100
AcDbBlockTableRecord
  2
*PAPER_SPACE
340
1601
  0
BLOCK_RECORD
  5
24
330
1
100
AcDbSymbolTableRecord
100
AcDbBlockTableRecord
  2
JIS_A4L
340
0
  0
BLOCK_RECORD
  5
3437
330
1
100
AcDbSymbolTableRecord
100
AcDbBlockTableRecord
  2
*D1
340
0
  0
BLOCK_RECORD
  5
3445
330
1
100
AcDbSymbolTableRecord
100
AcDbBlockTableRecord
  2
A$C23BB6A77
340
0
  0
ENDTAB
  0
ENDSEC
  0
SECTION
  2
BLOCKS
  0
BLOCK
  5
19
330
18
100
AcDbEntity
  8
0
100
AcDbBlockBegin
  2
*MODEL_SPACE
 70
     2
 10
0.0
 20
0.0
 30
0.0
  3
*MODEL_SPACE
  1

  0
ENDBLK
  5
1A
330
18
100
AcDbEntity
  8
0
100
AcDbBlockEnd
  0
BLOCK
  5
16
330
15
100
AcDbEntity
 67
     1
  8
0
100
AcDbBlockBegin
  2
*PAPER_SPACE
 70
     0
 10
0.0
 20
0.0
 30
0.0
  3
*PAPER_SPACE
  1

  0
ENDBLK
  5
17
330
15
100
AcDbEntity
 67
     1
  8
0
100
AcDbBlockEnd
  0
BLOCK
  5
A1
330
24
100
AcDbEntity
  8
0
100
AcDbBlockBegin
  2
JIS_A4L
 70
     2
 10
0.0
 20
0.0
 30
0.0
  3
JIS_A4L
  1

  0
LINE
  5
25
330
24
100
AcDbEntity
  8
0
100
AcDbLine
 10
0.0
 20
0.0
 30
0.0
 11
0.0
 21
10.0
 31
0.0
  0
LINE
  5
26
330
24
100
AcDbEntity
  8
0
100
AcDbLine
 10
0.0
 20
210.0
 30
0.0
 11
25.0
 21
210.0
 31
0.0
  0
LINE
  5
27
330
24
100
AcDbEntity
  8
0
100
AcDbLine
 10
297.0
 20
210.0
 30
0.0
 11
297.0
 21
200.0
 31
0.0
  0
LINE
  5
28
330
24
100
AcDbEntity
  8
0
100
AcDbLine
 10
297.0
 20
0.0
 30
0.0
 11
287.0
 21
0.0
 31
0.0
  0
LINE
  5
29
330
24
100
AcDbEntity
  8
0
100
AcDbLine
 10
25.0
 20
10.0
 30
0.0
 11
25.0
 21
200.0
 31
0.0
  0
LINE
  5
2A
330
24
100
AcDbEntity
  8
0
100
AcDbLine
 10
287.0
 20
10.0
 30
0.0
 11
25.0
 21
10.0
 31
0.0
  0
LINE
  5
2B
330
24
100
AcDbEntity
  8
0
100
AcDbLine
 10
287.0
 20
200.0
 30
0.0
 11
287.0
 21
10.0
 31
0.0
  0
LINE
  5
2C
330
24
100
AcDbEntity
  8
0
100
AcDbLine
 10
25.0
 20
200.0
 30
0.0
 11
287.0
 21
200.0
 31
0.0
  0
LINE
  5
2D
330
24
100
AcDbEntity
  8
0
100
AcDbLine
 10
0.0
 20
200.0
 30
0.0
 11
0.0
 21
210.0
 31
0.0
  0
LINE
  5
2E
330
24
100
AcDbEntity
  8
0
100
AcDbLine
 10
25.0
 20
0.0
 30
0.0
 11
0.0
 21
0.0
 31
0.0
  0
LINE
  5
2F
330
24
100
AcDbEntity
  8
0
100
AcDbLine
 10
297.0
 20
10.0
 30
0.0
 11
297.0
 21
0.0
 31
0.0
  0
LINE
  5
30
330
24
100
AcDbEntity
  8
0
100
AcDbLine
 10
287.0
 20
210.0
 30
0.0
 11
297.0
 21
210.0
 31
0.0
  0
ATTDEF
  5
31
330
24
100
AcDbEntity
  8
0
 62
     0
100
AcDbText
 10
19.0
 20
10.0
 30
0.0
 40
3.0
  1

 50
90.0
  7
ADESK1
100
AcDbAttributeDefinition
  3

  2
USER
 70
     8
  0
ATTDEF
  5
32
330
24
100
AcDbEntity
  8
0
 62
     0
100
AcDbText
 10
19.0
 20
70.0
 30
0.0
 40
3.0
  1

 50
90.0
  7
ADESK1
100
AcDbAttributeDefinition
  3

  2
REVDATE
 70
     8
  0
ATTDEF
  5
33
330
24
100
AcDbEntity
  8
0
 62
     0
100
AcDbText
 10
19.0
 20
118.0
 30
0.0
 40
3.0
  1

 50
90.0
  7
ADESK1
100
AcDbAttributeDefinition
  3

  2
FNAME
 70
     8
  0
LINE
  5
34
330
24
100
AcDbEntity
  8
OBJECT
100
AcDbLine
 10
130.0
 20
16.0
 30
0.0
 11
25.0
 21
16.0
 31
0.0
  0
LINE
  5
35
330
24
100
AcDbEntity
  8
OBJECT
100
AcDbLine
 10
130.0
 20
22.0
 30
0.0
 11
25.0
 21
22.0
 31
0.0
  0
LINE
  5
36
330
24
100
AcDbEntity
  8
OBJECT
100
AcDbLine
 10
130.0
 20
28.0
 30
0.0
 11
25.0
 21
28.0
 31
0.0
  0
LINE
  5
37
330
24
100
AcDbEntity
  8
OBJECT
100
AcDbLine
 10
130.0
 20
34.0
 30
0.0
 11
25.0
 21
34.0
 31
0.0
  0
LINE
  5
38
330
24
100
AcDbEntity
  8
OBJECT
100
AcDbLine
 10
130.0
 20
40.0
 30
0.0
 11
25.0
 21
40.0
 31
0.0
  0
LINE
  5
39
330
24
100
AcDbEntity
  8
OBJECT
100
AcDbLine
 10
28.0
 20
11.53589799999999
 30
0.0
 11
30.0
 21
15.0
 31
0.0
  0
LINE
  5
3A
330
24
100
AcDbEntity
  8
OBJECT
100
AcDbLine
 10
32.0
 20
11.53589799999999
 30
0.0
 11
30.0
 21
15.0
 31
0.0
  0
LINE
  5
3B
330
24
100
AcDbEntity
  8
OBJECT
100
AcDbLine
 10
35.0
 20
10.0
 30
0.0
 11
35.0
 21
40.0
 31
0.0
  0
LINE
  5
3C
330
24
100
AcDbEntity
  8
OBJECT
100
AcDbLine
 10
50.0
 20
10.0
 30
0.0
 11
50.0
 21
40.0
 31
0.0
  0
LINE
  5
3D
330
24
100
AcDbEntity
  8
OBJECT
100
AcDbLine
 10
80.0
 20
10.0
 30
0.0
 11
80.0
 21
40.0
 31
0.0
  0
LINE
  5
3E
330
24
100
AcDbEntity
  8
OBJECT
100
AcDbLine
 10
28.0
 20
11.53589799999999
 30
0.0
 11
32.0
 21
11.53589799999999
 31
0.0
  0
LINE
  5
3F
330
24
100
AcDbEntity
  8
OBJECT
100
AcDbLine
 10
39.5
 20
13.0
 30
0.0
 11
40.49999999999999
 21
13.0
 31
0.0
  0
LINE
  5
40
330
24
100
AcDbEntity
  8
OBJECT
100
AcDbLine
 10
44.5
 20
13.0
 30
0.0
 11
45.49999999999999
 21
13.0
 31
0.0
  0
LINE
  5
41
330
24
100
AcDbEntity
  8
OBJECT
100
AcDbLine
 10
32.0
 20
17.535898
 30
0.0
 11
30.0
 21
20.99999999999999
 31
0.0
  0
LINE
  5
42
330
24
100
AcDbEntity
  8
OBJECT
100
AcDbLine
 10
28.0
 20
17.535898
 30
0.0
 11
32.0
 21
17.535898
 31
0.0
  0
LINE
  5
43
330
24
100
AcDbEntity
  8
OBJECT
100
AcDbLine
 10
28.0
 20
17.535898
 30
0.0
 11
30.0
 21
20.99999999999999
 31
0.0
  0
LINE
  5
44
330
24
100
AcDbEntity
  8
OBJECT
100
AcDbLine
 10
32.0
 20
23.53589799999999
 30
0.0
 11
30.0
 21
26.99999999999999
 31
0.0
  0
LINE
  5
45
330
24
100
AcDbEntity
  8
OBJECT
100
AcDbLine
 10
28.0
 20
23.53589799999999
 30
0.0
 11
32.0
 21
23.53589799999999
 31
0.0
  0
LINE
  5
46
330
24
100
AcDbEntity
  8
OBJECT
100
AcDbLine
 10
28.0
 20
23.53589799999999
 30
0.0
 11
30.0
 21
26.99999999999999
 31
0.0
  0
LINE
  5
47
330
24
100
AcDbEntity
  8
OBJECT
100
AcDbLine
 10
28.0
 20
35.53589799999999
 30
0.0
 11
30.0
 21
39.0
 31
0.0
  0
LINE
  5
48
330
24
100
AcDbEntity
  8
OBJECT
100
AcDbLine
 10
32.0
 20
35.53589799999999
 30
0.0
 11
30.0
 21
39.0
 31
0.0
  0
LINE
  5
49
330
24
100
AcDbEntity
  8
OBJECT
100
AcDbLine
 10
28.0
 20
35.53589799999999
 30
0.0
 11
32.0
 21
35.53589799999999
 31
0.0
  0
LINE
  5
4A
330
24
100
AcDbEntity
  8
OBJECT
100
AcDbLine
 10
32.0
 20
29.53589799999999
 30
0.0
 11
30.0
 21
33.0
 31
0.0
  0
LINE
  5
4B
330
24
100
AcDbEntity
  8
OBJECT
100
AcDbLine
 10
28.0
 20
29.53589799999999
 30
0.0
 11
32.0
 21
29.53589799999999
 31
0.0
  0
LINE
  5
4C
330
24
100
AcDbEntity
  8
OBJECT
100
AcDbLine
 10
28.0
 20
29.53589799999999
 30
0.0
 11
30.0
 21
33.0
 31
0.0
  0
LINE
  5
4D
330
24
100
AcDbEntity
  8
OBJECT
100
AcDbLine
 10
39.5
 20
19.0
 30
0.0
 11
40.49999999999999
 21
19.0
 31
0.0
  0
LINE
  5
4E
330
24
100
AcDbEntity
  8
OBJECT
100
AcDbLine
 10
44.5
 20
19.0
 30
0.0
 11
45.49999999999999
 21
19.0
 31
0.0
  0
LINE
  5
4F
330
24
100
AcDbEntity
  8
OBJECT
100
AcDbLine
 10
39.5
 20
25.0
 30
0.0
 11
40.49999999999999
 21
25.0
 31
0.0
  0
LINE
  5
50
330
24
100
AcDbEntity
  8
OBJECT
100
AcDbLine
 10
44.5
 20
25.0
 30
0.0
 11
45.49999999999999
 21
25.0
 31
0.0
  0
LINE
  5
51
330
24
100
AcDbEntity
  8
OBJECT
100
AcDbLine
 10
39.5
 20
31.0
 30
0.0
 11
40.49999999999999
 21
31.0
 31
0.0
  0
LINE
  5
52
330
24
100
AcDbEntity
  8
OBJECT
100
AcDbLine
 10
39.5
 20
37.0
 30
0.0
 11
40.49999999999999
 21
37.0
 31
0.0
  0
LINE
  5
53
330
24
100
AcDbEntity
  8
OBJECT
100
AcDbLine
 10
44.5
 20
31.0
 30
0.0
 11
45.49999999999999
 21
31.0
 31
0.0
  0
LINE
  5
54
330
24
100
AcDbEntity
  8
OBJECT
100
AcDbLine
 10
44.5
 20
37.0
 30
0.0
 11
45.49999999999999
 21
37.0
 31
0.0
  0
LINE
  5
55
330
24
100
AcDbEntity
  8
OBJECT
100
AcDbLine
 10
120.0
 20
10.0
 30
0.0
 11
120.0
 21
40.0
 31
0.0
  0
LINE
  5
56
330
24
100
AcDbEntity
  8
OBJECT
100
AcDbLine
 10
130.0
 20
40.0
 30
0.0
 11
130.0
 21
10.0
 31
0.0
  0
LINE
  5
57
330
24
100
AcDbEntity
  8
0
100
AcDbLine
 10
156.0
 20
10.0
 30
0.0
 11
156.0
 21
0.0
 31
0.0
  0
LINE
  5
58
330
24
100
AcDbEntity
  8
0
100
AcDbLine
 10
156.0
 20
200.0
 30
0.0
 11
156.0
 21
210.0
 31
0.0
  0
LINE
  5
59
330
24
100
AcDbEntity
  8
0
100
AcDbLine
 10
287.0
 20
105.0
 30
0.0
 11
297.0
 21
105.0
 31
0.0
  0
LINE
  5
5A
330
24
100
AcDbEntity
  8
0
100
AcDbLine
 10
25.0
 20
105.0
 30
0.0
 11
0.0
 21
105.0
 31
0.0
  0
TEXT
  5
5B
330
24
100
AcDbEntity
  8
0
100
AcDbText
 10
1.0
 20
1.0
 30
0.0
 40
3.0
  1
この図枠はサンプルです。社内の規格やプロッタの出力範囲に合わせて適当に変更してご利用ください。
  7
ADESK1
100
AcDbText
  0
LINE
  5
5C
330
24
100
AcDbEntity
  8
0
100
AcDbLine
 10
25.0
 20
152.5
 30
0.0
 11
20.0
 21
152.5
 31
0.0
  0
LINE
  5
5D
330
24
100
AcDbEntity
  8
0
100
AcDbLine
 10
25.0
 20
105.0
 30
0.0
 11
20.0
 21
105.0
 31
0.0
  0
LINE
  5
5E
330
24
100
AcDbEntity
  8
0
100
AcDbLine
 10
25.0
 20
57.5
 30
0.0
 11
20.0
 21
57.5
 31
0.0
  0
LINE
  5
5F
330
24
100
AcDbEntity
  8
0
100
AcDbLine
 10
68.66666666666668
 20
10.0
 30
0.0
 11
68.66666666666668
 21
5.0
 31
0.0
  0
LINE
  5
60
330
24
100
AcDbEntity
  8
0
100
AcDbLine
 10
112.3333333333333
 20
10.0
 30
0.0
 11
112.3333333333333
 21
5.0
 31
0.0
  0
LINE
  5
61
330
24
100
AcDbEntity
  8
0
100
AcDbLine
 10
156.0
 20
10.0
 30
0.0
 11
156.0
 21
5.0
 31
0.0
  0
LINE
  5
62
330
24
100
AcDbEntity
  8
0
100
AcDbLine
 10
199.6666666666666
 20
10.0
 30
0.0
 11
199.6666666666666
 21
5.0
 31
0.0
  0
LINE
  5
63
330
24
100
AcDbEntity
  8
0
100
AcDbLine
 10
243.3333333333333
 20
10.0
 30
0.0
 11
243.3333333333333
 21
5.0
 31
0.0
  0
LINE
  5
64
330
24
100
AcDbEntity
  8
0
100
AcDbLine
 10
287.0
 20
57.5
 30
0.0
 11
292.0
 21
57.5
 31
0.0
  0
LINE
  5
65
330
24
100
AcDbEntity
  8
0
100
AcDbLine
 10
287.0
 20
105.0
 30
0.0
 11
292.0
 21
105.0
 31
0.0
  0
LINE
  5
66
330
24
100
AcDbEntity
  8
0
100
AcDbLine
 10
287.0
 20
152.5
 30
0.0
 11
292.0
 21
152.5
 31
0.0
  0
LINE
  5
67
330
24
100
AcDbEntity
  8
0
100
AcDbLine
 10
243.3333333333333
 20
200.0
 30
0.0
 11
243.3333333333333
 21
205.0
 31
0.0
  0
LINE
  5
68
330
24
100
AcDbEntity
  8
0
100
AcDbLine
 10
199.6666666666666
 20
200.0
 30
0.0
 11
199.6666666666666
 21
205.0
 31
0.0
  0
LINE
  5
69
330
24
100
AcDbEntity
  8
0
100
AcDbLine
 10
156.0
 20
200.0
 30
0.0
 11
156.0
 21
205.0
 31
0.0
  0
LINE
  5
6A
330
24
100
AcDbEntity
  8
0
100
AcDbLine
 10
112.3333333333333
 20
200.0
 30
0.0
 11
112.3333333333333
 21
205.0
 31
0.0
  0
LINE
  5
6B
330
24
100
AcDbEntity
  8
0
100
AcDbLine
 10
68.66666666666666
 20
200.0
 30
0.0
 11
68.66666666666666
 21
205.0
 31
0.0
  0
TEXT
  5
6C
330
24
100
AcDbEntity
  8
0
100
AcDbText
 10
45.61904761904761
 20
201.0
 30
0.0
 40
3.0
  1
1
  7
ADESK1
 72
     1
 11
46.83333333333332
 21
201.0
 31
0.0
100
AcDbText
  0
TEXT
  5
6D
330
24
100
AcDbEntity
  8
0
100
AcDbText
 10
21.66139736003921
 20
176.25
 30
0.0
 40
3.0
  1
A
  7
ADESK1
 72
     1
 11
22.94711164575349
 21
176.25
 31
0.0
100
AcDbText
  0
TEXT
  5
6E
330
24
100
AcDbEntity
  8
0
100
AcDbText
 10
89.07142857142856
 20
201.0
 30
0.0
 40
3.0
  1
2
  7
ADESK1
 72
     1
 11
90.5
 21
201.0
 31
0.0
100
AcDbText
  0
TEXT
  5
6F
330
24
100
AcDbEntity
  8
0
100
AcDbText
 10
132.7380952380952
 20
201.0
 30
0.0
 40
3.0
  1
3
  7
ADESK1
 72
     1
 11
134.1666666666666
 21
201.0
 31
0.0
100
AcDbText
  0
TEXT
  5
70
330
24
100
AcDbEntity
  8
0
100
AcDbText
 10
176.3333333333333
 20
201.0
 30
0.0
 40
3.0
  1
4
  7
ADESK1
 72
     1
 11
177.8333333333333
 21
201.0
 31
0.0
100
AcDbText
  0
TEXT
  5
71
330
24
100
AcDbEntity
  8
0
100
AcDbText
 10
220.0714285714286
 20
201.0
 30
0.0
 40
3.0
  1
5
  7
ADESK1
 72
     1
 11
221.4999999999999
 21
201.0
 31
0.0
100
AcDbText
  0
TEXT
  5
72
330
24
100
AcDbEntity
  8
0
100
AcDbText
 10
263.6666666666666
 20
201.0
 30
0.0
 40
3.0
  1
6
  7
ADESK1
 72
     1
 11
265.1666666666666
 21
201.0
 31
0.0
100
AcDbText
  0
TEXT
  5
73
330
24
100
AcDbEntity
  8
0
100
AcDbText
 10
21.37568307432492
 20
128.75
 30
0.0
 40
3.0
  1
B
  7
ADESK1
 72
     1
 11
22.94711164575349
 21
128.75
 31
0.0
100
AcDbText
  0
TEXT
  5
74
330
24
100
AcDbEntity
  8
0
100
AcDbText
 10
21.44711164575349
 20
81.25
 30
0.0
 40
3.0
  1
C
  7
ADESK1
 72
     1
 11
22.94711164575349
 21
81.25
 31
0.0
100
AcDbText
  0
TEXT
  5
75
330
24
100
AcDbEntity
  8
0
100
AcDbText
 10
21.37568307432492
 20
33.75
 30
0.0
 40
3.0
  1
D
  7
ADESK1
 72
     1
 11
22.94711164575349
 21
33.75
 31
0.0
100
AcDbText
  0
TEXT
  5
76
330
24
100
AcDbEntity
  8
0
100
AcDbText
 10
45.61904761904759
 20
6.230338100985607
 30
0.0
 40
3.0
  1
1
  7
ADESK1
 72
     1
 11
46.83333333333331
 21
6.230338100985607
 31
0.0
100
AcDbText
  0
TEXT
  5
77
330
24
100
AcDbEntity
  8
0
100
AcDbText
 10
89.07142857142856
 20
6.230338100985607
 30
0.0
 40
3.0
  1
2
  7
ADESK1
 72
     1
 11
90.5
 21
6.230338100985607
 31
0.0
100
AcDbText
  0
TEXT
  5
78
330
24
100
AcDbEntity
  8
0
100
AcDbText
 10
132.7380952380952
 20
6.230338100985607
 30
0.0
 40
3.0
  1
3
  7
ADESK1
 72
     1
 11
134.1666666666666
 21
6.230338100985607
 31
0.0
100
AcDbText
  0
TEXT
  5
79
330
24
100
AcDbEntity
  8
0
100
AcDbText
 10
176.3333333333333
 20
6.230338100985607
 30
0.0
 40
3.0
  1
4
  7
ADESK1
 72
     1
 11
177.8333333333333
 21
6.230338100985607
 31
0.0
100
AcDbText
  0
TEXT
  5
7A
330
24
100
AcDbEntity
  8
0
100
AcDbText
 10
220.0714285714286
 20
6.230338100985607
 30
0.0
 40
3.0
  1
5
  7
ADESK1
 72
     1
 11
221.4999999999999
 21
6.230338100985607
 31
0.0
100
AcDbText
  0
TEXT
  5
7B
330
24
100
AcDbEntity
  8
0
100
AcDbText
 10
263.6666666666666
 20
6.230338100985607
 30
0.0
 40
3.0
  1
6
  7
ADESK1
 72
     1
 11
265.1666666666666
 21
6.230338100985607
 31
0.0
100
AcDbText
  0
TEXT
  5
7C
330
24
100
AcDbEntity
  8
0
100
AcDbText
 10
287.9530581679809
 20
176.25
 30
0.0
 40
3.0
  1
A
  7
ADESK1
 72
     1
 11
289.2387724536952
 21
176.25
 31
0.0
100
AcDbText
  0
TEXT
  5
7D
330
24
100
AcDbEntity
  8
0
100
AcDbText
 10
287.6673438822666
 20
128.75
 30
0.0
 40
3.0
  1
B
  7
ADESK1
 72
     1
 11
289.2387724536952
 21
128.75
 31
0.0
100
AcDbText
  0
TEXT
  5
7E
330
24
100
AcDbEntity
  8
0
100
AcDbText
 10
287.7387724536952
 20
81.25
 30
0.0
 40
3.0
  1
C
  7
ADESK1
 72
     1
 11
289.2387724536952
 21
81.25
 31
0.0
100
AcDbText
  0
TEXT
  5
7F
330
24
100
AcDbEntity
  8
0
100
AcDbText
 10
287.6673438822666
 20
33.75
 30
0.0
 40
3.0
  1
D
  7
ADESK1
 72
     1
 11
289.2387724536952
 21
33.75
 31
0.0
100
AcDbText
  0
LINE
  5
80
330
24
100
AcDbEntity
  8
0
 62
     0
100
AcDbLine
 10
157.2978723404242
 20
49.00000000000036
 30
0.0
 11
287.0
 21
49.00000000000036
 31
0.0
  0
LINE
  5
81
330
24
100
AcDbEntity
  8
0
 62
     0
100
AcDbLine
 10
157.2978723404242
 20
13.00000000000004
 30
0.0
 11
287.0
 21
13.00000000000004
 31
0.0
  0
LINE
  5
82
330
24
100
AcDbEntity
  8
0
 62
     0
100
AcDbLine
 10
157.2978723404242
 20
37.00000000000024
 30
0.0
 11
287.0
 21
37.00000000000024
 31
0.0
  0
LINE
  5
83
330
24
100
AcDbEntity
  8
0
 62
     0
100
AcDbLine
 10
195.1276595744673
 20
22.00000000000012
 30
0.0
 11
287.0
 21
22.00000000000012
 31
0.0
  0
LINE
  5
84
330
24
100
AcDbEntity
  8
0
 62
     0
100
AcDbLine
 10
157.2978723404242
 20
10.0
 30
0.0
 11
287.0
 21
10.0
 31
0.0
  0
LINE
  5
85
330
24
100
AcDbEntity
  8
0
 62
     0
100
AcDbLine
 10
287.0
 20
49.00000000000036
 30
0.0
 11
157.2978723404242
 21
49.00000000000036
 31
0.0
  0
LINE
  5
86
330
24
100
AcDbEntity
  8
0
 62
     0
100
AcDbLine
 10
180.7163120567365
 20
37.00000000000024
 30
0.0
 11
180.7163120567365
 21
10.0
 31
0.0
  0
LINE
  5
87
330
24
100
AcDbEntity
  8
0
 62
     0
100
AcDbLine
 10
162.702127659573
 20
37.00000000000024
 30
0.0
 11
162.702127659573
 21
10.0
 31
0.0
  0
LINE
  5
88
330
24
100
AcDbEntity
  8
0
 62
     0
100
AcDbLine
 10
189.7234042553184
 20
37.00000000000024
 30
0.0
 11
189.7234042553184
 21
10.0
 31
0.0
  0
LINE
  5
89
330
24
100
AcDbEntity
  8
0
 62
     0
100
AcDbLine
 10
195.1276595744673
 20
25.00000000000012
 30
0.0
 11
195.1276595744673
 21
10.0
 31
0.0
  0
LINE
  5
8A
330
24
100
AcDbEntity
  8
0
 62
     0
100
AcDbLine
 10
157.2978723404242
 20
49.00000000000036
 30
0.0
 11
157.2978723404242
 21
10.0
 31
0.0
  0
LINE
  5
8B
330
24
100
AcDbEntity
  8
0
 62
     0
100
AcDbLine
 10
225.7517730496447
 20
49.00000000000036
 30
0.0
 11
225.7517730496447
 21
10.0
 31
0.0
  0
LINE
  5
8C
330
24
100
AcDbEntity
  8
0
 62
     0
100
AcDbLine
 10
205.7659574468077
 20
22.00000000000007
 30
0.0
 11
205.7659574468077
 21
10.0
 31
0.0
  0
LINE
  5
8D
330
24
100
AcDbEntity
  8
0
 62
     0
100
AcDbLine
 10
216.4042553191484
 20
22.00000000000007
 30
0.0
 11
216.4042553191484
 21
10.0
 31
0.0
  0
LINE
  5
8E
330
24
100
AcDbEntity
  8
0
 62
     0
100
AcDbLine
 10
157.2978723404242
 20
16.00000000000008
 30
0.0
 11
195.1276595744673
 21
16.00000000000008
 31
0.0
  0
LINE
  5
8F
330
24
100
AcDbEntity
  8
0
 62
     0
100
AcDbLine
 10
157.2978723404242
 20
10.0
 30
0.0
 11
157.2978723404242
 21
13.00000000000004
 31
0.0
  0
TEXT
  5
90
330
24
100
AcDbEntity
  8
0
 62
     0
100
AcDbText
 10
198.7174935280942
 20
10.48329012996929
 30
0.0
 40
1.791674070777747
  1
製図
  7
ADESK1
 72
     1
 11
200.5688900678978
 21
10.48329012996929
 31
0.0
100
AcDbText
  0
TEXT
  5
91
330
24
100
AcDbEntity
  8
0
 62
     0
100
AcDbText
 10
209.2960689314087
 20
10.48329012996929
 30
0.0
 40
1.791674070777747
  1
設計
  7
ADESK1
 72
     1
 11
211.2071879402383
 21
10.48329012996929
 31
0.0
100
AcDbText
  0
TEXT
  5
92
330
24
100
AcDbEntity
  8
0
 62
     0
100
AcDbText
 10
219.2447163844405
 20
10.55220101068186
 30
0.0
 40
1.791674070777747
  1
照査
  7
ADESK1
 72
     1
 11
221.1558353932701
 21
10.55220101068186
 31
0.0
100
AcDbText
  0
LINE
  5
93
330
24
100
AcDbEntity
  8
0
 62
     0
100
AcDbLine
 10
157.2978723404242
 20
25.00000000000012
 30
0.0
 11
195.1276595744673
 21
25.00000000000012
 31
0.0
  0
LINE
  5
94
330
24
100
AcDbEntity
  8
0
 62
     0
100
AcDbLine
 10
157.2978723404242
 20
22.00000000000007
 30
0.0
 11
195.1276595744673
 21
22.00000000000012
 31
0.0
  0
LINE
  5
95
330
24
100
AcDbEntity
  8
0
 62
     0
100
AcDbLine
 10
157.2978723404242
 20
19.00000000000007
 30
0.0
 11
195.1276595744673
 21
19.00000000000012
 31
0.0
  0
LINE
  5
96
330
24
100
AcDbEntity
  8
0
 62
     0
100
AcDbLine
 10
157.2978723404242
 20
34.00000000000024
 30
0.0
 11
225.7517730496447
 21
34.00000000000024
 31
0.0
  0
LINE
  5
97
330
24
100
AcDbEntity
  8
0
 62
     0
100
AcDbLine
 10
157.2978723404242
 20
31.0000000000002
 30
0.0
 11
225.7517730496447
 21
31.0000000000002
 31
0.0
  0
LINE
  5
98
330
24
100
AcDbEntity
  8
0
 62
     0
100
AcDbLine
 10
157.2978723404242
 20
28.00000000000015
 30
0.0
 11
225.7517730496447
 21
28.00000000000015
 31
0.0
  0
LINE
  5
99
330
24
100
AcDbEntity
  8
0
 62
     0
100
AcDbLine
 10
195.1276595744673
 20
25.00000000000012
 30
0.0
 11
225.7517730496447
 21
25.00000000000012
 31
0.0
  0
LINE
  5
9A
330
24
100
AcDbEntity
  8
0
 62
     0
100
AcDbLine
 10
195.1276595744673
 20
49.00000000000036
 30
0.0
 11
195.1276595744673
 21
25.00000000000012
 31
0.0
  0
LINE
  5
9B
330
24
100
AcDbEntity
  8
0
 62
     0
100
AcDbLine
 10
202.3333333333325
 20
37.00000000000024
 30
0.0
 11
202.3333333333325
 21
25.00000000000012
 31
0.0
  0
LINE
  5
9C
330
24
100
AcDbEntity
  8
0
 62
     0
100
AcDbLine
 10
213.1418439716305
 20
49.00000000000036
 30
0.0
 11
213.1418439716305
 21
22.00000000000012
 31
0.0
  0
LINE
  5
9D
330
24
100
AcDbEntity
  8
0
 62
     0
100
AcDbLine
 10
279.7943262411347
 20
22.00000000000012
 30
0.0
 11
279.7943262411347
 21
10.0
 31
0.0
  0
LINE
  5
9E
330
24
100
AcDbEntity
  8
0
 62
     0
100
AcDbLine
 10
287.0
 20
49.00000000000036
 30
0.0
 11
287.0
 21
10.0
 31
0.0
  0
LINE
  5
9F
330
24
100
AcDbEntity
  8
0
 62
     0
100
AcDbLine
 10
287.0
 20
10.0
 30
0.0
 11
287.0
 21
49.00000000000036
 31
0.0
  0
LINE
  5
A0
330
24
100
AcDbEntity
  8
0
 62
     0
100
AcDbLine
 10
279.7943262411347
 20
16.00000000000008
 30
0.0
 11
287.0
 21
16.00000000000008
 31
0.0
  0
ENDBLK
  5
A2
330
24
100
AcDbEntity
  8
0
100
AcDbBlockEnd
  0
BLOCK
  5
3443
330
3437
100
AcDbEntity
  8
0
100
AcDbBlockBegin
  2
*D1
 70
     1
 10
0.0
 20
0.0
 30
0.0
  3
*D1
  1

  0
LINE
  5
3438
330
3437
100
AcDbEntity
  8
OBJECT
 62
     0
370
    -2
100
AcDbLine
 10
-8068.568047744786
 20
3998.303038975791
 30
0.0
 11
-7757.422052324407
 21
3998.303038975791
 31
0.0
  0
LINE
  5
3439
330
3437
100
AcDbEntity
  8
OBJECT
 62
     0
370
    -2
100
AcDbLine
 10
-8068.568047744786
 20
4078.303038975791
 30
0.0
 11
-7757.422052324407
 21
4078.303038975791
 31
0.0
  0
LINE
  5
343A
330
3437
100
AcDbEntity
  8
OBJECT
 62
     0
370
    -2
100
AcDbLine
 10
-7776.172052324408
 20
3960.803038975791
 30
0.0
 11
-7776.172052324408
 21
3923.303038975791
 31
0.0
  0
LINE
  5
343B
330
3437
100
AcDbEntity
  8
OBJECT
 62
     0
370
    -2
100
AcDbLine
 10
-7776.172052324408
 20
4115.803038975792
 30
0.0
 11
-7776.172052324408
 21
4153.303038975791
 31
0.0
  0
LINE
  5
343C
330
3437
100
AcDbEntity
  8
OBJECT
 62
     0
370
    -2
100
AcDbLine
 10
-7776.172052324408
 20
3998.303038975791
 30
0.0
 11
-7776.172052324408
 21
4078.303038975791
 31
0.0
  0
SOLID
  5
343D
330
3437
100
AcDbEntity
  8
OBJECT
 62
     0
100
AcDbTrace
 10
-7782.422052324408
 20
3960.803038975791
 30
0.0
 11
-7769.922052324408
 21
3960.803038975791
 31
0.0
 12
-7776.172052324408
 22
3998.303038975791
 32
0.0
 13
-7776.172052324408
 23
3998.303038975791
 33
0.0
  0
SOLID
  5
343E
330
3437
100
AcDbEntity
  8
OBJECT
 62
     0
100
AcDbTrace
 10
-7782.422052324408
 20
4115.803038975792
 30
0.0
 11
-7769.922052324408
 21
4115.803038975792
 31
0.0
 12
-7776.172052324408
 22
4078.303038975791
 32
0.0
 13
-7776.172052324408
 23
4078.303038975791
 33
0.0
  0
MTEXT
  5
343F
330
3437
100
AcDbEntity
  8
OBJECT
 62
     0
100
AcDbMText
 10
-7804.297052324407
 20
4038.303038975789
 30
0.0
 40
37.5
 41
0.0
 71
     5
 72
     1
  1
\A1;80
 11
0.0000000000000001
 21
1.0
 31
0.0
 73
     1
 44
1.0
  0
POINT
  5
3440
330
3437
100
AcDbEntity
  8
DEFPOINTS
 62
     0
100
AcDbPoint
 10
-8077.943047744787
 20
3998.303038975791
 30
0.0
  0
POINT
  5
3441
330
3437
100
AcDbEntity
  8
DEFPOINTS
 62
     0
100
AcDbPoint
 10
-8077.943047744787
 20
4078.303038975791
 30
0.0
  0
POINT
  5
3442
330
3437
100
AcDbEntity
  8
DEFPOINTS
 62
     0
100
AcDbPoint
 10
-7776.172052324408
 20
4078.303038975791
 30
0.0
  0
ENDBLK
  5
3444
330
3437
100
AcDbEntity
  8
0
100
AcDbBlockEnd
  0
BLOCK
  5
3447
330
3445
100
AcDbEntity
  8
0
100
AcDbBlockBegin
  2
A$C23BB6A77
 70
     0
 10
0.0
 20
0.0
 30
0.0
  3
A$C23BB6A77
  1

  0
DIMENSION
  5
3446
330
3445
100
AcDbEntity
  8
OBJECT
100
AcDbDimension
  2
*D1
 10
301.7709854312124
 20
154.9999934708971
 30
0.0
 11
273.6459854312115
 21
114.9999934708962
 31
0.0
 12
8077.94303775562
 22
-3923.303045504894
 32
0.0
 71
     5
 42
79.99999999999954
  3
STANDARD
100
AcDbAlignedDimension
 13
-0.0000099891658465
 23
74.99999347089761
 33
0.0
 14
-0.0000099891658465
 24
154.9999934708971
 34
0.0
 50
90.0
100
AcDbRotatedDimension
1001
ACAD
1000
DSTYLE
1002
{
1070
    40
1040
15.0
1070
    41
1040
2.5
1070
    42
1040
0.625
1070
    43
1040
3.75
1070
    44
1040
1.25
1070
    73
1070
     0
1070
    74
1070
     0
1070
    77
1070
     1
1070
    78
1070
     8
1070
   140
1040
2.5
1070
   141
1040
2.5
1070
   143
1040
0.0394
1070
   147
1040
0.625
1070
   171
1070
     4
1070
   172
1070
     1
1070
   273
1070
     8
1070
   274
1070
     4
1070
   277
1070
     6
1002
}
  0
ENDBLK
  5
3448
330
3445
100
AcDbEntity
  8
0
100
AcDbBlockEnd
  0
ENDSEC
  0
SECTION
  2
ENTITIES
  0
MTEXT
  5
938
330
18
100
AcDbEntity
  8
上書線
100
AcDbMText
 10
1865.739761775792
 20
499.0283937835011
 30
0.0
 40
37.5
 41
0.0
 71
     4
 72
     1
  1
\A1;
 73
     1
 44
1.0
  0
LINE
  5
123E
330
18
100
AcDbEntity
  8
基準線
100
AcDbLine
 10
710.0813698183028
 20
2117.506972677286
 30
0.0
 11
731.0813698183028
 21
2117.506972677286
 31
0.0
  0
LINE
  5
14BB
330
18
100
AcDbEntity
  8
基準線
100
AcDbLine
 10
1281.296189060135
 20
2744.451732006984
 30
0.0
 11
1631.12377476475
 21
2744.451732006984
 31
0.0
  0
LINE
  5
14BC
330
18
100
AcDbEntity
  8
基準線
100
AcDbLine
 10
1131.296189060135
 20
2594.451732006984
 30
0.0
 11
1604.134047986604
 21
2594.451732006984
 31
0.0
  0
LINE
  5
1546
330
18
100
AcDbEntity
  8
基準線
100
AcDbLine
 10
2000.40772718317
 20
1104.126411816217
 30
0.0
 11
2000.40772718317
 21
1262.163674897728
 31
0.0
  0
LINE
  5
154B
330
18
100
AcDbEntity
  8
基準線
100
AcDbLine
 10
2550.40772718317
 20
1049.126411816217
 30
0.0
 11
2550.40772718317
 21
1211.614819254876
 31
0.0
  0
LINE
  5
154C
330
18
100
AcDbEntity
  8
基準線
100
AcDbLine
 10
2150.40772718317
 20
1049.126411816217
 30
0.0
 11
2150.40772718317
 21
1226.779475202555
 31
0.0
  0
LINE
  5
15CA
330
18
100
AcDbEntity
  8
基準線
100
AcDbLine
 10
3419.935833980378
 20
2804.85492986955
 30
0.0
 11
3776.432100616551
 21
2804.85492986955
 31
0.0
  0
LINE
  5
15CC
330
18
100
AcDbEntity
  8
基準線
100
AcDbLine
 10
3776.432100616551
 20
2804.85492986955
 30
0.0
 11
4171.357345948922
 21
2804.85492986955
 31
0.0
  0
LINE
  5
15D0
330
18
100
AcDbEntity
  8
基準線
100
AcDbLine
 10
3419.935833980378
 20
2684.85492986955
 30
0.0
 11
3776.432100616551
 21
2684.85492986955
 31
0.0
  0
LINE
  5
15D1
330
18
100
AcDbEntity
  8
基準線
100
AcDbLine
 10
3598.183967298465
 20
2684.85492986955
 30
0.0
 11
3598.183967298465
 21
984.8549298695507
 31
0.0
  0
LINE
  5
15D2
330
18
100
AcDbEntity
  8
基準線
100
AcDbLine
 10
3776.432100616551
 20
2484.854929869551
 30
0.0
 11
4171.357345948921
 21
2484.85492986955
 31
0.0
  0
LINE
  5
15D3
330
18
100
AcDbEntity
  8
基準線
100
AcDbLine
 10
3973.894723282737
 20
2684.854929869551
 30
0.0
 11
3973.894723282734
 21
984.8549298695507
 31
0.0
  0
LINE
  5
15D4
330
18
100
AcDbEntity
  8
基準線
100
AcDbLine
 10
3419.935833980378
 20
2684.85492986955
 30
0.0
 11
3419.935833980378
 21
2584.85492986955
 31
0.0
  0
LINE
  5
15D5
330
18
100
AcDbEntity
  8
基準線
100
AcDbLine
 10
3419.935833980378
 20
2634.85492986955
 30
0.0
 11
4114.659436953616
 21
2634.85492986955
 31
0.0
  0
MTEXT
  5
2600
330
18
100
AcDbEntity
  8
上書線
100
AcDbMText
 10
8043.004024608547
 20
6114.654880203589
 30
0.0
 40
60.0
 41
956.9129999999999
 71
     1
 72
     5
  1
重量表
 73
     1
 44
1.0
  0
MTEXT
  5
283E
330
18
100
AcDbEntity
  8
上線
100
AcDbMText
 10
8142.835958909442
 20
5939.812970622168
 30
0.0
 40
49.968
 41
197.7879999999999
 71
     1
 72
     5
  1
Ｈ
 73
     1
 44
1.0
  0
LINE
  5
283F
330
18
100
AcDbEntity
  8
上線
100
AcDbLine
 10
7766.780679715295
 20
5377.063334774561
 30
0.0
 11
8584.51118736154
 21
5377.063334774561
 31
0.0
  0
LINE
  5
2840
330
18
100
AcDbEntity
  8
上線
100
AcDbLine
 10
7766.780679715295
 20
5474.978692449629
 30
0.0
 11
8584.51118736154
 21
5474.978692449629
 31
0.0
  0
LINE
  5
2841
330
18
100
AcDbEntity
  8
上線
100
AcDbLine
 10
7766.780679715295
 20
5572.894050124696
 30
0.0
 11
8584.51118736154
 21
5572.894050124696
 31
0.0
  0
LINE
  5
2842
330
18
100
AcDbEntity
  8
上線
100
AcDbLine
 10
7766.780679715295
 20
5670.809407799763
 30
0.0
 11
8584.51118736154
 21
5670.809407799763
 31
0.0
  0
LINE
  5
2843
330
18
100
AcDbEntity
  8
上線
100
AcDbLine
 10
7766.780679715295
 20
5768.724765474831
 30
0.0
 11
8584.51118736154
 21
5768.724765474831
 31
0.0
  0
LINE
  5
2844
330
18
100
AcDbEntity
  8
上線
100
AcDbLine
 10
7766.780679715295
 20
5866.560123263662
 30
0.0
 11
8585.145846193013
 21
5866.560123263662
 31
0.0
  0
LINE
  5
2845
330
18
100
AcDbEntity
  8
上線
100
AcDbLine
 10
8584.51118736154
 20
5964.555480824966
 30
0.0
 11
7766.780679715295
 21
5964.555480824966
 31
0.0
  0
LINE
  5
284A
330
18
100
AcDbEntity
  8
上線
100
AcDbLine
 10
8039.357515597377
 20
5964.555480824966
 30
0.0
 11
8039.357515597377
 21
5377.063334774561
 31
0.0
  0
LINE
  5
284B
330
18
100
AcDbEntity
  8
上線
100
AcDbLine
 10
7766.780679715295
 20
5964.555480824966
 30
0.0
 11
7766.780679715295
 21
5377.063334774561
 31
0.0
  0
MTEXT
  5
285C
330
18
100
AcDbEntity
  8
上線
100
AcDbMText
 10
7861.368044740419
 20
5939.812970622168
 30
0.0
 40
49.968
 41
197.7879999999999
 71
     1
 72
     5
  1
h1
 73
     1
 44
1.0
  0
LINE
  5
285F
330
18
100
AcDbEntity
  8
上線
100
AcDbLine
 10
8311.934351479456
 20
5964.555480824966
 30
0.0
 11
8311.934351479456
 21
5377.063334774561
 31
0.0
  0
LINE
  5
2860
330
18
100
AcDbEntity
  8
上線
100
AcDbLine
 10
8584.51118736154
 20
5377.063334774561
 30
0.0
 11
8584.51118736154
 21
5964.555480824966
 31
0.0
  0
MTEXT
  5
2866
330
18
100
AcDbEntity
  8
上線
100
AcDbMText
 10
8355.058226905311
 20
5922.999559864569
 30
0.0
 40
24.984
 41
247.78800162
 71
     1
 72
     5
  1
\fＭＳ Ｐ明朝|b0|i0|c128|p18;参考重量（㎏）
 73
     1
 44
1.0
  0
MTEXT
  5
355F
330
18
100
AcDbEntity
  8
上線
100
AcDbMText
 10
7879.247947629107
 20
5447.35107060097
 30
0.0
 40
49.968
 41
247.7879999999999
 71
     1
 72
     5
  1
500
 73
     1
 44
1.0
  0
MTEXT
  5
3560
330
18
100
AcDbEntity
  8
上線
100
AcDbMText
 10
7881.12239546261
 20
5838.932501415002
 30
0.0
 40
49.968
 41
247.7879999999999
 71
     1
 72
     5
  1
300
 73
     1
 44
1.0
  0
MTEXT
  5
3561
330
18
100
AcDbEntity
  8
上線
100
AcDbMText
 10
7879.247947629107
 20
5643.181785951104
 30
0.0
 40
49.968
 41
247.7879999999999
 71
     1
 72
     5
  1
400
 73
     1
 44
1.0
  0
MTEXT
  5
3572
330
18
100
AcDbEntity
  8
上線
100
AcDbMText
 10
8119.856783511187
 20
5447.031071056027
 30
0.0
 40
49.968
 41
279.7559999999999
 71
     1
 72
     5
  1
1300
 73
     1
 44
1.0
  0
MTEXT
  5
358B
330
18
100
AcDbEntity
  8
上線
100
AcDbMText
 10
8424.401619393268
 20
5447.35107060097
 30
0.0
 40
49.968
 41
247.7879999999999
 71
     1
 72
     5
  1
952
 73
     1
 44
1.0
  0
MTEXT
  5
358C
330
18
100
AcDbEntity
  8
上線
100
AcDbMText
 10
8426.276067226771
 20
5838.932501415002
 30
0.0
 40
49.968
 41
247.7879999999999
 71
     1
 72
     5
  1
772
 73
     1
 44
1.0
  0
MTEXT
  5
358D
330
18
100
AcDbEntity
  8
上線
100
AcDbMText
 10
8424.401619393268
 20
5643.181785951104
 30
0.0
 40
49.968
 41
247.7879999999999
 71
     1
 72
     5
  1
862
 73
     1
 44
1.0
  0
MTEXT
  5
3599
330
18
100
AcDbEntity
  8
上線
100
AcDbMText
 10
8119.856783511187
 20
5642.861786406161
 30
0.0
 40
49.968
 41
279.7559999999999
 71
     1
 72
     5
  1
1200
 73
     1
 44
1.0
  0
MTEXT
  5
35A3
330
18
100
AcDbEntity
  8
上線
100
AcDbMText
 10
8119.856783511187
 20
5838.692501756296
 30
0.0
 40
49.968
 41
279.7559999999999
 71
     1
 72
     5
  1
1100
 73
     1
 44
1.0
  0
HATCH
  5
36C8
330
18
100
AcDbEntity
  8
OBJECT
100
AcDbHatch
 10
0.0
 20
0.0
 30
0.0
210
0.0
220
0.0
230
1.0
  2
AR-SAND
 70
     0
 71
     1
 91
        2
 92
        1
 93
        4
 72
     1
 10
5380.156422631888
 20
5289.437210490676
 11
5992.156422631887
 21
5289.437210490676
 72
     1
 10
5992.156422631887
 20
5289.437210490676
 11
5992.156422631887
 21
5701.437210490676
 72
     1
 10
5992.156422631887
 20
5701.437210490676
 11
5380.156422631888
 21
5701.437210490676
 72
     1
 10
5380.156422631888
 20
5701.437210490676
 11
5380.156422631888
 21
5289.437210490676
 97
        4
330
36F6
330
36CB
330
3788
330
36CC
 92
       16
 93
        4
 72
     1
 10
5386.156422631887
 20
5295.437210490676
 11
5986.156422631887
 21
5295.437210490676
 72
     1
 10
5986.156422631887
 20
5295.437210490676
 11
5986.156422631887
 21
5695.437210490676
 72
     1
 10
5986.156422631887
 20
5695.437210490676
 11
5386.156422631887
 21
5695.437210490676
 72
     1
 10
5386.156422631887
 20
5695.437210490676
 11
5386.156422631887
 21
5295.437210490676
 97
        4
330
36F7
330
36CD
330
3789
330
36CE
 75
     0
 76
     1
 52
90.0
 41
1.0
 77
     0
 78
     4
 53
127.5
 43
10144.76317407182
 44
-672.596328107702
 45
-48.94132373293423
 46
-1.600031295984042
 79
     6
 49
0.0
 49
-38.608
 49
0.0
 49
-43.18
 49
0.0
 49
-41.275
 53
97.49999999999998
 43
10144.76317407182
 44
-672.596328107702
 45
-71.68251005683543
 46
44.95232831380027
 79
     6
 49
0.0
 49
-20.828
 49
0.0
 49
-34.79799999999999
 49
0.0
 49
-13.33499999999999
 53
57.49999999999997
 43
10144.76317407182
 44
-703.8383281077021
 45
-0.1437184678545643
 46
79.09923702414579
 79
     6
 49
0.0
 49
-12.69999999999999
 49
0.0
 49
-45.71999999999998
 49
0.0
 49
-59.68999999999998
 53
47.49999999999999
 43
10144.76317407182
 44
-703.8383281077021
 45
-22.29293232572162
 46
76.35564524722972
 79
     6
 49
0.0
 49
-6.349999999999999
 49
0.0
 49
-29.97199999999999
 49
0.0
 49
-34.29
 98
        1
 10
10144.76317407182
 20
-672.596328107702
  0
HATCH
  5
36C9
330
18
100
AcDbEntity
  8
OBJECT
100
AcDbHatch
 10
0.0
 20
0.0
 30
0.0
210
0.0
220
0.0
230
1.0
  2
AR-SAND
 70
     0
 71
     0
 91
        1
 92
        1
 93
        4
 72
     1
 10
5586.156422631887
 20
5695.437210490676
 11
5986.156422631887
 21
5695.437210490676
 72
     1
 10
5986.156422631887
 20
5695.437210490676
 11
5986.156422631887
 21
5645.437210490676
 72
     1
 10
5986.156422631887
 20
5645.437210490676
 11
5611.156422631887
 21
5645.437210490676
 72
     1
 10
5611.156422631887
 20
5645.437210490676
 11
5586.156422631887
 21
5695.437210490676
 97
        0
 75
     0
 76
     1
 52
90.0
 41
1.0
 77
     0
 78
     4
 53
127.5
 43
10144.76317407182
 44
-672.596328107702
 45
-48.94132373293423
 46
-1.600031295984042
 79
     6
 49
0.0
 49
-38.608
 49
0.0
 49
-43.18
 49
0.0
 49
-41.275
 53
97.49999999999998
 43
10144.76317407182
 44
-672.596328107702
 45
-71.68251005683543
 46
44.95232831380027
 79
     6
 49
0.0
 49
-20.828
 49
0.0
 49
-34.79799999999999
 49
0.0
 49
-13.33499999999999
 53
57.49999999999997
 43
10144.76317407182
 44
-703.8383281077021
 45
-0.1437184678545643
 46
79.09923702414579
 79
     6
 49
0.0
 49
-12.69999999999999
 49
0.0
 49
-45.71999999999998
 49
0.0
 49
-59.68999999999998
 53
47.49999999999999
 43
10144.76317407182
 44
-703.8383281077021
 45
-22.29293232572162
 46
76.35564524722972
 79
     6
 49
0.0
 49
-6.349999999999999
 49
0.0
 49
-29.97199999999999
 49
0.0
 49
-34.29
 98
        1
 10
10144.76317407182
 20
-672.596328107702
  0
LINE
  5
36CA
330
18
100
AcDbEntity
  8
OBJECT
100
AcDbLine
 10
5588.65642601264
 20
5690.437203729168
 30
0.0
 11
5783.656422631887
 21
5300.437210490676
 31
0.0
  0
LINE
  5
36CB
102
{ACAD_REACTORS
330
36C8
102
}
330
18
100
AcDbEntity
  8
OBJECT
100
AcDbLine
 10
5992.156422631887
 20
5289.437210490676
 30
0.0
 11
5992.156422631887
 21
5701.437210490676
 31
0.0
  0
LINE
  5
36CC
102
{ACAD_REACTORS
330
36C8
102
}
330
18
100
AcDbEntity
  8
OBJECT
100
AcDbLine
 10
5380.156422631888
 20
5289.437210490676
 30
0.0
 11
5380.156422631888
 21
5701.437210490676
 31
0.0
  0
LINE
  5
36CD
102
{ACAD_REACTORS
330
36C8
102
}
330
18
100
AcDbEntity
  8
OBJECT
100
AcDbLine
 10
5986.156422631887
 20
5295.437210490676
 30
0.0
 11
5986.156422631887
 21
5695.437210490676
 31
0.0
  0
LINE
  5
36CE
102
{ACAD_REACTORS
330
36C8
102
}
330
18
100
AcDbEntity
  8
OBJECT
100
AcDbLine
 10
5386.156422631887
 20
5295.437210490676
 30
0.0
 11
5386.156422631887
 21
5695.437210490676
 31
0.0
  0
LINE
  5
36CF
330
18
100
AcDbEntity
  8
OBJECT
100
AcDbLine
 10
5186.156422631887
 20
5765.437210490676
 30
0.0
 11
5186.156422631887
 21
5225.437210490676
 31
0.0
  0
LINE
  5
36D0
330
18
100
AcDbEntity
  8
OBJECT
100
AcDbLine
 10
6186.156422631887
 20
5225.437210490676
 30
0.0
 11
6186.156422631887
 21
5765.437210490676
 31
0.0
  0
ARC
  5
36D1
330
18
100
AcDbEntity
  8
上線
100
AcDbCircle
 10
6851.865606565638
 20
4175.437210490676
 30
0.0
 40
50.0
100
AcDbArc
 50
270.0
 51
359.1815445383053
  0
LINE
  5
36D2
330
18
100
AcDbEntity
  8
点線
100
AcDbLine
 10
6556.870708346173
 20
4875.437210490677
 30
0.0
 11
6956.870708346173
 21
4875.437210490677
 31
0.0
  0
LINE
  5
36D3
330
18
100
AcDbEntity
  8
上線
100
AcDbLine
 10
7026.156422631887
 20
4925.437210490676
 30
0.0
 11
6486.156422631887
 21
4925.437210490676
 31
0.0
  0
LINE
  5
36D4
330
18
100
AcDbEntity
  8
OBJECT
100
AcDbLine
 10
7026.156422631887
 20
3625.437210490675
 30
0.0
 11
6486.156422631887
 21
3625.437210490676
 31
0.0
  0
LINE
  5
36D5
330
18
100
AcDbEntity
  8
OBJECT
100
AcDbLine
 10
5452.625817004636
 20
5562.625944765106
 30
0.0
 11
5452.625817004636
 21
5683.785938939259
 31
0.0
  0
LINE
  5
36D6
330
18
100
AcDbEntity
  8
OBJECT
100
AcDbLine
 10
5450.010100377387
 20
5562.625944765106
 30
0.0
 11
5450.010100377387
 21
5683.785938939259
 31
0.0
  0
LINE
  5
36D7
330
18
100
AcDbEntity
  8
OBJECT
100
AcDbLine
 10
5433.007920713095
 20
5562.625944765106
 30
0.0
 11
5433.007920713095
 21
5683.785938939259
 31
0.0
  0
LINE
  5
36D8
330
18
100
AcDbEntity
  8
OBJECT
100
AcDbLine
 10
5567.717478126638
 20
5562.625924806743
 30
0.0
 11
5567.717478126638
 21
5683.785918980897
 31
0.0
  0
LINE
  5
36D9
330
18
100
AcDbEntity
  8
OBJECT
100
AcDbLine
 10
5491.861609587719
 20
5562.625933649331
 30
0.0
 11
5491.861609587719
 21
5683.785927823483
 31
0.0
  0
LINE
  5
36DA
330
18
100
AcDbEntity
  8
OBJECT
100
AcDbLine
 10
5489.24589296047
 20
5562.625933649331
 30
0.0
 11
5489.24589296047
 21
5683.785927823483
 31
0.0
  0
LINE
  5
36DB
330
18
100
AcDbEntity
  8
OBJECT
100
AcDbLine
 10
5508.863789252012
 20
5562.625942491917
 30
0.0
 11
5508.863789252012
 21
5683.785936666069
 31
0.0
  0
LINE
  5
36DC
330
18
100
AcDbEntity
  8
OBJECT
100
AcDbLine
 10
5511.479505879261
 20
5562.625942491917
 30
0.0
 11
5511.479505879261
 21
5683.785936666069
 31
0.0
  0
LINE
  5
36DD
330
18
100
AcDbEntity
  8
OBJECT
100
AcDbLine
 10
5550.715298462344
 20
5562.625951334503
 30
0.0
 11
5550.715298462344
 21
5683.785945508658
 31
0.0
  0
LINE
  5
36DE
330
18
100
AcDbEntity
  8
OBJECT
100
AcDbLine
 10
5548.099581835096
 20
5562.625951334503
 30
0.0
 11
5548.099581835096
 21
5683.785945508658
 31
0.0
  0
LINE
  5
36DF
330
18
100
AcDbEntity
  8
OBJECT
100
AcDbLine
 10
5528.481685543553
 20
5562.625942491917
 30
0.0
 11
5528.481685543553
 21
5683.785936666069
 31
0.0
  0
LINE
  5
36E0
330
18
100
AcDbEntity
  8
OBJECT
100
AcDbLine
 10
5531.097402170802
 20
5562.625942491917
 30
0.0
 11
5531.097402170802
 21
5683.785936666069
 31
0.0
  0
LINE
  5
36E1
330
18
100
AcDbEntity
  8
OBJECT
100
AcDbLine
 10
5469.62799666893
 20
5562.625953607694
 30
0.0
 11
5469.62799666893
 21
5683.785947781847
 31
0.0
  0
LINE
  5
36E2
330
18
100
AcDbEntity
  8
OBJECT
100
AcDbLine
 10
5472.243713296178
 20
5562.625953607694
 30
0.0
 11
5472.243713296178
 21
5683.785947781847
 31
0.0
  0
LINE
  5
36E3
330
18
100
AcDbEntity
  8
OBJECT
100
AcDbLine
 10
5430.392204085846
 20
5562.625944765106
 30
0.0
 11
5430.392204085846
 21
5683.785938939259
 31
0.0
  0
LINE
  5
36E4
330
18
100
AcDbEntity
  8
OBJECT
100
AcDbLine
 10
5410.774307794304
 20
5562.625935922518
 30
0.0
 11
5410.774307794304
 21
5683.785930096674
 31
0.0
  0
LINE
  5
36E5
330
18
100
AcDbEntity
  8
OBJECT
100
AcDbLine
 10
5413.390024421552
 20
5562.625935922518
 30
0.0
 11
5413.390024421552
 21
5683.785930096674
 31
0.0
  0
LINE
  5
36E6
330
18
100
AcDbEntity
  8
OBJECT
100
AcDbLine
 10
5570.333194753885
 20
5562.625924806743
 30
0.0
 11
5570.333194753885
 21
5683.785918980897
 31
0.0
  0
LINE
  5
36E7
330
18
100
AcDbEntity
  8
OBJECT
100
AcDbLine
 10
5587.335374418177
 20
5562.625933649331
 30
0.0
 11
5587.335374418177
 21
5683.785927823483
 31
0.0
  0
LINE
  5
36E8
330
18
100
AcDbEntity
  8
OBJECT
100
AcDbLine
 10
5589.951091045428
 20
5562.625933649331
 30
0.0
 11
5589.951091045428
 21
5683.785927823483
 31
0.0
  0
LINE
  5
36E9
330
18
100
AcDbEntity
  8
OBJECT
100
AcDbLine
 10
5393.772139259135
 20
5683.785934392881
 30
0.0
 11
5393.772139259135
 21
5307.088482042093
 31
0.0
  0
LINE
  5
36EA
330
18
100
AcDbEntity
  8
OBJECT
100
AcDbLine
 10
5391.156422631887
 20
5690.437207109923
 30
0.0
 11
5391.156422631887
 21
5300.437213871432
 31
0.0
  0
LINE
  5
36EB
330
18
100
AcDbEntity
  8
OBJECT
100
AcDbLine
 10
5606.953270709722
 20
5562.625933649331
 30
0.0
 11
5606.953270709722
 21
5653.843514335007
 31
0.0
  0
LINE
  5
36F4
330
18
100
AcDbEntity
  8
点線
100
AcDbLine
 10
5186.156422631887
 20
5645.437210490676
 30
0.0
 11
5611.156422631887
 21
5645.437210490676
 31
0.0
  0
LINE
  5
36F5
330
18
100
AcDbEntity
  8
点線
100
AcDbLine
 10
5186.156422631887
 20
5345.437210490675
 30
0.0
 11
5761.156422631887
 21
5345.437210490675
 31
0.0
  0
LINE
  5
36F6
102
{ACAD_REACTORS
330
36C8
102
}
330
18
100
AcDbEntity
  8
OBJECT
100
AcDbLine
 10
5380.156422631888
 20
5289.437210490676
 30
0.0
 11
5992.156422631887
 21
5289.437210490676
 31
0.0
  0
LINE
  5
36F7
102
{ACAD_REACTORS
330
36C8
102
}
330
18
100
AcDbEntity
  8
OBJECT
100
AcDbLine
 10
5386.156422631887
 20
5295.437210490676
 30
0.0
 11
5986.156422631887
 21
5295.437210490676
 31
0.0
  0
LINE
  5
36F8
330
18
100
AcDbEntity
  8
OBJECT
100
AcDbLine
 10
5186.156422631887
 20
5225.437210490676
 30
0.0
 11
6186.156422631887
 21
5225.437210490676
 31
0.0
  0
LINE
  5
36F9
330
18
100
AcDbEntity
  8
OBJECT
100
AcDbLine
 10
5719.750787495913
 20
5428.248480762625
 30
0.0
 11
5393.772139259135
 21
5428.248480762625
 31
0.0
  0
LINE
  5
36FA
330
18
100
AcDbEntity
  8
OBJECT
100
AcDbLine
 10
5716.446423864633
 20
5434.857208025183
 30
0.0
 11
5393.772139259135
 21
5434.857208025183
 31
0.0
  0
LINE
  5
36FB
330
18
100
AcDbEntity
  8
OBJECT
100
AcDbLine
 10
5655.866424504367
 20
5556.017206745718
 30
0.0
 11
5393.772139259135
 21
5556.017206745718
 31
0.0
  0
LINE
  5
36FC
330
18
100
AcDbEntity
  8
OBJECT
100
AcDbLine
 10
5652.562057767861
 20
5562.625940218728
 30
0.0
 11
5393.772139259135
 21
5562.625940218728
 31
0.0
  0
LINE
  5
36FD
330
18
100
AcDbEntity
  8
OBJECT
100
AcDbLine
 10
5783.656420941509
 20
5300.43721387143
 30
0.0
 11
5391.156422631887
 21
5300.437213871432
 31
0.0
  0
LINE
  5
36FE
330
18
100
AcDbEntity
  8
OBJECT
100
AcDbLine
 10
5780.33078458299
 20
5307.088486588469
 30
0.0
 11
5393.772139259135
 21
5307.088486588471
 31
0.0
  0
LINE
  5
3705
330
18
100
AcDbEntity
  8
OBJECT
100
AcDbLine
 10
6486.156422631887
 20
3625.437210490676
 30
0.0
 11
6486.156422631887
 21
4925.437210490676
 31
0.0
  0
LINE
  5
3706
330
18
100
AcDbEntity
  8
点線
100
AcDbLine
 10
6606.870708346173
 20
4875.437210490677
 30
0.0
 11
6606.870708346171
 21
3625.437210490675
 31
0.0
  0
LINE
  5
3707
330
18
100
AcDbEntity
  8
点線
100
AcDbLine
 10
6905.442136917601
 20
4875.437210490677
 30
0.0
 11
6905.442136917601
 21
3625.437210490675
 31
0.0
  0
ARC
  5
370D
330
18
100
AcDbEntity
  8
上線
100
AcDbCircle
 10
6660.447238698136
 20
4175.437210490676
 30
0.0
 40
50.0
100
AcDbArc
 50
180.8184554616945
 51
270.0
  0
LINE
  5
3713
330
18
100
AcDbEntity
  8
上線
100
AcDbLine
 10
6851.865606565638
 20
4125.437210490676
 30
0.0
 11
6660.447238698136
 21
4125.437210490676
 31
0.0
  0
HATCH
  5
3716
330
18
100
AcDbEntity
  8
OBJECT
100
AcDbHatch
 10
0.0
 20
0.0
 30
0.0
210
0.0
220
0.0
230
1.0
  2
AR-SAND
 70
     0
 71
     0
 91
        1
 92
        1
 93
        4
 72
     1
 10
5786.156422631886
 20
5295.437210490676
 11
5986.156422631887
 21
5295.437210490676
 72
     1
 10
5986.156422631887
 20
5295.437210490676
 11
5986.156422631887
 21
5345.437210490675
 72
     1
 10
5986.156422631887
 20
5345.437210490675
 11
5761.156422631887
 21
5345.437210490675
 72
     1
 10
5761.156422631887
 20
5345.437210490675
 11
5786.156422631886
 21
5295.437210490676
 97
        0
 75
     0
 76
     1
 52
90.0
 41
1.0
 77
     0
 78
     4
 53
127.5
 43
10144.76317407182
 44
-672.596328107702
 45
-48.94132373293423
 46
-1.600031295984042
 79
     6
 49
0.0
 49
-38.608
 49
0.0
 49
-43.18
 49
0.0
 49
-41.275
 53
97.49999999999998
 43
10144.76317407182
 44
-672.596328107702
 45
-71.68251005683543
 46
44.95232831380027
 79
     6
 49
0.0
 49
-20.828
 49
0.0
 49
-34.79799999999999
 49
0.0
 49
-13.33499999999999
 53
57.49999999999997
 43
10144.76317407182
 44
-703.8383281077021
 45
-0.1437184678545643
 46
79.09923702414579
 79
     6
 49
0.0
 49
-12.69999999999999
 49
0.0
 49
-45.71999999999998
 49
0.0
 49
-59.68999999999998
 53
47.49999999999999
 43
10144.76317407182
 44
-703.8383281077021
 45
-22.29293232572162
 46
76.35564524722972
 79
     6
 49
0.0
 49
-6.349999999999999
 49
0.0
 49
-29.97199999999999
 49
0.0
 49
-34.29
 98
        1
 10
10144.76317407182
 20
-672.596328107702
  0
LINE
  5
3717
330
18
100
AcDbEntity
  8
OBJECT
100
AcDbLine
 10
5611.156422631887
 20
5645.437210490676
 30
0.0
 11
5986.156422631887
 21
5645.437210490676
 31
0.0
  0
LINE
  5
3718
330
18
100
AcDbEntity
  8
OBJECT
100
AcDbLine
 10
5761.156422631887
 20
5345.437210490675
 30
0.0
 11
5986.156422631887
 21
5345.437210490675
 31
0.0
  0
LINE
  5
3721
330
18
100
AcDbEntity
  8
上線
 48
10.0
100
AcDbLine
 10
6606.870708346173
 20
4825.437210490676
 30
0.0
 11
6905.442136917601
 21
4825.437210490676
 31
0.0
  0
LINE
  5
3722
330
18
100
AcDbEntity
  8
点線
100
AcDbLine
 10
6556.870708346173
 20
4875.437210490677
 30
0.0
 11
6556.870708346173
 21
4925.437210490676
 31
0.0
  0
LINE
  5
3727
330
18
100
AcDbEntity
  8
点線
100
AcDbLine
 10
5986.156422631887
 20
5645.437210490676
 30
0.0
 11
6186.156422631887
 21
5645.437210490676
 31
0.0
  0
LINE
  5
3728
330
18
100
AcDbEntity
  8
点線
100
AcDbLine
 10
5986.156422631887
 20
5345.437210490675
 30
0.0
 11
6186.156422631887
 21
5345.437210490675
 31
0.0
  0
LINE
  5
3729
330
18
100
AcDbEntity
  8
OBJECT
100
AcDbLine
 10
5986.156422631887
 20
5295.437210490676
 30
0.0
 11
5986.156422631887
 21
5345.437210490675
 31
0.0
  0
LINE
  5
372C
330
18
100
AcDbEntity
  8
OBJECT
100
AcDbLine
 10
5707.658468794677
 20
5434.857208025183
 30
0.0
 11
5707.658468794677
 21
5452.433118165094
 31
0.0
  0
LINE
  5
372D
330
18
100
AcDbEntity
  8
OBJECT
100
AcDbLine
 10
5705.042752167429
 20
5434.857208025183
 30
0.0
 11
5705.042752167429
 21
5457.664551419592
 31
0.0
  0
LINE
  5
372E
330
18
100
AcDbEntity
  8
OBJECT
100
AcDbLine
 10
5688.040572503137
 20
5434.857199182595
 30
0.0
 11
5688.040572503137
 21
5491.668910748177
 31
0.0
  0
LINE
  5
372F
330
18
100
AcDbEntity
  8
OBJECT
100
AcDbLine
 10
5685.424855875887
 20
5434.857199182595
 30
0.0
 11
5685.424855875887
 21
5496.900344002675
 31
0.0
  0
LINE
  5
3730
330
18
100
AcDbEntity
  8
OBJECT
100
AcDbLine
 10
5705.042752167429
 20
5428.248480762625
 30
0.0
 11
5705.042752167429
 21
5307.088486588471
 31
0.0
  0
LINE
  5
3731
330
18
100
AcDbEntity
  8
OBJECT
100
AcDbLine
 10
5685.424855875887
 20
5428.248489605212
 30
0.0
 11
5685.424855875887
 21
5307.08849543106
 31
0.0
  0
LINE
  5
3732
330
18
100
AcDbEntity
  8
OBJECT
100
AcDbLine
 10
5688.040572503137
 20
5428.248489605212
 30
0.0
 11
5688.040572503137
 21
5307.08849543106
 31
0.0
  0
LINE
  5
3733
330
18
100
AcDbEntity
  8
OBJECT
100
AcDbLine
 10
5707.658468794677
 20
5428.248480762625
 30
0.0
 11
5707.658468794677
 21
5307.088486588471
 31
0.0
  0
LINE
  5
3734
330
18
100
AcDbEntity
  8
OBJECT
100
AcDbLine
 10
5727.276365086218
 20
5413.197325582012
 30
0.0
 11
5727.276365086218
 21
5307.088502000455
 31
0.0
  0
LINE
  5
3735
330
18
100
AcDbEntity
  8
OBJECT
100
AcDbLine
 10
5724.660648458971
 20
5418.428758836508
 30
0.0
 11
5724.660648458971
 21
5307.088502000455
 31
0.0
  0
LINE
  5
3736
330
18
100
AcDbEntity
  8
OBJECT
100
AcDbLine
 10
5766.512157669303
 20
5334.725740415844
 30
0.0
 11
5766.512157669303
 21
5307.08849315787
 31
0.0
  0
LINE
  5
3737
330
18
100
AcDbEntity
  8
OBJECT
100
AcDbLine
 10
5763.896441042053
 20
5339.957173670342
 30
0.0
 11
5763.896441042053
 21
5307.08849315787
 31
0.0
  0
LINE
  5
3738
330
18
100
AcDbEntity
  8
OBJECT
100
AcDbLine
 10
5746.894261377761
 20
5373.961532998928
 30
0.0
 11
5746.894261377761
 21
5307.08849315787
 31
0.0
  0
LINE
  5
3739
330
18
100
AcDbEntity
  8
OBJECT
100
AcDbLine
 10
5744.278544750513
 20
5379.192966253424
 30
0.0
 11
5744.278544750513
 21
5307.08849315787
 31
0.0
  0
LINE
  5
373A
330
18
100
AcDbEntity
  8
OBJECT
100
AcDbLine
 10
5548.099581835096
 20
5434.85721914096
 30
0.0
 11
5548.099581835096
 21
5556.017213315113
 31
0.0
  0
LINE
  5
373B
330
18
100
AcDbEntity
  8
OBJECT
100
AcDbLine
 10
5550.715298462344
 20
5434.85721914096
 30
0.0
 11
5550.715298462344
 21
5556.017213315113
 31
0.0
  0
LINE
  5
373C
330
18
100
AcDbEntity
  8
OBJECT
100
AcDbLine
 10
5567.717478126638
 20
5434.8571926132
 30
0.0
 11
5567.717478126638
 21
5556.017186787354
 31
0.0
  0
LINE
  5
373D
330
18
100
AcDbEntity
  8
OBJECT
100
AcDbLine
 10
5570.333194753885
 20
5434.8571926132
 30
0.0
 11
5570.333194753885
 21
5556.017186787354
 31
0.0
  0
LINE
  5
373E
330
18
100
AcDbEntity
  8
OBJECT
100
AcDbLine
 10
5609.568987336969
 20
5434.857201455787
 30
0.0
 11
5609.568987336969
 21
5556.017195629938
 31
0.0
  0
LINE
  5
373F
330
18
100
AcDbEntity
  8
OBJECT
100
AcDbLine
 10
5606.953270709722
 20
5434.857201455787
 30
0.0
 11
5606.953270709722
 21
5556.017195629938
 31
0.0
  0
LINE
  5
3740
330
18
100
AcDbEntity
  8
OBJECT
100
AcDbLine
 10
5626.571167001261
 20
5434.857210298372
 30
0.0
 11
5626.571167001261
 21
5556.017204472526
 31
0.0
  0
LINE
  5
3741
330
18
100
AcDbEntity
  8
OBJECT
100
AcDbLine
 10
5629.186883628511
 20
5434.857210298372
 30
0.0
 11
5629.186883628511
 21
5556.017204472526
 31
0.0
  0
LINE
  5
3742
330
18
100
AcDbEntity
  8
OBJECT
100
AcDbLine
 10
5589.951091045428
 20
5434.857201455787
 30
0.0
 11
5589.951091045428
 21
5556.017195629938
 31
0.0
  0
LINE
  5
3743
330
18
100
AcDbEntity
  8
OBJECT
100
AcDbLine
 10
5587.335374418177
 20
5434.857201455787
 30
0.0
 11
5587.335374418177
 21
5556.017195629938
 31
0.0
  0
LINE
  5
3744
330
18
100
AcDbEntity
  8
OBJECT
100
AcDbLine
 10
5648.804779920053
 20
5434.85719034001
 30
0.0
 11
5648.804779920053
 21
5556.017184514163
 31
0.0
  0
LINE
  5
3745
330
18
100
AcDbEntity
  8
OBJECT
100
AcDbLine
 10
5646.189063292803
 20
5434.85719034001
 30
0.0
 11
5646.189063292803
 21
5556.017184514163
 31
0.0
  0
LINE
  5
3746
330
18
100
AcDbEntity
  8
OBJECT
100
AcDbLine
 10
5668.422676211594
 20
5434.857199182595
 30
0.0
 11
5668.422676211594
 21
5530.90470333126
 31
0.0
  0
LINE
  5
3747
330
18
100
AcDbEntity
  8
OBJECT
100
AcDbLine
 10
5665.806959584346
 20
5434.857199182595
 30
0.0
 11
5665.806959584346
 21
5536.136136585759
 31
0.0
  0
LINE
  5
3748
330
18
100
AcDbEntity
  8
OBJECT
100
AcDbLine
 10
5548.099581835096
 20
5428.248469646849
 30
0.0
 11
5548.099581835096
 21
5307.088475472694
 31
0.0
  0
LINE
  5
3749
330
18
100
AcDbEntity
  8
OBJECT
100
AcDbLine
 10
5550.715298462344
 20
5428.248469646849
 30
0.0
 11
5550.715298462344
 21
5307.088475472694
 31
0.0
  0
LINE
  5
374A
330
18
100
AcDbEntity
  8
OBJECT
100
AcDbLine
 10
5567.717478126638
 20
5428.248496174608
 30
0.0
 11
5567.717478126638
 21
5307.088502000455
 31
0.0
  0
LINE
  5
374B
330
18
100
AcDbEntity
  8
OBJECT
100
AcDbLine
 10
5570.333194753885
 20
5428.248496174608
 30
0.0
 11
5570.333194753885
 21
5307.088502000455
 31
0.0
  0
LINE
  5
374C
330
18
100
AcDbEntity
  8
OBJECT
100
AcDbLine
 10
5609.568987336969
 20
5428.248487332023
 30
0.0
 11
5609.568987336969
 21
5307.08849315787
 31
0.0
  0
LINE
  5
374D
330
18
100
AcDbEntity
  8
OBJECT
100
AcDbLine
 10
5606.953270709722
 20
5428.248487332023
 30
0.0
 11
5606.953270709722
 21
5307.08849315787
 31
0.0
  0
LINE
  5
374E
330
18
100
AcDbEntity
  8
OBJECT
100
AcDbLine
 10
5626.571167001261
 20
5428.248478489435
 30
0.0
 11
5626.571167001261
 21
5307.088484315284
 31
0.0
  0
LINE
  5
374F
330
18
100
AcDbEntity
  8
OBJECT
100
AcDbLine
 10
5629.186883628511
 20
5428.248478489435
 30
0.0
 11
5629.186883628511
 21
5307.088484315284
 31
0.0
  0
LINE
  5
3750
330
18
100
AcDbEntity
  8
OBJECT
100
AcDbLine
 10
5665.806959584346
 20
5428.248489605212
 30
0.0
 11
5665.806959584346
 21
5307.08849543106
 31
0.0
  0
LINE
  5
3751
330
18
100
AcDbEntity
  8
OBJECT
100
AcDbLine
 10
5668.422676211594
 20
5428.248489605212
 30
0.0
 11
5668.422676211594
 21
5307.08849543106
 31
0.0
  0
LINE
  5
3752
330
18
100
AcDbEntity
  8
OBJECT
100
AcDbLine
 10
5648.804779920053
 20
5428.248498447798
 30
0.0
 11
5648.804779920053
 21
5307.088504273645
 31
0.0
  0
LINE
  5
3753
330
18
100
AcDbEntity
  8
OBJECT
100
AcDbLine
 10
5646.189063292803
 20
5428.248498447798
 30
0.0
 11
5646.189063292803
 21
5307.088504273645
 31
0.0
  0
LINE
  5
3754
330
18
100
AcDbEntity
  8
OBJECT
100
AcDbLine
 10
5589.951091045428
 20
5428.248487332023
 30
0.0
 11
5589.951091045428
 21
5307.08849315787
 31
0.0
  0
LINE
  5
3755
330
18
100
AcDbEntity
  8
OBJECT
100
AcDbLine
 10
5587.335374418177
 20
5428.248487332023
 30
0.0
 11
5587.335374418177
 21
5307.08849315787
 31
0.0
  0
LINE
  5
3756
330
18
100
AcDbEntity
  8
OBJECT
100
AcDbLine
 10
5648.804779920053
 20
5562.625922533555
 30
0.0
 11
5648.804779920053
 21
5570.140495914344
 31
0.0
  0
LINE
  5
3757
330
18
100
AcDbEntity
  8
OBJECT
100
AcDbLine
 10
5646.189063292803
 20
5562.625922533555
 30
0.0
 11
5646.189063292803
 21
5575.371929168841
 31
0.0
  0
LINE
  5
3758
330
18
100
AcDbEntity
  8
OBJECT
100
AcDbLine
 10
5609.568987336969
 20
5562.625933649331
 30
0.0
 11
5609.568987336969
 21
5648.612081080512
 31
0.0
  0
LINE
  5
3759
330
18
100
AcDbEntity
  8
OBJECT
100
AcDbLine
 10
5629.186883628511
 20
5562.625942491917
 30
0.0
 11
5629.186883628511
 21
5609.376288497427
 31
0.0
  0
LINE
  5
375A
330
18
100
AcDbEntity
  8
OBJECT
100
AcDbLine
 10
5626.571167001261
 20
5562.625942491917
 30
0.0
 11
5626.571167001261
 21
5614.607721751925
 31
0.0
  0
LINE
  5
375B
330
18
100
AcDbEntity
  8
OBJECT
100
AcDbLine
 10
5413.390024421552
 20
5434.857203728976
 30
0.0
 11
5413.390024421552
 21
5556.01719790313
 31
0.0
  0
LINE
  5
375C
330
18
100
AcDbEntity
  8
OBJECT
100
AcDbLine
 10
5430.392204085846
 20
5434.857212571562
 30
0.0
 11
5430.392204085846
 21
5556.017206745718
 31
0.0
  0
LINE
  5
375D
330
18
100
AcDbEntity
  8
OBJECT
100
AcDbLine
 10
5433.007920713095
 20
5434.857212571562
 30
0.0
 11
5433.007920713095
 21
5556.017206745718
 31
0.0
  0
LINE
  5
375E
330
18
100
AcDbEntity
  8
OBJECT
100
AcDbLine
 10
5472.243713296178
 20
5434.85722141415
 30
0.0
 11
5472.243713296178
 21
5556.017215588303
 31
0.0
  0
LINE
  5
375F
330
18
100
AcDbEntity
  8
OBJECT
100
AcDbLine
 10
5469.62799666893
 20
5434.85722141415
 30
0.0
 11
5469.62799666893
 21
5556.017215588303
 31
0.0
  0
LINE
  5
3760
330
18
100
AcDbEntity
  8
OBJECT
100
AcDbLine
 10
5450.010100377387
 20
5434.857212571562
 30
0.0
 11
5450.010100377387
 21
5556.017206745718
 31
0.0
  0
LINE
  5
3761
330
18
100
AcDbEntity
  8
OBJECT
100
AcDbLine
 10
5452.625817004636
 20
5434.857212571562
 30
0.0
 11
5452.625817004636
 21
5556.017206745718
 31
0.0
  0
LINE
  5
3762
330
18
100
AcDbEntity
  8
OBJECT
100
AcDbLine
 10
5531.097402170802
 20
5434.857210298372
 30
0.0
 11
5531.097402170802
 21
5556.017204472526
 31
0.0
  0
LINE
  5
3763
330
18
100
AcDbEntity
  8
OBJECT
100
AcDbLine
 10
5528.481685543553
 20
5434.857210298372
 30
0.0
 11
5528.481685543553
 21
5556.017204472526
 31
0.0
  0
LINE
  5
3764
330
18
100
AcDbEntity
  8
OBJECT
100
AcDbLine
 10
5511.479505879261
 20
5434.857210298372
 30
0.0
 11
5511.479505879261
 21
5556.017204472526
 31
0.0
  0
LINE
  5
3765
330
18
100
AcDbEntity
  8
OBJECT
100
AcDbLine
 10
5508.863789252012
 20
5434.857210298372
 30
0.0
 11
5508.863789252012
 21
5556.017204472526
 31
0.0
  0
LINE
  5
3766
330
18
100
AcDbEntity
  8
OBJECT
100
AcDbLine
 10
5489.24589296047
 20
5434.857201455787
 30
0.0
 11
5489.24589296047
 21
5556.017195629938
 31
0.0
  0
LINE
  5
3767
330
18
100
AcDbEntity
  8
OBJECT
100
AcDbLine
 10
5491.861609587719
 20
5434.857201455787
 30
0.0
 11
5491.861609587719
 21
5556.017195629938
 31
0.0
  0
LINE
  5
3768
330
18
100
AcDbEntity
  8
OBJECT
100
AcDbLine
 10
5413.390024421552
 20
5428.248485058833
 30
0.0
 11
5413.390024421552
 21
5307.088490884678
 31
0.0
  0
LINE
  5
3769
330
18
100
AcDbEntity
  8
OBJECT
100
AcDbLine
 10
5430.392204085846
 20
5428.248476216246
 30
0.0
 11
5430.392204085846
 21
5307.088482042093
 31
0.0
  0
LINE
  5
376A
330
18
100
AcDbEntity
  8
OBJECT
100
AcDbLine
 10
5472.243713296178
 20
5428.248467373658
 30
0.0
 11
5472.243713296178
 21
5307.088473199505
 31
0.0
  0
LINE
  5
376B
330
18
100
AcDbEntity
  8
OBJECT
100
AcDbLine
 10
5469.62799666893
 20
5428.248467373658
 30
0.0
 11
5469.62799666893
 21
5307.088473199505
 31
0.0
  0
LINE
  5
376C
330
18
100
AcDbEntity
  8
OBJECT
100
AcDbLine
 10
5531.097402170802
 20
5428.248478489435
 30
0.0
 11
5531.097402170802
 21
5307.088484315284
 31
0.0
  0
LINE
  5
376D
330
18
100
AcDbEntity
  8
OBJECT
100
AcDbLine
 10
5528.481685543553
 20
5428.248478489435
 30
0.0
 11
5528.481685543553
 21
5307.088484315284
 31
0.0
  0
LINE
  5
376E
330
18
100
AcDbEntity
  8
OBJECT
100
AcDbLine
 10
5511.479505879261
 20
5428.248478489435
 30
0.0
 11
5511.479505879261
 21
5307.088484315284
 31
0.0
  0
LINE
  5
376F
330
18
100
AcDbEntity
  8
OBJECT
100
AcDbLine
 10
5508.863789252012
 20
5428.248478489435
 30
0.0
 11
5508.863789252012
 21
5307.088484315284
 31
0.0
  0
LINE
  5
3770
330
18
100
AcDbEntity
  8
OBJECT
100
AcDbLine
 10
5489.24589296047
 20
5428.248487332023
 30
0.0
 11
5489.24589296047
 21
5307.08849315787
 31
0.0
  0
LINE
  5
3771
330
18
100
AcDbEntity
  8
OBJECT
100
AcDbLine
 10
5491.861609587719
 20
5428.248487332023
 30
0.0
 11
5491.861609587719
 21
5307.08849315787
 31
0.0
  0
LINE
  5
3772
330
18
100
AcDbEntity
  8
OBJECT
100
AcDbLine
 10
5433.007920713095
 20
5428.248476216246
 30
0.0
 11
5433.007920713095
 21
5307.088482042093
 31
0.0
  0
LINE
  5
3773
330
18
100
AcDbEntity
  8
OBJECT
100
AcDbLine
 10
5450.010100377387
 20
5428.248476216246
 30
0.0
 11
5450.010100377387
 21
5307.088482042093
 31
0.0
  0
LINE
  5
3774
330
18
100
AcDbEntity
  8
OBJECT
100
AcDbLine
 10
5452.625817004636
 20
5428.248476216246
 30
0.0
 11
5452.625817004636
 21
5307.088482042093
 31
0.0
  0
LINE
  5
377E
330
18
100
AcDbEntity
  8
OBJECT
100
AcDbLine
 10
5410.774307794304
 20
5434.857203728976
 30
0.0
 11
5410.774307794304
 21
5556.01719790313
 31
0.0
  0
LINE
  5
377F
330
18
100
AcDbEntity
  8
OBJECT
100
AcDbLine
 10
5410.774307794304
 20
5428.248485058833
 30
0.0
 11
5410.774307794304
 21
5307.088490884678
 31
0.0
  0
LINE
  5
3788
102
{ACAD_REACTORS
330
36C8
102
}
330
18
100
AcDbEntity
  8
OBJECT
100
AcDbLine
 10
5380.156422631888
 20
5701.437210490676
 30
0.0
 11
5992.156422631887
 21
5701.437210490676
 31
0.0
  0
LINE
  5
3789
102
{ACAD_REACTORS
330
36C8
102
}
330
18
100
AcDbEntity
  8
OBJECT
100
AcDbLine
 10
5386.156422631887
 20
5695.437210490676
 30
0.0
 11
5986.156422631887
 21
5695.437210490676
 31
0.0
  0
LINE
  5
378A
330
18
100
AcDbEntity
  8
OBJECT
100
AcDbLine
 10
6186.156422631887
 20
5765.437210490676
 30
0.0
 11
5186.156422631887
 21
5765.437210490676
 31
0.0
  0
LINE
  5
378B
330
18
100
AcDbEntity
  8
OBJECT
100
AcDbLine
 10
5591.982060680783
 20
5683.785934392883
 30
0.0
 11
5393.772139259135
 21
5683.785934392881
 31
0.0
  0
LINE
  5
378C
330
18
100
AcDbEntity
  8
OBJECT
100
AcDbLine
 10
5588.656424322262
 20
5690.437207109923
 30
0.0
 11
5391.156422631887
 21
5690.437207109923
 31
0.0
  0
LINE
  5
378D
330
18
100
AcDbEntity
  8
OBJECT
100
AcDbLine
 10
6186.156422631887
 20
3625.437210490675
 30
0.0
 11
6186.156422631887
 21
4925.437210490676
 31
0.0
  0
LINE
  5
378E
330
18
100
AcDbEntity
  8
点線
100
AcDbLine
 10
5986.156422631887
 20
4875.437210490677
 30
0.0
 11
5986.156422631887
 21
3625.437210490675
 31
0.0
  0
LINE
  5
378F
330
18
100
AcDbEntity
  8
OBJECT
100
AcDbLine
 10
7026.156422631887
 20
4925.437210490676
 30
0.0
 11
7026.156422631887
 21
3625.437210490675
 31
0.0
  0
LINE
  5
3790
330
18
100
AcDbEntity
  8
OBJECT
100
AcDbLine
 10
5186.156422631887
 20
4925.437210490676
 30
0.0
 11
5186.156422631887
 21
3625.437210490675
 31
0.0
  0
LINE
  5
3791
330
18
100
AcDbEntity
  8
点線
100
AcDbLine
 10
5386.156422631887
 20
4875.437210490677
 30
0.0
 11
5386.156422631887
 21
3625.437210490675
 31
0.0
  0
LINE
  5
3792
330
18
100
AcDbEntity
  8
OBJECT
100
AcDbLine
 10
5186.156422631887
 20
3625.437210490675
 30
0.0
 11
6186.156422631887
 21
3625.437210490675
 31
0.0
  0
LINE
  5
3793
330
18
100
AcDbEntity
  8
点線
100
AcDbLine
 10
5386.156422631887
 20
4125.437210490674
 30
0.0
 11
5186.156422631887
 21
4125.437210490674
 31
0.0
  0
LINE
  5
3794
330
18
100
AcDbEntity
  8
点線
100
AcDbLine
 10
5986.156422631887
 20
4125.437210490674
 30
0.0
 11
6186.156422631887
 21
4125.437210490674
 31
0.0
  0
LINE
  5
3797
330
18
100
AcDbEntity
  8
OBJECT
100
AcDbLine
 10
5186.156422631887
 20
4925.437210490676
 30
0.0
 11
6186.156422631887
 21
4925.437210490676
 31
0.0
  0
LINE
  5
3798
330
18
100
AcDbEntity
  8
点線
100
AcDbLine
 10
5386.156422631887
 20
4875.437210490677
 30
0.0
 11
5986.156422631887
 21
4875.437210490677
 31
0.0
  0
LINE
  5
379D
330
18
100
AcDbEntity
  8
点線
100
AcDbLine
 10
5386.156422631887
 20
4825.437210490674
 30
0.0
 11
5186.156422631887
 21
4825.437210490674
 31
0.0
  0
LINE
  5
379E
330
18
100
AcDbEntity
  8
点線
100
AcDbLine
 10
6956.870708346173
 20
4875.437210490677
 30
0.0
 11
6956.870708346173
 21
4925.437210490676
 31
0.0
  0
LINE
  5
379F
330
18
100
AcDbEntity
  8
点線
100
AcDbLine
 10
5386.156422631887
 20
4925.437210490676
 30
0.0
 11
5386.156422631887
 21
4875.437210490677
 31
0.0
  0
LINE
  5
37A7
330
18
100
AcDbEntity
  8
点線
100
AcDbLine
 10
5986.156422631887
 20
4825.437210490674
 30
0.0
 11
6186.156422631887
 21
4825.437210490674
 31
0.0
  0
LINE
  5
37A8
330
18
100
AcDbEntity
  8
点線
100
AcDbLine
 10
5986.156422631887
 20
4875.437210490677
 30
0.0
 11
5986.156422631887
 21
4925.437210490676
 31
0.0
  0
MTEXT
  5
3908
330
18
100
AcDbEntity
  8
上線
100
AcDbMText
 10
7881.12239546261
 20
5741.097143626172
 30
0.0
 40
49.968
 41
247.7879999999999
 71
     1
 72
     5
  1
350
 73
     1
 44
1.0
  0
MTEXT
  5
3909
330
18
100
AcDbEntity
  8
上線
100
AcDbMText
 10
7879.247947629107
 20
5545.346428162273
 30
0.0
 40
49.968
 41
247.7879999999999
 71
     1
 72
     5
  1
450
 73
     1
 44
1.0
  0
MTEXT
  5
3912
330
18
100
AcDbEntity
  8
上線
100
AcDbMText
 10
8119.856783511187
 20
5740.857143967465
 30
0.0
 40
49.968
 41
279.7559999999999
 71
     1
 72
     5
  1
1150
 73
     1
 44
1.0
  0
MTEXT
  5
3913
330
18
100
AcDbEntity
  8
上線
100
AcDbMText
 10
8119.856783511187
 20
5545.02642861733
 30
0.0
 40
49.968
 41
279.7559999999999
 71
     1
 72
     5
  1
1250
 73
     1
 44
1.0
  0
MTEXT
  5
3914
330
18
100
AcDbEntity
  8
上線
100
AcDbMText
 10
8426.276067226771
 20
5741.097143626172
 30
0.0
 40
49.968
 41
247.7879999999999
 71
     1
 72
     5
  1
817
 73
     1
 44
1.0
  0
MTEXT
  5
3915
330
18
100
AcDbEntity
  8
上線
100
AcDbMText
 10
8424.401619393268
 20
5545.346428162273
 30
0.0
 40
49.968
 41
247.7879999999999
 71
     1
 72
     5
  1
907
 73
     1
 44
1.0
  0
LINE
  5
3931
330
18
100
AcDbEntity
  8
OBJECT
100
AcDbLine
 10
6606.870708346173
 20
4825.437210490676
 30
0.0
 11
6610.452339958159
 21
4174.722997651528
 31
0.0
  0
LINE
  5
3932
330
18
100
AcDbEntity
  8
OBJECT
100
AcDbLine
 10
6905.442136917601
 20
4825.437210490676
 30
0.0
 11
6901.860505305615
 21
4174.722997651528
 31
0.0
  0
LINE
  5
3A7C
330
18
100
AcDbEntity
  8
OBJECT
 48
10.0
100
AcDbLine
 10
7026.156448454381
 20
5105.437201727259
 30
0.0
 11
7138.656448454381
 21
5105.437201727257
 31
0.0
  0
LINE
  5
3A7D
330
18
100
AcDbEntity
  8
WUWAGAKI
100
AcDbLine
 10
8755.041576165037
 20
6369.719828752412
 30
0.0
 11
4484.322657538118
 21
6369.719828752412
 31
0.0
  0
LINE
  5
3A7E
330
18
100
AcDbEntity
  8
WUWAGAKI
100
AcDbLine
 10
4484.322657538118
 20
3443.569976956288
 30
0.0
 11
8755.041576165037
 21
3443.569976956288
 31
0.0
  0
LINE
  5
3A7F
330
18
100
AcDbEntity
  8
0
 48
10.0
100
AcDbLine
 10
7026.156448454402
 20
4955.437210490679
 30
0.0
 11
7026.156448454402
 21
5285.43721049068
 31
0.0
  0
LINE
  5
3A80
330
18
100
AcDbEntity
  8
0
 48
10.0
100
AcDbLine
 10
6486.156448454359
 20
4955.437210490676
 30
0.0
 11
6486.156448454359
 21
5285.437210490676
 31
0.0
  0
LINE
  5
3A81
330
18
100
AcDbEntity
  8
WUWAGAKI
100
AcDbLine
 10
4484.322657538118
 20
6369.719828752412
 30
0.0
 11
4484.322657538118
 21
3443.569976956288
 31
0.0
  0
MTEXT
  5
3A82
330
18
100
AcDbEntity
  8
0
  6
ByBlock
 62
     0
 48
10.0
100
AcDbMText
 10
6931.156448454402
 20
5165.437201727259
 30
0.0
 40
37.5
 41
0.0
 71
     5
 72
     1
  1
50
 73
     1
 44
1.0
  0
LINE
  5
3A86
330
18
100
AcDbEntity
  8
OBJECT
 48
10.0
100
AcDbLine
 10
4856.156431395309
 20
4925.437210490676
 30
0.0
 11
4856.156431395305
 21
3625.437210490675
 31
0.0
  0
LINE
  5
3A87
330
18
100
AcDbEntity
  8
OBJECT
 48
10.0
100
AcDbLine
 10
5006.156433371837
 20
3625.437210490675
 30
0.0
 11
5006.156433371837
 21
4925.437210490676
 31
0.0
  0
LINE
  5
3A8A
330
18
100
AcDbEntity
  8
0
 48
10.0
100
AcDbLine
 10
5156.156422631887
 20
3625.437210490675
 30
0.0
 11
4826.156422631886
 21
3625.437210490675
 31
0.0
  0
SOLID
  5
3A8B
330
18
100
AcDbEntity
  8
0
  6
ByBlock
 62
     0
 48
10.0
100
AcDbTrace
 10
4862.406422631886
 20
3662.937210490697
 30
0.0
 11
4849.906422631884
 21
3662.937210490697
 31
0.0
 12
4856.156422631884
 22
3625.437210490697
 32
0.0
 13
4856.156422631884
 23
3625.437210490697
 33
0.0
  0
SOLID
  5
3A8C
330
18
100
AcDbEntity
  8
0
  6
ByBlock
 62
     0
 48
10.0
100
AcDbTrace
 10
5012.406433371834
 20
3662.937222349829
 30
0.0
 11
4999.906433371834
 21
3662.937222349829
 31
0.0
 12
5006.156433371835
 22
3625.437222349829
 32
0.0
 13
5006.156433371835
 23
3625.437222349829
 33
0.0
  0
MTEXT
  5
3A8D
330
18
100
AcDbEntity
  8
0
  6
ByBlock
 62
     0
 48
10.0
100
AcDbMText
 10
4976.156431395306
 20
3875.437210490676
 30
0.0
 40
37.5
 41
0.0
 71
     5
 72
     1
  1
h1
 11
0.0000000000000001
 21
1.0
 31
0.0
 73
     1
 44
1.0
  0
LINE
  5
3A8E
330
18
100
AcDbEntity
  8
0
 48
10.0
100
AcDbLine
 10
5156.156422631887
 20
4825.437210490676
 30
0.0
 11
4976.156422631887
 21
4825.437210490676
 31
0.0
  0
LINE
  5
3A8F
330
18
100
AcDbEntity
  8
0
 48
10.0
100
AcDbLine
 10
5156.156422631887
 20
4125.437210490676
 30
0.0
 11
4976.156422631887
 21
4125.437210490676
 31
0.0
  0
LINE
  5
3A90
330
18
100
AcDbEntity
  8
0
 48
10.0
100
AcDbLine
 10
5156.156422631887
 20
4925.437210490676
 30
0.0
 11
4826.156422631886
 21
4925.437210490676
 31
0.0
  0
MTEXT
  5
3A91
330
18
100
AcDbEntity
  8
0
  6
ByBlock
 62
     0
 48
10.0
100
AcDbMText
 10
4826.156422631886
 20
4275.437210490674
 30
0.0
 40
37.5
 41
0.0
 71
     5
 72
     1
  1
H
 11
0.0000000000000001
 21
1.0
 31
0.0
 73
     1
 44
1.0
  0
SOLID
  5
3A92
330
18
100
AcDbEntity
  8
0
  6
ByBlock
 62
     0
 48
10.0
100
AcDbTrace
 10
5012.40642263189
 20
4162.937210490676
 30
0.0
 11
4999.90642263189
 21
4162.937210490676
 31
0.0
 12
5006.156422631888
 22
4125.437210490676
 32
0.0
 13
5006.156422631888
 23
4125.437210490676
 33
0.0
  0
SOLID
  5
3A93
330
18
100
AcDbEntity
  8
0
  6
ByBlock
 62
     0
 48
10.0
100
AcDbTrace
 10
5012.40642263189
 20
4087.937210490676
 30
0.0
 11
4999.90642263189
 21
4087.937210490676
 31
0.0
 12
5006.156422631888
 22
4125.437210490676
 32
0.0
 13
5006.156422631888
 23
4125.437210490676
 33
0.0
  0
MTEXT
  5
3A94
330
18
100
AcDbEntity
  8
0
  6
ByBlock
 62
     0
 48
10.0
100
AcDbMText
 10
4976.156422631886
 20
4475.437210490676
 30
0.0
 40
37.5
 41
0.0
 71
     5
 72
     1
  1
700
 11
0.0000000000000001
 21
1.0
 31
0.0
 73
     1
 44
1.0
  0
SOLID
  5
3A95
330
18
100
AcDbEntity
  8
0
  6
ByBlock
 62
     0
 48
10.0
100
AcDbTrace
 10
5012.406433371834
 20
4887.937198631522
 30
0.0
 11
4999.906433371834
 21
4887.937198631522
 31
0.0
 12
5006.156433371835
 22
4925.437198631522
 32
0.0
 13
5006.156433371835
 23
4925.437198631522
 33
0.0
  0
SOLID
  5
3A96
330
18
100
AcDbEntity
  8
0
  6
ByBlock
 62
     0
 48
10.0
100
AcDbTrace
 10
4862.406422631886
 20
4887.937210490655
 30
0.0
 11
4849.906422631884
 21
4887.937210490655
 31
0.0
 12
4856.156422631884
 22
4925.437210490654
 32
0.0
 13
4856.156422631884
 23
4925.437210490654
 33
0.0
  0
SOLID
  5
3A97
330
18
100
AcDbEntity
  8
0
  6
ByBlock
 62
     0
 48
10.0
100
AcDbTrace
 10
5012.40642263189
 20
4787.937274930371
 30
0.0
 11
4999.90642263189
 21
4787.937274930371
 31
0.0
 12
5006.156422631888
 22
4825.437274930371
 32
0.0
 13
5006.156422631888
 23
4825.437274930371
 33
0.0
  0
SOLID
  5
3A98
330
18
100
AcDbEntity
  8
0
  6
ByBlock
 62
     0
 48
10.0
100
AcDbTrace
 10
5012.40642263189
 20
4862.937210490679
 30
0.0
 11
4999.90642263189
 21
4862.937210490679
 31
0.0
 12
5006.156422631888
 22
4825.437210490679
 32
0.0
 13
5006.156422631888
 23
4825.437210490679
 33
0.0
  0
MTEXT
  5
3A99
330
18
100
AcDbEntity
  8
0
  6
ByBlock
 62
     0
 48
10.0
100
AcDbMText
 10
4976.156431395306
 20
4875.437210490677
 30
0.0
 40
37.5
 41
0.0
 71
     5
 72
     1
  1
100
 11
0.0000000000000001
 21
1.0
 31
0.0
 73
     1
 44
1.0
  0
LINE
  5
3AA7
330
18
100
AcDbEntity
  8
0
 48
10.0
100
AcDbLine
 10
6901.156448454402
 20
4605.437200395485
 30
0.0
 11
6901.156448454402
 21
4785.437200395485
 31
0.0
  0
LINE
  5
3AA8
330
18
100
AcDbEntity
  8
0
 48
10.0
100
AcDbLine
 10
6611.156448454359
 20
4605.437200395485
 30
0.0
 11
6611.156448454359
 21
4785.437200395485
 31
0.0
  0
MTEXT
  5
3AAB
330
18
100
AcDbEntity
  8
0
  6
ByBlock
 62
     0
 48
10.0
100
AcDbMText
 10
6769.061786689232
 20
4237.422889159164
 30
0.0
 40
30.0
 41
0.0
 71
     5
 72
     1
  1
50R
 73
     1
 44
1.0
  0
LINE
  5
3AAC
330
18
100
AcDbEntity
  8
OBJECT
 48
10.0
100
AcDbLine
 10
6716.561786689232
 20
4207.422889159164
 30
0.0
 11
6821.561786689231
 21
4207.422889159164
 31
0.0
  0
LINE
  5
3AAE
330
18
100
AcDbEntity
  8
WUWAGAKI
 48
10.0
100
AcDbLine
 10
6640.410051900551
 20
4150.993424223567
 30
0.0
 11
6716.561786689232
 21
4207.422889159164
 31
0.0
210
0.0
220
0.0
230
-1.0
1001
ACAD
1000
DSTYLE
1002
{
1070
    78
1070
     8
1070
   270
1070
     8
1070
   140
1040
2.5
1070
    74
1070
     0
1070
   172
1070
     1
1070
    73
1070
     0
1070
    77
1070
     1
1070
    40
1040
10.0
1070
   147
1040
0.625
1070
    42
1040
0.625
1070
    44
1040
1.25
1070
    43
1040
3.75
1070
   141
1040
2.5
1070
    41
1040
2.5
1070
   273
1070
     8
1070
   274
1070
     4
1070
   143
1040
0.0394
1070
   171
1070
     4
1002
}
  0
SOLID
  5
3AAF
330
18
100
AcDbEntity
  8
0
  6
ByBlock
 62
     0
 48
10.0
100
AcDbTrace
 10
6651.891309237763
 20
4167.044643411375
 30
0.0
 11
6659.282679237043
 21
4156.964085414234
 31
0.0
 12
6625.345320245987
 22
4139.83025441495
 32
0.0
 13
6625.345320245987
 23
4139.83025441495
 33
0.0
  0
LINE
  5
3AB2
330
18
100
AcDbEntity
  8
OBJECT
 48
10.0
100
AcDbLine
 10
6611.156448454359
 20
4755.437201727258
 30
0.0
 11
6901.156448454402
 21
4755.43720172726
 31
0.0
  0
LINE
  5
3AB3
330
18
100
AcDbEntity
  8
OBJECT
 48
10.0
100
AcDbLine
 10
6531.15644845436
 20
5105.437201727259
 30
0.0
 11
7026.156448454402
 21
5105.43720172726
 31
0.0
  0
MTEXT
  5
3AB4
330
18
100
AcDbEntity
  8
0
  6
ByBlock
 62
     0
 48
10.0
100
AcDbMText
 10
6756.156448454402
 20
4785.437210490678
 30
0.0
 40
37.5
 41
0.0
 71
     5
 72
     1
  1
290
 73
     1
 44
1.0
  0
MTEXT
  5
3AB5
330
18
100
AcDbEntity
  8
0
  6
ByBlock
 62
     0
 48
10.0
100
AcDbMText
 10
6756.156448454402
 20
5135.437210490678
 30
0.0
 40
37.5
 41
0.0
 71
     5
 72
     1
  1
300
 73
     1
 44
1.0
  0
SOLID
  5
3ABA
330
18
100
AcDbEntity
  8
0
  6
ByBlock
 62
     0
 48
10.0
100
AcDbTrace
 10
6648.656448454365
 20
4749.1872192541
 30
0.0
 11
6648.656448454365
 21
4761.687219254098
 31
0.0
 12
6611.156448454365
 22
4755.437219254102
 32
0.0
 13
6611.156448454365
 23
4755.437219254102
 33
0.0
  0
SOLID
  5
3ABB
330
18
100
AcDbEntity
  8
0
  6
ByBlock
 62
     0
 48
10.0
100
AcDbTrace
 10
6568.656448454352
 20
5099.1872192541
 30
0.0
 11
6568.656448454352
 21
5111.687219254099
 31
0.0
 12
6606.156448454353
 22
5105.437219254103
 32
0.0
 13
6606.156448454353
 23
5105.437219254103
 33
0.0
  0
MTEXT
  5
3ABC
330
18
100
AcDbEntity
  8
0
  6
ByBlock
 62
     0
 48
10.0
100
AcDbMText
 10
6546.156448454358
 20
5135.437203703792
 30
0.0
 40
37.5
 41
0.0
 71
     5
 72
     1
  1
120
 73
     1
 44
1.0
  0
SOLID
  5
3ABD
330
18
100
AcDbEntity
  8
0
  6
ByBlock
 62
     0
 48
10.0
100
AcDbTrace
 10
6523.656460313514
 20
5111.687201727256
 30
0.0
 11
6523.656460313514
 21
5099.187201727255
 31
0.0
 12
6486.156460313513
 22
5105.437201727255
 32
0.0
 13
6486.156460313513
 23
5105.437201727255
 33
0.0
  0
LINE
  5
3ABE
330
18
100
AcDbEntity
  8
0
 48
10.0
100
AcDbLine
 10
6606.15644845436
 20
4955.437200395485
 30
0.0
 11
6606.15644845436
 21
5135.437200395485
 31
0.0
  0
SOLID
  5
3ABF
330
18
100
AcDbEntity
  8
0
  6
ByBlock
 62
     0
 48
10.0
100
AcDbTrace
 10
6643.656448454365
 20
5099.1872192541
 30
0.0
 11
6643.656448454365
 21
5111.687219254099
 31
0.0
 12
6606.156448454365
 22
5105.437219254103
 32
0.0
 13
6606.156448454365
 23
5105.437219254103
 33
0.0
  0
SOLID
  5
3AC1
330
18
100
AcDbEntity
  8
0
  6
ByBlock
 62
     0
 48
10.0
100
AcDbTrace
 10
6863.656553615448
 20
4749.18721049068
 30
0.0
 11
6863.656553615448
 21
4761.687210490678
 31
0.0
 12
6901.156553615447
 22
4755.437210490682
 32
0.0
 13
6901.156553615447
 23
4755.437210490682
 33
0.0
  0
LINE
  5
3AC2
330
18
100
AcDbEntity
  8
0
 48
10.0
100
AcDbLine
 10
6906.156448454402
 20
4955.437200395485
 30
0.0
 11
6906.156448454402
 21
5135.437200395485
 31
0.0
  0
SOLID
  5
3AC3
330
18
100
AcDbEntity
  8
0
  6
ByBlock
 62
     0
 48
10.0
100
AcDbTrace
 10
6868.656553615448
 20
5099.187210490679
 30
0.0
 11
6868.656553615448
 21
5111.687210490678
 31
0.0
 12
6906.156553615447
 22
5105.437210490681
 32
0.0
 13
6906.156553615447
 23
5105.437210490681
 33
0.0
  0
LINE
  5
3AC4
330
18
100
AcDbEntity
  8
0
 48
10.0
100
AcDbLine
 10
6956.156448454402
 20
4955.437210490676
 30
0.0
 11
6956.156448454402
 21
5135.437210490676
 31
0.0
  0
MTEXT
  5
3AC5
330
18
100
AcDbEntity
  8
0
  6
ByBlock
 62
     0
 48
10.0
100
AcDbMText
 10
6991.156448454403
 20
5135.43720172726
 30
0.0
 40
37.5
 41
0.0
 71
     5
 72
     1
  1
70
 73
     1
 44
1.0
  0
LWPOLYLINE
  5
3AC6
330
18
100
AcDbEntity
  8
上線
 48
10.0
100
AcDbPolyline
 90
        2
 70
     1
 43
5.0
 10
6953.656448454403
 20
5105.415264119451
 42
1.0
 10
6958.656448454402
 20
5105.415264119451
 42
1.0
  0
SOLID
  5
3AC7
330
18
100
AcDbEntity
  8
0
  6
ByBlock
 62
     0
 48
10.0
100
AcDbTrace
 10
7063.656460313535
 20
5111.687201727256
 30
0.0
 11
7063.656460313535
 21
5099.187201727255
 31
0.0
 12
7026.156460313536
 22
5105.437201727255
 32
0.0
 13
7026.156460313536
 23
5105.437201727255
 33
0.0
  0
LINE
  5
3AC8
330
18
100
AcDbEntity
  8
OBJECT
 48
10.0
100
AcDbLine
 10
5186.156422631887
 20
5945.437199750726
 30
0.0
 11
6186.156422631887
 21
5945.437199750726
 31
0.0
  0
LINE
  5
3AC9
330
18
100
AcDbEntity
  8
OBJECT
 48
10.0
100
AcDbLine
 10
6186.156422631887
 20
6095.437201727254
 30
0.0
 11
5186.156422631887
 21
6095.437201727256
 31
0.0
  0
MTEXT
  5
3ACA
330
18
100
AcDbEntity
  8
0
  6
ByBlock
 62
     0
 48
10.0
100
AcDbMText
 10
5686.156422631887
 20
5975.437210490677
 30
0.0
 40
37.5
 41
0.0
 71
     5
 72
     1
  1
600
 73
     1
 44
1.0
  0
MTEXT
  5
3ACB
330
18
100
AcDbEntity
  8
0
  6
ByBlock
 62
     0
 48
10.0
100
AcDbMText
 10
5686.156422631887
 20
6125.437210490677
 30
0.0
 40
37.5
 41
0.0
 71
     5
 72
     1
  1
1000
 73
     1
 44
1.0
  0
LINE
  5
3ADB
330
18
100
AcDbEntity
  8
0
 48
10.0
100
AcDbLine
 10
5156.156422631887
 20
5695.437236313192
 30
0.0
 11
4976.156422631887
 21
5695.437236313192
 31
0.0
  0
LINE
  5
3ADC
330
18
100
AcDbEntity
  8
0
 48
10.0
100
AcDbLine
 10
5156.156432727078
 20
5645.437236313192
 30
0.0
 11
4976.156432727078
 21
5645.437236313192
 31
0.0
  0
LINE
  5
3ADD
330
18
100
AcDbEntity
  8
0
 48
10.0
100
AcDbLine
 10
5156.156432727078
 20
5345.437236313149
 30
0.0
 11
4976.156432727078
 21
5345.437236313149
 31
0.0
  0
LINE
  5
3ADE
330
18
100
AcDbEntity
  8
0
 48
10.0
100
AcDbLine
 10
5156.156422631884
 20
5765.437236313192
 30
0.0
 11
4826.156422631883
 21
5765.437236313192
 31
0.0
  0
LINE
  5
3ADF
330
18
100
AcDbEntity
  8
0
 48
10.0
100
AcDbLine
 10
5156.156422631887
 20
5225.437236313148
 30
0.0
 11
4826.156422631886
 21
5225.437236313148
 31
0.0
  0
LINE
  5
3AE0
330
18
100
AcDbEntity
  8
OBJECT
 48
10.0
100
AcDbLine
 10
5006.156431395305
 20
5270.437236313148
 30
0.0
 11
5006.156431395304
 21
5765.437236313192
 31
0.0
  0
LINE
  5
3AE1
330
18
100
AcDbEntity
  8
OBJECT
 48
10.0
100
AcDbLine
 10
4856.156422631881
 20
5270.437236313148
 30
0.0
 11
4856.156422631881
 21
5765.43723631317
 31
0.0
  0
MTEXT
  5
3AE2
330
18
100
AcDbEntity
  8
0
  6
ByBlock
 62
     0
 48
10.0
100
AcDbMText
 10
4946.156431395303
 20
5670.437236313191
 30
0.0
 40
37.5
 41
0.0
 71
     5
 72
     1
  1
50
 11
0.0000000000000001
 21
1.0
 31
0.0
 73
     1
 44
1.0
  0
MTEXT
  5
3AE3
330
18
100
AcDbEntity
  8
0
  6
ByBlock
 62
     0
 48
10.0
100
AcDbMText
 10
4976.156429418772
 20
5285.437236313148
 30
0.0
 40
37.5
 41
0.0
 71
     5
 72
     1
  1
120
 11
0.0000000000000001
 21
1.0
 31
0.0
 73
     1
 44
1.0
  0
SOLID
  5
3AE4
330
18
100
AcDbEntity
  8
0
  6
ByBlock
 62
     0
 48
10.0
100
AcDbTrace
 10
4862.406422631884
 20
5262.93723631317
 30
0.0
 11
4849.906422631883
 21
5262.93723631317
 31
0.0
 12
4856.156422631881
 22
5225.43723631317
 32
0.0
 13
4856.156422631881
 23
5225.43723631317
 33
0.0
  0
SOLID
  5
3AE5
330
18
100
AcDbEntity
  8
0
  6
ByBlock
 62
     0
 48
10.0
100
AcDbTrace
 10
4999.906431395307
 20
5262.937248172303
 30
0.0
 11
5012.406431395309
 21
5262.937248172303
 31
0.0
 12
5006.156431395308
 22
5225.437248172302
 32
0.0
 13
5006.156431395308
 23
5225.437248172302
 33
0.0
  0
SOLID
  5
3AE6
330
18
100
AcDbEntity
  8
0
  6
ByBlock
 62
     0
 48
10.0
100
AcDbTrace
 10
5012.406413868462
 20
5382.937236313154
 30
0.0
 11
4999.906413868465
 21
5382.937236313154
 31
0.0
 12
5006.156413868461
 22
5345.437236313154
 32
0.0
 13
5006.156413868461
 23
5345.437236313154
 33
0.0
  0
SOLID
  5
3AE7
330
18
100
AcDbEntity
  8
0
  6
ByBlock
 62
     0
 48
10.0
100
AcDbTrace
 10
5012.406413868462
 20
5307.937236313142
 30
0.0
 11
4999.906413868465
 21
5307.937236313142
 31
0.0
 12
5006.156413868461
 22
5345.437236313141
 32
0.0
 13
5006.156413868461
 23
5345.437236313141
 33
0.0
  0
MTEXT
  5
3AE8
330
18
100
AcDbEntity
  8
0
  6
ByBlock
 62
     0
 48
10.0
100
AcDbMText
 10
4826.156422631883
 20
5495.437236313192
 30
0.0
 40
37.5
 41
0.0
 71
     5
 72
     1
  1
540
 11
0.0000000000000001
 21
1.0
 31
0.0
 73
     1
 44
1.0
  0
MTEXT
  5
3AE9
330
18
100
AcDbEntity
  8
0
  6
ByBlock
 62
     0
 48
10.0
100
AcDbMText
 10
4976.156422631885
 20
5495.437236313192
 30
0.0
 40
37.5
 41
0.0
 71
     5
 72
     1
  1
300
 11
0.0000000000000001
 21
1.0
 31
0.0
 73
     1
 44
1.0
  0
SOLID
  5
3AEA
330
18
100
AcDbEntity
  8
0
  6
ByBlock
 62
     0
 48
10.0
100
AcDbTrace
 10
5012.406422631883
 20
5607.937341474237
 30
0.0
 11
4999.906422631885
 21
5607.937341474237
 31
0.0
 12
5006.156422631882
 22
5645.437341474237
 32
0.0
 13
5006.156422631882
 23
5645.437341474237
 33
0.0
  0
SOLID
  5
3AEB
330
18
100
AcDbEntity
  8
0
  6
ByBlock
 62
     0
 48
10.0
100
AcDbTrace
 10
4999.906431395307
 20
5802.937248172324
 30
0.0
 11
5012.406431395309
 21
5802.937248172324
 31
0.0
 12
5006.156431395308
 22
5765.437248172324
 32
0.0
 13
5006.156431395308
 23
5765.437248172324
 33
0.0
  0
LINE
  5
3AEC
330
18
100
AcDbEntity
  8
OBJECT
 48
10.0
100
AcDbLine
 10
5006.156431395305
 20
5765.43723631317
 30
0.0
 11
5006.156431395305
 21
5877.93723631317
 31
0.0
  0
SOLID
  5
3AED
330
18
100
AcDbEntity
  8
0
  6
ByBlock
 62
     0
 48
10.0
100
AcDbTrace
 10
4862.406422631884
 20
5727.93723631317
 30
0.0
 11
4849.906422631883
 21
5727.93723631317
 31
0.0
 12
4856.156422631881
 22
5765.43723631317
 32
0.0
 13
4856.156422631881
 23
5765.43723631317
 33
0.0
  0
LWPOLYLINE
  5
3AEE
330
18
100
AcDbEntity
  8
上線
 48
10.0
100
AcDbPolyline
 90
        2
 70
     1
 43
5.0
 10
5006.17836900311
 20
5692.937236313191
 42
1.0
 10
5006.17836900311
 20
5697.937236313191
 42
1.0
  0
MTEXT
  5
3AEF
330
18
100
AcDbEntity
  8
0
  6
ByBlock
 62
     0
 48
10.0
100
AcDbMText
 10
4976.156431395303
 20
5730.437236313192
 30
0.0
 40
37.5
 41
0.0
 71
     5
 72
     1
  1
70
 11
0.0000000000000001
 21
1.0
 31
0.0
 73
     1
 44
1.0
  0
SOLID
  5
3B52
330
18
100
AcDbEntity
  8
0
  6
ByBlock
 62
     0
 48
10.0
100
AcDbTrace
 10
5348.656422631884
 20
5939.187210490675
 30
0.0
 11
5348.656422631884
 21
5951.687210490675
 31
0.0
 12
5386.156422631884
 22
5945.437210490676
 32
0.0
 13
5386.156422631884
 23
5945.437210490676
 33
0.0
  0
LINE
  5
3B53
330
18
100
AcDbEntity
  8
0
 48
10.0
100
AcDbLine
 10
5186.156422631887
 20
5795.437210490676
 30
0.0
 11
5186.156422631887
 21
6125.437210490677
 31
0.0
  0
SOLID
  5
3B54
330
18
100
AcDbEntity
  8
0
  6
ByBlock
 62
     0
 48
10.0
100
AcDbTrace
 10
5223.656422631909
 20
6089.187210490678
 30
0.0
 11
5223.656422631909
 21
6101.687210490679
 31
0.0
 12
5186.156422631909
 22
6095.437210490679
 32
0.0
 13
5186.156422631909
 23
6095.437210490679
 33
0.0
  0
SOLID
  5
3B55
330
18
100
AcDbEntity
  8
0
  6
ByBlock
 62
     0
 48
10.0
100
AcDbTrace
 10
5223.656434491041
 20
5939.187199750729
 30
0.0
 11
5223.656434491041
 21
5951.687199750729
 31
0.0
 12
5186.156434491041
 22
5945.437199750729
 32
0.0
 13
5186.156434491041
 23
5945.437199750729
 33
0.0
  0
MTEXT
  5
3B56
330
18
100
AcDbEntity
  8
0
  6
ByBlock
 62
     0
 48
10.0
100
AcDbMText
 10
5286.156422631886
 20
5975.437201727256
 30
0.0
 40
37.5
 41
0.0
 71
     5
 72
     1
  1
200
 73
     1
 44
1.0
  0
LINE
  5
3B57
330
18
100
AcDbEntity
  8
0
 48
10.0
100
AcDbLine
 10
5386.156422631887
 20
5795.437210490676
 30
0.0
 11
5386.156422631887
 21
5975.437210490676
 31
0.0
  0
SOLID
  5
3B5A
330
18
100
AcDbEntity
  8
0
  6
ByBlock
 62
     0
 48
10.0
100
AcDbTrace
 10
5423.656358192192
 20
5939.187210490675
 30
0.0
 11
5423.656358192192
 21
5951.687210490675
 31
0.0
 12
5386.156358192192
 22
5945.437210490676
 32
0.0
 13
5386.156358192192
 23
5945.437210490676
 33
0.0
  0
LINE
  5
3B5B
330
18
100
AcDbEntity
  8
OBJECT
 48
10.0
100
AcDbLine
 10
5735.00004756611
 20
5397.749960622229
 30
0.0
 11
6466.206235026167
 21
5397.749960622229
 31
0.0
  0
MTEXT
  5
3B5C
330
18
100
AcDbEntity
  8
0
  6
ByBlock
 62
     0
 48
10.0
100
AcDbMText
 10
6338.706235026169
 20
5427.749960622229
 30
0.0
 40
30.0
 41
0.0
 71
     5
 72
     1
  1
グレーチング
 73
     1
 44
1.0
  0
LINE
  5
3B60
330
18
100
AcDbEntity
  8
WUWAGAKI
 48
10.0
100
AcDbLine
 10
5870.319937841239
 20
5638.096868554396
 30
0.0
 11
6221.206235026167
 21
5488.815193486991
 31
0.0
210
0.0
220
0.0
230
-1.0
1001
ACAD
1000
DSTYLE
1002
{
1070
    78
1070
     8
1070
   270
1070
     8
1070
   140
1040
2.5
1070
    74
1070
     0
1070
   172
1070
     1
1070
    73
1070
     0
1070
    77
1070
     1
1070
    40
1040
10.0
1070
   147
1040
0.625
1070
    42
1040
0.625
1070
    44
1040
1.25
1070
    43
1040
3.75
1070
   141
1040
2.5
1070
    41
1040
2.5
1070
   273
1070
     8
1070
   274
1070
     4
1070
   143
1040
0.0394
1070
   171
1070
     4
1002
}
  0
SOLID
  5
3B65
330
18
100
AcDbEntity
  8
0
  6
ByBlock
 62
     0
 48
10.0
100
AcDbTrace
 10
5771.923595622594
 20
5403.721951854065
 30
0.0
 11
5771.863621755178
 21
5391.222095729485
 31
0.0
 12
5734.394040315142
 22
5397.651945394016
 32
0.0
 13
5734.394040315142
 23
5397.651945394016
 33
0.0
  0
SOLID
  5
3B6D
330
18
100
AcDbEntity
  8
0
  6
ByBlock
 62
     0
 48
10.0
100
AcDbTrace
 10
5889.974676056704
 20
5636.321432512207
 30
0.0
 11
5885.023169784452
 21
5624.843950835644
 31
0.0
 12
5853.066477890885
 22
5645.437210490676
 32
0.0
 13
5853.066477890885
 23
5645.437210490676
 33
0.0
  0
LINE
  5
3B6E
330
18
100
AcDbEntity
  8
OBJECT
 48
10.0
100
AcDbLine
 10
6221.206235026167
 20
5488.815193486991
 30
0.0
 11
6326.206235026168
 21
5488.815193486991
 31
0.0
  0
MTEXT
  5
3B6F
330
18
100
AcDbEntity
  8
0
  6
ByBlock
 62
     0
 48
10.0
100
AcDbMText
 10
6273.706235026168
 20
5518.815193486991
 30
0.0
 40
30.0
 41
0.0
 71
     5
 72
     1
  1
受枠
 73
     1
 44
1.0
  0
MTEXT
  5
3B70
330
18
100
AcDbEntity
  8
0
  6
ByBlock
 62
     0
 48
10.0
100
AcDbMText
 10
6086.156422631887
 20
5975.437201727256
 30
0.0
 40
37.5
 41
0.0
 71
     5
 72
     1
  1
200
 73
     1
 44
1.0
  0
LINE
  5
3B71
330
18
100
AcDbEntity
  8
0
 48
10.0
100
AcDbLine
 10
5986.156422631887
 20
5795.437210490676
 30
0.0
 11
5986.156422631887
 21
5975.437210490676
 31
0.0
  0
SOLID
  5
3B72
330
18
100
AcDbEntity
  8
0
  6
ByBlock
 62
     0
 48
10.0
100
AcDbTrace
 10
5948.656487071582
 20
5939.187210490675
 30
0.0
 11
5948.656487071582
 21
5951.687210490675
 31
0.0
 12
5986.156487071582
 22
5945.437210490676
 32
0.0
 13
5986.156487071582
 23
5945.437210490676
 33
0.0
  0
SOLID
  5
3B73
330
18
100
AcDbEntity
  8
0
  6
ByBlock
 62
     0
 48
10.0
100
AcDbTrace
 10
6023.65642263189
 20
5939.187210490675
 30
0.0
 11
6023.65642263189
 21
5951.687210490675
 31
0.0
 12
5986.156422631889
 22
5945.437210490676
 32
0.0
 13
5986.156422631889
 23
5945.437210490676
 33
0.0
  0
LINE
  5
3B74
330
18
100
AcDbEntity
  8
0
 48
10.0
100
AcDbLine
 10
6186.156422631887
 20
5795.437210490676
 30
0.0
 11
6186.156422631887
 21
6125.437210490677
 31
0.0
  0
SOLID
  5
3B75
330
18
100
AcDbEntity
  8
0
  6
ByBlock
 62
     0
 48
10.0
100
AcDbTrace
 10
6148.656410772733
 20
5939.187199750729
 30
0.0
 11
6148.656410772733
 21
5951.687199750729
 31
0.0
 12
6186.156410772732
 22
5945.437199750729
 32
0.0
 13
6186.156410772732
 23
5945.437199750729
 33
0.0
  0
SOLID
  5
3B76
330
18
100
AcDbEntity
  8
0
  6
ByBlock
 62
     0
 48
10.0
100
AcDbTrace
 10
6148.656422631866
 20
6089.187210490678
 30
0.0
 11
6148.656422631866
 21
6101.687210490679
 31
0.0
 12
6186.156422631865
 22
6095.437210490679
 32
0.0
 13
6186.156422631865
 23
6095.437210490679
 33
0.0
  0
LINE
  5
3B77
330
18
100
AcDbEntity
  8
OBJECT
 48
10.0
100
AcDbLine
 10
6531.15644845436
 20
5255.437210490682
 30
0.0
 11
7026.156448454381
 21
5255.437210490682
 31
0.0
  0
MTEXT
  5
3B78
330
18
100
AcDbEntity
  8
0
  6
ByBlock
 62
     0
 48
10.0
100
AcDbMText
 10
6756.156448454402
 20
5285.43721049068
 30
0.0
 40
37.5
 41
0.0
 71
     5
 72
     1
  1
540
 73
     1
 44
1.0
  0
SOLID
  5
3B79
330
18
100
AcDbEntity
  8
0
  6
ByBlock
 62
     0
 48
10.0
100
AcDbTrace
 10
6523.656448454381
 20
5249.18721049068
 30
0.0
 11
6523.656448454381
 21
5261.68721049068
 31
0.0
 12
6486.15644845438
 22
5255.437210490682
 32
0.0
 13
6486.15644845438
 23
5255.437210490682
 33
0.0
  0
SOLID
  5
3B7A
330
18
100
AcDbEntity
  8
0
  6
ByBlock
 62
     0
 48
10.0
100
AcDbTrace
 10
6988.656448454381
 20
5249.18721049068
 30
0.0
 11
6988.656448454381
 21
5261.68721049068
 31
0.0
 12
7026.156448454381
 22
5255.437210490682
 32
0.0
 13
7026.156448454381
 23
5255.437210490682
 33
0.0
  0
LINE
  5
3B7B
330
18
100
AcDbEntity
  8
WUWAGAKI
100
AcDbLine
 10
8755.041576165037
 20
3443.569976956288
 30
0.0
 11
8755.041576165037
 21
6369.719828752412
 31
0.0
  0
LINE
  5
3B7C
330
18
100
AcDbEntity
  8
WUWAGAKI
100
AcDbLine
 10
7595.741988256657
 20
3932.04994402766
 30
0.0
 11
8688.538563357081
 21
3932.04994402766
 31
0.0
  0
LINE
  5
3B7D
330
18
100
AcDbEntity
  8
WUWAGAKI
100
AcDbLine
 10
7595.741988256657
 20
3837.519656082523
 30
0.0
 11
8685.906741021318
 21
3837.519656082523
 31
0.0
  0
LINE
  5
3B7E
330
18
100
AcDbEntity
  8
WUWAGAKI
100
AcDbLine
 10
7595.741988256657
 20
3837.519656082523
 30
0.0
 11
8685.906741021318
 21
3837.519656082523
 31
0.0
  0
LINE
  5
3B7F
330
18
100
AcDbEntity
  8
WUWAGAKI
100
AcDbLine
 10
7595.741988256657
 20
3512.06951139809
 30
0.0
 11
8688.538563357081
 21
3512.06951139809
 31
0.0
  0
LINE
  5
3B80
330
18
100
AcDbEntity
  8
WUWAGAKI
100
AcDbLine
 10
7595.741988256657
 20
3741.613271117908
 30
0.0
 11
8688.538563357079
 21
3741.613271117908
 31
0.0
  0
LINE
  5
3B81
330
18
100
AcDbEntity
  8
WUWAGAKI
100
AcDbLine
 10
7595.741988256657
 20
3643.098206953302
 30
0.0
 11
8688.538563357079
 21
3643.098206953302
 31
0.0
  0
TEXT
  5
3B82
330
18
100
AcDbEntity
  8
WUWAGAKI
100
AcDbText
 10
7882.194863187997
 20
3766.037032669593
 30
0.0
 40
38.2725
  1
300×U700×1000×120/120×H
100
AcDbText
  0
TEXT
  5
3B83
330
18
100
AcDbEntity
  8
WUWAGAKI
100
AcDbText
 10
7643.275643905359
 20
3863.805543300038
 30
0.0
 40
45.0
  1
種　別
100
AcDbText
  0
TEXT
  5
3B84
330
18
100
AcDbEntity
  8
WUWAGAKI
100
AcDbText
 10
7668.268189780019
 20
3666.168750271575
 30
0.0
 40
45.0
  1
縮尺
100
AcDbText
  0
TEXT
  5
3B85
330
18
100
AcDbEntity
  8
WUWAGAKI
100
AcDbText
 10
7640.620432018939
 20
3762.666703263056
 30
0.0
 40
45.0
  1
寸　法
100
AcDbText
  0
LINE
  5
3B86
330
18
100
AcDbEntity
  8
WUWAGAKI
100
AcDbLine
 10
7595.741988256657
 20
3932.04994402766
 30
0.0
 11
7595.741988256657
 21
3512.06951139809
 31
0.0
  0
LINE
  5
3B87
330
18
100
AcDbEntity
  8
WUWAGAKI
100
AcDbLine
 10
8426.256372771394
 20
3741.613271117908
 30
0.0
 11
8426.256372771394
 21
3643.098206953302
 31
0.0
  0
LINE
  5
3B88
330
18
100
AcDbEntity
  8
WUWAGAKI
100
AcDbLine
 10
8242.027946009075
 20
3741.613271117908
 30
0.0
 11
8242.027946009075
 21
3643.098206953302
 31
0.0
  0
TEXT
  5
3B89
330
18
100
AcDbEntity
  8
WUWAGAKI
100
AcDbText
 10
7882.194863187997
 20
3667.470665701033
 30
0.0
 40
45.0
  1
S＝　1：15
100
AcDbText
  0
LINE
  5
3B8A
330
18
100
AcDbEntity
  8
WUWAGAKI
100
AcDbLine
 10
7847.858459825165
 20
3932.04994402766
 30
0.0
 11
7847.858459825165
 21
3643.098206953302
 31
0.0
  0
TEXT
  5
3B8B
330
18
100
AcDbEntity
  8
WUWAGAKI
100
AcDbText
 10
8268.955721761221
 20
3667.520103212574
 30
0.0
 40
45.0
  1
重量
100
AcDbText
  0
TEXT
  5
3B8C
330
18
100
AcDbEntity
  8
WUWAGAKI
100
AcDbText
 10
7834.447421156132
 20
3543.677078204476
 30
0.0
 40
60.0
  1
㈱　ウ　チ　コ　ン
100
AcDbText
  0
TEXT
  5
3B8D
330
18
100
AcDbEntity
  8
WUWAGAKI
100
AcDbText
 10
7882.194863187997
 20
3861.226383103979
 30
0.0
 40
45.0
  1
集水桝
100
AcDbText
  0
LINE
  5
3B8E
330
18
100
AcDbEntity
  8
WUWAGAKI
100
AcDbLine
 10
8688.538563357081
 20
3512.06951139809
 30
0.0
 11
8688.538563357081
 21
3932.04994402766
 31
0.0
  0
VIEWPORT
  5
298
330
15
100
AcDbEntity
 67
     1
  8
0
100
AcDbViewport
 10
291.7632241813602
 20
148.5
 30
0.0
 40
583.5264483627204
 41
297.0
 68
     1
 69
     1
 12
291.7632241813602
 22
148.5
 13
0.0
 23
0.0
 14
10.0
 24
10.0
 15
10.0
 25
10.0
 16
0.0
 26
0.0
 36
1.0
 17
0.0
 27
0.0
 37
0.0
 42
50.0
 43
0.0
 44
0.0
 45
297.0
 50
0.0
 51
0.0
 72
   100
 90
    32800
  1

281
     0
 71
     1
 74
     0
110
0.0
120
0.0
130
0.0
111
1.0
121
0.0
131
0.0
112
0.0
122
1.0
132
0.0
 79
     0
146
0.0
  0
ENDSEC
  0
SECTION
  2
OBJECTS
  0
DICTIONARY
  5
C
330
0
100
AcDbDictionary
281
     1
  3
ACAD_GROUP
350
D
  3
ACAD_LAYOUT
350
15FE
  3
ACAD_MLINESTYLE
350
1B
  3
ACAD_PLOTSETTINGS
350
15FF
  3
ACAD_PLOTSTYLENAME
350
15FC
  3
ACDBVARIABLEDICTIONARY
350
B2A
  3
DRAWINGVARIABLESDICT
350
1212
  0
DICTIONARY
  5
D
102
{ACAD_REACTORS
330
C
102
}
330
C
100
AcDbDictionary
281
     1
  3
*A1
350
1DE1
  3
*A2
350
2483
  3
*A3
350
2486
  3
*A4
350
2971
  3
*A5
350
3003
  3
*A6
350
34F4
  0
DICTIONARY
  5
15FE
102
{ACAD_REACTORS
330
C
102
}
330
C
100
AcDbDictionary
281
     1
  3
Model
350
1600
  3
ﾚｲｱｳﾄ1
350
1601
  0
DICTIONARY
  5
1B
102
{ACAD_REACTORS
330
C
102
}
330
C
100
AcDbDictionary
281
     1
  3
STANDARD
350
1C
  0
DICTIONARY
  5
15FF
102
{ACAD_REACTORS
330
C
102
}
330
C
100
AcDbDictionary
281
     1
  0
ACDBDICTIONARYWDFLT
  5
15FC
102
{ACAD_REACTORS
330
C
102
}
330
C
100
AcDbDictionary
281
     1
  3
Normal
350
15FD
100
AcDbDictionaryWithDefault
340
15FD
  0
DICTIONARY
  5
B2A
102
{ACAD_REACTORS
330
C
102
}
330
C
100
AcDbDictionary
281
     1
  3
SORTENTS
350
B2B
  0
DICTIONARY
  5
1212
102
{ACAD_REACTORS
330
C
102
}
330
C
100
AcDbDictionary
281
     1
1001
DRAWINGVARIABLESXDATA
1000
POLARANG
1000
0.785398
1000
POLARMODE
1000
0
  0
GROUP
  5
1DE1
102
{ACAD_REACTORS
330
D
102
}
330
D
100
AcDbGroup
300

 70
     1
 71
     1
  0
GROUP
  5
2483
102
{ACAD_REACTORS
330
D
102
}
330
D
100
AcDbGroup
300

 70
     1
 71
     1
  0
GROUP
  5
2486
102
{ACAD_REACTORS
330
D
102
}
330
D
100
AcDbGroup
300

 70
     1
 71
     1
  0
GROUP
  5
2971
102
{ACAD_REACTORS
330
D
102
}
330
D
100
AcDbGroup
300

 70
     1
 71
     1
  0
GROUP
  5
3003
102
{ACAD_REACTORS
330
D
102
}
330
D
100
AcDbGroup
300

 70
     1
 71
     1
  0
GROUP
  5
34F4
102
{ACAD_REACTORS
330
D
102
}
330
D
100
AcDbGroup
300

 70
     1
 71
     1
  0
LAYOUT
  5
1600
102
{ACAD_REACTORS
330
15FE
102
}
330
15FE
100
AcDbPlotSettings
  1

  2
Canon LBP3800 LIPSLX
  4
A4
  6

 40
5.873749732971191
 41
5.873747825622558
 42
5.873748779296875
 43
5.873748779296875
 44
209.9733276367187
 45
296.9259948730469
 46
0.0
 47
0.0
 48
0.0
 49
0.0
140
0.0
141
0.0
142
1.0
143
1.0
 70
 11952
 72
     1
 73
     1
 74
     0
  7

 75
     0
147
1.0
148
-1119.838883806218
149
-2764.341960111367
100
AcDbLayout
  1
Model
 70
     1
 71
     0
 10
0.0
 20
0.0
 11
12.0
 21
9.0
 12
0.0
 22
0.0
 32
0.0
 14
0.0
 24
0.0
 34
0.0
 15
0.0
 25
0.0
 35
0.0
146
0.0
 13
0.0
 23
0.0
 33
0.0
 16
1.0
 26
0.0
 36
0.0
 17
0.0
 27
1.0
 37
0.0
 76
     0
330
18
  0
LAYOUT
  5
1601
102
{ACAD_REACTORS
330
15FE
102
}
330
15FE
100
AcDbPlotSettings
  1

  2
Canon LBP3800 LIPSLX
  4

  6

 40
0.0
 41
0.0
 42
0.0
 43
0.0
 44
0.0
 45
0.0
 46
0.0
 47
0.0
 48
0.0
 49
0.0
140
0.0
141
0.0
142
1.0
143
1.0
 70
   688
 72
     0
 73
     0
 74
     5
  7

 75
    16
147
1.0
148
0.0
149
0.0
100
AcDbLayout
  1
ﾚｲｱｳﾄ1
 70
     1
 71
     1
 10
0.0
 20
0.0
 11
420.0
 21
297.0
 12
0.0
 22
0.0
 32
0.0
 14
1.000000000000000E+20
 24
1.000000000000000E+20
 34
1.000000000000000E+20
 15
-1.000000000000000E+20
 25
-1.000000000000000E+20
 35
-1.000000000000000E+20
146
0.0
 13
0.0
 23
0.0
 33
0.0
 16
1.0
 26
0.0
 36
0.0
 17
0.0
 27
1.0
 37
0.0
 76
     0
330
15
331
298
  0
MLINESTYLE
  5
1C
102
{ACAD_REACTORS
330
1B
102
}
330
1B
100
AcDbMlineStyle
  2
STANDARD
 70
     0
  3

 62
   256
 51
90.0
 52
90.0
 71
     2
 49
0.5
 62
   256
  6
BYLAYER
 49
-0.5
 62
   256
  6
BYLAYER
  0
ACDBPLACEHOLDER
  5
15FD
102
{ACAD_REACTORS
330
15FC
102
}
330
15FC
  0
DICTIONARYVAR
  5
B2B
102
{ACAD_REACTORS
330
B2A
102
}
330
B2A
100
DictionaryVariables
280
     0
  1
96
  0
ENDSEC
  0
EOF
