  0
SECTION
  2
HEADER
  9
$ACADVER
  1
AC1015
  9
$ACADMAINTVER
 70
     6
  9
$DWGCODEPAGE
  3
ANSI_932
  9
$INSBASE
 10
0.0
 20
0.0
 30
0.0
  9
$EXTMIN
 10
710.0813698183028
 20
984.8549298695507
 30
0.0
  9
$EXTMAX
 10
8847.173590683448
 20
6380.947664531863
 30
0.0
  9
$LIMMIN
 10
0.0
 20
0.0
  9
$LIMMAX
 10
4455.0
 20
3150.0
  9
$ORTHOMODE
 70
     0
  9
$REGENMODE
 70
     1
  9
$FILLMODE
 70
     1
  9
$QTEXTMODE
 70
     0
  9
$MIRRTEXT
 70
     1
  9
$LTSCALE
 40
5.0
  9
$ATTMODE
 70
     1
  9
$TEXTSIZE
 40
2.5
  9
$TRACEWID
 40
1.0
  9
$TEXTSTYLE
  7
STANDARD
  9
$CLAYER
  8
OBJECT
  9
$CELTYPE
  6
BYLAYER
  9
$CECOLOR
 62
   256
  9
$CELTSCALE
 40
1.0
  9
$DISPSILH
 70
     0
  9
$DIMSCALE
 40
15.0
  9
$DIMASZ
 40
2.5
  9
$DIMEXO
 40
0.625
  9
$DIMDLI
 40
3.75
  9
$DIMRND
 40
0.0
  9
$DIMDLE
 40
0.0
  9
$DIMEXE
 40
1.25
  9
$DIMTP
 40
0.0
  9
$DIMTM
 40
0.0
  9
$DIMTXT
 40
2.5
  9
$DIMCEN
 40
2.5
  9
$DIMTSZ
 40
0.0
  9
$DIMTOL
 70
     0
  9
$DIMLIM
 70
     0
  9
$DIMTIH
 70
     0
  9
$DIMTOH
 70
     0
  9
$DIMSE1
 70
     0
  9
$DIMSE2
 70
     0
  9
$DIMTAD
 70
     1
  9
$DIMZIN
 70
     8
  9
$DIMBLK
  1

  9
$DIMASO
 70
     1
  9
$DIMSHO
 70
     1
  9
$DIMPOST
  1

  9
$DIMAPOST
  1

  9
$DIMALT
 70
     0
  9
$DIMALTD
 70
     4
  9
$DIMALTF
 40
0.0394
  9
$DIMLFAC
 40
1.0
  9
$DIMTOFL
 70
     1
  9
$DIMTVP
 40
0.0
  9
$DIMTIX
 70
     0
  9
$DIMSOXD
 70
     0
  9
$DIMSAH
 70
     0
  9
$DIMBLK1
  1

  9
$DIMBLK2
  1

  9
$DIMSTYLE
  2
STANDARD
  9
$DIMCLRD
 70
     0
  9
$DIMCLRE
 70
     0
  9
$DIMCLRT
 70
     0
  9
$DIMTFAC
 40
1.0
  9
$DIMGAP
 40
0.625
  9
$DIMJUST
 70
     0
  9
$DIMSD1
 70
     0
  9
$DIMSD2
 70
     0
  9
$DIMTOLJ
 70
     1
  9
$DIMTZIN
 70
     0
  9
$DIMALTZ
 70
     0
  9
$DIMALTTZ
 70
     0
  9
$DIMUPT
 70
     0
  9
$DIMDEC
 70
     4
  9
$DIMTDEC
 70
     4
  9
$DIMALTU
 70
     8
  9
$DIMALTTD
 70
     4
  9
$DIMTXSTY
  7
STANDARD
  9
$DIMAUNIT
 70
     0
  9
$DIMADEC
 70
     0
  9
$DIMALTRND
 40
0.0
  9
$DIMAZIN
 70
     0
  9
$DIMDSEP
 70
    46
  9
$DIMATFIT
 70
     3
  9
$DIMFRAC
 70
     0
  9
$DIMLDRBLK
  1

  9
$DIMLUNIT
 70
     6
  9
$DIMLWD
 70
    -2
  9
$DIMLWE
 70
    -2
  9
$DIMTMOVE
 70
     0
  9
$LUNITS
 70
     2
  9
$LUPREC
 70
     4
  9
$SKETCHINC
 40
1.0
  9
$FILLETRAD
 40
10.0
  9
$AUNITS
 70
     0
  9
$AUPREC
 70
     0
  9
$MENU
  1
acad
  9
$ELEVATION
 40
0.0
  9
$PELEVATION
 40
0.0
  9
$THICKNESS
 40
0.0
  9
$LIMCHECK
 70
     0
  9
$CHAMFERA
 40
10.0
  9
$CHAMFERB
 40
10.0
  9
$CHAMFERC
 40
20.0
  9
$CHAMFERD
 40
0.0
  9
$SKPOLY
 70
     0
  9
$TDCREATE
 40
2452111.335768865
  9
$TDUCREATE
 40
2452110.960768866
  9
$TDUPDATE
 40
2454547.714873958
  9
$TDUUPDATE
 40
2454547.339873958
  9
$TDINDWG
 40
1.2455876157
  9
$TDUSRTIMER
 40
1.2455876157
  9
$USRTIMER
 70
     1
  9
$ANGBASE
 50
0.0
  9
$ANGDIR
 70
     0
  9
$PDMODE
 70
     0
  9
$PDSIZE
 40
0.0
  9
$PLINEWID
 40
0.0
  9
$SPLFRAME
 70
     0
  9
$SPLINETYPE
 70
     6
  9
$SPLINESEGS
 70
     8
  9
$HANDSEED
  5
3BD3
  9
$SURFTAB1
 70
     6
  9
$SURFTAB2
 70
     6
  9
$SURFTYPE
 70
     6
  9
$SURFU
 70
     6
  9
$SURFV
 70
     6
  9
$UCSBASE
  2

  9
$UCSNAME
  2

  9
$UCSORG
 10
0.0
 20
0.0
 30
0.0
  9
$UCSXDIR
 10
1.0
 20
0.0
 30
0.0
  9
$UCSYDIR
 10
0.0
 20
1.0
 30
0.0
  9
$UCSORTHOREF
  2

  9
$UCSORTHOVIEW
 70
     0
  9
$UCSORGTOP
 10
0.0
 20
0.0
 30
0.0
  9
$UCSORGBOTTOM
 10
0.0
 20
0.0
 30
0.0
  9
$UCSORGLEFT
 10
0.0
 20
0.0
 30
0.0
  9
$UCSORGRIGHT
 10
0.0
 20
0.0
 30
0.0
  9
$UCSORGFRONT
 10
0.0
 20
0.0
 30
0.0
  9
$UCSORGBACK
 10
0.0
 20
0.0
 30
0.0
  9
$PUCSBASE
  2

  9
$PUCSNAME
  2

  9
$PUCSORG
 10
0.0
 20
0.0
 30
0.0
  9
$PUCSXDIR
 10
1.0
 20
0.0
 30
0.0
  9
$PUCSYDIR
 10
0.0
 20
1.0
 30
0.0
  9
$PUCSORTHOREF
  2

  9
$PUCSORTHOVIEW
 70
     0
  9
$PUCSORGTOP
 10
0.0
 20
0.0
 30
0.0
  9
$PUCSORGBOTTOM
 10
0.0
 20
0.0
 30
0.0
  9
$PUCSORGLEFT
 10
0.0
 20
0.0
 30
0.0
  9
$PUCSORGRIGHT
 10
0.0
 20
0.0
 30
0.0
  9
$PUCSORGFRONT
 10
0.0
 20
0.0
 30
0.0
  9
$PUCSORGBACK
 10
0.0
 20
0.0
 30
0.0
  9
$USERI1
 70
     0
  9
$USERI2
 70
     0
  9
$USERI3
 70
     0
  9
$USERI4
 70
     0
  9
$USERI5
 70
     0
  9
$USERR1
 40
0.0
  9
$USERR2
 40
0.0
  9
$USERR3
 40
0.0
  9
$USERR4
 40
0.0
  9
$USERR5
 40
0.0
  9
$WORLDVIEW
 70
     1
  9
$SHADEDGE
 70
     3
  9
$SHADEDIF
 70
    70
  9
$TILEMODE
 70
     1
  9
$MAXACTVP
 70
    48
  9
$PINSBASE
 10
0.0
 20
0.0
 30
0.0
  9
$PLIMCHECK
 70
     0
  9
$PEXTMIN
 10
1.000000000000000E+20
 20
1.000000000000000E+20
 30
1.000000000000000E+20
  9
$PEXTMAX
 10
-1.000000000000000E+20
 20
-1.000000000000000E+20
 30
-1.000000000000000E+20
  9
$PLIMMIN
 10
0.0
 20
0.0
  9
$PLIMMAX
 10
420.0
 20
297.0
  9
$UNITMODE
 70
     0
  9
$VISRETAIN
 70
     1
  9
$PLINEGEN
 70
     0
  9
$PSLTSCALE
 70
     1
  9
$TREEDEPTH
 70
  3020
  9
$CMLSTYLE
  2
STANDARD
  9
$CMLJUST
 70
     0
  9
$CMLSCALE
 40
20.0
  9
$PROXYGRAPHICS
 70
     1
  9
$MEASUREMENT
 70
     1
  9
$CELWEIGHT
370
    -1
  9
$ENDCAPS
280
     0
  9
$JOINSTYLE
280
     0
  9
$LWDISPLAY
290
     0
  9
$INSUNITS
 70
     0
  9
$HYPERLINKBASE
  1

  9
$STYLESHEET
  1

  9
$XEDIT
290
     1
  9
$CEPSNTYPE
380
     0
  9
$PSTYLEMODE
290
     1
  9
$FINGERPRINTGUID
  2
{C9668057-E409-4CFD-A4F9-6C0551275C13}
  9
$VERSIONGUID
  2
{86611E18-4037-4269-AF27-18AE88DC6493}
  9
$EXTNAMES
290
     1
  9
$PSVPSCALE
 40
0.0
  9
$OLESTARTUP
290
     0
  0
ENDSEC
  0
SECTION
  2
CLASSES
  0
CLASS
  1
LWPOLYLINE
  2
AcDbPolyline
  3
AutoCAD 2000
 90
    32768
280
     0
281
     1
  0
CLASS
  1
DICTIONARYVAR
  2
AcDbDictionaryVar
  3
AutoCAD 2000
 90
        0
280
     0
281
     0
  0
CLASS
  1
HATCH
  2
AcDbHatch
  3
AutoCAD 2000
 90
    32768
280
     0
281
     1
  0
CLASS
  1
ACDBDICTIONARYWDFLT
  2
AcDbDictionaryWithDefault
  3
AutoCAD 2000
 90
        0
280
     0
281
     0
  0
CLASS
  1
ACDBPLACEHOLDER
  2
AcDbPlaceHolder
  3
AutoCAD 2000
 90
        0
280
     0
281
     0
  0
CLASS
  1
LAYOUT
  2
AcDbLayout
  3
AutoCAD 2000
 90
        0
280
     0
281
     0
  0
ENDSEC
  0
SECTION
  2
TABLES
  0
TABLE
  2
VPORT
  5
8
330
0
100
AcDbSymbolTable
 70
     3
  0
VPORT
  5
3BD2
330
8
100
AcDbSymbolTableRecord
100
AcDbViewportTableRecord
  2
*Active
 70
     0
 10
0.0
 20
0.0
 11
1.0
 21
1.0
 12
6706.020535203911
 22
4927.893933655034
 13
0.0
 23
0.0
 14
10.0
 24
10.0
 15
10.0
 25
10.0
 16
0.0
 26
0.0
 36
1.0
 17
0.0
 27
0.0
 37
0.0
 40
3343.961661512588
 41
1.731203007518796
 42
50.0
 43
0.0
 44
0.0
 50
0.0
 51
0.0
 71
     0
 72
   100
 73
     1
 74
     1
 75
     0
 76
     0
 77
     0
 78
     0
281
     0
 65
     1
110
0.0
120
0.0
130
0.0
111
1.0
121
0.0
131
0.0
112
0.0
122
1.0
132
0.0
 79
     0
146
0.0
  0
ENDTAB
  0
TABLE
  2
LTYPE
  5
5
330
0
100
AcDbSymbolTable
 70
    46
  0
LTYPE
  5
12
330
5
100
AcDbSymbolTableRecord
100
AcDbLinetypeTableRecord
  2
BYBLOCK
 70
     0
  3

 72
    65
 73
     0
 40
0.0
  0
LTYPE
  5
13
330
5
100
AcDbSymbolTableRecord
100
AcDbLinetypeTableRecord
  2
BYLAYER
 70
     0
  3

 72
    65
 73
     0
 40
0.0
  0
LTYPE
  5
14
330
5
100
AcDbSymbolTableRecord
100
AcDbLinetypeTableRecord
  2
CONTINUOUS
 70
     0
  3
Solid line
 72
    65
 73
     0
 40
0.0
  0
LTYPE
  5
128
330
5
100
AcDbSymbolTableRecord
100
AcDbLinetypeTableRecord
  2
ACAD_ISO02W100
 70
     0
  3
ISO dash __ __ __ __ __ __ __ __ __ __ __ __ __
 72
    65
 73
     2
 40
15.0
 49
12.0
 74
     0
 49
-3.0
 74
     0
  0
LTYPE
  5
129
330
5
100
AcDbSymbolTableRecord
100
AcDbLinetypeTableRecord
  2
ACAD_ISO03W100
 70
     0
  3
ISO dash space __    __    __    __    __    __
 72
    65
 73
     2
 40
30.0
 49
12.0
 74
     0
 49
-18.0
 74
     0
  0
LTYPE
  5
12A
330
5
100
AcDbSymbolTableRecord
100
AcDbLinetypeTableRecord
  2
ACAD_ISO04W100
 70
     0
  3
ISO long-dash dot ____ . ____ . ____ . ____ . _
 72
    65
 73
     4
 40
30.5
 49
24.0
 74
     0
 49
-3.0
 74
     0
 49
0.5
 74
     0
 49
-3.0
 74
     0
  0
LTYPE
  5
12B
330
5
100
AcDbSymbolTableRecord
100
AcDbLinetypeTableRecord
  2
ACAD_ISO05W100
 70
     0
  3
ISO long-dash double-dot ____ .. ____ .. ____ .
 72
    65
 73
     8
 40
37.5
 49
24.0
 74
     0
 49
-3.0
 74
     0
 49
0.5
 74
     0
 49
-3.0
 74
     0
 49
0.5
 74
     0
 49
-3.0
 74
     0
 49
0.5
 74
     0
 49
-3.0
 74
     0
  0
LTYPE
  5
12C
330
5
100
AcDbSymbolTableRecord
100
AcDbLinetypeTableRecord
  2
ACAD_ISO06W100
 70
     0
  3
ISO long-dash triple-dot ____ ... ____ ... ____
 72
    65
 73
     8
 40
37.5
 49
24.0
 74
     0
 49
-3.0
 74
     0
 49
0.5
 74
     0
 49
-3.0
 74
     0
 49
0.5
 74
     0
 49
-3.0
 74
     0
 49
0.5
 74
     0
 49
-3.0
 74
     0
  0
LTYPE
  5
12D
330
5
100
AcDbSymbolTableRecord
100
AcDbLinetypeTableRecord
  2
ACAD_ISO07W100
 70
     0
  3
ISO dot . . . . . . . . . . . . . . . . . . . .
 72
    65
 73
     2
 40
3.5
 49
0.5
 74
     0
 49
-3.0
 74
     0
  0
LTYPE
  5
12E
330
5
100
AcDbSymbolTableRecord
100
AcDbLinetypeTableRecord
  2
ACAD_ISO08W100
 70
     0
  3
ISO long-dash short-dash ____ __ ____ __ ____ _
 72
    65
 73
     4
 40
36.0
 49
24.0
 74
     0
 49
-3.0
 74
     0
 49
6.0
 74
     0
 49
-3.0
 74
     0
  0
LTYPE
  5
12F
330
5
100
AcDbSymbolTableRecord
100
AcDbLinetypeTableRecord
  2
ACAD_ISO09W100
 70
     0
  3
ISO long-dash double-short-dash ____ __ __ ____
 72
    65
 73
     6
 40
45.0
 49
24.0
 74
     0
 49
-3.0
 74
     0
 49
6.0
 74
     0
 49
-3.0
 74
     0
 49
6.0
 74
     0
 49
-3.0
 74
     0
  0
LTYPE
  5
130
330
5
100
AcDbSymbolTableRecord
100
AcDbLinetypeTableRecord
  2
ACAD_ISO10W100
 70
     0
  3
ISO dash dot __ . __ . __ . __ . __ . __ . __ .
 72
    65
 73
     4
 40
18.5
 49
12.0
 74
     0
 49
-3.0
 74
     0
 49
0.5
 74
     0
 49
-3.0
 74
     0
  0
LTYPE
  5
131
330
5
100
AcDbSymbolTableRecord
100
AcDbLinetypeTableRecord
  2
ACAD_ISO11W100
 70
     0
  3
ISO double-dash dot __ __ . __ __ . __ __ . __ 
 72
    65
 73
     6
 40
33.5
 49
12.0
 74
     0
 49
-3.0
 74
     0
 49
12.0
 74
     0
 49
-3.0
 74
     0
 49
0.5
 74
     0
 49
-3.0
 74
     0
  0
LTYPE
  5
132
330
5
100
AcDbSymbolTableRecord
100
AcDbLinetypeTableRecord
  2
ACAD_ISO12W100
 70
     0
  3
ISO dash double-dot __ . . __ . . __ . . __ . .
 72
    65
 73
     6
 40
22.0
 49
12.0
 74
     0
 49
-3.0
 74
     0
 49
0.5
 74
     0
 49
-3.0
 74
     0
 49
0.5
 74
     0
 49
-3.0
 74
     0
  0
LTYPE
  5
133
330
5
100
AcDbSymbolTableRecord
100
AcDbLinetypeTableRecord
  2
ACAD_ISO13W100
 70
     0
  3
ISO double-dash double-dot __ __ . . __ __ . . 
 72
    65
 73
     8
 40
37.0
 49
12.0
 74
     0
 49
-3.0
 74
     0
 49
12.0
 74
     0
 49
-3.0
 74
     0
 49
0.5
 74
     0
 49
-3.0
 74
     0
 49
0.5
 74
     0
 49
-3.0
 74
     0
  0
LTYPE
  5
134
330
5
100
AcDbSymbolTableRecord
100
AcDbLinetypeTableRecord
  2
ACAD_ISO14W100
 70
     0
  3
ISO dash triple-dot __ . . . __ . . . __ . . . 
 72
    65
 73
     8
 40
25.5
 49
12.0
 74
     0
 49
-3.0
 74
     0
 49
0.5
 74
     0
 49
-3.0
 74
     0
 49
0.5
 74
     0
 49
-3.0
 74
     0
 49
0.5
 74
     0
 49
-3.0
 74
     0
  0
LTYPE
  5
135
330
5
100
AcDbSymbolTableRecord
100
AcDbLinetypeTableRecord
  2
ACAD_ISO15W100
 70
     0
  3
ISO double-dash triple-dot __ __ . . . __ __ . 
 72
    65
 73
    10
 40
40.49999999999999
 49
12.0
 74
     0
 49
-3.0
 74
     0
 49
12.0
 74
     0
 49
-3.0
 74
     0
 49
0.5
 74
     0
 49
-3.0
 74
     0
 49
0.5
 74
     0
 49
-3.0
 74
     0
 49
0.5
 74
     0
 49
-3.0
 74
     0
  0
LTYPE
  5
136
330
5
100
AcDbSymbolTableRecord
100
AcDbLinetypeTableRecord
  2
BATTING
 70
     0
  3
Batting SSSSSSSSSSSSSSSSSSSSSSSSSSSSSSSSSSSSSSS
 72
    65
 73
     4
 40
10.16253999999999
 49
0.00254
 74
     0
 49
-2.54
 74
     4
 75
   134
340
127
 46
2.54
 50
0.0
 44
-2.54
 45
0.0
 49
-5.08
 74
     4
 75
   134
340
127
 46
2.54
 50
180.0
 44
2.54
 45
0.0
 49
-2.54
 74
     0
  0
LTYPE
  5
137
330
5
100
AcDbSymbolTableRecord
100
AcDbLinetypeTableRecord
  2
BORDER
 70
     0
  3
Border __ __ . __ __ . __ __ . __ __ . __ __ .
 72
    65
 73
     6
 40
44.45
 49
12.7
 74
     0
 49
-6.349999999999999
 74
     0
 49
12.7
 74
     0
 49
-6.349999999999999
 74
     0
 49
0.0
 74
     0
 49
-6.349999999999999
 74
     0
  0
LTYPE
  5
138
330
5
100
AcDbSymbolTableRecord
100
AcDbLinetypeTableRecord
  2
BORDER2
 70
     0
  3
Border (.5x) __.__.__.__.__.__.__.__.__.__.__.
 72
    65
 73
     6
 40
22.225
 49
6.349999999999999
 74
     0
 49
-3.174999999999999
 74
     0
 49
6.349999999999999
 74
     0
 49
-3.174999999999999
 74
     0
 49
0.0
 74
     0
 49
-3.174999999999999
 74
     0
  0
LTYPE
  5
139
330
5
100
AcDbSymbolTableRecord
100
AcDbLinetypeTableRecord
  2
BORDERX2
 70
     0
  3
Border (2x) ____  ____  .  ____  ____  .  ___
 72
    65
 73
     6
 40
88.9
 49
25.4
 74
     0
 49
-12.7
 74
     0
 49
25.4
 74
     0
 49
-12.7
 74
     0
 49
0.0
 74
     0
 49
-12.7
 74
     0
  0
LTYPE
  5
13A
330
5
100
AcDbSymbolTableRecord
100
AcDbLinetypeTableRecord
  2
CENTER
 70
     0
  3
Center ____ _ ____ _ ____ _ ____ _ ____ _ ____
 72
    65
 73
     4
 40
50.8
 49
31.75
 74
     0
 49
-6.349999999999999
 74
     0
 49
6.349999999999999
 74
     0
 49
-6.349999999999999
 74
     0
  0
LTYPE
  5
13B
330
5
100
AcDbSymbolTableRecord
100
AcDbLinetypeTableRecord
  2
CENTER2
 70
     0
  3
Center (.5x) ___ _ ___ _ ___ _ ___ _ ___ _ ___
 72
    65
 73
     4
 40
28.57499999999999
 49
19.05
 74
     0
 49
-3.174999999999999
 74
     0
 49
3.174999999999999
 74
     0
 49
-3.174999999999999
 74
     0
  0
LTYPE
  5
13C
330
5
100
AcDbSymbolTableRecord
100
AcDbLinetypeTableRecord
  2
CENTERX2
 70
     0
  3
Center (2x) ________  __  ________  __  _____
 72
    65
 73
     4
 40
101.6
 49
63.5
 74
     0
 49
-12.7
 74
     0
 49
12.7
 74
     0
 49
-12.7
 74
     0
  0
LTYPE
  5
13D
330
5
100
AcDbSymbolTableRecord
100
AcDbLinetypeTableRecord
  2
DASHDOT
 70
     0
  3
Dash dot __ . __ . __ . __ . __ . __ . __ . __
 72
    65
 73
     4
 40
25.4
 49
12.7
 74
     0
 49
-6.349999999999999
 74
     0
 49
0.0
 74
     0
 49
-6.349999999999999
 74
     0
  0
LTYPE
  5
13E
330
5
100
AcDbSymbolTableRecord
100
AcDbLinetypeTableRecord
  2
DASHDOT2
 70
     0
  3
Dash dot (.5x) _._._._._._._._._._._._._._._.
 72
    65
 73
     4
 40
12.7
 49
6.349999999999999
 74
     0
 49
-3.174999999999999
 74
     0
 49
0.0
 74
     0
 49
-3.174999999999999
 74
     0
  0
LTYPE
  5
13F
330
5
100
AcDbSymbolTableRecord
100
AcDbLinetypeTableRecord
  2
DASHDOTX2
 70
     0
  3
Dash dot (2x) ____  .  ____  .  ____  .  ___
 72
    65
 73
     4
 40
50.8
 49
25.4
 74
     0
 49
-12.7
 74
     0
 49
0.0
 74
     0
 49
-12.7
 74
     0
  0
LTYPE
  5
140
330
5
100
AcDbSymbolTableRecord
100
AcDbLinetypeTableRecord
  2
DASHED
 70
     0
  3
Dashed __ __ __ __ __ __ __ __ __ __ __ __ __ _
 72
    65
 73
     2
 40
19.04999999999999
 49
12.7
 74
     0
 49
-6.349999999999999
 74
     0
  0
LTYPE
  5
141
330
5
100
AcDbSymbolTableRecord
100
AcDbLinetypeTableRecord
  2
DASHED2
 70
     0
  3
Dashed (.5x) _ _ _ _ _ _ _ _ _ _ _ _ _ _ _ _ _
 72
    65
 73
     2
 40
9.524999999999998
 49
6.349999999999999
 74
     0
 49
-3.174999999999999
 74
     0
  0
LTYPE
  5
142
330
5
100
AcDbSymbolTableRecord
100
AcDbLinetypeTableRecord
  2
DASHEDX2
 70
     0
  3
Dashed (2x) ____  ____  ____  ____  ____  ___
 72
    65
 73
     2
 40
38.09999999999999
 49
25.4
 74
     0
 49
-12.7
 74
     0
  0
LTYPE
  5
143
330
5
100
AcDbSymbolTableRecord
100
AcDbLinetypeTableRecord
  2
DIVIDE
 70
     0
  3
Divide ____ . . ____ . . ____ . . ____ . . ____
 72
    65
 73
     6
 40
31.74999999999999
 49
12.7
 74
     0
 49
-6.349999999999999
 74
     0
 49
0.0
 74
     0
 49
-6.349999999999999
 74
     0
 49
0.0
 74
     0
 49
-6.349999999999999
 74
     0
  0
LTYPE
  5
144
330
5
100
AcDbSymbolTableRecord
100
AcDbLinetypeTableRecord
  2
DIVIDE2
 70
     0
  3
Divide (.5x) __..__..__..__..__..__..__..__.._
 72
    65
 73
     6
 40
15.87499999999999
 49
6.349999999999999
 74
     0
 49
-3.174999999999999
 74
     0
 49
0.0
 74
     0
 49
-3.174999999999999
 74
     0
 49
0.0
 74
     0
 49
-3.174999999999999
 74
     0
  0
LTYPE
  5
145
330
5
100
AcDbSymbolTableRecord
100
AcDbLinetypeTableRecord
  2
DIVIDEX2
 70
     0
  3
Divide (2x) ________  .  .  ________  .  .  _
 72
    65
 73
     6
 40
63.49999999999999
 49
25.4
 74
     0
 49
-12.7
 74
     0
 49
0.0
 74
     0
 49
-12.7
 74
     0
 49
0.0
 74
     0
 49
-12.7
 74
     0
  0
LTYPE
  5
146
330
5
100
AcDbSymbolTableRecord
100
AcDbLinetypeTableRecord
  2
DOT
 70
     0
  3
Dot . . . . . . . . . . . . . . . . . . . . . .
 72
    65
 73
     2
 40
6.349999999999999
 49
0.0
 74
     0
 49
-6.349999999999999
 74
     0
  0
LTYPE
  5
147
330
5
100
AcDbSymbolTableRecord
100
AcDbLinetypeTableRecord
  2
DOT2
 70
     0
  3
Dot (.5x) .....................................
 72
    65
 73
     2
 40
3.174999999999999
 49
0.0
 74
     0
 49
-3.174999999999999
 74
     0
  0
LTYPE
  5
148
330
5
100
AcDbSymbolTableRecord
100
AcDbLinetypeTableRecord
  2
DOTX2
 70
     0
  3
Dot (2x) .  .  .  .  .  .  .  .  .  .  .  .  . 
 72
    65
 73
     2
 40
12.7
 49
0.0
 74
     0
 49
-12.7
 74
     0
  0
LTYPE
  5
149
330
5
100
AcDbSymbolTableRecord
100
AcDbLinetypeTableRecord
  2
FENCELINE1
 70
     0
  3
Fenceline circle ----0-----0----0-----0----0---
 72
    65
 73
     4
 40
36.82999999999999
 49
6.349999999999999
 74
     0
 49
-2.54
 74
     4
 75
   133
340
127
 46
2.54
 50
0.0
 44
-2.54
 45
0.0
 49
-2.54
 74
     0
 49
25.4
 74
     0
  0
LTYPE
  5
14A
330
5
100
AcDbSymbolTableRecord
100
AcDbLinetypeTableRecord
  2
FENCELINE2
 70
     0
  3
Fenceline square ----[]-----[]----[]-----[]----
 72
    65
 73
     4
 40
36.82999999999999
 49
6.349999999999999
 74
     0
 49
-2.54
 74
     4
 75
   132
340
127
 46
2.54
 50
0.0
 44
-2.54
 45
0.0
 49
-2.54
 74
     0
 49
25.4
 74
     0
  0
LTYPE
  5
14B
330
5
100
AcDbSymbolTableRecord
100
AcDbLinetypeTableRecord
  2
GAS_LINE
 70
     0
  3
Gas line ----GAS----GAS----GAS----GAS----GAS---
 72
    65
 73
     3
 40
24.13
 49
12.7
 74
     0
 49
-5.08
 74
     2
 75
     0
340
F
 46
2.54
 50
0.0
 44
-2.54
 45
-1.27
  9
GAS
 49
-6.349999999999999
 74
     0
  0
LTYPE
  5
14C
330
5
100
AcDbSymbolTableRecord
100
AcDbLinetypeTableRecord
  2
HIDDEN
 70
     0
  3
Hidden __ __ __ __ __ __ __ __ __ __ __ __ __ _
 72
    65
 73
     2
 40
9.524999999999998
 49
6.349999999999999
 74
     0
 49
-3.174999999999999
 74
     0
  0
LTYPE
  5
14D
330
5
100
AcDbSymbolTableRecord
100
AcDbLinetypeTableRecord
  2
HIDDEN2
 70
     0
  3
Hidden (.5x) _ _ _ _ _ _ _ _ _ _ _ _ _ _ _ _ _
 72
    65
 73
     2
 40
4.762499999999999
 49
3.174999999999999
 74
     0
 49
-1.587499999999999
 74
     0
  0
LTYPE
  5
14E
330
5
100
AcDbSymbolTableRecord
100
AcDbLinetypeTableRecord
  2
HIDDENX2
 70
     0
  3
Hidden (2x) ____ ____ ____ ____ ____ ____ ____
 72
    65
 73
     2
 40
19.04999999999999
 49
12.7
 74
     0
 49
-6.349999999999999
 74
     0
  0
LTYPE
  5
14F
330
5
100
AcDbSymbolTableRecord
100
AcDbLinetypeTableRecord
  2
HOT_WATER_SUPPLY
 70
     0
  3
Hot water supply ---- HW ---- HW ---- HW ----
 72
    65
 73
     3
 40
22.86
 49
12.7
 74
     0
 49
-5.08
 74
     2
 75
     0
340
F
 46
2.54
 50
0.0
 44
-2.54
 45
-1.27
  9
HW
 49
-5.08
 74
     0
  0
LTYPE
  5
150
330
5
100
AcDbSymbolTableRecord
100
AcDbLinetypeTableRecord
  2
PHANTOM
 70
     0
  3
Phantom ______  __  __  ______  __  __  ______
 72
    65
 73
     6
 40
63.5
 49
31.75
 74
     0
 49
-6.349999999999999
 74
     0
 49
6.349999999999999
 74
     0
 49
-6.349999999999999
 74
     0
 49
6.349999999999999
 74
     0
 49
-6.349999999999999
 74
     0
  0
LTYPE
  5
151
330
5
100
AcDbSymbolTableRecord
100
AcDbLinetypeTableRecord
  2
PHANTOM2
 70
     0
  3
Phantom (.5x) ___ _ _ ___ _ _ ___ _ _ ___ _ _
 72
    65
 73
     6
 40
31.75
 49
15.875
 74
     0
 49
-3.174999999999999
 74
     0
 49
3.174999999999999
 74
     0
 49
-3.174999999999999
 74
     0
 49
3.174999999999999
 74
     0
 49
-3.174999999999999
 74
     0
  0
LTYPE
  5
152
330
5
100
AcDbSymbolTableRecord
100
AcDbLinetypeTableRecord
  2
PHANTOMX2
 70
     0
  3
Phantom (2x) ____________    ____    ____   _
 72
    65
 73
     6
 40
127.0
 49
63.5
 74
     0
 49
-12.7
 74
     0
 49
12.7
 74
     0
 49
-12.7
 74
     0
 49
12.7
 74
     0
 49
-12.7
 74
     0
  0
LTYPE
  5
153
330
5
100
AcDbSymbolTableRecord
100
AcDbLinetypeTableRecord
  2
TRACKS
 70
     0
  3
Tracks -|-|-|-|-|-|-|-|-|-|-|-|-|-|-|-|-|-|-|-|
 72
    65
 73
     2
 40
7.62
 49
3.81
 74
     4
 75
   130
340
127
 46
6.349999999999999
 50
0.0
 44
0.0
 45
0.0
 49
3.81
 74
     0
  0
LTYPE
  5
154
330
5
100
AcDbSymbolTableRecord
100
AcDbLinetypeTableRecord
  2
ZIGZAG
 70
     0
  3
Zig zag /\/\/\/\/\/\/\/\/\/\/\/\/\/\/\/\/\/\/\/
 72
    65
 73
     4
 40
20.32254
 49
0.00254
 74
     0
 49
-5.08
 74
     4
 75
   131
340
127
 46
5.08
 50
0.0
 44
-5.08
 45
0.0
 49
-10.16
 74
     4
 75
   131
340
127
 46
5.08
 50
180.0
 44
5.08
 45
0.0
 49
-5.08
 74
     0
  0
ENDTAB
  0
TABLE
  2
LAYER
  5
2
330
0
100
AcDbSymbolTable
 70
    10
  0
LAYER
  5
E
330
2
100
AcDbSymbolTableRecord
100
AcDbLayerTableRecord
  2
0
 70
     0
 62
     7
  6
CONTINUOUS
370
    -3
390
15FD
  0
LAYER
  5
20
330
2
100
AcDbSymbolTableRecord
100
AcDbLayerTableRecord
  2
DEFPOINTS
 70
     0
 62
     7
  6
CONTINUOUS
290
     0
370
    -3
390
15FD
  0
LAYER
  5
21
330
2
100
AcDbSymbolTableRecord
100
AcDbLayerTableRecord
  2
OBJECT
 70
     0
 62
     7
  6
CONTINUOUS
370
    -3
390
15FD
  0
LAYER
  5
155
330
2
100
AcDbSymbolTableRecord
100
AcDbLayerTableRecord
  2
上書線
 70
     0
 62
     7
  6
CONTINUOUS
370
    -3
390
15FD
  0
LAYER
  5
156
330
2
100
AcDbSymbolTableRecord
100
AcDbLayerTableRecord
  2
基準線
 70
     0
 62
    -1
  6
CONTINUOUS
370
    -3
390
15FD
  0
LAYER
  5
157
330
2
100
AcDbSymbolTableRecord
100
AcDbLayerTableRecord
  2
点線
 70
     0
 62
     5
  6
HIDDEN
370
    -3
390
15FD
  0
LAYER
  5
158
330
2
100
AcDbSymbolTableRecord
100
AcDbLayerTableRecord
  2
寸法線
 70
     0
 62
     2
  6
CONTINUOUS
370
    -3
390
15FD
  0
LAYER
  5
19D7
330
2
100
AcDbSymbolTableRecord
100
AcDbLayerTableRecord
  2
上線
 70
     0
 62
     7
  6
CONTINUOUS
370
    -3
390
15FD
  0
LAYER
  5
2EB9
330
2
100
AcDbSymbolTableRecord
100
AcDbLayerTableRecord
  2
中心線
 70
     0
 62
     6
  6
CENTER
370
    -3
390
15FD
  0
LAYER
  5
393C
330
2
100
AcDbSymbolTableRecord
100
AcDbLayerTableRecord
  2
WUWAGAKI
 70
     0
 62
     7
  6
CONTINUOUS
370
    -3
390
15FD
  0
ENDTAB
  0
TABLE
  2
STYLE
  5
3
330
0
100
AcDbSymbolTable
 70
     3
  0
STYLE
  5
F
330
3
100
AcDbSymbolTableRecord
100
AcDbTextStyleTableRecord
  2
STANDARD
 70
     0
 40
0.0
 41
1.0
 50
0.0
 71
     0
 42
2.5
  3
MS PMincho.ttf
  4

1001
ACAD
1000
MS PMincho
1071
    32786
  0
STYLE
  5
22
330
3
100
AcDbSymbolTableRecord
100
AcDbTextStyleTableRecord
  2
ADESK1
 70
     0
 40
0.0
 41
1.0
 50
0.0
 71
     0
 42
5.0
  3
romans
  4
bigfont
  0
STYLE
  5
127
330
3
100
AcDbSymbolTableRecord
100
AcDbTextStyleTableRecord
  2

 70
     1
 40
0.0
 41
1.0
 50
0.0
 71
     0
 42
2.5
  3
ltypeshp.shx
  4

  0
ENDTAB
  0
TABLE
  2
VIEW
  5
6
330
0
100
AcDbSymbolTable
 70
     0
  0
ENDTAB
  0
TABLE
  2
UCS
  5
7
330
0
100
AcDbSymbolTable
 70
     0
  0
ENDTAB
  0
TABLE
  2
APPID
  5
9
330
0
100
AcDbSymbolTable
 70
     2
  0
APPID
  5
10
330
9
100
AcDbSymbolTableRecord
100
AcDbRegAppTableRecord
  2
ACAD
 70
     0
  0
APPID
  5
1213
330
9
100
AcDbSymbolTableRecord
100
AcDbRegAppTableRecord
  2
DRAWINGVARIABLESXDATA
 70
     0
  0
ENDTAB
  0
TABLE
  2
DIMSTYLE
  5
A
330
0
100
AcDbSymbolTable
 70
     2
100
AcDbDimStyleTable
 71
     1
340
1D
  0
DIMSTYLE
105
1D
330
A
100
AcDbSymbolTableRecord
100
AcDbDimStyleTableRecord
  2
STANDARD
 70
     0
340
F
  0
DIMSTYLE
105
23
330
A
100
AcDbSymbolTableRecord
100
AcDbDimStyleTableRecord
  2
JIS
 70
     0
 41
2.5
 42
1.0
 43
7.0
 44
1.0
 73
     0
 74
     0
 77
     1
 78
     8
140
2.5
141
0.0
143
0.0394
147
0.0
172
     1
174
     1
175
     1
340
F
  0
ENDTAB
  0
TABLE
  2
BLOCK_RECORD
  5
1
330
0
100
AcDbSymbolTable
 70
     3
  0
BLOCK_RECORD
  5
18
330
1
100
AcDbSymbolTableRecord
100
AcDbBlockTableRecord
  2
*MODEL_SPACE
340
1600
  0
BLOCK_RECORD
  5
15
330
1
100
AcDbSymbolTableRecord
100
AcDbBlockTableRecord
  2
*PAPER_SPACE
340
1601
  0
BLOCK_RECORD
  5
24
330
1
100
AcDbSymbolTableRecord
100
AcDbBlockTableRecord
  2
JIS_A4L
340
0
  0
BLOCK_RECORD
  5
3437
330
1
100
AcDbSymbolTableRecord
100
AcDbBlockTableRecord
  2
*D1
340
0
  0
BLOCK_RECORD
  5
3445
330
1
100
AcDbSymbolTableRecord
100
AcDbBlockTableRecord
  2
A$C23BB6A77
340
0
  0
ENDTAB
  0
ENDSEC
  0
SECTION
  2
BLOCKS
  0
BLOCK
  5
19
330
18
100
AcDbEntity
  8
0
100
AcDbBlockBegin
  2
*MODEL_SPACE
 70
     2
 10
0.0
 20
0.0
 30
0.0
  3
*MODEL_SPACE
  1

  0
ENDBLK
  5
1A
330
18
100
AcDbEntity
  8
0
100
AcDbBlockEnd
  0
BLOCK
  5
16
330
15
100
AcDbEntity
 67
     1
  8
0
100
AcDbBlockBegin
  2
*PAPER_SPACE
 70
     0
 10
0.0
 20
0.0
 30
0.0
  3
*PAPER_SPACE
  1

  0
ENDBLK
  5
17
330
15
100
AcDbEntity
 67
     1
  8
0
100
AcDbBlockEnd
  0
BLOCK
  5
A1
330
24
100
AcDbEntity
  8
0
100
AcDbBlockBegin
  2
JIS_A4L
 70
     2
 10
0.0
 20
0.0
 30
0.0
  3
JIS_A4L
  1

  0
LINE
  5
25
330
24
100
AcDbEntity
  8
0
100
AcDbLine
 10
0.0
 20
0.0
 30
0.0
 11
0.0
 21
10.0
 31
0.0
  0
LINE
  5
26
330
24
100
AcDbEntity
  8
0
100
AcDbLine
 10
0.0
 20
210.0
 30
0.0
 11
25.0
 21
210.0
 31
0.0
  0
LINE
  5
27
330
24
100
AcDbEntity
  8
0
100
AcDbLine
 10
297.0
 20
210.0
 30
0.0
 11
297.0
 21
200.0
 31
0.0
  0
LINE
  5
28
330
24
100
AcDbEntity
  8
0
100
AcDbLine
 10
297.0
 20
0.0
 30
0.0
 11
287.0
 21
0.0
 31
0.0
  0
LINE
  5
29
330
24
100
AcDbEntity
  8
0
100
AcDbLine
 10
25.0
 20
10.0
 30
0.0
 11
25.0
 21
200.0
 31
0.0
  0
LINE
  5
2A
330
24
100
AcDbEntity
  8
0
100
AcDbLine
 10
287.0
 20
10.0
 30
0.0
 11
25.0
 21
10.0
 31
0.0
  0
LINE
  5
2B
330
24
100
AcDbEntity
  8
0
100
AcDbLine
 10
287.0
 20
200.0
 30
0.0
 11
287.0
 21
10.0
 31
0.0
  0
LINE
  5
2C
330
24
100
AcDbEntity
  8
0
100
AcDbLine
 10
25.0
 20
200.0
 30
0.0
 11
287.0
 21
200.0
 31
0.0
  0
LINE
  5
2D
330
24
100
AcDbEntity
  8
0
100
AcDbLine
 10
0.0
 20
200.0
 30
0.0
 11
0.0
 21
210.0
 31
0.0
  0
LINE
  5
2E
330
24
100
AcDbEntity
  8
0
100
AcDbLine
 10
25.0
 20
0.0
 30
0.0
 11
0.0
 21
0.0
 31
0.0
  0
LINE
  5
2F
330
24
100
AcDbEntity
  8
0
100
AcDbLine
 10
297.0
 20
10.0
 30
0.0
 11
297.0
 21
0.0
 31
0.0
  0
LINE
  5
30
330
24
100
AcDbEntity
  8
0
100
AcDbLine
 10
287.0
 20
210.0
 30
0.0
 11
297.0
 21
210.0
 31
0.0
  0
ATTDEF
  5
31
330
24
100
AcDbEntity
  8
0
 62
     0
100
AcDbText
 10
19.0
 20
10.0
 30
0.0
 40
3.0
  1

 50
90.0
  7
ADESK1
100
AcDbAttributeDefinition
  3

  2
USER
 70
     8
  0
ATTDEF
  5
32
330
24
100
AcDbEntity
  8
0
 62
     0
100
AcDbText
 10
19.0
 20
70.0
 30
0.0
 40
3.0
  1

 50
90.0
  7
ADESK1
100
AcDbAttributeDefinition
  3

  2
REVDATE
 70
     8
  0
ATTDEF
  5
33
330
24
100
AcDbEntity
  8
0
 62
     0
100
AcDbText
 10
19.0
 20
118.0
 30
0.0
 40
3.0
  1

 50
90.0
  7
ADESK1
100
AcDbAttributeDefinition
  3

  2
FNAME
 70
     8
  0
LINE
  5
34
330
24
100
AcDbEntity
  8
OBJECT
100
AcDbLine
 10
130.0
 20
16.0
 30
0.0
 11
25.0
 21
16.0
 31
0.0
  0
LINE
  5
35
330
24
100
AcDbEntity
  8
OBJECT
100
AcDbLine
 10
130.0
 20
22.0
 30
0.0
 11
25.0
 21
22.0
 31
0.0
  0
LINE
  5
36
330
24
100
AcDbEntity
  8
OBJECT
100
AcDbLine
 10
130.0
 20
28.0
 30
0.0
 11
25.0
 21
28.0
 31
0.0
  0
LINE
  5
37
330
24
100
AcDbEntity
  8
OBJECT
100
AcDbLine
 10
130.0
 20
34.0
 30
0.0
 11
25.0
 21
34.0
 31
0.0
  0
LINE
  5
38
330
24
100
AcDbEntity
  8
OBJECT
100
AcDbLine
 10
130.0
 20
40.0
 30
0.0
 11
25.0
 21
40.0
 31
0.0
  0
LINE
  5
39
330
24
100
AcDbEntity
  8
OBJECT
100
AcDbLine
 10
28.0
 20
11.53589799999999
 30
0.0
 11
30.0
 21
15.0
 31
0.0
  0
LINE
  5
3A
330
24
100
AcDbEntity
  8
OBJECT
100
AcDbLine
 10
32.0
 20
11.53589799999999
 30
0.0
 11
30.0
 21
15.0
 31
0.0
  0
LINE
  5
3B
330
24
100
AcDbEntity
  8
OBJECT
100
AcDbLine
 10
35.0
 20
10.0
 30
0.0
 11
35.0
 21
40.0
 31
0.0
  0
LINE
  5
3C
330
24
100
AcDbEntity
  8
OBJECT
100
AcDbLine
 10
50.0
 20
10.0
 30
0.0
 11
50.0
 21
40.0
 31
0.0
  0
LINE
  5
3D
330
24
100
AcDbEntity
  8
OBJECT
100
AcDbLine
 10
80.0
 20
10.0
 30
0.0
 11
80.0
 21
40.0
 31
0.0
  0
LINE
  5
3E
330
24
100
AcDbEntity
  8
OBJECT
100
AcDbLine
 10
28.0
 20
11.53589799999999
 30
0.0
 11
32.0
 21
11.53589799999999
 31
0.0
  0
LINE
  5
3F
330
24
100
AcDbEntity
  8
OBJECT
100
AcDbLine
 10
39.5
 20
13.0
 30
0.0
 11
40.49999999999999
 21
13.0
 31
0.0
  0
LINE
  5
40
330
24
100
AcDbEntity
  8
OBJECT
100
AcDbLine
 10
44.5
 20
13.0
 30
0.0
 11
45.49999999999999
 21
13.0
 31
0.0
  0
LINE
  5
41
330
24
100
AcDbEntity
  8
OBJECT
100
AcDbLine
 10
32.0
 20
17.535898
 30
0.0
 11
30.0
 21
20.99999999999999
 31
0.0
  0
LINE
  5
42
330
24
100
AcDbEntity
  8
OBJECT
100
AcDbLine
 10
28.0
 20
17.535898
 30
0.0
 11
32.0
 21
17.535898
 31
0.0
  0
LINE
  5
43
330
24
100
AcDbEntity
  8
OBJECT
100
AcDbLine
 10
28.0
 20
17.535898
 30
0.0
 11
30.0
 21
20.99999999999999
 31
0.0
  0
LINE
  5
44
330
24
100
AcDbEntity
  8
OBJECT
100
AcDbLine
 10
32.0
 20
23.53589799999999
 30
0.0
 11
30.0
 21
26.99999999999999
 31
0.0
  0
LINE
  5
45
330
24
100
AcDbEntity
  8
OBJECT
100
AcDbLine
 10
28.0
 20
23.53589799999999
 30
0.0
 11
32.0
 21
23.53589799999999
 31
0.0
  0
LINE
  5
46
330
24
100
AcDbEntity
  8
OBJECT
100
AcDbLine
 10
28.0
 20
23.53589799999999
 30
0.0
 11
30.0
 21
26.99999999999999
 31
0.0
  0
LINE
  5
47
330
24
100
AcDbEntity
  8
OBJECT
100
AcDbLine
 10
28.0
 20
35.53589799999999
 30
0.0
 11
30.0
 21
39.0
 31
0.0
  0
LINE
  5
48
330
24
100
AcDbEntity
  8
OBJECT
100
AcDbLine
 10
32.0
 20
35.53589799999999
 30
0.0
 11
30.0
 21
39.0
 31
0.0
  0
LINE
  5
49
330
24
100
AcDbEntity
  8
OBJECT
100
AcDbLine
 10
28.0
 20
35.53589799999999
 30
0.0
 11
32.0
 21
35.53589799999999
 31
0.0
  0
LINE
  5
4A
330
24
100
AcDbEntity
  8
OBJECT
100
AcDbLine
 10
32.0
 20
29.53589799999999
 30
0.0
 11
30.0
 21
33.0
 31
0.0
  0
LINE
  5
4B
330
24
100
AcDbEntity
  8
OBJECT
100
AcDbLine
 10
28.0
 20
29.53589799999999
 30
0.0
 11
32.0
 21
29.53589799999999
 31
0.0
  0
LINE
  5
4C
330
24
100
AcDbEntity
  8
OBJECT
100
AcDbLine
 10
28.0
 20
29.53589799999999
 30
0.0
 11
30.0
 21
33.0
 31
0.0
  0
LINE
  5
4D
330
24
100
AcDbEntity
  8
OBJECT
100
AcDbLine
 10
39.5
 20
19.0
 30
0.0
 11
40.49999999999999
 21
19.0
 31
0.0
  0
LINE
  5
4E
330
24
100
AcDbEntity
  8
OBJECT
100
AcDbLine
 10
44.5
 20
19.0
 30
0.0
 11
45.49999999999999
 21
19.0
 31
0.0
  0
LINE
  5
4F
330
24
100
AcDbEntity
  8
OBJECT
100
AcDbLine
 10
39.5
 20
25.0
 30
0.0
 11
40.49999999999999
 21
25.0
 31
0.0
  0
LINE
  5
50
330
24
100
AcDbEntity
  8
OBJECT
100
AcDbLine
 10
44.5
 20
25.0
 30
0.0
 11
45.49999999999999
 21
25.0
 31
0.0
  0
LINE
  5
51
330
24
100
AcDbEntity
  8
OBJECT
100
AcDbLine
 10
39.5
 20
31.0
 30
0.0
 11
40.49999999999999
 21
31.0
 31
0.0
  0
LINE
  5
52
330
24
100
AcDbEntity
  8
OBJECT
100
AcDbLine
 10
39.5
 20
37.0
 30
0.0
 11
40.49999999999999
 21
37.0
 31
0.0
  0
LINE
  5
53
330
24
100
AcDbEntity
  8
OBJECT
100
AcDbLine
 10
44.5
 20
31.0
 30
0.0
 11
45.49999999999999
 21
31.0
 31
0.0
  0
LINE
  5
54
330
24
100
AcDbEntity
  8
OBJECT
100
AcDbLine
 10
44.5
 20
37.0
 30
0.0
 11
45.49999999999999
 21
37.0
 31
0.0
  0
LINE
  5
55
330
24
100
AcDbEntity
  8
OBJECT
100
AcDbLine
 10
120.0
 20
10.0
 30
0.0
 11
120.0
 21
40.0
 31
0.0
  0
LINE
  5
56
330
24
100
AcDbEntity
  8
OBJECT
100
AcDbLine
 10
130.0
 20
40.0
 30
0.0
 11
130.0
 21
10.0
 31
0.0
  0
LINE
  5
57
330
24
100
AcDbEntity
  8
0
100
AcDbLine
 10
156.0
 20
10.0
 30
0.0
 11
156.0
 21
0.0
 31
0.0
  0
LINE
  5
58
330
24
100
AcDbEntity
  8
0
100
AcDbLine
 10
156.0
 20
200.0
 30
0.0
 11
156.0
 21
210.0
 31
0.0
  0
LINE
  5
59
330
24
100
AcDbEntity
  8
0
100
AcDbLine
 10
287.0
 20
105.0
 30
0.0
 11
297.0
 21
105.0
 31
0.0
  0
LINE
  5
5A
330
24
100
AcDbEntity
  8
0
100
AcDbLine
 10
25.0
 20
105.0
 30
0.0
 11
0.0
 21
105.0
 31
0.0
  0
TEXT
  5
5B
330
24
100
AcDbEntity
  8
0
100
AcDbText
 10
1.0
 20
1.0
 30
0.0
 40
3.0
  1
この図枠はサンプルです。社内の規格やプロッタの出力範囲に合わせて適当に変更してご利用ください。
  7
ADESK1
100
AcDbText
  0
LINE
  5
5C
330
24
100
AcDbEntity
  8
0
100
AcDbLine
 10
25.0
 20
152.5
 30
0.0
 11
20.0
 21
152.5
 31
0.0
  0
LINE
  5
5D
330
24
100
AcDbEntity
  8
0
100
AcDbLine
 10
25.0
 20
105.0
 30
0.0
 11
20.0
 21
105.0
 31
0.0
  0
LINE
  5
5E
330
24
100
AcDbEntity
  8
0
100
AcDbLine
 10
25.0
 20
57.5
 30
0.0
 11
20.0
 21
57.5
 31
0.0
  0
LINE
  5
5F
330
24
100
AcDbEntity
  8
0
100
AcDbLine
 10
68.66666666666668
 20
10.0
 30
0.0
 11
68.66666666666668
 21
5.0
 31
0.0
  0
LINE
  5
60
330
24
100
AcDbEntity
  8
0
100
AcDbLine
 10
112.3333333333333
 20
10.0
 30
0.0
 11
112.3333333333333
 21
5.0
 31
0.0
  0
LINE
  5
61
330
24
100
AcDbEntity
  8
0
100
AcDbLine
 10
156.0
 20
10.0
 30
0.0
 11
156.0
 21
5.0
 31
0.0
  0
LINE
  5
62
330
24
100
AcDbEntity
  8
0
100
AcDbLine
 10
199.6666666666666
 20
10.0
 30
0.0
 11
199.6666666666666
 21
5.0
 31
0.0
  0
LINE
  5
63
330
24
100
AcDbEntity
  8
0
100
AcDbLine
 10
243.3333333333333
 20
10.0
 30
0.0
 11
243.3333333333333
 21
5.0
 31
0.0
  0
LINE
  5
64
330
24
100
AcDbEntity
  8
0
100
AcDbLine
 10
287.0
 20
57.5
 30
0.0
 11
292.0
 21
57.5
 31
0.0
  0
LINE
  5
65
330
24
100
AcDbEntity
  8
0
100
AcDbLine
 10
287.0
 20
105.0
 30
0.0
 11
292.0
 21
105.0
 31
0.0
  0
LINE
  5
66
330
24
100
AcDbEntity
  8
0
100
AcDbLine
 10
287.0
 20
152.5
 30
0.0
 11
292.0
 21
152.5
 31
0.0
  0
LINE
  5
67
330
24
100
AcDbEntity
  8
0
100
AcDbLine
 10
243.3333333333333
 20
200.0
 30
0.0
 11
243.3333333333333
 21
205.0
 31
0.0
  0
LINE
  5
68
330
24
100
AcDbEntity
  8
0
100
AcDbLine
 10
199.6666666666666
 20
200.0
 30
0.0
 11
199.6666666666666
 21
205.0
 31
0.0
  0
LINE
  5
69
330
24
100
AcDbEntity
  8
0
100
AcDbLine
 10
156.0
 20
200.0
 30
0.0
 11
156.0
 21
205.0
 31
0.0
  0
LINE
  5
6A
330
24
100
AcDbEntity
  8
0
100
AcDbLine
 10
112.3333333333333
 20
200.0
 30
0.0
 11
112.3333333333333
 21
205.0
 31
0.0
  0
LINE
  5
6B
330
24
100
AcDbEntity
  8
0
100
AcDbLine
 10
68.66666666666666
 20
200.0
 30
0.0
 11
68.66666666666666
 21
205.0
 31
0.0
  0
TEXT
  5
6C
330
24
100
AcDbEntity
  8
0
100
AcDbText
 10
45.61904761904761
 20
201.0
 30
0.0
 40
3.0
  1
1
  7
ADESK1
 72
     1
 11
46.83333333333332
 21
201.0
 31
0.0
100
AcDbText
  0
TEXT
  5
6D
330
24
100
AcDbEntity
  8
0
100
AcDbText
 10
21.66139736003921
 20
176.25
 30
0.0
 40
3.0
  1
A
  7
ADESK1
 72
     1
 11
22.94711164575349
 21
176.25
 31
0.0
100
AcDbText
  0
TEXT
  5
6E
330
24
100
AcDbEntity
  8
0
100
AcDbText
 10
89.07142857142856
 20
201.0
 30
0.0
 40
3.0
  1
2
  7
ADESK1
 72
     1
 11
90.5
 21
201.0
 31
0.0
100
AcDbText
  0
TEXT
  5
6F
330
24
100
AcDbEntity
  8
0
100
AcDbText
 10
132.7380952380952
 20
201.0
 30
0.0
 40
3.0
  1
3
  7
ADESK1
 72
     1
 11
134.1666666666666
 21
201.0
 31
0.0
100
AcDbText
  0
TEXT
  5
70
330
24
100
AcDbEntity
  8
0
100
AcDbText
 10
176.3333333333333
 20
201.0
 30
0.0
 40
3.0
  1
4
  7
ADESK1
 72
     1
 11
177.8333333333333
 21
201.0
 31
0.0
100
AcDbText
  0
TEXT
  5
71
330
24
100
AcDbEntity
  8
0
100
AcDbText
 10
220.0714285714286
 20
201.0
 30
0.0
 40
3.0
  1
5
  7
ADESK1
 72
     1
 11
221.4999999999999
 21
201.0
 31
0.0
100
AcDbText
  0
TEXT
  5
72
330
24
100
AcDbEntity
  8
0
100
AcDbText
 10
263.6666666666666
 20
201.0
 30
0.0
 40
3.0
  1
6
  7
ADESK1
 72
     1
 11
265.1666666666666
 21
201.0
 31
0.0
100
AcDbText
  0
TEXT
  5
73
330
24
100
AcDbEntity
  8
0
100
AcDbText
 10
21.37568307432492
 20
128.75
 30
0.0
 40
3.0
  1
B
  7
ADESK1
 72
     1
 11
22.94711164575349
 21
128.75
 31
0.0
100
AcDbText
  0
TEXT
  5
74
330
24
100
AcDbEntity
  8
0
100
AcDbText
 10
21.44711164575349
 20
81.25
 30
0.0
 40
3.0
  1
C
  7
ADESK1
 72
     1
 11
22.94711164575349
 21
81.25
 31
0.0
100
AcDbText
  0
TEXT
  5
75
330
24
100
AcDbEntity
  8
0
100
AcDbText
 10
21.37568307432492
 20
33.75
 30
0.0
 40
3.0
  1
D
  7
ADESK1
 72
     1
 11
22.94711164575349
 21
33.75
 31
0.0
100
AcDbText
  0
TEXT
  5
76
330
24
100
AcDbEntity
  8
0
100
AcDbText
 10
45.61904761904759
 20
6.230338100985607
 30
0.0
 40
3.0
  1
1
  7
ADESK1
 72
     1
 11
46.83333333333331
 21
6.230338100985607
 31
0.0
100
AcDbText
  0
TEXT
  5
77
330
24
100
AcDbEntity
  8
0
100
AcDbText
 10
89.07142857142856
 20
6.230338100985607
 30
0.0
 40
3.0
  1
2
  7
ADESK1
 72
     1
 11
90.5
 21
6.230338100985607
 31
0.0
100
AcDbText
  0
TEXT
  5
78
330
24
100
AcDbEntity
  8
0
100
AcDbText
 10
132.7380952380952
 20
6.230338100985607
 30
0.0
 40
3.0
  1
3
  7
ADESK1
 72
     1
 11
134.1666666666666
 21
6.230338100985607
 31
0.0
100
AcDbText
  0
TEXT
  5
79
330
24
100
AcDbEntity
  8
0
100
AcDbText
 10
176.3333333333333
 20
6.230338100985607
 30
0.0
 40
3.0
  1
4
  7
ADESK1
 72
     1
 11
177.8333333333333
 21
6.230338100985607
 31
0.0
100
AcDbText
  0
TEXT
  5
7A
330
24
100
AcDbEntity
  8
0
100
AcDbText
 10
220.0714285714286
 20
6.230338100985607
 30
0.0
 40
3.0
  1
5
  7
ADESK1
 72
     1
 11
221.4999999999999
 21
6.230338100985607
 31
0.0
100
AcDbText
  0
TEXT
  5
7B
330
24
100
AcDbEntity
  8
0
100
AcDbText
 10
263.6666666666666
 20
6.230338100985607
 30
0.0
 40
3.0
  1
6
  7
ADESK1
 72
     1
 11
265.1666666666666
 21
6.230338100985607
 31
0.0
100
AcDbText
  0
TEXT
  5
7C
330
24
100
AcDbEntity
  8
0
100
AcDbText
 10
287.9530581679809
 20
176.25
 30
0.0
 40
3.0
  1
A
  7
ADESK1
 72
     1
 11
289.2387724536952
 21
176.25
 31
0.0
100
AcDbText
  0
TEXT
  5
7D
330
24
100
AcDbEntity
  8
0
100
AcDbText
 10
287.6673438822666
 20
128.75
 30
0.0
 40
3.0
  1
B
  7
ADESK1
 72
     1
 11
289.2387724536952
 21
128.75
 31
0.0
100
AcDbText
  0
TEXT
  5
7E
330
24
100
AcDbEntity
  8
0
100
AcDbText
 10
287.7387724536952
 20
81.25
 30
0.0
 40
3.0
  1
C
  7
ADESK1
 72
     1
 11
289.2387724536952
 21
81.25
 31
0.0
100
AcDbText
  0
TEXT
  5
7F
330
24
100
AcDbEntity
  8
0
100
AcDbText
 10
287.6673438822666
 20
33.75
 30
0.0
 40
3.0
  1
D
  7
ADESK1
 72
     1
 11
289.2387724536952
 21
33.75
 31
0.0
100
AcDbText
  0
LINE
  5
80
330
24
100
AcDbEntity
  8
0
 62
     0
100
AcDbLine
 10
157.2978723404242
 20
49.00000000000036
 30
0.0
 11
287.0
 21
49.00000000000036
 31
0.0
  0
LINE
  5
81
330
24
100
AcDbEntity
  8
0
 62
     0
100
AcDbLine
 10
157.2978723404242
 20
13.00000000000004
 30
0.0
 11
287.0
 21
13.00000000000004
 31
0.0
  0
LINE
  5
82
330
24
100
AcDbEntity
  8
0
 62
     0
100
AcDbLine
 10
157.2978723404242
 20
37.00000000000024
 30
0.0
 11
287.0
 21
37.00000000000024
 31
0.0
  0
LINE
  5
83
330
24
100
AcDbEntity
  8
0
 62
     0
100
AcDbLine
 10
195.1276595744673
 20
22.00000000000012
 30
0.0
 11
287.0
 21
22.00000000000012
 31
0.0
  0
LINE
  5
84
330
24
100
AcDbEntity
  8
0
 62
     0
100
AcDbLine
 10
157.2978723404242
 20
10.0
 30
0.0
 11
287.0
 21
10.0
 31
0.0
  0
LINE
  5
85
330
24
100
AcDbEntity
  8
0
 62
     0
100
AcDbLine
 10
287.0
 20
49.00000000000036
 30
0.0
 11
157.2978723404242
 21
49.00000000000036
 31
0.0
  0
LINE
  5
86
330
24
100
AcDbEntity
  8
0
 62
     0
100
AcDbLine
 10
180.7163120567365
 20
37.00000000000024
 30
0.0
 11
180.7163120567365
 21
10.0
 31
0.0
  0
LINE
  5
87
330
24
100
AcDbEntity
  8
0
 62
     0
100
AcDbLine
 10
162.702127659573
 20
37.00000000000024
 30
0.0
 11
162.702127659573
 21
10.0
 31
0.0
  0
LINE
  5
88
330
24
100
AcDbEntity
  8
0
 62
     0
100
AcDbLine
 10
189.7234042553184
 20
37.00000000000024
 30
0.0
 11
189.7234042553184
 21
10.0
 31
0.0
  0
LINE
  5
89
330
24
100
AcDbEntity
  8
0
 62
     0
100
AcDbLine
 10
195.1276595744673
 20
25.00000000000012
 30
0.0
 11
195.1276595744673
 21
10.0
 31
0.0
  0
LINE
  5
8A
330
24
100
AcDbEntity
  8
0
 62
     0
100
AcDbLine
 10
157.2978723404242
 20
49.00000000000036
 30
0.0
 11
157.2978723404242
 21
10.0
 31
0.0
  0
LINE
  5
8B
330
24
100
AcDbEntity
  8
0
 62
     0
100
AcDbLine
 10
225.7517730496447
 20
49.00000000000036
 30
0.0
 11
225.7517730496447
 21
10.0
 31
0.0
  0
LINE
  5
8C
330
24
100
AcDbEntity
  8
0
 62
     0
100
AcDbLine
 10
205.7659574468077
 20
22.00000000000007
 30
0.0
 11
205.7659574468077
 21
10.0
 31
0.0
  0
LINE
  5
8D
330
24
100
AcDbEntity
  8
0
 62
     0
100
AcDbLine
 10
216.4042553191484
 20
22.00000000000007
 30
0.0
 11
216.4042553191484
 21
10.0
 31
0.0
  0
LINE
  5
8E
330
24
100
AcDbEntity
  8
0
 62
     0
100
AcDbLine
 10
157.2978723404242
 20
16.00000000000008
 30
0.0
 11
195.1276595744673
 21
16.00000000000008
 31
0.0
  0
LINE
  5
8F
330
24
100
AcDbEntity
  8
0
 62
     0
100
AcDbLine
 10
157.2978723404242
 20
10.0
 30
0.0
 11
157.2978723404242
 21
13.00000000000004
 31
0.0
  0
TEXT
  5
90
330
24
100
AcDbEntity
  8
0
 62
     0
100
AcDbText
 10
198.7174935280942
 20
10.48329012996929
 30
0.0
 40
1.791674070777747
  1
製図
  7
ADESK1
 72
     1
 11
200.5688900678978
 21
10.48329012996929
 31
0.0
100
AcDbText
  0
TEXT
  5
91
330
24
100
AcDbEntity
  8
0
 62
     0
100
AcDbText
 10
209.2960689314087
 20
10.48329012996929
 30
0.0
 40
1.791674070777747
  1
設計
  7
ADESK1
 72
     1
 11
211.2071879402383
 21
10.48329012996929
 31
0.0
100
AcDbText
  0
TEXT
  5
92
330
24
100
AcDbEntity
  8
0
 62
     0
100
AcDbText
 10
219.2447163844405
 20
10.55220101068186
 30
0.0
 40
1.791674070777747
  1
照査
  7
ADESK1
 72
     1
 11
221.1558353932701
 21
10.55220101068186
 31
0.0
100
AcDbText
  0
LINE
  5
93
330
24
100
AcDbEntity
  8
0
 62
     0
100
AcDbLine
 10
157.2978723404242
 20
25.00000000000012
 30
0.0
 11
195.1276595744673
 21
25.00000000000012
 31
0.0
  0
LINE
  5
94
330
24
100
AcDbEntity
  8
0
 62
     0
100
AcDbLine
 10
157.2978723404242
 20
22.00000000000007
 30
0.0
 11
195.1276595744673
 21
22.00000000000012
 31
0.0
  0
LINE
  5
95
330
24
100
AcDbEntity
  8
0
 62
     0
100
AcDbLine
 10
157.2978723404242
 20
19.00000000000007
 30
0.0
 11
195.1276595744673
 21
19.00000000000012
 31
0.0
  0
LINE
  5
96
330
24
100
AcDbEntity
  8
0
 62
     0
100
AcDbLine
 10
157.2978723404242
 20
34.00000000000024
 30
0.0
 11
225.7517730496447
 21
34.00000000000024
 31
0.0
  0
LINE
  5
97
330
24
100
AcDbEntity
  8
0
 62
     0
100
AcDbLine
 10
157.2978723404242
 20
31.0000000000002
 30
0.0
 11
225.7517730496447
 21
31.0000000000002
 31
0.0
  0
LINE
  5
98
330
24
100
AcDbEntity
  8
0
 62
     0
100
AcDbLine
 10
157.2978723404242
 20
28.00000000000015
 30
0.0
 11
225.7517730496447
 21
28.00000000000015
 31
0.0
  0
LINE
  5
99
330
24
100
AcDbEntity
  8
0
 62
     0
100
AcDbLine
 10
195.1276595744673
 20
25.00000000000012
 30
0.0
 11
225.7517730496447
 21
25.00000000000012
 31
0.0
  0
LINE
  5
9A
330
24
100
AcDbEntity
  8
0
 62
     0
100
AcDbLine
 10
195.1276595744673
 20
49.00000000000036
 30
0.0
 11
195.1276595744673
 21
25.00000000000012
 31
0.0
  0
LINE
  5
9B
330
24
100
AcDbEntity
  8
0
 62
     0
100
AcDbLine
 10
202.3333333333325
 20
37.00000000000024
 30
0.0
 11
202.3333333333325
 21
25.00000000000012
 31
0.0
  0
LINE
  5
9C
330
24
100
AcDbEntity
  8
0
 62
     0
100
AcDbLine
 10
213.1418439716305
 20
49.00000000000036
 30
0.0
 11
213.1418439716305
 21
22.00000000000012
 31
0.0
  0
LINE
  5
9D
330
24
100
AcDbEntity
  8
0
 62
     0
100
AcDbLine
 10
279.7943262411347
 20
22.00000000000012
 30
0.0
 11
279.7943262411347
 21
10.0
 31
0.0
  0
LINE
  5
9E
330
24
100
AcDbEntity
  8
0
 62
     0
100
AcDbLine
 10
287.0
 20
49.00000000000036
 30
0.0
 11
287.0
 21
10.0
 31
0.0
  0
LINE
  5
9F
330
24
100
AcDbEntity
  8
0
 62
     0
100
AcDbLine
 10
287.0
 20
10.0
 30
0.0
 11
287.0
 21
49.00000000000036
 31
0.0
  0
LINE
  5
A0
330
24
100
AcDbEntity
  8
0
 62
     0
100
AcDbLine
 10
279.7943262411347
 20
16.00000000000008
 30
0.0
 11
287.0
 21
16.00000000000008
 31
0.0
  0
ENDBLK
  5
A2
330
24
100
AcDbEntity
  8
0
100
AcDbBlockEnd
  0
BLOCK
  5
3443
330
3437
100
AcDbEntity
  8
0
100
AcDbBlockBegin
  2
*D1
 70
     1
 10
0.0
 20
0.0
 30
0.0
  3
*D1
  1

  0
LINE
  5
3438
330
3437
100
AcDbEntity
  8
OBJECT
 62
     0
370
    -2
100
AcDbLine
 10
-8068.568047744786
 20
3998.303038975791
 30
0.0
 11
-7757.422052324407
 21
3998.303038975791
 31
0.0
  0
LINE
  5
3439
330
3437
100
AcDbEntity
  8
OBJECT
 62
     0
370
    -2
100
AcDbLine
 10
-8068.568047744786
 20
4078.303038975791
 30
0.0
 11
-7757.422052324407
 21
4078.303038975791
 31
0.0
  0
LINE
  5
343A
330
3437
100
AcDbEntity
  8
OBJECT
 62
     0
370
    -2
100
AcDbLine
 10
-7776.172052324408
 20
3960.803038975791
 30
0.0
 11
-7776.172052324408
 21
3923.303038975791
 31
0.0
  0
LINE
  5
343B
330
3437
100
AcDbEntity
  8
OBJECT
 62
     0
370
    -2
100
AcDbLine
 10
-7776.172052324408
 20
4115.803038975792
 30
0.0
 11
-7776.172052324408
 21
4153.303038975791
 31
0.0
  0
LINE
  5
343C
330
3437
100
AcDbEntity
  8
OBJECT
 62
     0
370
    -2
100
AcDbLine
 10
-7776.172052324408
 20
3998.303038975791
 30
0.0
 11
-7776.172052324408
 21
4078.303038975791
 31
0.0
  0
SOLID
  5
343D
330
3437
100
AcDbEntity
  8
OBJECT
 62
     0
100
AcDbTrace
 10
-7782.422052324408
 20
3960.803038975791
 30
0.0
 11
-7769.922052324408
 21
3960.803038975791
 31
0.0
 12
-7776.172052324408
 22
3998.303038975791
 32
0.0
 13
-7776.172052324408
 23
3998.303038975791
 33
0.0
  0
SOLID
  5
343E
330
3437
100
AcDbEntity
  8
OBJECT
 62
     0
100
AcDbTrace
 10
-7782.422052324408
 20
4115.803038975792
 30
0.0
 11
-7769.922052324408
 21
4115.803038975792
 31
0.0
 12
-7776.172052324408
 22
4078.303038975791
 32
0.0
 13
-7776.172052324408
 23
4078.303038975791
 33
0.0
  0
MTEXT
  5
343F
330
3437
100
AcDbEntity
  8
OBJECT
 62
     0
100
AcDbMText
 10
-7804.297052324407
 20
4038.303038975789
 30
0.0
 40
37.5
 41
0.0
 71
     5
 72
     1
  1
\A1;80
 11
0.0000000000000001
 21
1.0
 31
0.0
 73
     1
 44
1.0
  0
POINT
  5
3440
330
3437
100
AcDbEntity
  8
DEFPOINTS
 62
     0
100
AcDbPoint
 10
-8077.943047744787
 20
3998.303038975791
 30
0.0
  0
POINT
  5
3441
330
3437
100
AcDbEntity
  8
DEFPOINTS
 62
     0
100
AcDbPoint
 10
-8077.943047744787
 20
4078.303038975791
 30
0.0
  0
POINT
  5
3442
330
3437
100
AcDbEntity
  8
DEFPOINTS
 62
     0
100
AcDbPoint
 10
-7776.172052324408
 20
4078.303038975791
 30
0.0
  0
ENDBLK
  5
3444
330
3437
100
AcDbEntity
  8
0
100
AcDbBlockEnd
  0
BLOCK
  5
3447
330
3445
100
AcDbEntity
  8
0
100
AcDbBlockBegin
  2
A$C23BB6A77
 70
     0
 10
0.0
 20
0.0
 30
0.0
  3
A$C23BB6A77
  1

  0
DIMENSION
  5
3446
330
3445
100
AcDbEntity
  8
OBJECT
100
AcDbDimension
  2
*D1
 10
301.7709854312124
 20
154.9999934708971
 30
0.0
 11
273.6459854312115
 21
114.9999934708962
 31
0.0
 12
8077.94303775562
 22
-3923.303045504894
 32
0.0
 71
     5
 42
79.99999999999954
  3
STANDARD
100
AcDbAlignedDimension
 13
-0.0000099891658465
 23
74.99999347089761
 33
0.0
 14
-0.0000099891658465
 24
154.9999934708971
 34
0.0
 50
90.0
100
AcDbRotatedDimension
1001
ACAD
1000
DSTYLE
1002
{
1070
    40
1040
15.0
1070
    41
1040
2.5
1070
    42
1040
0.625
1070
    43
1040
3.75
1070
    44
1040
1.25
1070
    73
1070
     0
1070
    74
1070
     0
1070
    77
1070
     1
1070
    78
1070
     8
1070
   140
1040
2.5
1070
   141
1040
2.5
1070
   143
1040
0.0394
1070
   147
1040
0.625
1070
   171
1070
     4
1070
   172
1070
     1
1070
   273
1070
     8
1070
   274
1070
     4
1070
   277
1070
     6
1002
}
  0
ENDBLK
  5
3448
330
3445
100
AcDbEntity
  8
0
100
AcDbBlockEnd
  0
ENDSEC
  0
SECTION
  2
ENTITIES
  0
MTEXT
  5
938
330
18
100
AcDbEntity
  8
上書線
100
AcDbMText
 10
1865.739761775792
 20
499.0283937835011
 30
0.0
 40
37.5
 41
0.0
 71
     4
 72
     1
  1
\A1;
 73
     1
 44
1.0
  0
LINE
  5
123E
330
18
100
AcDbEntity
  8
基準線
100
AcDbLine
 10
710.0813698183028
 20
2117.506972677286
 30
0.0
 11
731.0813698183028
 21
2117.506972677286
 31
0.0
  0
LINE
  5
14BB
330
18
100
AcDbEntity
  8
基準線
100
AcDbLine
 10
1281.296189060135
 20
2744.451732006984
 30
0.0
 11
1631.12377476475
 21
2744.451732006984
 31
0.0
  0
LINE
  5
14BC
330
18
100
AcDbEntity
  8
基準線
100
AcDbLine
 10
1131.296189060135
 20
2594.451732006984
 30
0.0
 11
1604.134047986604
 21
2594.451732006984
 31
0.0
  0
LINE
  5
1546
330
18
100
AcDbEntity
  8
基準線
100
AcDbLine
 10
2000.40772718317
 20
1104.126411816217
 30
0.0
 11
2000.40772718317
 21
1262.163674897728
 31
0.0
  0
LINE
  5
154B
330
18
100
AcDbEntity
  8
基準線
100
AcDbLine
 10
2550.40772718317
 20
1049.126411816217
 30
0.0
 11
2550.40772718317
 21
1211.614819254876
 31
0.0
  0
LINE
  5
154C
330
18
100
AcDbEntity
  8
基準線
100
AcDbLine
 10
2150.40772718317
 20
1049.126411816217
 30
0.0
 11
2150.40772718317
 21
1226.779475202555
 31
0.0
  0
LINE
  5
15CA
330
18
100
AcDbEntity
  8
基準線
100
AcDbLine
 10
3419.935833980378
 20
2804.85492986955
 30
0.0
 11
3776.432100616551
 21
2804.85492986955
 31
0.0
  0
LINE
  5
15CC
330
18
100
AcDbEntity
  8
基準線
100
AcDbLine
 10
3776.432100616551
 20
2804.85492986955
 30
0.0
 11
4171.357345948922
 21
2804.85492986955
 31
0.0
  0
LINE
  5
15D0
330
18
100
AcDbEntity
  8
基準線
100
AcDbLine
 10
3419.935833980378
 20
2684.85492986955
 30
0.0
 11
3776.432100616551
 21
2684.85492986955
 31
0.0
  0
LINE
  5
15D1
330
18
100
AcDbEntity
  8
基準線
100
AcDbLine
 10
3598.183967298465
 20
2684.85492986955
 30
0.0
 11
3598.183967298465
 21
984.8549298695507
 31
0.0
  0
LINE
  5
15D2
330
18
100
AcDbEntity
  8
基準線
100
AcDbLine
 10
3776.432100616551
 20
2484.854929869551
 30
0.0
 11
4171.357345948921
 21
2484.85492986955
 31
0.0
  0
LINE
  5
15D3
330
18
100
AcDbEntity
  8
基準線
100
AcDbLine
 10
3973.894723282737
 20
2684.854929869551
 30
0.0
 11
3973.894723282734
 21
984.8549298695507
 31
0.0
  0
LINE
  5
15D4
330
18
100
AcDbEntity
  8
基準線
100
AcDbLine
 10
3419.935833980378
 20
2684.85492986955
 30
0.0
 11
3419.935833980378
 21
2584.85492986955
 31
0.0
  0
LINE
  5
15D5
330
18
100
AcDbEntity
  8
基準線
100
AcDbLine
 10
3419.935833980378
 20
2634.85492986955
 30
0.0
 11
4114.659436953616
 21
2634.85492986955
 31
0.0
  0
MTEXT
  5
2600
330
18
100
AcDbEntity
  8
上書線
100
AcDbMText
 10
8135.13603912696
 20
6125.882715983041
 30
0.0
 40
60.0
 41
956.9129999999999
 71
     1
 72
     5
  1
重量表
 73
     1
 44
1.0
  0
MTEXT
  5
283E
330
18
100
AcDbEntity
  8
上線
100
AcDbMText
 10
8234.967973427853
 20
5951.040806401619
 30
0.0
 40
49.968
 41
197.7879999999999
 71
     1
 72
     5
  1
Ｈ
 73
     1
 44
1.0
  0
LINE
  5
283F
330
18
100
AcDbEntity
  8
上線
100
AcDbLine
 10
7858.912694233706
 20
5388.291170554013
 30
0.0
 11
8676.643201879949
 21
5388.291170554013
 31
0.0
  0
LINE
  5
2840
330
18
100
AcDbEntity
  8
上線
100
AcDbLine
 10
7858.912694233706
 20
5486.206528229081
 30
0.0
 11
8676.643201879949
 21
5486.206528229081
 31
0.0
  0
LINE
  5
2841
330
18
100
AcDbEntity
  8
上線
100
AcDbLine
 10
7858.912694233706
 20
5584.121885904147
 30
0.0
 11
8676.643201879949
 21
5584.121885904147
 31
0.0
  0
LINE
  5
2842
330
18
100
AcDbEntity
  8
上線
100
AcDbLine
 10
7858.912694233706
 20
5682.037243579214
 30
0.0
 11
8676.643201879949
 21
5682.037243579214
 31
0.0
  0
LINE
  5
2843
330
18
100
AcDbEntity
  8
上線
100
AcDbLine
 10
7858.912694233706
 20
5779.952601254282
 30
0.0
 11
8676.643201879949
 21
5779.952601254282
 31
0.0
  0
LINE
  5
2844
330
18
100
AcDbEntity
  8
上線
100
AcDbLine
 10
7858.912694233706
 20
5877.787959043113
 30
0.0
 11
8677.277860711424
 21
5877.787959043113
 31
0.0
  0
LINE
  5
2845
330
18
100
AcDbEntity
  8
上線
100
AcDbLine
 10
8676.643201879949
 20
5975.783316604418
 30
0.0
 11
7858.912694233706
 21
5975.783316604418
 31
0.0
  0
LINE
  5
284A
330
18
100
AcDbEntity
  8
上線
100
AcDbLine
 10
8131.489530115787
 20
5975.783316604418
 30
0.0
 11
8131.489530115787
 21
5192.460455203878
 31
0.0
  0
LINE
  5
284B
330
18
100
AcDbEntity
  8
上線
100
AcDbLine
 10
7858.912694233706
 20
5975.783316604418
 30
0.0
 11
7858.912694233706
 21
5192.460455203878
 31
0.0
  0
MTEXT
  5
285C
330
18
100
AcDbEntity
  8
上線
100
AcDbMText
 10
7953.500059258828
 20
5951.040806401619
 30
0.0
 40
49.968
 41
197.7879999999999
 71
     1
 72
     5
  1
h1
 73
     1
 44
1.0
  0
LINE
  5
285F
330
18
100
AcDbEntity
  8
上線
100
AcDbLine
 10
8404.066365997868
 20
5975.783316604418
 30
0.0
 11
8404.066365997868
 21
5192.460455203878
 31
0.0
  0
LINE
  5
2860
330
18
100
AcDbEntity
  8
上線
100
AcDbLine
 10
8676.643201879949
 20
5192.460455203878
 30
0.0
 11
8676.643201879949
 21
5975.783316604418
 31
0.0
  0
MTEXT
  5
2866
330
18
100
AcDbEntity
  8
上線
100
AcDbMText
 10
8447.190241423724
 20
5934.22739564402
 30
0.0
 40
24.984
 41
247.78800162
 71
     1
 72
     5
  1
\fＭＳ Ｐ明朝|b0|i0|c128|p18;参考重量（㎏）
 73
     1
 44
1.0
  0
LINE
  5
34F5
330
18
100
AcDbEntity
  8
上線
100
AcDbLine
 10
7858.912694233706
 20
5290.375812878945
 30
0.0
 11
8676.643201879949
 21
5290.375812878945
 31
0.0
  0
LINE
  5
34F6
330
18
100
AcDbEntity
  8
上線
100
AcDbLine
 10
7858.912694233706
 20
5192.460455203878
 30
0.0
 11
8676.643201879949
 21
5192.460455203878
 31
0.0
  0
MTEXT
  5
355D
330
18
100
AcDbEntity
  8
上線
100
AcDbMText
 10
7971.379962147517
 20
5262.748191030286
 30
0.0
 40
49.968
 41
247.7879999999999
 71
     1
 72
     5
  1
600
 73
     1
 44
1.0
  0
MTEXT
  5
355F
330
18
100
AcDbEntity
  8
上線
100
AcDbMText
 10
7971.379962147517
 20
5458.578906380421
 30
0.0
 40
49.968
 41
247.7879999999999
 71
     1
 72
     5
  1
500
 73
     1
 44
1.0
  0
MTEXT
  5
3560
330
18
100
AcDbEntity
  8
上線
100
AcDbMText
 10
7973.25440998102
 20
5850.160337194454
 30
0.0
 40
49.968
 41
247.7879999999999
 71
     1
 72
     5
  1
300
 73
     1
 44
1.0
  0
MTEXT
  5
3561
330
18
100
AcDbEntity
  8
上線
100
AcDbMText
 10
7971.379962147517
 20
5654.409621730555
 30
0.0
 40
49.968
 41
247.7879999999999
 71
     1
 72
     5
  1
400
 73
     1
 44
1.0
  0
MTEXT
  5
3572
330
18
100
AcDbEntity
  8
上線
100
AcDbMText
 10
8211.988798029597
 20
5262.50819137158
 30
0.0
 40
49.968
 41
279.7559999999999
 71
     1
 72
     5
  1
1300
 73
     1
 44
1.0
  0
MTEXT
  5
3589
330
18
100
AcDbEntity
  8
上線
100
AcDbMText
 10
8516.533633911679
 20
5262.748191030286
 30
0.0
 40
49.968
 41
247.7879999999999
 71
     1
 72
     5
  1
982
 73
     1
 44
1.0
  0
MTEXT
  5
358B
330
18
100
AcDbEntity
  8
上線
100
AcDbMText
 10
8516.533633911679
 20
5458.578906380421
 30
0.0
 40
49.968
 41
247.7879999999999
 71
     1
 72
     5
  1
892
 73
     1
 44
1.0
  0
MTEXT
  5
358C
330
18
100
AcDbEntity
  8
上線
100
AcDbMText
 10
8518.408081745182
 20
5850.160337194454
 30
0.0
 40
49.968
 41
247.7879999999999
 71
     1
 72
     5
  1
712
 73
     1
 44
1.0
  0
MTEXT
  5
358D
330
18
100
AcDbEntity
  8
上線
100
AcDbMText
 10
8516.533633911679
 20
5654.409621730555
 30
0.0
 40
49.968
 41
247.7879999999999
 71
     1
 72
     5
  1
802
 73
     1
 44
1.0
  0
MTEXT
  5
3599
330
18
100
AcDbEntity
  8
上線
100
AcDbMText
 10
8211.988798029597
 20
5458.338906721714
 30
0.0
 40
49.968
 41
279.7559999999999
 71
     1
 72
     5
  1
1200
 73
     1
 44
1.0
  0
MTEXT
  5
35A3
330
18
100
AcDbEntity
  8
上線
100
AcDbMText
 10
8211.988798029597
 20
5654.169622071848
 30
0.0
 40
49.968
 41
279.7559999999999
 71
     1
 72
     5
  1
1100
 73
     1
 44
1.0
  0
MTEXT
  5
35AD
330
18
100
AcDbEntity
  8
上線
100
AcDbMText
 10
8211.988798029597
 20
5850.000337421983
 30
0.0
 40
49.968
 41
279.7559999999999
 71
     1
 72
     5
  1
1000
 73
     1
 44
1.0
  0
HATCH
  5
36C8
330
18
100
AcDbEntity
  8
OBJECT
100
AcDbHatch
 10
0.0
 20
0.0
 30
0.0
210
0.0
220
0.0
230
1.0
  2
AR-SAND
 70
     0
 71
     1
 91
        2
 92
        1
 93
        4
 72
     1
 10
5472.288437150298
 20
5300.665046270127
 11
6084.288437150298
 21
5300.665046270127
 72
     1
 10
6084.288437150298
 20
5300.665046270127
 11
6084.288437150298
 21
5712.665046270127
 72
     1
 10
6084.288437150298
 20
5712.665046270127
 11
5472.288437150298
 21
5712.665046270127
 72
     1
 10
5472.288437150298
 20
5712.665046270127
 11
5472.288437150298
 21
5300.665046270127
 97
        4
330
36F6
330
36CB
330
3788
330
36CC
 92
       16
 93
        4
 72
     1
 10
5478.288437150298
 20
5306.665046270127
 11
6078.288437150298
 21
5306.665046270127
 72
     1
 10
6078.288437150298
 20
5306.665046270127
 11
6078.288437150298
 21
5706.665046270128
 72
     1
 10
6078.288437150298
 20
5706.665046270128
 11
5478.288437150298
 21
5706.665046270128
 72
     1
 10
5478.288437150298
 20
5706.665046270128
 11
5478.288437150298
 21
5306.665046270127
 97
        4
330
36F7
330
36CD
330
3789
330
36CE
 75
     0
 76
     1
 52
90.0
 41
1.0
 77
     0
 78
     4
 53
127.5
 43
10236.89518859022
 44
-661.3684923282508
 45
-48.94132373293423
 46
-1.600031295984042
 79
     6
 49
0.0
 49
-38.608
 49
0.0
 49
-43.18
 49
0.0
 49
-41.275
 53
97.49999999999998
 43
10236.89518859022
 44
-661.3684923282508
 45
-71.68251005683543
 46
44.95232831380027
 79
     6
 49
0.0
 49
-20.828
 49
0.0
 49
-34.79799999999999
 49
0.0
 49
-13.33499999999999
 53
57.49999999999997
 43
10236.89518859022
 44
-692.6104923282509
 45
-0.1437184678545643
 46
79.09923702414579
 79
     6
 49
0.0
 49
-12.69999999999999
 49
0.0
 49
-45.71999999999998
 49
0.0
 49
-59.68999999999998
 53
47.49999999999999
 43
10236.89518859022
 44
-692.6104923282509
 45
-22.29293232572162
 46
76.35564524722972
 79
     6
 49
0.0
 49
-6.349999999999999
 49
0.0
 49
-29.97199999999999
 49
0.0
 49
-34.29
 98
        1
 10
10236.89518859022
 20
-661.3684923282508
  0
HATCH
  5
36C9
330
18
100
AcDbEntity
  8
OBJECT
100
AcDbHatch
 10
0.0
 20
0.0
 30
0.0
210
0.0
220
0.0
230
1.0
  2
AR-SAND
 70
     0
 71
     0
 91
        1
 92
        1
 93
        4
 72
     1
 10
5678.288437150298
 20
5706.665046270128
 11
6078.288437150298
 21
5706.665046270128
 72
     1
 10
6078.288437150298
 20
5706.665046270128
 11
6078.288437150298
 21
5656.665046270127
 72
     1
 10
6078.288437150298
 20
5656.665046270127
 11
5703.288437150298
 21
5656.665046270127
 72
     1
 10
5703.288437150298
 20
5656.665046270127
 11
5678.288437150298
 21
5706.665046270128
 97
        0
 75
     0
 76
     1
 52
90.0
 41
1.0
 77
     0
 78
     4
 53
127.5
 43
10236.89518859022
 44
-661.3684923282508
 45
-48.94132373293423
 46
-1.600031295984042
 79
     6
 49
0.0
 49
-38.608
 49
0.0
 49
-43.18
 49
0.0
 49
-41.275
 53
97.49999999999998
 43
10236.89518859022
 44
-661.3684923282508
 45
-71.68251005683543
 46
44.95232831380027
 79
     6
 49
0.0
 49
-20.828
 49
0.0
 49
-34.79799999999999
 49
0.0
 49
-13.33499999999999
 53
57.49999999999997
 43
10236.89518859022
 44
-692.6104923282509
 45
-0.1437184678545643
 46
79.09923702414579
 79
     6
 49
0.0
 49
-12.69999999999999
 49
0.0
 49
-45.71999999999998
 49
0.0
 49
-59.68999999999998
 53
47.49999999999999
 43
10236.89518859022
 44
-692.6104923282509
 45
-22.29293232572162
 46
76.35564524722972
 79
     6
 49
0.0
 49
-6.349999999999999
 49
0.0
 49
-29.97199999999999
 49
0.0
 49
-34.29
 98
        1
 10
10236.89518859022
 20
-661.3684923282508
  0
LINE
  5
36CA
330
18
100
AcDbEntity
  8
OBJECT
100
AcDbLine
 10
5680.788440531052
 20
5701.66503950862
 30
0.0
 11
5875.788437150298
 21
5311.665046270127
 31
0.0
  0
LINE
  5
36CB
102
{ACAD_REACTORS
330
36C8
102
}
330
18
100
AcDbEntity
  8
OBJECT
100
AcDbLine
 10
6084.288437150298
 20
5300.665046270127
 30
0.0
 11
6084.288437150298
 21
5712.665046270127
 31
0.0
  0
LINE
  5
36CC
102
{ACAD_REACTORS
330
36C8
102
}
330
18
100
AcDbEntity
  8
OBJECT
100
AcDbLine
 10
5472.288437150298
 20
5300.665046270127
 30
0.0
 11
5472.288437150298
 21
5712.665046270127
 31
0.0
  0
LINE
  5
36CD
102
{ACAD_REACTORS
330
36C8
102
}
330
18
100
AcDbEntity
  8
OBJECT
100
AcDbLine
 10
6078.288437150298
 20
5306.665046270127
 30
0.0
 11
6078.288437150298
 21
5706.665046270128
 31
0.0
  0
LINE
  5
36CE
102
{ACAD_REACTORS
330
36C8
102
}
330
18
100
AcDbEntity
  8
OBJECT
100
AcDbLine
 10
5478.288437150298
 20
5306.665046270127
 30
0.0
 11
5478.288437150298
 21
5706.665046270128
 31
0.0
  0
LINE
  5
36CF
330
18
100
AcDbEntity
  8
OBJECT
100
AcDbLine
 10
5278.288437150298
 20
5776.665046270127
 30
0.0
 11
5278.288437150298
 21
5236.665046270127
 31
0.0
  0
LINE
  5
36D0
330
18
100
AcDbEntity
  8
OBJECT
100
AcDbLine
 10
6278.288437150298
 20
5236.665046270127
 30
0.0
 11
6278.288437150298
 21
5776.665046270127
 31
0.0
  0
ARC
  5
36D1
330
18
100
AcDbEntity
  8
上線
100
AcDbCircle
 10
6943.99762108405
 20
4286.665046270127
 30
0.0
 40
50.0
100
AcDbArc
 50
270.0
 51
359.1815445383053
  0
LINE
  5
36D2
330
18
100
AcDbEntity
  8
点線
100
AcDbLine
 10
6649.002722864584
 20
4886.665046270127
 30
0.0
 11
7049.002722864584
 21
4886.665046270127
 31
0.0
  0
LINE
  5
36D3
330
18
100
AcDbEntity
  8
上線
100
AcDbLine
 10
7118.288437150297
 20
4936.665046270127
 30
0.0
 11
6578.288437150297
 21
4936.665046270127
 31
0.0
  0
LINE
  5
36D4
330
18
100
AcDbEntity
  8
OBJECT
100
AcDbLine
 10
7118.288437150297
 20
3636.665046270126
 30
0.0
 11
6578.288437150297
 21
3636.665046270127
 31
0.0
  0
LINE
  5
36D5
330
18
100
AcDbEntity
  8
OBJECT
100
AcDbLine
 10
5544.757831523046
 20
5573.853780544557
 30
0.0
 11
5544.757831523046
 21
5695.013774718711
 31
0.0
  0
LINE
  5
36D6
330
18
100
AcDbEntity
  8
OBJECT
100
AcDbLine
 10
5542.142114895799
 20
5573.853780544557
 30
0.0
 11
5542.142114895799
 21
5695.013774718711
 31
0.0
  0
LINE
  5
36D7
330
18
100
AcDbEntity
  8
OBJECT
100
AcDbLine
 10
5525.139935231504
 20
5573.853780544557
 30
0.0
 11
5525.139935231504
 21
5695.013774718711
 31
0.0
  0
LINE
  5
36D8
330
18
100
AcDbEntity
  8
OBJECT
100
AcDbLine
 10
5659.849492645048
 20
5573.853760586195
 30
0.0
 11
5659.849492645048
 21
5695.013754760348
 31
0.0
  0
LINE
  5
36D9
330
18
100
AcDbEntity
  8
OBJECT
100
AcDbLine
 10
5583.993624106131
 20
5573.853769428783
 30
0.0
 11
5583.993624106131
 21
5695.013763602934
 31
0.0
  0
LINE
  5
36DA
330
18
100
AcDbEntity
  8
OBJECT
100
AcDbLine
 10
5581.377907478881
 20
5573.853769428783
 30
0.0
 11
5581.377907478881
 21
5695.013763602934
 31
0.0
  0
LINE
  5
36DB
330
18
100
AcDbEntity
  8
OBJECT
100
AcDbLine
 10
5600.995803770423
 20
5573.853778271368
 30
0.0
 11
5600.995803770423
 21
5695.01377244552
 31
0.0
  0
LINE
  5
36DC
330
18
100
AcDbEntity
  8
OBJECT
100
AcDbLine
 10
5603.611520397673
 20
5573.853778271368
 30
0.0
 11
5603.611520397673
 21
5695.01377244552
 31
0.0
  0
LINE
  5
36DD
330
18
100
AcDbEntity
  8
OBJECT
100
AcDbLine
 10
5642.847312980754
 20
5573.853787113954
 30
0.0
 11
5642.847312980754
 21
5695.01378128811
 31
0.0
  0
LINE
  5
36DE
330
18
100
AcDbEntity
  8
OBJECT
100
AcDbLine
 10
5640.231596353507
 20
5573.853787113954
 30
0.0
 11
5640.231596353507
 21
5695.01378128811
 31
0.0
  0
LINE
  5
36DF
330
18
100
AcDbEntity
  8
OBJECT
100
AcDbLine
 10
5620.613700061965
 20
5573.853778271368
 30
0.0
 11
5620.613700061965
 21
5695.01377244552
 31
0.0
  0
LINE
  5
36E0
330
18
100
AcDbEntity
  8
OBJECT
100
AcDbLine
 10
5623.229416689213
 20
5573.853778271368
 30
0.0
 11
5623.229416689213
 21
5695.01377244552
 31
0.0
  0
LINE
  5
36E1
330
18
100
AcDbEntity
  8
OBJECT
100
AcDbLine
 10
5561.760011187341
 20
5573.853789387145
 30
0.0
 11
5561.760011187341
 21
5695.013783561298
 31
0.0
  0
LINE
  5
36E2
330
18
100
AcDbEntity
  8
OBJECT
100
AcDbLine
 10
5564.375727814589
 20
5573.853789387145
 30
0.0
 11
5564.375727814589
 21
5695.013783561298
 31
0.0
  0
LINE
  5
36E3
330
18
100
AcDbEntity
  8
OBJECT
100
AcDbLine
 10
5522.524218604257
 20
5573.853780544557
 30
0.0
 11
5522.524218604257
 21
5695.013774718711
 31
0.0
  0
LINE
  5
36E4
330
18
100
AcDbEntity
  8
OBJECT
100
AcDbLine
 10
5502.906322312715
 20
5573.85377170197
 30
0.0
 11
5502.906322312715
 21
5695.013765876125
 31
0.0
  0
LINE
  5
36E5
330
18
100
AcDbEntity
  8
OBJECT
100
AcDbLine
 10
5505.522038939963
 20
5573.85377170197
 30
0.0
 11
5505.522038939963
 21
5695.013765876125
 31
0.0
  0
LINE
  5
36E6
330
18
100
AcDbEntity
  8
OBJECT
100
AcDbLine
 10
5662.465209272296
 20
5573.853760586195
 30
0.0
 11
5662.465209272296
 21
5695.013754760348
 31
0.0
  0
LINE
  5
36E7
330
18
100
AcDbEntity
  8
OBJECT
100
AcDbLine
 10
5679.467388936589
 20
5573.853769428783
 30
0.0
 11
5679.467388936589
 21
5695.013763602934
 31
0.0
  0
LINE
  5
36E8
330
18
100
AcDbEntity
  8
OBJECT
100
AcDbLine
 10
5682.083105563838
 20
5573.853769428783
 30
0.0
 11
5682.083105563838
 21
5695.013763602934
 31
0.0
  0
LINE
  5
36E9
330
18
100
AcDbEntity
  8
OBJECT
100
AcDbLine
 10
5485.904153777545
 20
5695.013770172333
 30
0.0
 11
5485.904153777545
 21
5318.316317821544
 31
0.0
  0
LINE
  5
36EA
330
18
100
AcDbEntity
  8
OBJECT
100
AcDbLine
 10
5483.288437150298
 20
5701.665042889374
 30
0.0
 11
5483.288437150298
 21
5311.665049650883
 31
0.0
  0
LINE
  5
36EB
330
18
100
AcDbEntity
  8
OBJECT
100
AcDbLine
 10
5699.085285228132
 20
5573.853769428783
 30
0.0
 11
5699.085285228132
 21
5665.071350114459
 31
0.0
  0
LINE
  5
36F4
330
18
100
AcDbEntity
  8
点線
100
AcDbLine
 10
5278.288437150298
 20
5656.665046270127
 30
0.0
 11
5703.288437150298
 21
5656.665046270127
 31
0.0
  0
LINE
  5
36F5
330
18
100
AcDbEntity
  8
点線
100
AcDbLine
 10
5278.288437150298
 20
5356.665046270127
 30
0.0
 11
5853.288437150298
 21
5356.665046270127
 31
0.0
  0
LINE
  5
36F6
102
{ACAD_REACTORS
330
36C8
102
}
330
18
100
AcDbEntity
  8
OBJECT
100
AcDbLine
 10
5472.288437150298
 20
5300.665046270127
 30
0.0
 11
6084.288437150298
 21
5300.665046270127
 31
0.0
  0
LINE
  5
36F7
102
{ACAD_REACTORS
330
36C8
102
}
330
18
100
AcDbEntity
  8
OBJECT
100
AcDbLine
 10
5478.288437150298
 20
5306.665046270127
 30
0.0
 11
6078.288437150298
 21
5306.665046270127
 31
0.0
  0
LINE
  5
36F8
330
18
100
AcDbEntity
  8
OBJECT
100
AcDbLine
 10
5278.288437150298
 20
5236.665046270127
 30
0.0
 11
6278.288437150298
 21
5236.665046270127
 31
0.0
  0
LINE
  5
36F9
330
18
100
AcDbEntity
  8
OBJECT
100
AcDbLine
 10
5811.882802014324
 20
5439.476316542076
 30
0.0
 11
5485.904153777545
 21
5439.476316542076
 31
0.0
  0
LINE
  5
36FA
330
18
100
AcDbEntity
  8
OBJECT
100
AcDbLine
 10
5808.578438383044
 20
5446.085043804635
 30
0.0
 11
5485.904153777545
 21
5446.085043804635
 31
0.0
  0
LINE
  5
36FB
330
18
100
AcDbEntity
  8
OBJECT
100
AcDbLine
 10
5747.998439022778
 20
5567.245042525168
 30
0.0
 11
5485.904153777545
 21
5567.245042525168
 31
0.0
  0
LINE
  5
36FC
330
18
100
AcDbEntity
  8
OBJECT
100
AcDbLine
 10
5744.694072286272
 20
5573.85377599818
 30
0.0
 11
5485.904153777545
 21
5573.85377599818
 31
0.0
  0
LINE
  5
36FD
330
18
100
AcDbEntity
  8
OBJECT
100
AcDbLine
 10
5875.78843545992
 20
5311.665049650881
 30
0.0
 11
5483.288437150298
 21
5311.665049650883
 31
0.0
  0
LINE
  5
36FE
330
18
100
AcDbEntity
  8
OBJECT
100
AcDbLine
 10
5872.462799101402
 20
5318.31632236792
 30
0.0
 11
5485.904153777545
 21
5318.316322367922
 31
0.0
  0
LINE
  5
3705
330
18
100
AcDbEntity
  8
OBJECT
100
AcDbLine
 10
6578.288437150297
 20
3636.665046270127
 30
0.0
 11
6578.288437150297
 21
4936.665046270127
 31
0.0
  0
LINE
  5
3706
330
18
100
AcDbEntity
  8
点線
100
AcDbLine
 10
6699.002722864584
 20
4886.665046270127
 30
0.0
 11
6699.002722864583
 21
3636.665046270126
 31
0.0
  0
LINE
  5
3707
330
18
100
AcDbEntity
  8
点線
100
AcDbLine
 10
6997.574151436012
 20
4886.665046270127
 30
0.0
 11
6997.574151436012
 21
3636.665046270126
 31
0.0
  0
ARC
  5
370D
330
18
100
AcDbEntity
  8
上線
100
AcDbCircle
 10
6752.579253216547
 20
4286.665046270127
 30
0.0
 40
50.0
100
AcDbArc
 50
180.8184554616945
 51
270.0
  0
LINE
  5
3713
330
18
100
AcDbEntity
  8
上線
100
AcDbLine
 10
6943.99762108405
 20
4236.665046270127
 30
0.0
 11
6752.579253216547
 21
4236.665046270127
 31
0.0
  0
HATCH
  5
3716
330
18
100
AcDbEntity
  8
OBJECT
100
AcDbHatch
 10
0.0
 20
0.0
 30
0.0
210
0.0
220
0.0
230
1.0
  2
AR-SAND
 70
     0
 71
     0
 91
        1
 92
        1
 93
        4
 72
     1
 10
5878.288437150298
 20
5306.665046270127
 11
6078.288437150298
 21
5306.665046270127
 72
     1
 10
6078.288437150298
 20
5306.665046270127
 11
6078.288437150298
 21
5356.665046270127
 72
     1
 10
6078.288437150298
 20
5356.665046270127
 11
5853.288437150298
 21
5356.665046270127
 72
     1
 10
5853.288437150298
 20
5356.665046270127
 11
5878.288437150298
 21
5306.665046270127
 97
        0
 75
     0
 76
     1
 52
90.0
 41
1.0
 77
     0
 78
     4
 53
127.5
 43
10236.89518859022
 44
-661.3684923282508
 45
-48.94132373293423
 46
-1.600031295984042
 79
     6
 49
0.0
 49
-38.608
 49
0.0
 49
-43.18
 49
0.0
 49
-41.275
 53
97.49999999999998
 43
10236.89518859022
 44
-661.3684923282508
 45
-71.68251005683543
 46
44.95232831380027
 79
     6
 49
0.0
 49
-20.828
 49
0.0
 49
-34.79799999999999
 49
0.0
 49
-13.33499999999999
 53
57.49999999999997
 43
10236.89518859022
 44
-692.6104923282509
 45
-0.1437184678545643
 46
79.09923702414579
 79
     6
 49
0.0
 49
-12.69999999999999
 49
0.0
 49
-45.71999999999998
 49
0.0
 49
-59.68999999999998
 53
47.49999999999999
 43
10236.89518859022
 44
-692.6104923282509
 45
-22.29293232572162
 46
76.35564524722972
 79
     6
 49
0.0
 49
-6.349999999999999
 49
0.0
 49
-29.97199999999999
 49
0.0
 49
-34.29
 98
        1
 10
10236.89518859022
 20
-661.3684923282508
  0
LINE
  5
3717
330
18
100
AcDbEntity
  8
OBJECT
100
AcDbLine
 10
5703.288437150298
 20
5656.665046270127
 30
0.0
 11
6078.288437150298
 21
5656.665046270127
 31
0.0
  0
LINE
  5
3718
330
18
100
AcDbEntity
  8
OBJECT
100
AcDbLine
 10
5853.288437150298
 20
5356.665046270127
 30
0.0
 11
6078.288437150298
 21
5356.665046270127
 31
0.0
  0
LINE
  5
3721
330
18
100
AcDbEntity
  8
上線
 48
10.0
100
AcDbLine
 10
6699.002722864584
 20
4836.665046270127
 30
0.0
 11
6997.574151436012
 21
4836.665046270127
 31
0.0
  0
LINE
  5
3722
330
18
100
AcDbEntity
  8
点線
100
AcDbLine
 10
6649.002722864584
 20
4886.665046270127
 30
0.0
 11
6649.002722864584
 21
4936.665046270127
 31
0.0
  0
LINE
  5
3727
330
18
100
AcDbEntity
  8
点線
100
AcDbLine
 10
6078.288437150298
 20
5656.665046270127
 30
0.0
 11
6278.288437150298
 21
5656.665046270127
 31
0.0
  0
LINE
  5
3728
330
18
100
AcDbEntity
  8
点線
100
AcDbLine
 10
6078.288437150298
 20
5356.665046270127
 30
0.0
 11
6278.288437150298
 21
5356.665046270127
 31
0.0
  0
LINE
  5
3729
330
18
100
AcDbEntity
  8
OBJECT
100
AcDbLine
 10
6078.288437150298
 20
5306.665046270127
 30
0.0
 11
6078.288437150298
 21
5356.665046270127
 31
0.0
  0
LINE
  5
372C
330
18
100
AcDbEntity
  8
OBJECT
100
AcDbLine
 10
5799.790483313088
 20
5446.085043804635
 30
0.0
 11
5799.790483313088
 21
5463.660953944545
 31
0.0
  0
LINE
  5
372D
330
18
100
AcDbEntity
  8
OBJECT
100
AcDbLine
 10
5797.17476668584
 20
5446.085043804635
 30
0.0
 11
5797.17476668584
 21
5468.892387199042
 31
0.0
  0
LINE
  5
372E
330
18
100
AcDbEntity
  8
OBJECT
100
AcDbLine
 10
5780.172587021548
 20
5446.085034962047
 30
0.0
 11
5780.172587021548
 21
5502.896746527627
 31
0.0
  0
LINE
  5
372F
330
18
100
AcDbEntity
  8
OBJECT
100
AcDbLine
 10
5777.556870394298
 20
5446.085034962047
 30
0.0
 11
5777.556870394298
 21
5508.128179782127
 31
0.0
  0
LINE
  5
3730
330
18
100
AcDbEntity
  8
OBJECT
100
AcDbLine
 10
5797.17476668584
 20
5439.476316542076
 30
0.0
 11
5797.17476668584
 21
5318.316322367922
 31
0.0
  0
LINE
  5
3731
330
18
100
AcDbEntity
  8
OBJECT
100
AcDbLine
 10
5777.556870394298
 20
5439.476325384664
 30
0.0
 11
5777.556870394298
 21
5318.316331210511
 31
0.0
  0
LINE
  5
3732
330
18
100
AcDbEntity
  8
OBJECT
100
AcDbLine
 10
5780.172587021548
 20
5439.476325384664
 30
0.0
 11
5780.172587021548
 21
5318.316331210511
 31
0.0
  0
LINE
  5
3733
330
18
100
AcDbEntity
  8
OBJECT
100
AcDbLine
 10
5799.790483313088
 20
5439.476316542076
 30
0.0
 11
5799.790483313088
 21
5318.316322367922
 31
0.0
  0
LINE
  5
3734
330
18
100
AcDbEntity
  8
OBJECT
100
AcDbLine
 10
5819.40837960463
 20
5424.425161361464
 30
0.0
 11
5819.40837960463
 21
5318.316337779907
 31
0.0
  0
LINE
  5
3735
330
18
100
AcDbEntity
  8
OBJECT
100
AcDbLine
 10
5816.792662977382
 20
5429.656594615959
 30
0.0
 11
5816.792662977382
 21
5318.316337779907
 31
0.0
  0
LINE
  5
3736
330
18
100
AcDbEntity
  8
OBJECT
100
AcDbLine
 10
5858.644172187713
 20
5345.953576195295
 30
0.0
 11
5858.644172187713
 21
5318.316328937321
 31
0.0
  0
LINE
  5
3737
330
18
100
AcDbEntity
  8
OBJECT
100
AcDbLine
 10
5856.028455560464
 20
5351.185009449793
 30
0.0
 11
5856.028455560464
 21
5318.316328937321
 31
0.0
  0
LINE
  5
3738
330
18
100
AcDbEntity
  8
OBJECT
100
AcDbLine
 10
5839.026275896172
 20
5385.189368778379
 30
0.0
 11
5839.026275896172
 21
5318.316328937321
 31
0.0
  0
LINE
  5
3739
330
18
100
AcDbEntity
  8
OBJECT
100
AcDbLine
 10
5836.410559268924
 20
5390.420802032875
 30
0.0
 11
5836.410559268924
 21
5318.316328937321
 31
0.0
  0
LINE
  5
373A
330
18
100
AcDbEntity
  8
OBJECT
100
AcDbLine
 10
5640.231596353507
 20
5446.085054920412
 30
0.0
 11
5640.231596353507
 21
5567.245049094565
 31
0.0
  0
LINE
  5
373B
330
18
100
AcDbEntity
  8
OBJECT
100
AcDbLine
 10
5642.847312980754
 20
5446.085054920412
 30
0.0
 11
5642.847312980754
 21
5567.245049094565
 31
0.0
  0
LINE
  5
373C
330
18
100
AcDbEntity
  8
OBJECT
100
AcDbLine
 10
5659.849492645048
 20
5446.085028392651
 30
0.0
 11
5659.849492645048
 21
5567.245022566805
 31
0.0
  0
LINE
  5
373D
330
18
100
AcDbEntity
  8
OBJECT
100
AcDbLine
 10
5662.465209272296
 20
5446.085028392651
 30
0.0
 11
5662.465209272296
 21
5567.245022566805
 31
0.0
  0
LINE
  5
373E
330
18
100
AcDbEntity
  8
OBJECT
100
AcDbLine
 10
5701.70100185538
 20
5446.085037235238
 30
0.0
 11
5701.70100185538
 21
5567.245031409389
 31
0.0
  0
LINE
  5
373F
330
18
100
AcDbEntity
  8
OBJECT
100
AcDbLine
 10
5699.085285228132
 20
5446.085037235238
 30
0.0
 11
5699.085285228132
 21
5567.245031409389
 31
0.0
  0
LINE
  5
3740
330
18
100
AcDbEntity
  8
OBJECT
100
AcDbLine
 10
5718.703181519672
 20
5446.085046077824
 30
0.0
 11
5718.703181519672
 21
5567.245040251977
 31
0.0
  0
LINE
  5
3741
330
18
100
AcDbEntity
  8
OBJECT
100
AcDbLine
 10
5721.318898146922
 20
5446.085046077824
 30
0.0
 11
5721.318898146922
 21
5567.245040251977
 31
0.0
  0
LINE
  5
3742
330
18
100
AcDbEntity
  8
OBJECT
100
AcDbLine
 10
5682.083105563838
 20
5446.085037235238
 30
0.0
 11
5682.083105563838
 21
5567.245031409389
 31
0.0
  0
LINE
  5
3743
330
18
100
AcDbEntity
  8
OBJECT
100
AcDbLine
 10
5679.467388936589
 20
5446.085037235238
 30
0.0
 11
5679.467388936589
 21
5567.245031409389
 31
0.0
  0
LINE
  5
3744
330
18
100
AcDbEntity
  8
OBJECT
100
AcDbLine
 10
5740.936794438464
 20
5446.085026119461
 30
0.0
 11
5740.936794438464
 21
5567.245020293615
 31
0.0
  0
LINE
  5
3745
330
18
100
AcDbEntity
  8
OBJECT
100
AcDbLine
 10
5738.321077811214
 20
5446.085026119461
 30
0.0
 11
5738.321077811214
 21
5567.245020293615
 31
0.0
  0
LINE
  5
3746
330
18
100
AcDbEntity
  8
OBJECT
100
AcDbLine
 10
5760.554690730006
 20
5446.085034962047
 30
0.0
 11
5760.554690730006
 21
5542.132539110711
 31
0.0
  0
LINE
  5
3747
330
18
100
AcDbEntity
  8
OBJECT
100
AcDbLine
 10
5757.938974102756
 20
5446.085034962047
 30
0.0
 11
5757.938974102756
 21
5547.363972365211
 31
0.0
  0
LINE
  5
3748
330
18
100
AcDbEntity
  8
OBJECT
100
AcDbLine
 10
5640.231596353507
 20
5439.4763054263
 30
0.0
 11
5640.231596353507
 21
5318.316311252146
 31
0.0
  0
LINE
  5
3749
330
18
100
AcDbEntity
  8
OBJECT
100
AcDbLine
 10
5642.847312980754
 20
5439.4763054263
 30
0.0
 11
5642.847312980754
 21
5318.316311252146
 31
0.0
  0
LINE
  5
374A
330
18
100
AcDbEntity
  8
OBJECT
100
AcDbLine
 10
5659.849492645048
 20
5439.47633195406
 30
0.0
 11
5659.849492645048
 21
5318.316337779907
 31
0.0
  0
LINE
  5
374B
330
18
100
AcDbEntity
  8
OBJECT
100
AcDbLine
 10
5662.465209272296
 20
5439.47633195406
 30
0.0
 11
5662.465209272296
 21
5318.316337779907
 31
0.0
  0
LINE
  5
374C
330
18
100
AcDbEntity
  8
OBJECT
100
AcDbLine
 10
5701.70100185538
 20
5439.476323111474
 30
0.0
 11
5701.70100185538
 21
5318.316328937321
 31
0.0
  0
LINE
  5
374D
330
18
100
AcDbEntity
  8
OBJECT
100
AcDbLine
 10
5699.085285228132
 20
5439.476323111474
 30
0.0
 11
5699.085285228132
 21
5318.316328937321
 31
0.0
  0
LINE
  5
374E
330
18
100
AcDbEntity
  8
OBJECT
100
AcDbLine
 10
5718.703181519672
 20
5439.476314268887
 30
0.0
 11
5718.703181519672
 21
5318.316320094734
 31
0.0
  0
LINE
  5
374F
330
18
100
AcDbEntity
  8
OBJECT
100
AcDbLine
 10
5721.318898146922
 20
5439.476314268887
 30
0.0
 11
5721.318898146922
 21
5318.316320094734
 31
0.0
  0
LINE
  5
3750
330
18
100
AcDbEntity
  8
OBJECT
100
AcDbLine
 10
5757.938974102756
 20
5439.476325384664
 30
0.0
 11
5757.938974102756
 21
5318.316331210511
 31
0.0
  0
LINE
  5
3751
330
18
100
AcDbEntity
  8
OBJECT
100
AcDbLine
 10
5760.554690730006
 20
5439.476325384664
 30
0.0
 11
5760.554690730006
 21
5318.316331210511
 31
0.0
  0
LINE
  5
3752
330
18
100
AcDbEntity
  8
OBJECT
100
AcDbLine
 10
5740.936794438464
 20
5439.476334227249
 30
0.0
 11
5740.936794438464
 21
5318.316340053096
 31
0.0
  0
LINE
  5
3753
330
18
100
AcDbEntity
  8
OBJECT
100
AcDbLine
 10
5738.321077811214
 20
5439.476334227249
 30
0.0
 11
5738.321077811214
 21
5318.316340053096
 31
0.0
  0
LINE
  5
3754
330
18
100
AcDbEntity
  8
OBJECT
100
AcDbLine
 10
5682.083105563838
 20
5439.476323111474
 30
0.0
 11
5682.083105563838
 21
5318.316328937321
 31
0.0
  0
LINE
  5
3755
330
18
100
AcDbEntity
  8
OBJECT
100
AcDbLine
 10
5679.467388936589
 20
5439.476323111474
 30
0.0
 11
5679.467388936589
 21
5318.316328937321
 31
0.0
  0
LINE
  5
3756
330
18
100
AcDbEntity
  8
OBJECT
100
AcDbLine
 10
5740.936794438464
 20
5573.853758313005
 30
0.0
 11
5740.936794438464
 21
5581.368331693795
 31
0.0
  0
LINE
  5
3757
330
18
100
AcDbEntity
  8
OBJECT
100
AcDbLine
 10
5738.321077811214
 20
5573.853758313005
 30
0.0
 11
5738.321077811214
 21
5586.599764948292
 31
0.0
  0
LINE
  5
3758
330
18
100
AcDbEntity
  8
OBJECT
100
AcDbLine
 10
5701.70100185538
 20
5573.853769428783
 30
0.0
 11
5701.70100185538
 21
5659.839916859962
 31
0.0
  0
LINE
  5
3759
330
18
100
AcDbEntity
  8
OBJECT
100
AcDbLine
 10
5721.318898146922
 20
5573.853778271368
 30
0.0
 11
5721.318898146922
 21
5620.604124276879
 31
0.0
  0
LINE
  5
375A
330
18
100
AcDbEntity
  8
OBJECT
100
AcDbLine
 10
5718.703181519672
 20
5573.853778271368
 30
0.0
 11
5718.703181519672
 21
5625.835557531376
 31
0.0
  0
LINE
  5
375B
330
18
100
AcDbEntity
  8
OBJECT
100
AcDbLine
 10
5505.522038939963
 20
5446.085039508427
 30
0.0
 11
5505.522038939963
 21
5567.24503368258
 31
0.0
  0
LINE
  5
375C
330
18
100
AcDbEntity
  8
OBJECT
100
AcDbLine
 10
5522.524218604257
 20
5446.085048351013
 30
0.0
 11
5522.524218604257
 21
5567.245042525168
 31
0.0
  0
LINE
  5
375D
330
18
100
AcDbEntity
  8
OBJECT
100
AcDbLine
 10
5525.139935231504
 20
5446.085048351013
 30
0.0
 11
5525.139935231504
 21
5567.245042525168
 31
0.0
  0
LINE
  5
375E
330
18
100
AcDbEntity
  8
OBJECT
100
AcDbLine
 10
5564.375727814589
 20
5446.085057193601
 30
0.0
 11
5564.375727814589
 21
5567.245051367754
 31
0.0
  0
LINE
  5
375F
330
18
100
AcDbEntity
  8
OBJECT
100
AcDbLine
 10
5561.760011187341
 20
5446.085057193601
 30
0.0
 11
5561.760011187341
 21
5567.245051367754
 31
0.0
  0
LINE
  5
3760
330
18
100
AcDbEntity
  8
OBJECT
100
AcDbLine
 10
5542.142114895799
 20
5446.085048351013
 30
0.0
 11
5542.142114895799
 21
5567.245042525168
 31
0.0
  0
LINE
  5
3761
330
18
100
AcDbEntity
  8
OBJECT
100
AcDbLine
 10
5544.757831523046
 20
5446.085048351013
 30
0.0
 11
5544.757831523046
 21
5567.245042525168
 31
0.0
  0
LINE
  5
3762
330
18
100
AcDbEntity
  8
OBJECT
100
AcDbLine
 10
5623.229416689213
 20
5446.085046077824
 30
0.0
 11
5623.229416689213
 21
5567.245040251977
 31
0.0
  0
LINE
  5
3763
330
18
100
AcDbEntity
  8
OBJECT
100
AcDbLine
 10
5620.613700061965
 20
5446.085046077824
 30
0.0
 11
5620.613700061965
 21
5567.245040251977
 31
0.0
  0
LINE
  5
3764
330
18
100
AcDbEntity
  8
OBJECT
100
AcDbLine
 10
5603.611520397673
 20
5446.085046077824
 30
0.0
 11
5603.611520397673
 21
5567.245040251977
 31
0.0
  0
LINE
  5
3765
330
18
100
AcDbEntity
  8
OBJECT
100
AcDbLine
 10
5600.995803770423
 20
5446.085046077824
 30
0.0
 11
5600.995803770423
 21
5567.245040251977
 31
0.0
  0
LINE
  5
3766
330
18
100
AcDbEntity
  8
OBJECT
100
AcDbLine
 10
5581.377907478881
 20
5446.085037235238
 30
0.0
 11
5581.377907478881
 21
5567.245031409389
 31
0.0
  0
LINE
  5
3767
330
18
100
AcDbEntity
  8
OBJECT
100
AcDbLine
 10
5583.993624106131
 20
5446.085037235238
 30
0.0
 11
5583.993624106131
 21
5567.245031409389
 31
0.0
  0
LINE
  5
3768
330
18
100
AcDbEntity
  8
OBJECT
100
AcDbLine
 10
5505.522038939963
 20
5439.476320838284
 30
0.0
 11
5505.522038939963
 21
5318.316326664129
 31
0.0
  0
LINE
  5
3769
330
18
100
AcDbEntity
  8
OBJECT
100
AcDbLine
 10
5522.524218604257
 20
5439.476311995697
 30
0.0
 11
5522.524218604257
 21
5318.316317821544
 31
0.0
  0
LINE
  5
376A
330
18
100
AcDbEntity
  8
OBJECT
100
AcDbLine
 10
5564.375727814589
 20
5439.476303153109
 30
0.0
 11
5564.375727814589
 21
5318.316308978956
 31
0.0
  0
LINE
  5
376B
330
18
100
AcDbEntity
  8
OBJECT
100
AcDbLine
 10
5561.760011187341
 20
5439.476303153109
 30
0.0
 11
5561.760011187341
 21
5318.316308978956
 31
0.0
  0
LINE
  5
376C
330
18
100
AcDbEntity
  8
OBJECT
100
AcDbLine
 10
5623.229416689213
 20
5439.476314268887
 30
0.0
 11
5623.229416689213
 21
5318.316320094734
 31
0.0
  0
LINE
  5
376D
330
18
100
AcDbEntity
  8
OBJECT
100
AcDbLine
 10
5620.613700061965
 20
5439.476314268887
 30
0.0
 11
5620.613700061965
 21
5318.316320094734
 31
0.0
  0
LINE
  5
376E
330
18
100
AcDbEntity
  8
OBJECT
100
AcDbLine
 10
5603.611520397673
 20
5439.476314268887
 30
0.0
 11
5603.611520397673
 21
5318.316320094734
 31
0.0
  0
LINE
  5
376F
330
18
100
AcDbEntity
  8
OBJECT
100
AcDbLine
 10
5600.995803770423
 20
5439.476314268887
 30
0.0
 11
5600.995803770423
 21
5318.316320094734
 31
0.0
  0
LINE
  5
3770
330
18
100
AcDbEntity
  8
OBJECT
100
AcDbLine
 10
5581.377907478881
 20
5439.476323111474
 30
0.0
 11
5581.377907478881
 21
5318.316328937321
 31
0.0
  0
LINE
  5
3771
330
18
100
AcDbEntity
  8
OBJECT
100
AcDbLine
 10
5583.993624106131
 20
5439.476323111474
 30
0.0
 11
5583.993624106131
 21
5318.316328937321
 31
0.0
  0
LINE
  5
3772
330
18
100
AcDbEntity
  8
OBJECT
100
AcDbLine
 10
5525.139935231504
 20
5439.476311995697
 30
0.0
 11
5525.139935231504
 21
5318.316317821544
 31
0.0
  0
LINE
  5
3773
330
18
100
AcDbEntity
  8
OBJECT
100
AcDbLine
 10
5542.142114895799
 20
5439.476311995697
 30
0.0
 11
5542.142114895799
 21
5318.316317821544
 31
0.0
  0
LINE
  5
3774
330
18
100
AcDbEntity
  8
OBJECT
100
AcDbLine
 10
5544.757831523046
 20
5439.476311995697
 30
0.0
 11
5544.757831523046
 21
5318.316317821544
 31
0.0
  0
LINE
  5
377E
330
18
100
AcDbEntity
  8
OBJECT
100
AcDbLine
 10
5502.906322312715
 20
5446.085039508427
 30
0.0
 11
5502.906322312715
 21
5567.24503368258
 31
0.0
  0
LINE
  5
377F
330
18
100
AcDbEntity
  8
OBJECT
100
AcDbLine
 10
5502.906322312715
 20
5439.476320838284
 30
0.0
 11
5502.906322312715
 21
5318.316326664129
 31
0.0
  0
LINE
  5
3788
102
{ACAD_REACTORS
330
36C8
102
}
330
18
100
AcDbEntity
  8
OBJECT
100
AcDbLine
 10
5472.288437150298
 20
5712.665046270127
 30
0.0
 11
6084.288437150298
 21
5712.665046270127
 31
0.0
  0
LINE
  5
3789
102
{ACAD_REACTORS
330
36C8
102
}
330
18
100
AcDbEntity
  8
OBJECT
100
AcDbLine
 10
5478.288437150298
 20
5706.665046270128
 30
0.0
 11
6078.288437150298
 21
5706.665046270128
 31
0.0
  0
LINE
  5
378A
330
18
100
AcDbEntity
  8
OBJECT
100
AcDbLine
 10
6278.288437150298
 20
5776.665046270127
 30
0.0
 11
5278.288437150298
 21
5776.665046270127
 31
0.0
  0
LINE
  5
378B
330
18
100
AcDbEntity
  8
OBJECT
100
AcDbLine
 10
5684.114075199194
 20
5695.013770172334
 30
0.0
 11
5485.904153777545
 21
5695.013770172333
 31
0.0
  0
LINE
  5
378C
330
18
100
AcDbEntity
  8
OBJECT
100
AcDbLine
 10
5680.788438840674
 20
5701.665042889374
 30
0.0
 11
5483.288437150298
 21
5701.665042889374
 31
0.0
  0
LINE
  5
378D
330
18
100
AcDbEntity
  8
OBJECT
100
AcDbLine
 10
6278.288437150298
 20
3636.665046270126
 30
0.0
 11
6278.288437150298
 21
4936.665046270127
 31
0.0
  0
LINE
  5
378E
330
18
100
AcDbEntity
  8
点線
100
AcDbLine
 10
6078.288437150298
 20
4886.665046270127
 30
0.0
 11
6078.288437150298
 21
3636.665046270126
 31
0.0
  0
LINE
  5
378F
330
18
100
AcDbEntity
  8
OBJECT
100
AcDbLine
 10
7118.288437150297
 20
4936.665046270127
 30
0.0
 11
7118.288437150297
 21
3636.665046270126
 31
0.0
  0
LINE
  5
3790
330
18
100
AcDbEntity
  8
OBJECT
100
AcDbLine
 10
5278.288437150298
 20
4936.665046270127
 30
0.0
 11
5278.288437150298
 21
3636.665046270126
 31
0.0
  0
LINE
  5
3791
330
18
100
AcDbEntity
  8
点線
100
AcDbLine
 10
5478.288437150298
 20
4886.665046270127
 30
0.0
 11
5478.288437150298
 21
3636.665046270126
 31
0.0
  0
LINE
  5
3792
330
18
100
AcDbEntity
  8
OBJECT
100
AcDbLine
 10
5278.288437150298
 20
3636.665046270126
 30
0.0
 11
6278.288437150298
 21
3636.665046270126
 31
0.0
  0
LINE
  5
3793
330
18
100
AcDbEntity
  8
点線
100
AcDbLine
 10
5478.288437150298
 20
4236.665046270125
 30
0.0
 11
5278.288437150298
 21
4236.665046270125
 31
0.0
  0
LINE
  5
3794
330
18
100
AcDbEntity
  8
点線
100
AcDbLine
 10
6078.288437150298
 20
4236.665046270125
 30
0.0
 11
6278.288437150298
 21
4236.665046270125
 31
0.0
  0
LINE
  5
3797
330
18
100
AcDbEntity
  8
OBJECT
100
AcDbLine
 10
5278.288437150298
 20
4936.665046270127
 30
0.0
 11
6278.288437150298
 21
4936.665046270127
 31
0.0
  0
LINE
  5
3798
330
18
100
AcDbEntity
  8
点線
100
AcDbLine
 10
5478.288437150298
 20
4886.665046270127
 30
0.0
 11
6078.288437150298
 21
4886.665046270127
 31
0.0
  0
LINE
  5
379D
330
18
100
AcDbEntity
  8
点線
100
AcDbLine
 10
5478.288437150298
 20
4836.665046270126
 30
0.0
 11
5278.288437150298
 21
4836.665046270126
 31
0.0
  0
LINE
  5
379E
330
18
100
AcDbEntity
  8
点線
100
AcDbLine
 10
7049.002722864584
 20
4886.665046270127
 30
0.0
 11
7049.002722864584
 21
4936.665046270127
 31
0.0
  0
LINE
  5
379F
330
18
100
AcDbEntity
  8
点線
100
AcDbLine
 10
5478.288437150298
 20
4936.665046270127
 30
0.0
 11
5478.288437150298
 21
4886.665046270127
 31
0.0
  0
LINE
  5
37A7
330
18
100
AcDbEntity
  8
点線
100
AcDbLine
 10
6078.288437150298
 20
4836.665046270126
 30
0.0
 11
6278.288437150298
 21
4836.665046270126
 31
0.0
  0
LINE
  5
37A8
330
18
100
AcDbEntity
  8
点線
100
AcDbLine
 10
6078.288437150298
 20
4886.665046270127
 30
0.0
 11
6078.288437150298
 21
4936.665046270127
 31
0.0
  0
MTEXT
  5
3908
330
18
100
AcDbEntity
  8
上線
100
AcDbMText
 10
7973.25440998102
 20
5752.324979405623
 30
0.0
 40
49.968
 41
247.7879999999999
 71
     1
 72
     5
  1
350
 73
     1
 44
1.0
  0
MTEXT
  5
3909
330
18
100
AcDbEntity
  8
上線
100
AcDbMText
 10
7971.379962147517
 20
5556.574263941723
 30
0.0
 40
49.968
 41
247.7879999999999
 71
     1
 72
     5
  1
450
 73
     1
 44
1.0
  0
MTEXT
  5
390A
330
18
100
AcDbEntity
  8
上線
100
AcDbMText
 10
7971.379962147517
 20
5360.743548591591
 30
0.0
 40
49.968
 41
247.7879999999999
 71
     1
 72
     5
  1
550
 73
     1
 44
1.0
  0
MTEXT
  5
3911
330
18
100
AcDbEntity
  8
上線
100
AcDbMText
 10
8211.988798029597
 20
5752.164979633152
 30
0.0
 40
49.968
 41
279.7559999999999
 71
     1
 72
     5
  1
1050
 73
     1
 44
1.0
  0
MTEXT
  5
3912
330
18
100
AcDbEntity
  8
上線
100
AcDbMText
 10
8211.988798029597
 20
5556.334264283018
 30
0.0
 40
49.968
 41
279.7559999999999
 71
     1
 72
     5
  1
1150
 73
     1
 44
1.0
  0
MTEXT
  5
3913
330
18
100
AcDbEntity
  8
上線
100
AcDbMText
 10
8211.988798029597
 20
5360.503548932882
 30
0.0
 40
49.968
 41
279.7559999999999
 71
     1
 72
     5
  1
1250
 73
     1
 44
1.0
  0
MTEXT
  5
3914
330
18
100
AcDbEntity
  8
上線
100
AcDbMText
 10
8518.408081745182
 20
5752.324979405623
 30
0.0
 40
49.968
 41
247.7879999999999
 71
     1
 72
     5
  1
757
 73
     1
 44
1.0
  0
MTEXT
  5
3915
330
18
100
AcDbEntity
  8
上線
100
AcDbMText
 10
8516.533633911679
 20
5556.574263941723
 30
0.0
 40
49.968
 41
247.7879999999999
 71
     1
 72
     5
  1
847
 73
     1
 44
1.0
  0
MTEXT
  5
3916
330
18
100
AcDbEntity
  8
上線
100
AcDbMText
 10
8516.533633911679
 20
5360.743548591591
 30
0.0
 40
49.968
 41
247.7879999999999
 71
     1
 72
     5
  1
937
 73
     1
 44
1.0
  0
LINE
  5
3931
330
18
100
AcDbEntity
  8
OBJECT
100
AcDbLine
 10
6699.002722864584
 20
4836.665046270127
 30
0.0
 11
6702.58435447657
 21
4285.950833430979
 31
0.0
  0
LINE
  5
3932
330
18
100
AcDbEntity
  8
OBJECT
100
AcDbLine
 10
6997.574151436012
 20
4836.665046270127
 30
0.0
 11
6993.992519824026
 21
4285.950833430979
 31
0.0
  0
LINE
  5
3A82
330
18
100
AcDbEntity
  8
WUWAGAKI
100
AcDbLine
 10
4576.45467205653
 20
3454.797812735739
 30
0.0
 11
8847.173590683448
 21
3454.797812735739
 31
0.0
  0
LINE
  5
3A83
330
18
100
AcDbEntity
  8
WUWAGAKI
100
AcDbLine
 10
8847.173590683448
 20
6380.947664531863
 30
0.0
 11
4576.45467205653
 21
6380.947664531863
 31
0.0
  0
LINE
  5
3A84
330
18
100
AcDbEntity
  8
OBJECT
 48
10.0
100
AcDbLine
 10
7118.288462972792
 20
5116.665037506709
 30
0.0
 11
7230.788462972792
 21
5116.665037506709
 31
0.0
  0
MTEXT
  5
3A85
330
18
100
AcDbEntity
  8
0
  6
ByBlock
 62
     0
 48
10.0
100
AcDbMText
 10
7023.288462972813
 20
5176.66503750671
 30
0.0
 40
37.5
 41
0.0
 71
     5
 72
     1
  1
50
 73
     1
 44
1.0
  0
LINE
  5
3A86
330
18
100
AcDbEntity
  8
WUWAGAKI
100
AcDbLine
 10
4576.45467205653
 20
6380.947664531863
 30
0.0
 11
4576.45467205653
 21
3454.797812735739
 31
0.0
  0
LINE
  5
3A87
330
18
100
AcDbEntity
  8
0
 48
10.0
100
AcDbLine
 10
6578.28846297277
 20
4966.665046270128
 30
0.0
 11
6578.28846297277
 21
5296.665046270128
 31
0.0
  0
LINE
  5
3A88
330
18
100
AcDbEntity
  8
0
 48
10.0
100
AcDbLine
 10
7118.288462972813
 20
4966.665046270131
 30
0.0
 11
7118.288462972813
 21
5296.665046270131
 31
0.0
  0
LINE
  5
3A8C
330
18
100
AcDbEntity
  8
OBJECT
 48
10.0
100
AcDbLine
 10
5098.288447890247
 20
3636.665046270126
 30
0.0
 11
5098.288447890247
 21
4936.665046270127
 31
0.0
  0
LINE
  5
3A8D
330
18
100
AcDbEntity
  8
OBJECT
 48
10.0
100
AcDbLine
 10
4948.288445913719
 20
4936.665046270127
 30
0.0
 11
4948.288445913716
 21
3636.665046270126
 31
0.0
  0
MTEXT
  5
3A90
330
18
100
AcDbEntity
  8
0
  6
ByBlock
 62
     0
 48
10.0
100
AcDbMText
 10
5068.288445913718
 20
3936.665046270127
 30
0.0
 40
37.5
 41
0.0
 71
     5
 72
     1
  1
h1
 11
0.0000000000000001
 21
1.0
 31
0.0
 73
     1
 44
1.0
  0
LINE
  5
3A91
330
18
100
AcDbEntity
  8
0
 48
10.0
100
AcDbLine
 10
5248.288437150297
 20
3636.665046270126
 30
0.0
 11
4918.288437150298
 21
3636.665046270126
 31
0.0
  0
SOLID
  5
3A92
330
18
100
AcDbEntity
  8
0
  6
ByBlock
 62
     0
 48
10.0
100
AcDbTrace
 10
4954.538437150297
 20
3674.165046270148
 30
0.0
 11
4942.038437150295
 21
3674.165046270148
 31
0.0
 12
4948.288437150296
 22
3636.665046270148
 32
0.0
 13
4948.288437150296
 23
3636.665046270148
 33
0.0
  0
SOLID
  5
3A93
330
18
100
AcDbEntity
  8
0
  6
ByBlock
 62
     0
 48
10.0
100
AcDbTrace
 10
5104.538447890245
 20
3674.165058129281
 30
0.0
 11
5092.038447890246
 21
3674.165058129281
 31
0.0
 12
5098.288447890245
 22
3636.665058129281
 32
0.0
 13
5098.288447890245
 23
3636.665058129281
 33
0.0
  0
MTEXT
  5
3A94
330
18
100
AcDbEntity
  8
0
  6
ByBlock
 62
     0
 48
10.0
100
AcDbMText
 10
5068.288445913718
 20
4886.665046270127
 30
0.0
 40
37.5
 41
0.0
 71
     5
 72
     1
  1
100
 11
0.0000000000000001
 21
1.0
 31
0.0
 73
     1
 44
1.0
  0
MTEXT
  5
3A95
330
18
100
AcDbEntity
  8
0
  6
ByBlock
 62
     0
 48
10.0
100
AcDbMText
 10
5068.288437150297
 20
4536.665046270127
 30
0.0
 40
37.5
 41
0.0
 71
     5
 72
     1
  1
600
 11
0.0000000000000001
 21
1.0
 31
0.0
 73
     1
 44
1.0
  0
LINE
  5
3A96
330
18
100
AcDbEntity
  8
0
 48
10.0
100
AcDbLine
 10
5248.288437150297
 20
4936.665046270127
 30
0.0
 11
4918.288437150298
 21
4936.665046270127
 31
0.0
  0
MTEXT
  5
3A97
330
18
100
AcDbEntity
  8
0
  6
ByBlock
 62
     0
 48
10.0
100
AcDbMText
 10
4918.288437150297
 20
4286.665046270126
 30
0.0
 40
37.5
 41
0.0
 71
     5
 72
     1
  1
H
 11
0.0000000000000001
 21
1.0
 31
0.0
 73
     1
 44
1.0
  0
SOLID
  5
3A98
330
18
100
AcDbEntity
  8
0
  6
ByBlock
 62
     0
 48
10.0
100
AcDbTrace
 10
4954.538437150297
 20
4899.165046270105
 30
0.0
 11
4942.038437150295
 21
4899.165046270105
 31
0.0
 12
4948.288437150296
 22
4936.665046270105
 32
0.0
 13
4948.288437150296
 23
4936.665046270105
 33
0.0
  0
LINE
  5
3A9A
330
18
100
AcDbEntity
  8
0
 48
10.0
100
AcDbLine
 10
5248.288437150297
 20
4236.665046270127
 30
0.0
 11
5068.288437150298
 21
4236.665046270127
 31
0.0
  0
SOLID
  5
3A9B
330
18
100
AcDbEntity
  8
0
  6
ByBlock
 62
     0
 48
10.0
100
AcDbTrace
 10
5104.5384371503
 20
4199.165046270127
 30
0.0
 11
5092.0384371503
 21
4199.165046270127
 31
0.0
 12
5098.288437150299
 22
4236.665046270127
 32
0.0
 13
5098.288437150299
 23
4236.665046270127
 33
0.0
  0
SOLID
  5
3A9C
330
18
100
AcDbEntity
  8
0
  6
ByBlock
 62
     0
 48
10.0
100
AcDbTrace
 10
5104.5384371503
 20
4274.165046270127
 30
0.0
 11
5092.0384371503
 21
4274.165046270127
 31
0.0
 12
5098.288437150299
 22
4236.665046270127
 32
0.0
 13
5098.288437150299
 23
4236.665046270127
 33
0.0
  0
LINE
  5
3A9E
330
18
100
AcDbEntity
  8
0
 48
10.0
100
AcDbLine
 10
5248.288437150297
 20
4836.665046270127
 30
0.0
 11
5068.288437150298
 21
4836.665046270127
 31
0.0
  0
SOLID
  5
3A9F
330
18
100
AcDbEntity
  8
0
  6
ByBlock
 62
     0
 48
10.0
100
AcDbTrace
 10
5104.5384371503
 20
4799.165110709822
 30
0.0
 11
5092.0384371503
 21
4799.165110709822
 31
0.0
 12
5098.288437150299
 22
4836.665110709822
 32
0.0
 13
5098.288437150299
 23
4836.665110709822
 33
0.0
  0
SOLID
  5
3AA0
330
18
100
AcDbEntity
  8
0
  6
ByBlock
 62
     0
 48
10.0
100
AcDbTrace
 10
5104.538447890245
 20
4899.165034410973
 30
0.0
 11
5092.038447890246
 21
4899.165034410973
 31
0.0
 12
5098.288447890245
 22
4936.665034410973
 32
0.0
 13
5098.288447890245
 23
4936.665034410973
 33
0.0
  0
SOLID
  5
3AA1
330
18
100
AcDbEntity
  8
0
  6
ByBlock
 62
     0
 48
10.0
100
AcDbTrace
 10
5104.5384371503
 20
4874.16504627013
 30
0.0
 11
5092.0384371503
 21
4874.16504627013
 31
0.0
 12
5098.288437150299
 22
4836.66504627013
 32
0.0
 13
5098.288437150299
 23
4836.66504627013
 33
0.0
  0
LINE
  5
3AAD
330
18
100
AcDbEntity
  8
0
 48
10.0
100
AcDbLine
 10
6703.28846297277
 20
4616.665036174936
 30
0.0
 11
6703.28846297277
 21
4796.665036174936
 31
0.0
  0
LINE
  5
3AAE
330
18
100
AcDbEntity
  8
0
 48
10.0
100
AcDbLine
 10
6993.288462972813
 20
4616.665036174936
 30
0.0
 11
6993.288462972813
 21
4796.665036174936
 31
0.0
  0
LINE
  5
3AB1
330
18
100
AcDbEntity
  8
OBJECT
 48
10.0
100
AcDbLine
 10
6808.693801207643
 20
4318.650724938615
 30
0.0
 11
6913.693801207642
 21
4318.650724938615
 31
0.0
  0
SOLID
  5
3AB3
330
18
100
AcDbEntity
  8
0
  6
ByBlock
 62
     0
 48
10.0
100
AcDbTrace
 10
6744.023323756173
 20
4278.272479190825
 30
0.0
 11
6751.414693755454
 21
4268.191921193685
 31
0.0
 12
6717.477334764396
 22
4251.058090194401
 32
0.0
 13
6717.477334764396
 23
4251.058090194401
 33
0.0
  0
LINE
  5
3AB5
330
18
100
AcDbEntity
  8
WUWAGAKI
 48
10.0
100
AcDbLine
 10
6732.542066418962
 20
4262.221260003018
 30
0.0
 11
6808.693801207643
 21
4318.650724938615
 31
0.0
210
0.0
220
0.0
230
-1.0
1001
ACAD
1000
DSTYLE
1002
{
1070
    78
1070
     8
1070
   270
1070
     8
1070
   140
1040
2.5
1070
    74
1070
     0
1070
   172
1070
     1
1070
    73
1070
     0
1070
    77
1070
     1
1070
    40
1040
10.0
1070
   147
1040
0.625
1070
    42
1040
0.625
1070
    44
1040
1.25
1070
    43
1040
3.75
1070
   141
1040
2.5
1070
    41
1040
2.5
1070
   273
1070
     8
1070
   274
1070
     4
1070
   143
1040
0.0394
1070
   171
1070
     4
1002
}
  0
MTEXT
  5
3AB6
330
18
100
AcDbEntity
  8
0
  6
ByBlock
 62
     0
 48
10.0
100
AcDbMText
 10
6861.193801207642
 20
4348.650724938615
 30
0.0
 40
30.0
 41
0.0
 71
     5
 72
     1
  1
50R
 73
     1
 44
1.0
  0
MTEXT
  5
3AB8
330
18
100
AcDbEntity
  8
0
  6
ByBlock
 62
     0
 48
10.0
100
AcDbMText
 10
6848.288462972814
 20
5146.665046270129
 30
0.0
 40
37.5
 41
0.0
 71
     5
 72
     1
  1
300
 73
     1
 44
1.0
  0
MTEXT
  5
3AB9
330
18
100
AcDbEntity
  8
0
  6
ByBlock
 62
     0
 48
10.0
100
AcDbMText
 10
6848.288462972814
 20
4796.665046270129
 30
0.0
 40
37.5
 41
0.0
 71
     5
 72
     1
  1
290
 73
     1
 44
1.0
  0
LINE
  5
3ABA
330
18
100
AcDbEntity
  8
OBJECT
 48
10.0
100
AcDbLine
 10
6623.288462972769
 20
5116.665037506709
 30
0.0
 11
7118.288462972813
 21
5116.665037506711
 31
0.0
  0
LINE
  5
3ABB
330
18
100
AcDbEntity
  8
OBJECT
 48
10.0
100
AcDbLine
 10
6703.28846297277
 20
4766.665037506709
 30
0.0
 11
6993.288462972813
 21
4766.665037506711
 31
0.0
  0
SOLID
  5
3ABF
330
18
100
AcDbEntity
  8
0
  6
ByBlock
 62
     0
 48
10.0
100
AcDbTrace
 10
6740.788462972776
 20
4760.415055033552
 30
0.0
 11
6740.788462972776
 21
4772.915055033549
 31
0.0
 12
6703.288462972776
 22
4766.665055033553
 32
0.0
 13
6703.288462972776
 23
4766.665055033553
 33
0.0
  0
MTEXT
  5
3AC1
330
18
100
AcDbEntity
  8
0
  6
ByBlock
 62
     0
 48
10.0
100
AcDbMText
 10
6638.28846297277
 20
5146.665039483243
 30
0.0
 40
37.5
 41
0.0
 71
     5
 72
     1
  1
120
 73
     1
 44
1.0
  0
SOLID
  5
3AC2
330
18
100
AcDbEntity
  8
0
  6
ByBlock
 62
     0
 48
10.0
100
AcDbTrace
 10
6615.788474831923
 20
5122.915037506707
 30
0.0
 11
6615.788474831923
 21
5110.415037506705
 31
0.0
 12
6578.288474831923
 22
5116.665037506706
 32
0.0
 13
6578.288474831923
 23
5116.665037506706
 33
0.0
  0
LINE
  5
3AC3
330
18
100
AcDbEntity
  8
0
 48
10.0
100
AcDbLine
 10
6698.288462972769
 20
4966.665036174936
 30
0.0
 11
6698.288462972769
 21
5146.665036174937
 31
0.0
  0
SOLID
  5
3AC4
330
18
100
AcDbEntity
  8
0
  6
ByBlock
 62
     0
 48
10.0
100
AcDbTrace
 10
6735.788462972776
 20
5110.415055033552
 30
0.0
 11
6735.788462972776
 21
5122.91505503355
 31
0.0
 12
6698.288462972776
 22
5116.665055033553
 32
0.0
 13
6698.288462972776
 23
5116.665055033553
 33
0.0
  0
SOLID
  5
3AC5
330
18
100
AcDbEntity
  8
0
  6
ByBlock
 62
     0
 48
10.0
100
AcDbTrace
 10
6660.788462972764
 20
5110.415055033552
 30
0.0
 11
6660.788462972764
 21
5122.91505503355
 31
0.0
 12
6698.288462972763
 22
5116.665055033553
 32
0.0
 13
6698.288462972763
 23
5116.665055033553
 33
0.0
  0
SOLID
  5
3AC6
330
18
100
AcDbEntity
  8
0
  6
ByBlock
 62
     0
 48
10.0
100
AcDbTrace
 10
6955.788568133859
 20
4760.415046270131
 30
0.0
 11
6955.788568133859
 21
4772.915046270129
 31
0.0
 12
6993.288568133859
 22
4766.665046270133
 32
0.0
 13
6993.288568133859
 23
4766.665046270133
 33
0.0
  0
SOLID
  5
3AC8
330
18
100
AcDbEntity
  8
0
  6
ByBlock
 62
     0
 48
10.0
100
AcDbTrace
 10
6960.788568133859
 20
5110.415046270131
 30
0.0
 11
6960.788568133859
 21
5122.915046270129
 31
0.0
 12
6998.288568133858
 22
5116.665046270132
 32
0.0
 13
6998.288568133858
 23
5116.665046270132
 33
0.0
  0
LINE
  5
3AC9
330
18
100
AcDbEntity
  8
0
 48
10.0
100
AcDbLine
 10
7048.288462972813
 20
4966.665046270128
 30
0.0
 11
7048.288462972813
 21
5146.665046270127
 31
0.0
  0
LINE
  5
3ACA
330
18
100
AcDbEntity
  8
0
 48
10.0
100
AcDbLine
 10
6998.288462972813
 20
4966.665036174936
 30
0.0
 11
6998.288462972813
 21
5146.665036174937
 31
0.0
  0
MTEXT
  5
3ACB
330
18
100
AcDbEntity
  8
0
  6
ByBlock
 62
     0
 48
10.0
100
AcDbMText
 10
7083.288462972813
 20
5146.665037506711
 30
0.0
 40
37.5
 41
0.0
 71
     5
 72
     1
  1
70
 73
     1
 44
1.0
  0
LWPOLYLINE
  5
3ACC
330
18
100
AcDbEntity
  8
上線
 48
10.0
100
AcDbPolyline
 90
        2
 70
     1
 43
5.0
 10
7045.788462972812
 20
5116.643099898903
 42
1.0
 10
7050.788462972814
 20
5116.643099898903
 42
1.0
  0
SOLID
  5
3ACD
330
18
100
AcDbEntity
  8
0
  6
ByBlock
 62
     0
 48
10.0
100
AcDbTrace
 10
7155.788474831945
 20
5122.915037506707
 30
0.0
 11
7155.788474831945
 21
5110.415037506705
 31
0.0
 12
7118.288474831945
 22
5116.665037506706
 32
0.0
 13
7118.288474831945
 23
5116.665037506706
 33
0.0
  0
MTEXT
  5
3ACE
330
18
100
AcDbEntity
  8
0
  6
ByBlock
 62
     0
 48
10.0
100
AcDbMText
 10
5778.288437150298
 20
6136.665046270127
 30
0.0
 40
37.5
 41
0.0
 71
     5
 72
     1
  1
1000
 73
     1
 44
1.0
  0
MTEXT
  5
3ACF
330
18
100
AcDbEntity
  8
0
  6
ByBlock
 62
     0
 48
10.0
100
AcDbMText
 10
5778.288437150298
 20
5986.665046270128
 30
0.0
 40
37.5
 41
0.0
 71
     5
 72
     1
  1
600
 73
     1
 44
1.0
  0
LINE
  5
3AD0
330
18
100
AcDbEntity
  8
OBJECT
 48
10.0
100
AcDbLine
 10
6278.288437150298
 20
6106.665037506705
 30
0.0
 11
5278.288437150298
 21
6106.665037506708
 31
0.0
  0
LINE
  5
3AD1
330
18
100
AcDbEntity
  8
OBJECT
 48
10.0
100
AcDbLine
 10
5278.288437150298
 20
5956.665035530178
 30
0.0
 11
6278.288437150298
 21
5956.665035530178
 31
0.0
  0
MTEXT
  5
3AE1
330
18
100
AcDbEntity
  8
0
  6
ByBlock
 62
     0
 48
10.0
100
AcDbMText
 10
5038.288445913714
 20
5681.665072092642
 30
0.0
 40
37.5
 41
0.0
 71
     5
 72
     1
  1
50
 11
0.0000000000000001
 21
1.0
 31
0.0
 73
     1
 44
1.0
  0
MTEXT
  5
3AE2
330
18
100
AcDbEntity
  8
0
  6
ByBlock
 62
     0
 48
10.0
100
AcDbMText
 10
5068.288443937182
 20
5296.665072092599
 30
0.0
 40
37.5
 41
0.0
 71
     5
 72
     1
  1
120
 11
0.0000000000000001
 21
1.0
 31
0.0
 73
     1
 44
1.0
  0
MTEXT
  5
3AE3
330
18
100
AcDbEntity
  8
0
  6
ByBlock
 62
     0
 48
10.0
100
AcDbMText
 10
5068.288437150296
 20
5506.665072092642
 30
0.0
 40
37.5
 41
0.0
 71
     5
 72
     1
  1
300
 11
0.0000000000000001
 21
1.0
 31
0.0
 73
     1
 44
1.0
  0
MTEXT
  5
3AE4
330
18
100
AcDbEntity
  8
0
  6
ByBlock
 62
     0
 48
10.0
100
AcDbMText
 10
5068.288445913714
 20
5741.665072092643
 30
0.0
 40
37.5
 41
0.0
 71
     5
 72
     1
  1
70
 11
0.0000000000000001
 21
1.0
 31
0.0
 73
     1
 44
1.0
  0
LINE
  5
3AE5
330
18
100
AcDbEntity
  8
0
 48
10.0
100
AcDbLine
 10
5248.288437150297
 20
5236.665072092598
 30
0.0
 11
4918.288437150298
 21
5236.665072092598
 31
0.0
  0
LINE
  5
3AE6
330
18
100
AcDbEntity
  8
0
 48
10.0
100
AcDbLine
 10
5248.288437150294
 20
5776.665072092643
 30
0.0
 11
4918.288437150295
 21
5776.665072092643
 31
0.0
  0
LINE
  5
3AE7
330
18
100
AcDbEntity
  8
OBJECT
 48
10.0
100
AcDbLine
 10
4948.288437150292
 20
5281.665072092599
 30
0.0
 11
4948.288437150292
 21
5776.665072092621
 31
0.0
  0
SOLID
  5
3AE8
330
18
100
AcDbEntity
  8
0
  6
ByBlock
 62
     0
 48
10.0
100
AcDbTrace
 10
4954.538437150294
 20
5274.165072092621
 30
0.0
 11
4942.038437150294
 21
5274.165072092621
 31
0.0
 12
4948.288437150292
 22
5236.665072092621
 32
0.0
 13
4948.288437150292
 23
5236.665072092621
 33
0.0
  0
MTEXT
  5
3AE9
330
18
100
AcDbEntity
  8
0
  6
ByBlock
 62
     0
 48
10.0
100
AcDbMText
 10
4918.288437150295
 20
5506.665072092642
 30
0.0
 40
37.5
 41
0.0
 71
     5
 72
     1
  1
540
 11
0.0000000000000001
 21
1.0
 31
0.0
 73
     1
 44
1.0
  0
SOLID
  5
3AEA
330
18
100
AcDbEntity
  8
0
  6
ByBlock
 62
     0
 48
10.0
100
AcDbTrace
 10
4954.538437150294
 20
5739.165072092621
 30
0.0
 11
4942.038437150294
 21
5739.165072092621
 31
0.0
 12
4948.288437150292
 22
5776.665072092621
 32
0.0
 13
4948.288437150292
 23
5776.665072092621
 33
0.0
  0
LINE
  5
3AEB
330
18
100
AcDbEntity
  8
OBJECT
 48
10.0
100
AcDbLine
 10
5098.288445913716
 20
5281.665072092599
 30
0.0
 11
5098.288445913714
 21
5776.665072092643
 31
0.0
  0
LINE
  5
3B06
330
18
100
AcDbEntity
  8
0
 48
10.0
100
AcDbLine
 10
5248.288447245489
 20
5356.665072092599
 30
0.0
 11
5068.288447245489
 21
5356.665072092599
 31
0.0
  0
SOLID
  5
3B07
330
18
100
AcDbEntity
  8
0
  6
ByBlock
 62
     0
 48
10.0
100
AcDbTrace
 10
5104.538428386874
 20
5319.165072092593
 30
0.0
 11
5092.038428386875
 21
5319.165072092593
 31
0.0
 12
5098.288428386871
 22
5356.665072092592
 32
0.0
 13
5098.288428386871
 23
5356.665072092592
 33
0.0
  0
SOLID
  5
3B08
330
18
100
AcDbEntity
  8
0
  6
ByBlock
 62
     0
 48
10.0
100
AcDbTrace
 10
5092.038445913718
 20
5274.165083951753
 30
0.0
 11
5104.538445913719
 21
5274.165083951753
 31
0.0
 12
5098.28844591372
 22
5236.665083951753
 32
0.0
 13
5098.28844591372
 23
5236.665083951753
 33
0.0
  0
SOLID
  5
3B09
330
18
100
AcDbEntity
  8
0
  6
ByBlock
 62
     0
 48
10.0
100
AcDbTrace
 10
5104.538428386874
 20
5394.165072092605
 30
0.0
 11
5092.038428386875
 21
5394.165072092605
 31
0.0
 12
5098.288428386871
 22
5356.665072092606
 32
0.0
 13
5098.288428386871
 23
5356.665072092606
 33
0.0
  0
LINE
  5
3B0A
330
18
100
AcDbEntity
  8
0
 48
10.0
100
AcDbLine
 10
5248.288447245489
 20
5656.665072092643
 30
0.0
 11
5068.288447245489
 21
5656.665072092643
 31
0.0
  0
SOLID
  5
3B0B
330
18
100
AcDbEntity
  8
0
  6
ByBlock
 62
     0
 48
10.0
100
AcDbTrace
 10
5104.538437150294
 20
5619.165177253687
 30
0.0
 11
5092.038437150296
 21
5619.165177253687
 31
0.0
 12
5098.288437150293
 22
5656.665177253688
 32
0.0
 13
5098.288437150293
 23
5656.665177253688
 33
0.0
  0
MTEXT
  5
3B4C
330
18
100
AcDbEntity
  8
0
  6
ByBlock
 62
     0
 48
10.0
100
AcDbMText
 10
5378.288437150298
 20
5986.665037506707
 30
0.0
 40
37.5
 41
0.0
 71
     5
 72
     1
  1
200
 73
     1
 44
1.0
  0
LINE
  5
3B4D
330
18
100
AcDbEntity
  8
0
 48
10.0
100
AcDbLine
 10
5278.288437150298
 20
5806.665046270127
 30
0.0
 11
5278.288437150298
 21
6136.665046270127
 31
0.0
  0
LINE
  5
3B4E
330
18
100
AcDbEntity
  8
0
 48
10.0
100
AcDbLine
 10
5248.288437150297
 20
5706.665072092643
 30
0.0
 11
5068.288437150298
 21
5706.665072092643
 31
0.0
  0
LINE
  5
3B4F
330
18
100
AcDbEntity
  8
OBJECT
 48
10.0
100
AcDbLine
 10
5098.288445913716
 20
5776.665072092621
 30
0.0
 11
5098.288445913716
 21
5889.16507209262
 31
0.0
  0
SOLID
  5
3B50
330
18
100
AcDbEntity
  8
0
  6
ByBlock
 62
     0
 48
10.0
100
AcDbTrace
 10
5092.038445913718
 20
5814.165083951775
 30
0.0
 11
5104.538445913719
 21
5814.165083951775
 31
0.0
 12
5098.28844591372
 22
5776.665083951775
 32
0.0
 13
5098.28844591372
 23
5776.665083951775
 33
0.0
  0
LWPOLYLINE
  5
3B51
330
18
100
AcDbEntity
  8
上線
 48
10.0
100
AcDbPolyline
 90
        2
 70
     1
 43
5.0
 10
5098.310383521521
 20
5704.165072092642
 42
1.0
 10
5098.310383521521
 20
5709.165072092643
 42
1.0
  0
SOLID
  5
3B52
330
18
100
AcDbEntity
  8
0
  6
ByBlock
 62
     0
 48
10.0
100
AcDbTrace
 10
5315.788449009453
 20
5950.415035530181
 30
0.0
 11
5315.788449009453
 21
5962.915035530181
 31
0.0
 12
5278.288449009452
 22
5956.665035530181
 32
0.0
 13
5278.288449009452
 23
5956.665035530181
 33
0.0
  0
SOLID
  5
3B53
330
18
100
AcDbEntity
  8
0
  6
ByBlock
 62
     0
 48
10.0
100
AcDbTrace
 10
5315.78843715032
 20
6100.415046270128
 30
0.0
 11
5315.78843715032
 21
6112.91504627013
 31
0.0
 12
5278.28843715032
 22
6106.665046270131
 32
0.0
 13
5278.28843715032
 23
6106.665046270131
 33
0.0
  0
LINE
  5
3B54
330
18
100
AcDbEntity
  8
0
 48
10.0
100
AcDbLine
 10
5478.288437150298
 20
5806.665046270127
 30
0.0
 11
5478.288437150298
 21
5986.665046270127
 31
0.0
  0
SOLID
  5
3B57
330
18
100
AcDbEntity
  8
0
  6
ByBlock
 62
     0
 48
10.0
100
AcDbTrace
 10
5515.788372710602
 20
5950.415046270125
 30
0.0
 11
5515.788372710602
 21
5962.915046270126
 31
0.0
 12
5478.288372710602
 22
5956.665046270128
 32
0.0
 13
5478.288372710602
 23
5956.665046270128
 33
0.0
  0
SOLID
  5
3B58
330
18
100
AcDbEntity
  8
0
  6
ByBlock
 62
     0
 48
10.0
100
AcDbTrace
 10
5440.788437150295
 20
5950.415046270125
 30
0.0
 11
5440.788437150295
 21
5962.915046270126
 31
0.0
 12
5478.288437150295
 22
5956.665046270128
 32
0.0
 13
5478.288437150295
 23
5956.665046270128
 33
0.0
  0
MTEXT
  5
3B59
330
18
100
AcDbEntity
  8
0
  6
ByBlock
 62
     0
 48
10.0
100
AcDbMText
 10
6430.83824954458
 20
5438.97779640168
 30
0.0
 40
30.0
 41
0.0
 71
     5
 72
     1
  1
グレーチング
 73
     1
 44
1.0
  0
LINE
  5
3B5A
330
18
100
AcDbEntity
  8
OBJECT
 48
10.0
100
AcDbLine
 10
5827.132062084521
 20
5408.97779640168
 30
0.0
 11
6558.338249544579
 21
5408.97779640168
 31
0.0
  0
LINE
  5
3B5E
330
18
100
AcDbEntity
  8
WUWAGAKI
 48
10.0
100
AcDbLine
 10
5962.45195235965
 20
5649.324704333847
 30
0.0
 11
6313.338249544578
 21
5500.043029266443
 31
0.0
210
0.0
220
0.0
230
-1.0
1001
ACAD
1000
DSTYLE
1002
{
1070
    78
1070
     8
1070
   270
1070
     8
1070
   140
1040
2.5
1070
    74
1070
     0
1070
   172
1070
     1
1070
    73
1070
     0
1070
    77
1070
     1
1070
    40
1040
10.0
1070
   147
1040
0.625
1070
    42
1040
0.625
1070
    44
1040
1.25
1070
    43
1040
3.75
1070
   141
1040
2.5
1070
    41
1040
2.5
1070
   273
1070
     8
1070
   274
1070
     4
1070
   143
1040
0.0394
1070
   171
1070
     4
1002
}
  0
SOLID
  5
3B6D
330
18
100
AcDbEntity
  8
0
  6
ByBlock
 62
     0
 48
10.0
100
AcDbTrace
 10
5864.055610141004
 20
5414.949787633516
 30
0.0
 11
5863.995636273589
 21
5402.449931508936
 31
0.0
 12
5826.526054833553
 22
5408.879781173467
 32
0.0
 13
5826.526054833553
 23
5408.879781173467
 33
0.0
  0
SOLID
  5
3B73
330
18
100
AcDbEntity
  8
0
  6
ByBlock
 62
     0
 48
10.0
100
AcDbTrace
 10
5982.106690575115
 20
5647.549268291657
 30
0.0
 11
5977.155184302863
 21
5636.071786615096
 31
0.0
 12
5945.198492409296
 22
5656.665046270127
 32
0.0
 13
5945.198492409296
 23
5656.665046270127
 33
0.0
  0
MTEXT
  5
3B74
330
18
100
AcDbEntity
  8
0
  6
ByBlock
 62
     0
 48
10.0
100
AcDbMText
 10
6365.838249544579
 20
5530.043029266442
 30
0.0
 40
30.0
 41
0.0
 71
     5
 72
     1
  1
受枠
 73
     1
 44
1.0
  0
LINE
  5
3B75
330
18
100
AcDbEntity
  8
OBJECT
 48
10.0
100
AcDbLine
 10
6313.338249544578
 20
5500.043029266443
 30
0.0
 11
6418.338249544579
 21
5500.043029266443
 31
0.0
  0
SOLID
  5
3B76
330
18
100
AcDbEntity
  8
0
  6
ByBlock
 62
     0
 48
10.0
100
AcDbTrace
 10
6115.788437150301
 20
5950.415046270125
 30
0.0
 11
6115.788437150301
 21
5962.915046270126
 31
0.0
 12
6078.288437150301
 22
5956.665046270128
 32
0.0
 13
6078.288437150301
 23
5956.665046270128
 33
0.0
  0
LINE
  5
3B77
330
18
100
AcDbEntity
  8
0
 48
10.0
100
AcDbLine
 10
6078.288437150298
 20
5806.665046270127
 30
0.0
 11
6078.288437150298
 21
5986.665046270127
 31
0.0
  0
SOLID
  5
3B78
330
18
100
AcDbEntity
  8
0
  6
ByBlock
 62
     0
 48
10.0
100
AcDbTrace
 10
6040.788501589993
 20
5950.415046270125
 30
0.0
 11
6040.788501589993
 21
5962.915046270126
 31
0.0
 12
6078.288501589993
 22
5956.665046270128
 32
0.0
 13
6078.288501589993
 23
5956.665046270128
 33
0.0
  0
LINE
  5
3B79
330
18
100
AcDbEntity
  8
0
 48
10.0
100
AcDbLine
 10
6278.288437150298
 20
5806.665046270127
 30
0.0
 11
6278.288437150298
 21
6136.665046270127
 31
0.0
  0
MTEXT
  5
3B7A
330
18
100
AcDbEntity
  8
0
  6
ByBlock
 62
     0
 48
10.0
100
AcDbMText
 10
6178.288437150298
 20
5986.665037506707
 30
0.0
 40
37.5
 41
0.0
 71
     5
 72
     1
  1
200
 73
     1
 44
1.0
  0
SOLID
  5
3B7B
330
18
100
AcDbEntity
  8
0
  6
ByBlock
 62
     0
 48
10.0
100
AcDbTrace
 10
6240.788425291143
 20
5950.415035530181
 30
0.0
 11
6240.788425291143
 21
5962.915035530181
 31
0.0
 12
6278.288425291144
 22
5956.665035530181
 32
0.0
 13
6278.288425291144
 23
5956.665035530181
 33
0.0
  0
SOLID
  5
3B7C
330
18
100
AcDbEntity
  8
0
  6
ByBlock
 62
     0
 48
10.0
100
AcDbTrace
 10
6240.788437150276
 20
6100.415046270128
 30
0.0
 11
6240.788437150276
 21
6112.91504627013
 31
0.0
 12
6278.288437150276
 22
6106.665046270131
 32
0.0
 13
6278.288437150276
 23
6106.665046270131
 33
0.0
  0
MTEXT
  5
3B7D
330
18
100
AcDbEntity
  8
0
  6
ByBlock
 62
     0
 48
10.0
100
AcDbMText
 10
6848.288462972814
 20
5296.665046270131
 30
0.0
 40
37.5
 41
0.0
 71
     5
 72
     1
  1
540
 73
     1
 44
1.0
  0
LINE
  5
3B7E
330
18
100
AcDbEntity
  8
OBJECT
 48
10.0
100
AcDbLine
 10
6623.288462972769
 20
5266.665046270133
 30
0.0
 11
7118.288462972792
 21
5266.665046270133
 31
0.0
  0
SOLID
  5
3B7F
330
18
100
AcDbEntity
  8
0
  6
ByBlock
 62
     0
 48
10.0
100
AcDbTrace
 10
6615.788462972791
 20
5260.415046270131
 30
0.0
 11
6615.788462972791
 21
5272.915046270131
 31
0.0
 12
6578.288462972792
 22
5266.665046270133
 32
0.0
 13
6578.288462972792
 23
5266.665046270133
 33
0.0
  0
SOLID
  5
3B80
330
18
100
AcDbEntity
  8
0
  6
ByBlock
 62
     0
 48
10.0
100
AcDbTrace
 10
7080.788462972792
 20
5260.415046270131
 30
0.0
 11
7080.788462972792
 21
5272.915046270131
 31
0.0
 12
7118.288462972792
 22
5266.665046270133
 32
0.0
 13
7118.288462972792
 23
5266.665046270133
 33
0.0
  0
LINE
  5
3B81
330
18
100
AcDbEntity
  8
WUWAGAKI
100
AcDbLine
 10
8847.173590683448
 20
3454.797812735739
 30
0.0
 11
8847.173590683448
 21
6380.947664531863
 31
0.0
  0
TEXT
  5
3B86
330
18
100
AcDbEntity
  8
WUWAGAKI
100
AcDbText
 10
7974.326877706407
 20
3777.264868449044
 30
0.0
 40
38.2725
  1
300×U600×1000×120/120×H
100
AcDbText
  0
LINE
  5
3B87
330
18
100
AcDbEntity
  8
WUWAGAKI
100
AcDbLine
 10
7687.874002775068
 20
3654.326042732753
 30
0.0
 11
8780.67057787549
 21
3654.326042732753
 31
0.0
  0
LINE
  5
3B88
330
18
100
AcDbEntity
  8
WUWAGAKI
100
AcDbLine
 10
7687.874002775068
 20
3752.841106897359
 30
0.0
 11
8780.67057787549
 21
3752.841106897359
 31
0.0
  0
LINE
  5
3B89
330
18
100
AcDbEntity
  8
WUWAGAKI
100
AcDbLine
 10
7687.874002775068
 20
3523.297347177541
 30
0.0
 11
8780.670577875492
 21
3523.297347177541
 31
0.0
  0
LINE
  5
3B8A
330
18
100
AcDbEntity
  8
WUWAGAKI
100
AcDbLine
 10
7687.874002775068
 20
3848.747491861974
 30
0.0
 11
8778.038755539729
 21
3848.747491861974
 31
0.0
  0
LINE
  5
3B8B
330
18
100
AcDbEntity
  8
WUWAGAKI
100
AcDbLine
 10
7687.874002775068
 20
3848.747491861974
 30
0.0
 11
8778.038755539729
 21
3848.747491861974
 31
0.0
  0
LINE
  5
3B8C
330
18
100
AcDbEntity
  8
WUWAGAKI
100
AcDbLine
 10
7687.874002775068
 20
3943.277779807111
 30
0.0
 11
8780.670577875492
 21
3943.277779807111
 31
0.0
  0
TEXT
  5
3B92
330
18
100
AcDbEntity
  8
WUWAGAKI
100
AcDbText
 10
7732.752446537348
 20
3773.894539042508
 30
0.0
 40
45.0
  1
寸　法
100
AcDbText
  0
TEXT
  5
3B93
330
18
100
AcDbEntity
  8
WUWAGAKI
100
AcDbText
 10
7760.400204298431
 20
3677.396586051026
 30
0.0
 40
45.0
  1
縮尺
100
AcDbText
  0
TEXT
  5
3B94
330
18
100
AcDbEntity
  8
WUWAGAKI
100
AcDbText
 10
7735.407658423769
 20
3875.033379079489
 30
0.0
 40
45.0
  1
種　別
100
AcDbText
  0
LINE
  5
3B95
330
18
100
AcDbEntity
  8
WUWAGAKI
100
AcDbLine
 10
7687.874002775068
 20
3943.277779807111
 30
0.0
 11
7687.874002775068
 21
3523.297347177541
 31
0.0
  0
TEXT
  5
3B96
330
18
100
AcDbEntity
  8
WUWAGAKI
100
AcDbText
 10
8361.087736279632
 20
3678.747938992025
 30
0.0
 40
45.0
  1
重量
100
AcDbText
  0
LINE
  5
3B97
330
18
100
AcDbEntity
  8
WUWAGAKI
100
AcDbLine
 10
7939.990474343577
 20
3943.277779807111
 30
0.0
 11
7939.990474343577
 21
3654.326042732753
 31
0.0
  0
TEXT
  5
3B98
330
18
100
AcDbEntity
  8
WUWAGAKI
100
AcDbText
 10
7974.326877706407
 20
3678.698501480484
 30
0.0
 40
45.0
  1
S＝　1：15
100
AcDbText
  0
LINE
  5
3B99
330
18
100
AcDbEntity
  8
WUWAGAKI
100
AcDbLine
 10
8334.159960527486
 20
3752.841106897359
 30
0.0
 11
8334.159960527486
 21
3654.326042732753
 31
0.0
  0
LINE
  5
3B9A
330
18
100
AcDbEntity
  8
WUWAGAKI
100
AcDbLine
 10
8518.388387289803
 20
3752.841106897359
 30
0.0
 11
8518.388387289803
 21
3654.326042732753
 31
0.0
  0
TEXT
  5
3B9B
330
18
100
AcDbEntity
  8
WUWAGAKI
100
AcDbText
 10
7926.579435674543
 20
3554.904913983928
 30
0.0
 40
60.0
  1
㈱　ウ　チ　コ　ン
100
AcDbText
  0
TEXT
  5
3B9C
330
18
100
AcDbEntity
  8
WUWAGAKI
100
AcDbText
 10
7974.326877706407
 20
3872.454218883429
 30
0.0
 40
45.0
  1
集水桝
100
AcDbText
  0
LINE
  5
3BA1
330
18
100
AcDbEntity
  8
WUWAGAKI
100
AcDbLine
 10
8780.670577875492
 20
3523.297347177541
 30
0.0
 11
8780.670577875492
 21
3943.277779807111
 31
0.0
  0
VIEWPORT
  5
298
330
15
100
AcDbEntity
 67
     1
  8
0
100
AcDbViewport
 10
291.7632241813602
 20
148.5
 30
0.0
 40
583.5264483627204
 41
297.0
 68
     1
 69
     1
 12
291.7632241813602
 22
148.5
 13
0.0
 23
0.0
 14
10.0
 24
10.0
 15
10.0
 25
10.0
 16
0.0
 26
0.0
 36
1.0
 17
0.0
 27
0.0
 37
0.0
 42
50.0
 43
0.0
 44
0.0
 45
297.0
 50
0.0
 51
0.0
 72
   100
 90
    32800
  1

281
     0
 71
     1
 74
     0
110
0.0
120
0.0
130
0.0
111
1.0
121
0.0
131
0.0
112
0.0
122
1.0
132
0.0
 79
     0
146
0.0
  0
ENDSEC
  0
SECTION
  2
OBJECTS
  0
DICTIONARY
  5
C
330
0
100
AcDbDictionary
281
     1
  3
ACAD_GROUP
350
D
  3
ACAD_LAYOUT
350
15FE
  3
ACAD_MLINESTYLE
350
1B
  3
ACAD_PLOTSETTINGS
350
15FF
  3
ACAD_PLOTSTYLENAME
350
15FC
  3
ACDBVARIABLEDICTIONARY
350
B2A
  3
DRAWINGVARIABLESDICT
350
1212
  0
DICTIONARY
  5
D
102
{ACAD_REACTORS
330
C
102
}
330
C
100
AcDbDictionary
281
     1
  3
*A1
350
1DE1
  3
*A2
350
2483
  3
*A3
350
2486
  3
*A4
350
2971
  3
*A5
350
3003
  3
*A6
350
34F4
  0
DICTIONARY
  5
15FE
102
{ACAD_REACTORS
330
C
102
}
330
C
100
AcDbDictionary
281
     1
  3
Model
350
1600
  3
ﾚｲｱｳﾄ1
350
1601
  0
DICTIONARY
  5
1B
102
{ACAD_REACTORS
330
C
102
}
330
C
100
AcDbDictionary
281
     1
  3
STANDARD
350
1C
  0
DICTIONARY
  5
15FF
102
{ACAD_REACTORS
330
C
102
}
330
C
100
AcDbDictionary
281
     1
  0
ACDBDICTIONARYWDFLT
  5
15FC
102
{ACAD_REACTORS
330
C
102
}
330
C
100
AcDbDictionary
281
     1
  3
Normal
350
15FD
100
AcDbDictionaryWithDefault
340
15FD
  0
DICTIONARY
  5
B2A
102
{ACAD_REACTORS
330
C
102
}
330
C
100
AcDbDictionary
281
     1
  3
SORTENTS
350
B2B
  0
DICTIONARY
  5
1212
102
{ACAD_REACTORS
330
C
102
}
330
C
100
AcDbDictionary
281
     1
1001
DRAWINGVARIABLESXDATA
1000
POLARANG
1000
0.785398
1000
POLARMODE
1000
0
  0
GROUP
  5
1DE1
102
{ACAD_REACTORS
330
D
102
}
330
D
100
AcDbGroup
300

 70
     1
 71
     1
  0
GROUP
  5
2483
102
{ACAD_REACTORS
330
D
102
}
330
D
100
AcDbGroup
300

 70
     1
 71
     1
  0
GROUP
  5
2486
102
{ACAD_REACTORS
330
D
102
}
330
D
100
AcDbGroup
300

 70
     1
 71
     1
  0
GROUP
  5
2971
102
{ACAD_REACTORS
330
D
102
}
330
D
100
AcDbGroup
300

 70
     1
 71
     1
  0
GROUP
  5
3003
102
{ACAD_REACTORS
330
D
102
}
330
D
100
AcDbGroup
300

 70
     1
 71
     1
  0
GROUP
  5
34F4
102
{ACAD_REACTORS
330
D
102
}
330
D
100
AcDbGroup
300

 70
     1
 71
     1
  0
LAYOUT
  5
1600
102
{ACAD_REACTORS
330
15FE
102
}
330
15FE
100
AcDbPlotSettings
  1

  2
Canon LBP3800 LIPSLX
  4
A4
  6

 40
5.873749732971191
 41
5.873747825622558
 42
5.873748779296875
 43
5.873748779296875
 44
209.9733276367187
 45
296.9259948730469
 46
0.0
 47
0.0
 48
0.0
 49
0.0
140
0.0
141
0.0
142
1.0
143
1.0
 70
 11952
 72
     1
 73
     1
 74
     0
  7

 75
     0
147
1.0
148
-1119.838883806218
149
-2764.341960111367
100
AcDbLayout
  1
Model
 70
     1
 71
     0
 10
0.0
 20
0.0
 11
12.0
 21
9.0
 12
0.0
 22
0.0
 32
0.0
 14
0.0
 24
0.0
 34
0.0
 15
0.0
 25
0.0
 35
0.0
146
0.0
 13
0.0
 23
0.0
 33
0.0
 16
1.0
 26
0.0
 36
0.0
 17
0.0
 27
1.0
 37
0.0
 76
     0
330
18
  0
LAYOUT
  5
1601
102
{ACAD_REACTORS
330
15FE
102
}
330
15FE
100
AcDbPlotSettings
  1

  2
Canon LBP3800 LIPSLX
  4

  6

 40
0.0
 41
0.0
 42
0.0
 43
0.0
 44
0.0
 45
0.0
 46
0.0
 47
0.0
 48
0.0
 49
0.0
140
0.0
141
0.0
142
1.0
143
1.0
 70
   688
 72
     0
 73
     0
 74
     5
  7

 75
    16
147
1.0
148
0.0
149
0.0
100
AcDbLayout
  1
ﾚｲｱｳﾄ1
 70
     1
 71
     1
 10
0.0
 20
0.0
 11
420.0
 21
297.0
 12
0.0
 22
0.0
 32
0.0
 14
1.000000000000000E+20
 24
1.000000000000000E+20
 34
1.000000000000000E+20
 15
-1.000000000000000E+20
 25
-1.000000000000000E+20
 35
-1.000000000000000E+20
146
0.0
 13
0.0
 23
0.0
 33
0.0
 16
1.0
 26
0.0
 36
0.0
 17
0.0
 27
1.0
 37
0.0
 76
     0
330
15
331
298
  0
MLINESTYLE
  5
1C
102
{ACAD_REACTORS
330
1B
102
}
330
1B
100
AcDbMlineStyle
  2
STANDARD
 70
     0
  3

 62
   256
 51
90.0
 52
90.0
 71
     2
 49
0.5
 62
   256
  6
BYLAYER
 49
-0.5
 62
   256
  6
BYLAYER
  0
ACDBPLACEHOLDER
  5
15FD
102
{ACAD_REACTORS
330
15FC
102
}
330
15FC
  0
DICTIONARYVAR
  5
B2B
102
{ACAD_REACTORS
330
B2A
102
}
330
B2A
100
DictionaryVariables
280
     0
  1
96
  0
ENDSEC
  0
EOF
