  0
SECTION
  2
HEADER
  9
$ACADVER
  1
AC1015
  9
$ACADMAINTVER
 70
     6
  9
$DWGCODEPAGE
  3
ANSI_932
  9
$INSBASE
 10
0.0
 20
0.0
 30
0.0
  9
$EXTMIN
 10
710.0813698183028
 20
984.8549298695507
 30
0.0
  9
$EXTMAX
 10
8971.75823541437
 20
6358.897508086726
 30
0.0
  9
$LIMMIN
 10
0.0
 20
0.0
  9
$LIMMAX
 10
4455.0
 20
3150.0
  9
$ORTHOMODE
 70
     0
  9
$REGENMODE
 70
     1
  9
$FILLMODE
 70
     1
  9
$QTEXTMODE
 70
     0
  9
$MIRRTEXT
 70
     1
  9
$LTSCALE
 40
5.0
  9
$ATTMODE
 70
     1
  9
$TEXTSIZE
 40
2.5
  9
$TRACEWID
 40
1.0
  9
$TEXTSTYLE
  7
STANDARD
  9
$CLAYER
  8
OBJECT
  9
$CELTYPE
  6
BYLAYER
  9
$CECOLOR
 62
   256
  9
$CELTSCALE
 40
1.0
  9
$DISPSILH
 70
     0
  9
$DIMSCALE
 40
15.0
  9
$DIMASZ
 40
2.5
  9
$DIMEXO
 40
0.625
  9
$DIMDLI
 40
3.75
  9
$DIMRND
 40
0.0
  9
$DIMDLE
 40
0.0
  9
$DIMEXE
 40
1.25
  9
$DIMTP
 40
0.0
  9
$DIMTM
 40
0.0
  9
$DIMTXT
 40
2.5
  9
$DIMCEN
 40
2.5
  9
$DIMTSZ
 40
0.0
  9
$DIMTOL
 70
     0
  9
$DIMLIM
 70
     0
  9
$DIMTIH
 70
     0
  9
$DIMTOH
 70
     0
  9
$DIMSE1
 70
     0
  9
$DIMSE2
 70
     0
  9
$DIMTAD
 70
     1
  9
$DIMZIN
 70
     8
  9
$DIMBLK
  1

  9
$DIMASO
 70
     1
  9
$DIMSHO
 70
     1
  9
$DIMPOST
  1

  9
$DIMAPOST
  1

  9
$DIMALT
 70
     0
  9
$DIMALTD
 70
     4
  9
$DIMALTF
 40
0.0394
  9
$DIMLFAC
 40
1.0
  9
$DIMTOFL
 70
     1
  9
$DIMTVP
 40
0.0
  9
$DIMTIX
 70
     0
  9
$DIMSOXD
 70
     0
  9
$DIMSAH
 70
     0
  9
$DIMBLK1
  1

  9
$DIMBLK2
  1

  9
$DIMSTYLE
  2
STANDARD
  9
$DIMCLRD
 70
     0
  9
$DIMCLRE
 70
     0
  9
$DIMCLRT
 70
     0
  9
$DIMTFAC
 40
1.0
  9
$DIMGAP
 40
0.625
  9
$DIMJUST
 70
     0
  9
$DIMSD1
 70
     0
  9
$DIMSD2
 70
     0
  9
$DIMTOLJ
 70
     1
  9
$DIMTZIN
 70
     0
  9
$DIMALTZ
 70
     0
  9
$DIMALTTZ
 70
     0
  9
$DIMUPT
 70
     0
  9
$DIMDEC
 70
     4
  9
$DIMTDEC
 70
     4
  9
$DIMALTU
 70
     8
  9
$DIMALTTD
 70
     4
  9
$DIMTXSTY
  7
STANDARD
  9
$DIMAUNIT
 70
     0
  9
$DIMADEC
 70
     0
  9
$DIMALTRND
 40
0.0
  9
$DIMAZIN
 70
     0
  9
$DIMDSEP
 70
    46
  9
$DIMATFIT
 70
     3
  9
$DIMFRAC
 70
     0
  9
$DIMLDRBLK
  1

  9
$DIMLUNIT
 70
     6
  9
$DIMLWD
 70
    -2
  9
$DIMLWE
 70
    -2
  9
$DIMTMOVE
 70
     0
  9
$LUNITS
 70
     2
  9
$LUPREC
 70
     4
  9
$SKETCHINC
 40
1.0
  9
$FILLETRAD
 40
10.0
  9
$AUNITS
 70
     0
  9
$AUPREC
 70
     0
  9
$MENU
  1
acad
  9
$ELEVATION
 40
0.0
  9
$PELEVATION
 40
0.0
  9
$THICKNESS
 40
0.0
  9
$LIMCHECK
 70
     0
  9
$CHAMFERA
 40
10.0
  9
$CHAMFERB
 40
10.0
  9
$CHAMFERC
 40
20.0
  9
$CHAMFERD
 40
0.0
  9
$SKPOLY
 70
     0
  9
$TDCREATE
 40
2452111.335768865
  9
$TDUCREATE
 40
2452110.960768866
  9
$TDUPDATE
 40
2454547.714578287
  9
$TDUUPDATE
 40
2454547.339578287
  9
$TDINDWG
 40
1.2431856250
  9
$TDUSRTIMER
 40
1.2431856250
  9
$USRTIMER
 70
     1
  9
$ANGBASE
 50
0.0
  9
$ANGDIR
 70
     0
  9
$PDMODE
 70
     0
  9
$PDSIZE
 40
0.0
  9
$PLINEWID
 40
0.0
  9
$SPLFRAME
 70
     0
  9
$SPLINETYPE
 70
     6
  9
$SPLINESEGS
 70
     8
  9
$HANDSEED
  5
3BE1
  9
$SURFTAB1
 70
     6
  9
$SURFTAB2
 70
     6
  9
$SURFTYPE
 70
     6
  9
$SURFU
 70
     6
  9
$SURFV
 70
     6
  9
$UCSBASE
  2

  9
$UCSNAME
  2

  9
$UCSORG
 10
0.0
 20
0.0
 30
0.0
  9
$UCSXDIR
 10
1.0
 20
0.0
 30
0.0
  9
$UCSYDIR
 10
0.0
 20
1.0
 30
0.0
  9
$UCSORTHOREF
  2

  9
$UCSORTHOVIEW
 70
     0
  9
$UCSORGTOP
 10
0.0
 20
0.0
 30
0.0
  9
$UCSORGBOTTOM
 10
0.0
 20
0.0
 30
0.0
  9
$UCSORGLEFT
 10
0.0
 20
0.0
 30
0.0
  9
$UCSORGRIGHT
 10
0.0
 20
0.0
 30
0.0
  9
$UCSORGFRONT
 10
0.0
 20
0.0
 30
0.0
  9
$UCSORGBACK
 10
0.0
 20
0.0
 30
0.0
  9
$PUCSBASE
  2

  9
$PUCSNAME
  2

  9
$PUCSORG
 10
0.0
 20
0.0
 30
0.0
  9
$PUCSXDIR
 10
1.0
 20
0.0
 30
0.0
  9
$PUCSYDIR
 10
0.0
 20
1.0
 30
0.0
  9
$PUCSORTHOREF
  2

  9
$PUCSORTHOVIEW
 70
     0
  9
$PUCSORGTOP
 10
0.0
 20
0.0
 30
0.0
  9
$PUCSORGBOTTOM
 10
0.0
 20
0.0
 30
0.0
  9
$PUCSORGLEFT
 10
0.0
 20
0.0
 30
0.0
  9
$PUCSORGRIGHT
 10
0.0
 20
0.0
 30
0.0
  9
$PUCSORGFRONT
 10
0.0
 20
0.0
 30
0.0
  9
$PUCSORGBACK
 10
0.0
 20
0.0
 30
0.0
  9
$USERI1
 70
     0
  9
$USERI2
 70
     0
  9
$USERI3
 70
     0
  9
$USERI4
 70
     0
  9
$USERI5
 70
     0
  9
$USERR1
 40
0.0
  9
$USERR2
 40
0.0
  9
$USERR3
 40
0.0
  9
$USERR4
 40
0.0
  9
$USERR5
 40
0.0
  9
$WORLDVIEW
 70
     1
  9
$SHADEDGE
 70
     3
  9
$SHADEDIF
 70
    70
  9
$TILEMODE
 70
     1
  9
$MAXACTVP
 70
    48
  9
$PINSBASE
 10
0.0
 20
0.0
 30
0.0
  9
$PLIMCHECK
 70
     0
  9
$PEXTMIN
 10
1.000000000000000E+20
 20
1.000000000000000E+20
 30
1.000000000000000E+20
  9
$PEXTMAX
 10
-1.000000000000000E+20
 20
-1.000000000000000E+20
 30
-1.000000000000000E+20
  9
$PLIMMIN
 10
0.0
 20
0.0
  9
$PLIMMAX
 10
420.0
 20
297.0
  9
$UNITMODE
 70
     0
  9
$VISRETAIN
 70
     1
  9
$PLINEGEN
 70
     0
  9
$PSLTSCALE
 70
     1
  9
$TREEDEPTH
 70
  3020
  9
$CMLSTYLE
  2
STANDARD
  9
$CMLJUST
 70
     0
  9
$CMLSCALE
 40
20.0
  9
$PROXYGRAPHICS
 70
     1
  9
$MEASUREMENT
 70
     1
  9
$CELWEIGHT
370
    -1
  9
$ENDCAPS
280
     0
  9
$JOINSTYLE
280
     0
  9
$LWDISPLAY
290
     0
  9
$INSUNITS
 70
     0
  9
$HYPERLINKBASE
  1

  9
$STYLESHEET
  1

  9
$XEDIT
290
     1
  9
$CEPSNTYPE
380
     0
  9
$PSTYLEMODE
290
     1
  9
$FINGERPRINTGUID
  2
{C9668057-E409-4CFD-A4F9-6C0551275C13}
  9
$VERSIONGUID
  2
{6C2445BE-BC98-46A5-99E0-0F92E49D0204}
  9
$EXTNAMES
290
     1
  9
$PSVPSCALE
 40
0.0
  9
$OLESTARTUP
290
     0
  0
ENDSEC
  0
SECTION
  2
CLASSES
  0
CLASS
  1
LWPOLYLINE
  2
AcDbPolyline
  3
AutoCAD 2000
 90
    32768
280
     0
281
     1
  0
CLASS
  1
DICTIONARYVAR
  2
AcDbDictionaryVar
  3
AutoCAD 2000
 90
        0
280
     0
281
     0
  0
CLASS
  1
HATCH
  2
AcDbHatch
  3
AutoCAD 2000
 90
    32768
280
     0
281
     1
  0
CLASS
  1
ACDBDICTIONARYWDFLT
  2
AcDbDictionaryWithDefault
  3
AutoCAD 2000
 90
        0
280
     0
281
     0
  0
CLASS
  1
ACDBPLACEHOLDER
  2
AcDbPlaceHolder
  3
AutoCAD 2000
 90
        0
280
     0
281
     0
  0
CLASS
  1
LAYOUT
  2
AcDbLayout
  3
AutoCAD 2000
 90
        0
280
     0
281
     0
  0
ENDSEC
  0
SECTION
  2
TABLES
  0
TABLE
  2
VPORT
  5
8
330
0
100
AcDbSymbolTable
 70
     2
  0
VPORT
  5
3BE0
330
8
100
AcDbSymbolTableRecord
100
AcDbViewportTableRecord
  2
*Active
 70
     0
 10
0.0
 20
0.0
 11
1.0
 21
1.0
 12
7106.285985826764
 22
4868.206163226172
 13
0.0
 23
0.0
 14
10.0
 24
10.0
 15
10.0
 25
10.0
 16
0.0
 26
0.0
 36
1.0
 17
0.0
 27
0.0
 37
0.0
 40
3329.100214835045
 41
1.731203007518796
 42
50.0
 43
0.0
 44
0.0
 50
0.0
 51
0.0
 71
     0
 72
   100
 73
     1
 74
     1
 75
     0
 76
     0
 77
     0
 78
     0
281
     0
 65
     1
110
0.0
120
0.0
130
0.0
111
1.0
121
0.0
131
0.0
112
0.0
122
1.0
132
0.0
 79
     0
146
0.0
  0
ENDTAB
  0
TABLE
  2
LTYPE
  5
5
330
0
100
AcDbSymbolTable
 70
    46
  0
LTYPE
  5
12
330
5
100
AcDbSymbolTableRecord
100
AcDbLinetypeTableRecord
  2
BYBLOCK
 70
     0
  3

 72
    65
 73
     0
 40
0.0
  0
LTYPE
  5
13
330
5
100
AcDbSymbolTableRecord
100
AcDbLinetypeTableRecord
  2
BYLAYER
 70
     0
  3

 72
    65
 73
     0
 40
0.0
  0
LTYPE
  5
14
330
5
100
AcDbSymbolTableRecord
100
AcDbLinetypeTableRecord
  2
CONTINUOUS
 70
     0
  3
Solid line
 72
    65
 73
     0
 40
0.0
  0
LTYPE
  5
128
330
5
100
AcDbSymbolTableRecord
100
AcDbLinetypeTableRecord
  2
ACAD_ISO02W100
 70
     0
  3
ISO dash __ __ __ __ __ __ __ __ __ __ __ __ __
 72
    65
 73
     2
 40
15.0
 49
12.0
 74
     0
 49
-3.0
 74
     0
  0
LTYPE
  5
129
330
5
100
AcDbSymbolTableRecord
100
AcDbLinetypeTableRecord
  2
ACAD_ISO03W100
 70
     0
  3
ISO dash space __    __    __    __    __    __
 72
    65
 73
     2
 40
30.0
 49
12.0
 74
     0
 49
-18.0
 74
     0
  0
LTYPE
  5
12A
330
5
100
AcDbSymbolTableRecord
100
AcDbLinetypeTableRecord
  2
ACAD_ISO04W100
 70
     0
  3
ISO long-dash dot ____ . ____ . ____ . ____ . _
 72
    65
 73
     4
 40
30.5
 49
24.0
 74
     0
 49
-3.0
 74
     0
 49
0.5
 74
     0
 49
-3.0
 74
     0
  0
LTYPE
  5
12B
330
5
100
AcDbSymbolTableRecord
100
AcDbLinetypeTableRecord
  2
ACAD_ISO05W100
 70
     0
  3
ISO long-dash double-dot ____ .. ____ .. ____ .
 72
    65
 73
     8
 40
37.5
 49
24.0
 74
     0
 49
-3.0
 74
     0
 49
0.5
 74
     0
 49
-3.0
 74
     0
 49
0.5
 74
     0
 49
-3.0
 74
     0
 49
0.5
 74
     0
 49
-3.0
 74
     0
  0
LTYPE
  5
12C
330
5
100
AcDbSymbolTableRecord
100
AcDbLinetypeTableRecord
  2
ACAD_ISO06W100
 70
     0
  3
ISO long-dash triple-dot ____ ... ____ ... ____
 72
    65
 73
     8
 40
37.5
 49
24.0
 74
     0
 49
-3.0
 74
     0
 49
0.5
 74
     0
 49
-3.0
 74
     0
 49
0.5
 74
     0
 49
-3.0
 74
     0
 49
0.5
 74
     0
 49
-3.0
 74
     0
  0
LTYPE
  5
12D
330
5
100
AcDbSymbolTableRecord
100
AcDbLinetypeTableRecord
  2
ACAD_ISO07W100
 70
     0
  3
ISO dot . . . . . . . . . . . . . . . . . . . .
 72
    65
 73
     2
 40
3.5
 49
0.5
 74
     0
 49
-3.0
 74
     0
  0
LTYPE
  5
12E
330
5
100
AcDbSymbolTableRecord
100
AcDbLinetypeTableRecord
  2
ACAD_ISO08W100
 70
     0
  3
ISO long-dash short-dash ____ __ ____ __ ____ _
 72
    65
 73
     4
 40
36.0
 49
24.0
 74
     0
 49
-3.0
 74
     0
 49
6.0
 74
     0
 49
-3.0
 74
     0
  0
LTYPE
  5
12F
330
5
100
AcDbSymbolTableRecord
100
AcDbLinetypeTableRecord
  2
ACAD_ISO09W100
 70
     0
  3
ISO long-dash double-short-dash ____ __ __ ____
 72
    65
 73
     6
 40
45.0
 49
24.0
 74
     0
 49
-3.0
 74
     0
 49
6.0
 74
     0
 49
-3.0
 74
     0
 49
6.0
 74
     0
 49
-3.0
 74
     0
  0
LTYPE
  5
130
330
5
100
AcDbSymbolTableRecord
100
AcDbLinetypeTableRecord
  2
ACAD_ISO10W100
 70
     0
  3
ISO dash dot __ . __ . __ . __ . __ . __ . __ .
 72
    65
 73
     4
 40
18.5
 49
12.0
 74
     0
 49
-3.0
 74
     0
 49
0.5
 74
     0
 49
-3.0
 74
     0
  0
LTYPE
  5
131
330
5
100
AcDbSymbolTableRecord
100
AcDbLinetypeTableRecord
  2
ACAD_ISO11W100
 70
     0
  3
ISO double-dash dot __ __ . __ __ . __ __ . __ 
 72
    65
 73
     6
 40
33.5
 49
12.0
 74
     0
 49
-3.0
 74
     0
 49
12.0
 74
     0
 49
-3.0
 74
     0
 49
0.5
 74
     0
 49
-3.0
 74
     0
  0
LTYPE
  5
132
330
5
100
AcDbSymbolTableRecord
100
AcDbLinetypeTableRecord
  2
ACAD_ISO12W100
 70
     0
  3
ISO dash double-dot __ . . __ . . __ . . __ . .
 72
    65
 73
     6
 40
22.0
 49
12.0
 74
     0
 49
-3.0
 74
     0
 49
0.5
 74
     0
 49
-3.0
 74
     0
 49
0.5
 74
     0
 49
-3.0
 74
     0
  0
LTYPE
  5
133
330
5
100
AcDbSymbolTableRecord
100
AcDbLinetypeTableRecord
  2
ACAD_ISO13W100
 70
     0
  3
ISO double-dash double-dot __ __ . . __ __ . . 
 72
    65
 73
     8
 40
37.0
 49
12.0
 74
     0
 49
-3.0
 74
     0
 49
12.0
 74
     0
 49
-3.0
 74
     0
 49
0.5
 74
     0
 49
-3.0
 74
     0
 49
0.5
 74
     0
 49
-3.0
 74
     0
  0
LTYPE
  5
134
330
5
100
AcDbSymbolTableRecord
100
AcDbLinetypeTableRecord
  2
ACAD_ISO14W100
 70
     0
  3
ISO dash triple-dot __ . . . __ . . . __ . . . 
 72
    65
 73
     8
 40
25.5
 49
12.0
 74
     0
 49
-3.0
 74
     0
 49
0.5
 74
     0
 49
-3.0
 74
     0
 49
0.5
 74
     0
 49
-3.0
 74
     0
 49
0.5
 74
     0
 49
-3.0
 74
     0
  0
LTYPE
  5
135
330
5
100
AcDbSymbolTableRecord
100
AcDbLinetypeTableRecord
  2
ACAD_ISO15W100
 70
     0
  3
ISO double-dash triple-dot __ __ . . . __ __ . 
 72
    65
 73
    10
 40
40.49999999999999
 49
12.0
 74
     0
 49
-3.0
 74
     0
 49
12.0
 74
     0
 49
-3.0
 74
     0
 49
0.5
 74
     0
 49
-3.0
 74
     0
 49
0.5
 74
     0
 49
-3.0
 74
     0
 49
0.5
 74
     0
 49
-3.0
 74
     0
  0
LTYPE
  5
136
330
5
100
AcDbSymbolTableRecord
100
AcDbLinetypeTableRecord
  2
BATTING
 70
     0
  3
Batting SSSSSSSSSSSSSSSSSSSSSSSSSSSSSSSSSSSSSSS
 72
    65
 73
     4
 40
10.16253999999999
 49
0.00254
 74
     0
 49
-2.54
 74
     4
 75
   134
340
127
 46
2.54
 50
0.0
 44
-2.54
 45
0.0
 49
-5.08
 74
     4
 75
   134
340
127
 46
2.54
 50
180.0
 44
2.54
 45
0.0
 49
-2.54
 74
     0
  0
LTYPE
  5
137
330
5
100
AcDbSymbolTableRecord
100
AcDbLinetypeTableRecord
  2
BORDER
 70
     0
  3
Border __ __ . __ __ . __ __ . __ __ . __ __ .
 72
    65
 73
     6
 40
44.45
 49
12.7
 74
     0
 49
-6.349999999999999
 74
     0
 49
12.7
 74
     0
 49
-6.349999999999999
 74
     0
 49
0.0
 74
     0
 49
-6.349999999999999
 74
     0
  0
LTYPE
  5
138
330
5
100
AcDbSymbolTableRecord
100
AcDbLinetypeTableRecord
  2
BORDER2
 70
     0
  3
Border (.5x) __.__.__.__.__.__.__.__.__.__.__.
 72
    65
 73
     6
 40
22.225
 49
6.349999999999999
 74
     0
 49
-3.174999999999999
 74
     0
 49
6.349999999999999
 74
     0
 49
-3.174999999999999
 74
     0
 49
0.0
 74
     0
 49
-3.174999999999999
 74
     0
  0
LTYPE
  5
139
330
5
100
AcDbSymbolTableRecord
100
AcDbLinetypeTableRecord
  2
BORDERX2
 70
     0
  3
Border (2x) ____  ____  .  ____  ____  .  ___
 72
    65
 73
     6
 40
88.9
 49
25.4
 74
     0
 49
-12.7
 74
     0
 49
25.4
 74
     0
 49
-12.7
 74
     0
 49
0.0
 74
     0
 49
-12.7
 74
     0
  0
LTYPE
  5
13A
330
5
100
AcDbSymbolTableRecord
100
AcDbLinetypeTableRecord
  2
CENTER
 70
     0
  3
Center ____ _ ____ _ ____ _ ____ _ ____ _ ____
 72
    65
 73
     4
 40
50.8
 49
31.75
 74
     0
 49
-6.349999999999999
 74
     0
 49
6.349999999999999
 74
     0
 49
-6.349999999999999
 74
     0
  0
LTYPE
  5
13B
330
5
100
AcDbSymbolTableRecord
100
AcDbLinetypeTableRecord
  2
CENTER2
 70
     0
  3
Center (.5x) ___ _ ___ _ ___ _ ___ _ ___ _ ___
 72
    65
 73
     4
 40
28.57499999999999
 49
19.05
 74
     0
 49
-3.174999999999999
 74
     0
 49
3.174999999999999
 74
     0
 49
-3.174999999999999
 74
     0
  0
LTYPE
  5
13C
330
5
100
AcDbSymbolTableRecord
100
AcDbLinetypeTableRecord
  2
CENTERX2
 70
     0
  3
Center (2x) ________  __  ________  __  _____
 72
    65
 73
     4
 40
101.6
 49
63.5
 74
     0
 49
-12.7
 74
     0
 49
12.7
 74
     0
 49
-12.7
 74
     0
  0
LTYPE
  5
13D
330
5
100
AcDbSymbolTableRecord
100
AcDbLinetypeTableRecord
  2
DASHDOT
 70
     0
  3
Dash dot __ . __ . __ . __ . __ . __ . __ . __
 72
    65
 73
     4
 40
25.4
 49
12.7
 74
     0
 49
-6.349999999999999
 74
     0
 49
0.0
 74
     0
 49
-6.349999999999999
 74
     0
  0
LTYPE
  5
13E
330
5
100
AcDbSymbolTableRecord
100
AcDbLinetypeTableRecord
  2
DASHDOT2
 70
     0
  3
Dash dot (.5x) _._._._._._._._._._._._._._._.
 72
    65
 73
     4
 40
12.7
 49
6.349999999999999
 74
     0
 49
-3.174999999999999
 74
     0
 49
0.0
 74
     0
 49
-3.174999999999999
 74
     0
  0
LTYPE
  5
13F
330
5
100
AcDbSymbolTableRecord
100
AcDbLinetypeTableRecord
  2
DASHDOTX2
 70
     0
  3
Dash dot (2x) ____  .  ____  .  ____  .  ___
 72
    65
 73
     4
 40
50.8
 49
25.4
 74
     0
 49
-12.7
 74
     0
 49
0.0
 74
     0
 49
-12.7
 74
     0
  0
LTYPE
  5
140
330
5
100
AcDbSymbolTableRecord
100
AcDbLinetypeTableRecord
  2
DASHED
 70
     0
  3
Dashed __ __ __ __ __ __ __ __ __ __ __ __ __ _
 72
    65
 73
     2
 40
19.04999999999999
 49
12.7
 74
     0
 49
-6.349999999999999
 74
     0
  0
LTYPE
  5
141
330
5
100
AcDbSymbolTableRecord
100
AcDbLinetypeTableRecord
  2
DASHED2
 70
     0
  3
Dashed (.5x) _ _ _ _ _ _ _ _ _ _ _ _ _ _ _ _ _
 72
    65
 73
     2
 40
9.524999999999998
 49
6.349999999999999
 74
     0
 49
-3.174999999999999
 74
     0
  0
LTYPE
  5
142
330
5
100
AcDbSymbolTableRecord
100
AcDbLinetypeTableRecord
  2
DASHEDX2
 70
     0
  3
Dashed (2x) ____  ____  ____  ____  ____  ___
 72
    65
 73
     2
 40
38.09999999999999
 49
25.4
 74
     0
 49
-12.7
 74
     0
  0
LTYPE
  5
143
330
5
100
AcDbSymbolTableRecord
100
AcDbLinetypeTableRecord
  2
DIVIDE
 70
     0
  3
Divide ____ . . ____ . . ____ . . ____ . . ____
 72
    65
 73
     6
 40
31.74999999999999
 49
12.7
 74
     0
 49
-6.349999999999999
 74
     0
 49
0.0
 74
     0
 49
-6.349999999999999
 74
     0
 49
0.0
 74
     0
 49
-6.349999999999999
 74
     0
  0
LTYPE
  5
144
330
5
100
AcDbSymbolTableRecord
100
AcDbLinetypeTableRecord
  2
DIVIDE2
 70
     0
  3
Divide (.5x) __..__..__..__..__..__..__..__.._
 72
    65
 73
     6
 40
15.87499999999999
 49
6.349999999999999
 74
     0
 49
-3.174999999999999
 74
     0
 49
0.0
 74
     0
 49
-3.174999999999999
 74
     0
 49
0.0
 74
     0
 49
-3.174999999999999
 74
     0
  0
LTYPE
  5
145
330
5
100
AcDbSymbolTableRecord
100
AcDbLinetypeTableRecord
  2
DIVIDEX2
 70
     0
  3
Divide (2x) ________  .  .  ________  .  .  _
 72
    65
 73
     6
 40
63.49999999999999
 49
25.4
 74
     0
 49
-12.7
 74
     0
 49
0.0
 74
     0
 49
-12.7
 74
     0
 49
0.0
 74
     0
 49
-12.7
 74
     0
  0
LTYPE
  5
146
330
5
100
AcDbSymbolTableRecord
100
AcDbLinetypeTableRecord
  2
DOT
 70
     0
  3
Dot . . . . . . . . . . . . . . . . . . . . . .
 72
    65
 73
     2
 40
6.349999999999999
 49
0.0
 74
     0
 49
-6.349999999999999
 74
     0
  0
LTYPE
  5
147
330
5
100
AcDbSymbolTableRecord
100
AcDbLinetypeTableRecord
  2
DOT2
 70
     0
  3
Dot (.5x) .....................................
 72
    65
 73
     2
 40
3.174999999999999
 49
0.0
 74
     0
 49
-3.174999999999999
 74
     0
  0
LTYPE
  5
148
330
5
100
AcDbSymbolTableRecord
100
AcDbLinetypeTableRecord
  2
DOTX2
 70
     0
  3
Dot (2x) .  .  .  .  .  .  .  .  .  .  .  .  . 
 72
    65
 73
     2
 40
12.7
 49
0.0
 74
     0
 49
-12.7
 74
     0
  0
LTYPE
  5
149
330
5
100
AcDbSymbolTableRecord
100
AcDbLinetypeTableRecord
  2
FENCELINE1
 70
     0
  3
Fenceline circle ----0-----0----0-----0----0---
 72
    65
 73
     4
 40
36.82999999999999
 49
6.349999999999999
 74
     0
 49
-2.54
 74
     4
 75
   133
340
127
 46
2.54
 50
0.0
 44
-2.54
 45
0.0
 49
-2.54
 74
     0
 49
25.4
 74
     0
  0
LTYPE
  5
14A
330
5
100
AcDbSymbolTableRecord
100
AcDbLinetypeTableRecord
  2
FENCELINE2
 70
     0
  3
Fenceline square ----[]-----[]----[]-----[]----
 72
    65
 73
     4
 40
36.82999999999999
 49
6.349999999999999
 74
     0
 49
-2.54
 74
     4
 75
   132
340
127
 46
2.54
 50
0.0
 44
-2.54
 45
0.0
 49
-2.54
 74
     0
 49
25.4
 74
     0
  0
LTYPE
  5
14B
330
5
100
AcDbSymbolTableRecord
100
AcDbLinetypeTableRecord
  2
GAS_LINE
 70
     0
  3
Gas line ----GAS----GAS----GAS----GAS----GAS---
 72
    65
 73
     3
 40
24.13
 49
12.7
 74
     0
 49
-5.08
 74
     2
 75
     0
340
F
 46
2.54
 50
0.0
 44
-2.54
 45
-1.27
  9
GAS
 49
-6.349999999999999
 74
     0
  0
LTYPE
  5
14C
330
5
100
AcDbSymbolTableRecord
100
AcDbLinetypeTableRecord
  2
HIDDEN
 70
     0
  3
Hidden __ __ __ __ __ __ __ __ __ __ __ __ __ _
 72
    65
 73
     2
 40
9.524999999999998
 49
6.349999999999999
 74
     0
 49
-3.174999999999999
 74
     0
  0
LTYPE
  5
14D
330
5
100
AcDbSymbolTableRecord
100
AcDbLinetypeTableRecord
  2
HIDDEN2
 70
     0
  3
Hidden (.5x) _ _ _ _ _ _ _ _ _ _ _ _ _ _ _ _ _
 72
    65
 73
     2
 40
4.762499999999999
 49
3.174999999999999
 74
     0
 49
-1.587499999999999
 74
     0
  0
LTYPE
  5
14E
330
5
100
AcDbSymbolTableRecord
100
AcDbLinetypeTableRecord
  2
HIDDENX2
 70
     0
  3
Hidden (2x) ____ ____ ____ ____ ____ ____ ____
 72
    65
 73
     2
 40
19.04999999999999
 49
12.7
 74
     0
 49
-6.349999999999999
 74
     0
  0
LTYPE
  5
14F
330
5
100
AcDbSymbolTableRecord
100
AcDbLinetypeTableRecord
  2
HOT_WATER_SUPPLY
 70
     0
  3
Hot water supply ---- HW ---- HW ---- HW ----
 72
    65
 73
     3
 40
22.86
 49
12.7
 74
     0
 49
-5.08
 74
     2
 75
     0
340
F
 46
2.54
 50
0.0
 44
-2.54
 45
-1.27
  9
HW
 49
-5.08
 74
     0
  0
LTYPE
  5
150
330
5
100
AcDbSymbolTableRecord
100
AcDbLinetypeTableRecord
  2
PHANTOM
 70
     0
  3
Phantom ______  __  __  ______  __  __  ______
 72
    65
 73
     6
 40
63.5
 49
31.75
 74
     0
 49
-6.349999999999999
 74
     0
 49
6.349999999999999
 74
     0
 49
-6.349999999999999
 74
     0
 49
6.349999999999999
 74
     0
 49
-6.349999999999999
 74
     0
  0
LTYPE
  5
151
330
5
100
AcDbSymbolTableRecord
100
AcDbLinetypeTableRecord
  2
PHANTOM2
 70
     0
  3
Phantom (.5x) ___ _ _ ___ _ _ ___ _ _ ___ _ _
 72
    65
 73
     6
 40
31.75
 49
15.875
 74
     0
 49
-3.174999999999999
 74
     0
 49
3.174999999999999
 74
     0
 49
-3.174999999999999
 74
     0
 49
3.174999999999999
 74
     0
 49
-3.174999999999999
 74
     0
  0
LTYPE
  5
152
330
5
100
AcDbSymbolTableRecord
100
AcDbLinetypeTableRecord
  2
PHANTOMX2
 70
     0
  3
Phantom (2x) ____________    ____    ____   _
 72
    65
 73
     6
 40
127.0
 49
63.5
 74
     0
 49
-12.7
 74
     0
 49
12.7
 74
     0
 49
-12.7
 74
     0
 49
12.7
 74
     0
 49
-12.7
 74
     0
  0
LTYPE
  5
153
330
5
100
AcDbSymbolTableRecord
100
AcDbLinetypeTableRecord
  2
TRACKS
 70
     0
  3
Tracks -|-|-|-|-|-|-|-|-|-|-|-|-|-|-|-|-|-|-|-|
 72
    65
 73
     2
 40
7.62
 49
3.81
 74
     4
 75
   130
340
127
 46
6.349999999999999
 50
0.0
 44
0.0
 45
0.0
 49
3.81
 74
     0
  0
LTYPE
  5
154
330
5
100
AcDbSymbolTableRecord
100
AcDbLinetypeTableRecord
  2
ZIGZAG
 70
     0
  3
Zig zag /\/\/\/\/\/\/\/\/\/\/\/\/\/\/\/\/\/\/\/
 72
    65
 73
     4
 40
20.32254
 49
0.00254
 74
     0
 49
-5.08
 74
     4
 75
   131
340
127
 46
5.08
 50
0.0
 44
-5.08
 45
0.0
 49
-10.16
 74
     4
 75
   131
340
127
 46
5.08
 50
180.0
 44
5.08
 45
0.0
 49
-5.08
 74
     0
  0
ENDTAB
  0
TABLE
  2
LAYER
  5
2
330
0
100
AcDbSymbolTable
 70
    10
  0
LAYER
  5
E
330
2
100
AcDbSymbolTableRecord
100
AcDbLayerTableRecord
  2
0
 70
     0
 62
     7
  6
CONTINUOUS
370
    -3
390
15FD
  0
LAYER
  5
20
330
2
100
AcDbSymbolTableRecord
100
AcDbLayerTableRecord
  2
DEFPOINTS
 70
     0
 62
     7
  6
CONTINUOUS
290
     0
370
    -3
390
15FD
  0
LAYER
  5
21
330
2
100
AcDbSymbolTableRecord
100
AcDbLayerTableRecord
  2
OBJECT
 70
     0
 62
     7
  6
CONTINUOUS
370
    -3
390
15FD
  0
LAYER
  5
155
330
2
100
AcDbSymbolTableRecord
100
AcDbLayerTableRecord
  2
上書線
 70
     0
 62
     7
  6
CONTINUOUS
370
    -3
390
15FD
  0
LAYER
  5
156
330
2
100
AcDbSymbolTableRecord
100
AcDbLayerTableRecord
  2
基準線
 70
     0
 62
    -1
  6
CONTINUOUS
370
    -3
390
15FD
  0
LAYER
  5
157
330
2
100
AcDbSymbolTableRecord
100
AcDbLayerTableRecord
  2
点線
 70
     0
 62
     5
  6
HIDDEN
370
    -3
390
15FD
  0
LAYER
  5
158
330
2
100
AcDbSymbolTableRecord
100
AcDbLayerTableRecord
  2
寸法線
 70
     0
 62
     2
  6
CONTINUOUS
370
    -3
390
15FD
  0
LAYER
  5
19D7
330
2
100
AcDbSymbolTableRecord
100
AcDbLayerTableRecord
  2
上線
 70
     0
 62
     7
  6
CONTINUOUS
370
    -3
390
15FD
  0
LAYER
  5
2EB9
330
2
100
AcDbSymbolTableRecord
100
AcDbLayerTableRecord
  2
中心線
 70
     0
 62
     6
  6
CENTER
370
    -3
390
15FD
  0
LAYER
  5
393B
330
2
100
AcDbSymbolTableRecord
100
AcDbLayerTableRecord
  2
WUWAGAKI
 70
     0
 62
     7
  6
CONTINUOUS
370
    -3
390
15FD
  0
ENDTAB
  0
TABLE
  2
STYLE
  5
3
330
0
100
AcDbSymbolTable
 70
     3
  0
STYLE
  5
F
330
3
100
AcDbSymbolTableRecord
100
AcDbTextStyleTableRecord
  2
STANDARD
 70
     0
 40
0.0
 41
1.0
 50
0.0
 71
     0
 42
2.5
  3
MS PMincho.ttf
  4

1001
ACAD
1000
MS PMincho
1071
    32786
  0
STYLE
  5
22
330
3
100
AcDbSymbolTableRecord
100
AcDbTextStyleTableRecord
  2
ADESK1
 70
     0
 40
0.0
 41
1.0
 50
0.0
 71
     0
 42
5.0
  3
romans
  4
bigfont
  0
STYLE
  5
127
330
3
100
AcDbSymbolTableRecord
100
AcDbTextStyleTableRecord
  2

 70
     1
 40
0.0
 41
1.0
 50
0.0
 71
     0
 42
2.5
  3
ltypeshp.shx
  4

  0
ENDTAB
  0
TABLE
  2
VIEW
  5
6
330
0
100
AcDbSymbolTable
 70
     0
  0
ENDTAB
  0
TABLE
  2
UCS
  5
7
330
0
100
AcDbSymbolTable
 70
     0
  0
ENDTAB
  0
TABLE
  2
APPID
  5
9
330
0
100
AcDbSymbolTable
 70
     2
  0
APPID
  5
10
330
9
100
AcDbSymbolTableRecord
100
AcDbRegAppTableRecord
  2
ACAD
 70
     0
  0
APPID
  5
1213
330
9
100
AcDbSymbolTableRecord
100
AcDbRegAppTableRecord
  2
DRAWINGVARIABLESXDATA
 70
     0
  0
ENDTAB
  0
TABLE
  2
DIMSTYLE
  5
A
330
0
100
AcDbSymbolTable
 70
     2
100
AcDbDimStyleTable
 71
     1
340
1D
  0
DIMSTYLE
105
1D
330
A
100
AcDbSymbolTableRecord
100
AcDbDimStyleTableRecord
  2
STANDARD
 70
     0
340
F
  0
DIMSTYLE
105
23
330
A
100
AcDbSymbolTableRecord
100
AcDbDimStyleTableRecord
  2
JIS
 70
     0
 41
2.5
 42
1.0
 43
7.0
 44
1.0
 73
     0
 74
     0
 77
     1
 78
     8
140
2.5
141
0.0
143
0.0394
147
0.0
172
     1
174
     1
175
     1
340
F
  0
ENDTAB
  0
TABLE
  2
BLOCK_RECORD
  5
1
330
0
100
AcDbSymbolTable
 70
     3
  0
BLOCK_RECORD
  5
18
330
1
100
AcDbSymbolTableRecord
100
AcDbBlockTableRecord
  2
*MODEL_SPACE
340
1600
  0
BLOCK_RECORD
  5
15
330
1
100
AcDbSymbolTableRecord
100
AcDbBlockTableRecord
  2
*PAPER_SPACE
340
1601
  0
BLOCK_RECORD
  5
24
330
1
100
AcDbSymbolTableRecord
100
AcDbBlockTableRecord
  2
JIS_A4L
340
0
  0
BLOCK_RECORD
  5
3437
330
1
100
AcDbSymbolTableRecord
100
AcDbBlockTableRecord
  2
*D1
340
0
  0
BLOCK_RECORD
  5
3445
330
1
100
AcDbSymbolTableRecord
100
AcDbBlockTableRecord
  2
A$C23BB6A77
340
0
  0
ENDTAB
  0
ENDSEC
  0
SECTION
  2
BLOCKS
  0
BLOCK
  5
19
330
18
100
AcDbEntity
  8
0
100
AcDbBlockBegin
  2
*MODEL_SPACE
 70
     2
 10
0.0
 20
0.0
 30
0.0
  3
*MODEL_SPACE
  1

  0
ENDBLK
  5
1A
330
18
100
AcDbEntity
  8
0
100
AcDbBlockEnd
  0
BLOCK
  5
16
330
15
100
AcDbEntity
 67
     1
  8
0
100
AcDbBlockBegin
  2
*PAPER_SPACE
 70
     0
 10
0.0
 20
0.0
 30
0.0
  3
*PAPER_SPACE
  1

  0
ENDBLK
  5
17
330
15
100
AcDbEntity
 67
     1
  8
0
100
AcDbBlockEnd
  0
BLOCK
  5
A1
330
24
100
AcDbEntity
  8
0
100
AcDbBlockBegin
  2
JIS_A4L
 70
     2
 10
0.0
 20
0.0
 30
0.0
  3
JIS_A4L
  1

  0
LINE
  5
25
330
24
100
AcDbEntity
  8
0
100
AcDbLine
 10
0.0
 20
0.0
 30
0.0
 11
0.0
 21
10.0
 31
0.0
  0
LINE
  5
26
330
24
100
AcDbEntity
  8
0
100
AcDbLine
 10
0.0
 20
210.0
 30
0.0
 11
25.0
 21
210.0
 31
0.0
  0
LINE
  5
27
330
24
100
AcDbEntity
  8
0
100
AcDbLine
 10
297.0
 20
210.0
 30
0.0
 11
297.0
 21
200.0
 31
0.0
  0
LINE
  5
28
330
24
100
AcDbEntity
  8
0
100
AcDbLine
 10
297.0
 20
0.0
 30
0.0
 11
287.0
 21
0.0
 31
0.0
  0
LINE
  5
29
330
24
100
AcDbEntity
  8
0
100
AcDbLine
 10
25.0
 20
10.0
 30
0.0
 11
25.0
 21
200.0
 31
0.0
  0
LINE
  5
2A
330
24
100
AcDbEntity
  8
0
100
AcDbLine
 10
287.0
 20
10.0
 30
0.0
 11
25.0
 21
10.0
 31
0.0
  0
LINE
  5
2B
330
24
100
AcDbEntity
  8
0
100
AcDbLine
 10
287.0
 20
200.0
 30
0.0
 11
287.0
 21
10.0
 31
0.0
  0
LINE
  5
2C
330
24
100
AcDbEntity
  8
0
100
AcDbLine
 10
25.0
 20
200.0
 30
0.0
 11
287.0
 21
200.0
 31
0.0
  0
LINE
  5
2D
330
24
100
AcDbEntity
  8
0
100
AcDbLine
 10
0.0
 20
200.0
 30
0.0
 11
0.0
 21
210.0
 31
0.0
  0
LINE
  5
2E
330
24
100
AcDbEntity
  8
0
100
AcDbLine
 10
25.0
 20
0.0
 30
0.0
 11
0.0
 21
0.0
 31
0.0
  0
LINE
  5
2F
330
24
100
AcDbEntity
  8
0
100
AcDbLine
 10
297.0
 20
10.0
 30
0.0
 11
297.0
 21
0.0
 31
0.0
  0
LINE
  5
30
330
24
100
AcDbEntity
  8
0
100
AcDbLine
 10
287.0
 20
210.0
 30
0.0
 11
297.0
 21
210.0
 31
0.0
  0
ATTDEF
  5
31
330
24
100
AcDbEntity
  8
0
 62
     0
100
AcDbText
 10
19.0
 20
10.0
 30
0.0
 40
3.0
  1

 50
90.0
  7
ADESK1
100
AcDbAttributeDefinition
  3

  2
USER
 70
     8
  0
ATTDEF
  5
32
330
24
100
AcDbEntity
  8
0
 62
     0
100
AcDbText
 10
19.0
 20
70.0
 30
0.0
 40
3.0
  1

 50
90.0
  7
ADESK1
100
AcDbAttributeDefinition
  3

  2
REVDATE
 70
     8
  0
ATTDEF
  5
33
330
24
100
AcDbEntity
  8
0
 62
     0
100
AcDbText
 10
19.0
 20
118.0
 30
0.0
 40
3.0
  1

 50
90.0
  7
ADESK1
100
AcDbAttributeDefinition
  3

  2
FNAME
 70
     8
  0
LINE
  5
34
330
24
100
AcDbEntity
  8
OBJECT
100
AcDbLine
 10
130.0
 20
16.0
 30
0.0
 11
25.0
 21
16.0
 31
0.0
  0
LINE
  5
35
330
24
100
AcDbEntity
  8
OBJECT
100
AcDbLine
 10
130.0
 20
22.0
 30
0.0
 11
25.0
 21
22.0
 31
0.0
  0
LINE
  5
36
330
24
100
AcDbEntity
  8
OBJECT
100
AcDbLine
 10
130.0
 20
28.0
 30
0.0
 11
25.0
 21
28.0
 31
0.0
  0
LINE
  5
37
330
24
100
AcDbEntity
  8
OBJECT
100
AcDbLine
 10
130.0
 20
34.0
 30
0.0
 11
25.0
 21
34.0
 31
0.0
  0
LINE
  5
38
330
24
100
AcDbEntity
  8
OBJECT
100
AcDbLine
 10
130.0
 20
40.0
 30
0.0
 11
25.0
 21
40.0
 31
0.0
  0
LINE
  5
39
330
24
100
AcDbEntity
  8
OBJECT
100
AcDbLine
 10
28.0
 20
11.53589799999999
 30
0.0
 11
30.0
 21
15.0
 31
0.0
  0
LINE
  5
3A
330
24
100
AcDbEntity
  8
OBJECT
100
AcDbLine
 10
32.0
 20
11.53589799999999
 30
0.0
 11
30.0
 21
15.0
 31
0.0
  0
LINE
  5
3B
330
24
100
AcDbEntity
  8
OBJECT
100
AcDbLine
 10
35.0
 20
10.0
 30
0.0
 11
35.0
 21
40.0
 31
0.0
  0
LINE
  5
3C
330
24
100
AcDbEntity
  8
OBJECT
100
AcDbLine
 10
50.0
 20
10.0
 30
0.0
 11
50.0
 21
40.0
 31
0.0
  0
LINE
  5
3D
330
24
100
AcDbEntity
  8
OBJECT
100
AcDbLine
 10
80.0
 20
10.0
 30
0.0
 11
80.0
 21
40.0
 31
0.0
  0
LINE
  5
3E
330
24
100
AcDbEntity
  8
OBJECT
100
AcDbLine
 10
28.0
 20
11.53589799999999
 30
0.0
 11
32.0
 21
11.53589799999999
 31
0.0
  0
LINE
  5
3F
330
24
100
AcDbEntity
  8
OBJECT
100
AcDbLine
 10
39.5
 20
13.0
 30
0.0
 11
40.49999999999999
 21
13.0
 31
0.0
  0
LINE
  5
40
330
24
100
AcDbEntity
  8
OBJECT
100
AcDbLine
 10
44.5
 20
13.0
 30
0.0
 11
45.49999999999999
 21
13.0
 31
0.0
  0
LINE
  5
41
330
24
100
AcDbEntity
  8
OBJECT
100
AcDbLine
 10
32.0
 20
17.535898
 30
0.0
 11
30.0
 21
20.99999999999999
 31
0.0
  0
LINE
  5
42
330
24
100
AcDbEntity
  8
OBJECT
100
AcDbLine
 10
28.0
 20
17.535898
 30
0.0
 11
32.0
 21
17.535898
 31
0.0
  0
LINE
  5
43
330
24
100
AcDbEntity
  8
OBJECT
100
AcDbLine
 10
28.0
 20
17.535898
 30
0.0
 11
30.0
 21
20.99999999999999
 31
0.0
  0
LINE
  5
44
330
24
100
AcDbEntity
  8
OBJECT
100
AcDbLine
 10
32.0
 20
23.53589799999999
 30
0.0
 11
30.0
 21
26.99999999999999
 31
0.0
  0
LINE
  5
45
330
24
100
AcDbEntity
  8
OBJECT
100
AcDbLine
 10
28.0
 20
23.53589799999999
 30
0.0
 11
32.0
 21
23.53589799999999
 31
0.0
  0
LINE
  5
46
330
24
100
AcDbEntity
  8
OBJECT
100
AcDbLine
 10
28.0
 20
23.53589799999999
 30
0.0
 11
30.0
 21
26.99999999999999
 31
0.0
  0
LINE
  5
47
330
24
100
AcDbEntity
  8
OBJECT
100
AcDbLine
 10
28.0
 20
35.53589799999999
 30
0.0
 11
30.0
 21
39.0
 31
0.0
  0
LINE
  5
48
330
24
100
AcDbEntity
  8
OBJECT
100
AcDbLine
 10
32.0
 20
35.53589799999999
 30
0.0
 11
30.0
 21
39.0
 31
0.0
  0
LINE
  5
49
330
24
100
AcDbEntity
  8
OBJECT
100
AcDbLine
 10
28.0
 20
35.53589799999999
 30
0.0
 11
32.0
 21
35.53589799999999
 31
0.0
  0
LINE
  5
4A
330
24
100
AcDbEntity
  8
OBJECT
100
AcDbLine
 10
32.0
 20
29.53589799999999
 30
0.0
 11
30.0
 21
33.0
 31
0.0
  0
LINE
  5
4B
330
24
100
AcDbEntity
  8
OBJECT
100
AcDbLine
 10
28.0
 20
29.53589799999999
 30
0.0
 11
32.0
 21
29.53589799999999
 31
0.0
  0
LINE
  5
4C
330
24
100
AcDbEntity
  8
OBJECT
100
AcDbLine
 10
28.0
 20
29.53589799999999
 30
0.0
 11
30.0
 21
33.0
 31
0.0
  0
LINE
  5
4D
330
24
100
AcDbEntity
  8
OBJECT
100
AcDbLine
 10
39.5
 20
19.0
 30
0.0
 11
40.49999999999999
 21
19.0
 31
0.0
  0
LINE
  5
4E
330
24
100
AcDbEntity
  8
OBJECT
100
AcDbLine
 10
44.5
 20
19.0
 30
0.0
 11
45.49999999999999
 21
19.0
 31
0.0
  0
LINE
  5
4F
330
24
100
AcDbEntity
  8
OBJECT
100
AcDbLine
 10
39.5
 20
25.0
 30
0.0
 11
40.49999999999999
 21
25.0
 31
0.0
  0
LINE
  5
50
330
24
100
AcDbEntity
  8
OBJECT
100
AcDbLine
 10
44.5
 20
25.0
 30
0.0
 11
45.49999999999999
 21
25.0
 31
0.0
  0
LINE
  5
51
330
24
100
AcDbEntity
  8
OBJECT
100
AcDbLine
 10
39.5
 20
31.0
 30
0.0
 11
40.49999999999999
 21
31.0
 31
0.0
  0
LINE
  5
52
330
24
100
AcDbEntity
  8
OBJECT
100
AcDbLine
 10
39.5
 20
37.0
 30
0.0
 11
40.49999999999999
 21
37.0
 31
0.0
  0
LINE
  5
53
330
24
100
AcDbEntity
  8
OBJECT
100
AcDbLine
 10
44.5
 20
31.0
 30
0.0
 11
45.49999999999999
 21
31.0
 31
0.0
  0
LINE
  5
54
330
24
100
AcDbEntity
  8
OBJECT
100
AcDbLine
 10
44.5
 20
37.0
 30
0.0
 11
45.49999999999999
 21
37.0
 31
0.0
  0
LINE
  5
55
330
24
100
AcDbEntity
  8
OBJECT
100
AcDbLine
 10
120.0
 20
10.0
 30
0.0
 11
120.0
 21
40.0
 31
0.0
  0
LINE
  5
56
330
24
100
AcDbEntity
  8
OBJECT
100
AcDbLine
 10
130.0
 20
40.0
 30
0.0
 11
130.0
 21
10.0
 31
0.0
  0
LINE
  5
57
330
24
100
AcDbEntity
  8
0
100
AcDbLine
 10
156.0
 20
10.0
 30
0.0
 11
156.0
 21
0.0
 31
0.0
  0
LINE
  5
58
330
24
100
AcDbEntity
  8
0
100
AcDbLine
 10
156.0
 20
200.0
 30
0.0
 11
156.0
 21
210.0
 31
0.0
  0
LINE
  5
59
330
24
100
AcDbEntity
  8
0
100
AcDbLine
 10
287.0
 20
105.0
 30
0.0
 11
297.0
 21
105.0
 31
0.0
  0
LINE
  5
5A
330
24
100
AcDbEntity
  8
0
100
AcDbLine
 10
25.0
 20
105.0
 30
0.0
 11
0.0
 21
105.0
 31
0.0
  0
TEXT
  5
5B
330
24
100
AcDbEntity
  8
0
100
AcDbText
 10
1.0
 20
1.0
 30
0.0
 40
3.0
  1
この図枠はサンプルです。社内の規格やプロッタの出力範囲に合わせて適当に変更してご利用ください。
  7
ADESK1
100
AcDbText
  0
LINE
  5
5C
330
24
100
AcDbEntity
  8
0
100
AcDbLine
 10
25.0
 20
152.5
 30
0.0
 11
20.0
 21
152.5
 31
0.0
  0
LINE
  5
5D
330
24
100
AcDbEntity
  8
0
100
AcDbLine
 10
25.0
 20
105.0
 30
0.0
 11
20.0
 21
105.0
 31
0.0
  0
LINE
  5
5E
330
24
100
AcDbEntity
  8
0
100
AcDbLine
 10
25.0
 20
57.5
 30
0.0
 11
20.0
 21
57.5
 31
0.0
  0
LINE
  5
5F
330
24
100
AcDbEntity
  8
0
100
AcDbLine
 10
68.66666666666668
 20
10.0
 30
0.0
 11
68.66666666666668
 21
5.0
 31
0.0
  0
LINE
  5
60
330
24
100
AcDbEntity
  8
0
100
AcDbLine
 10
112.3333333333333
 20
10.0
 30
0.0
 11
112.3333333333333
 21
5.0
 31
0.0
  0
LINE
  5
61
330
24
100
AcDbEntity
  8
0
100
AcDbLine
 10
156.0
 20
10.0
 30
0.0
 11
156.0
 21
5.0
 31
0.0
  0
LINE
  5
62
330
24
100
AcDbEntity
  8
0
100
AcDbLine
 10
199.6666666666666
 20
10.0
 30
0.0
 11
199.6666666666666
 21
5.0
 31
0.0
  0
LINE
  5
63
330
24
100
AcDbEntity
  8
0
100
AcDbLine
 10
243.3333333333333
 20
10.0
 30
0.0
 11
243.3333333333333
 21
5.0
 31
0.0
  0
LINE
  5
64
330
24
100
AcDbEntity
  8
0
100
AcDbLine
 10
287.0
 20
57.5
 30
0.0
 11
292.0
 21
57.5
 31
0.0
  0
LINE
  5
65
330
24
100
AcDbEntity
  8
0
100
AcDbLine
 10
287.0
 20
105.0
 30
0.0
 11
292.0
 21
105.0
 31
0.0
  0
LINE
  5
66
330
24
100
AcDbEntity
  8
0
100
AcDbLine
 10
287.0
 20
152.5
 30
0.0
 11
292.0
 21
152.5
 31
0.0
  0
LINE
  5
67
330
24
100
AcDbEntity
  8
0
100
AcDbLine
 10
243.3333333333333
 20
200.0
 30
0.0
 11
243.3333333333333
 21
205.0
 31
0.0
  0
LINE
  5
68
330
24
100
AcDbEntity
  8
0
100
AcDbLine
 10
199.6666666666666
 20
200.0
 30
0.0
 11
199.6666666666666
 21
205.0
 31
0.0
  0
LINE
  5
69
330
24
100
AcDbEntity
  8
0
100
AcDbLine
 10
156.0
 20
200.0
 30
0.0
 11
156.0
 21
205.0
 31
0.0
  0
LINE
  5
6A
330
24
100
AcDbEntity
  8
0
100
AcDbLine
 10
112.3333333333333
 20
200.0
 30
0.0
 11
112.3333333333333
 21
205.0
 31
0.0
  0
LINE
  5
6B
330
24
100
AcDbEntity
  8
0
100
AcDbLine
 10
68.66666666666666
 20
200.0
 30
0.0
 11
68.66666666666666
 21
205.0
 31
0.0
  0
TEXT
  5
6C
330
24
100
AcDbEntity
  8
0
100
AcDbText
 10
45.61904761904761
 20
201.0
 30
0.0
 40
3.0
  1
1
  7
ADESK1
 72
     1
 11
46.83333333333332
 21
201.0
 31
0.0
100
AcDbText
  0
TEXT
  5
6D
330
24
100
AcDbEntity
  8
0
100
AcDbText
 10
21.66139736003921
 20
176.25
 30
0.0
 40
3.0
  1
A
  7
ADESK1
 72
     1
 11
22.94711164575349
 21
176.25
 31
0.0
100
AcDbText
  0
TEXT
  5
6E
330
24
100
AcDbEntity
  8
0
100
AcDbText
 10
89.07142857142856
 20
201.0
 30
0.0
 40
3.0
  1
2
  7
ADESK1
 72
     1
 11
90.5
 21
201.0
 31
0.0
100
AcDbText
  0
TEXT
  5
6F
330
24
100
AcDbEntity
  8
0
100
AcDbText
 10
132.7380952380952
 20
201.0
 30
0.0
 40
3.0
  1
3
  7
ADESK1
 72
     1
 11
134.1666666666666
 21
201.0
 31
0.0
100
AcDbText
  0
TEXT
  5
70
330
24
100
AcDbEntity
  8
0
100
AcDbText
 10
176.3333333333333
 20
201.0
 30
0.0
 40
3.0
  1
4
  7
ADESK1
 72
     1
 11
177.8333333333333
 21
201.0
 31
0.0
100
AcDbText
  0
TEXT
  5
71
330
24
100
AcDbEntity
  8
0
100
AcDbText
 10
220.0714285714286
 20
201.0
 30
0.0
 40
3.0
  1
5
  7
ADESK1
 72
     1
 11
221.4999999999999
 21
201.0
 31
0.0
100
AcDbText
  0
TEXT
  5
72
330
24
100
AcDbEntity
  8
0
100
AcDbText
 10
263.6666666666666
 20
201.0
 30
0.0
 40
3.0
  1
6
  7
ADESK1
 72
     1
 11
265.1666666666666
 21
201.0
 31
0.0
100
AcDbText
  0
TEXT
  5
73
330
24
100
AcDbEntity
  8
0
100
AcDbText
 10
21.37568307432492
 20
128.75
 30
0.0
 40
3.0
  1
B
  7
ADESK1
 72
     1
 11
22.94711164575349
 21
128.75
 31
0.0
100
AcDbText
  0
TEXT
  5
74
330
24
100
AcDbEntity
  8
0
100
AcDbText
 10
21.44711164575349
 20
81.25
 30
0.0
 40
3.0
  1
C
  7
ADESK1
 72
     1
 11
22.94711164575349
 21
81.25
 31
0.0
100
AcDbText
  0
TEXT
  5
75
330
24
100
AcDbEntity
  8
0
100
AcDbText
 10
21.37568307432492
 20
33.75
 30
0.0
 40
3.0
  1
D
  7
ADESK1
 72
     1
 11
22.94711164575349
 21
33.75
 31
0.0
100
AcDbText
  0
TEXT
  5
76
330
24
100
AcDbEntity
  8
0
100
AcDbText
 10
45.61904761904759
 20
6.230338100985607
 30
0.0
 40
3.0
  1
1
  7
ADESK1
 72
     1
 11
46.83333333333331
 21
6.230338100985607
 31
0.0
100
AcDbText
  0
TEXT
  5
77
330
24
100
AcDbEntity
  8
0
100
AcDbText
 10
89.07142857142856
 20
6.230338100985607
 30
0.0
 40
3.0
  1
2
  7
ADESK1
 72
     1
 11
90.5
 21
6.230338100985607
 31
0.0
100
AcDbText
  0
TEXT
  5
78
330
24
100
AcDbEntity
  8
0
100
AcDbText
 10
132.7380952380952
 20
6.230338100985607
 30
0.0
 40
3.0
  1
3
  7
ADESK1
 72
     1
 11
134.1666666666666
 21
6.230338100985607
 31
0.0
100
AcDbText
  0
TEXT
  5
79
330
24
100
AcDbEntity
  8
0
100
AcDbText
 10
176.3333333333333
 20
6.230338100985607
 30
0.0
 40
3.0
  1
4
  7
ADESK1
 72
     1
 11
177.8333333333333
 21
6.230338100985607
 31
0.0
100
AcDbText
  0
TEXT
  5
7A
330
24
100
AcDbEntity
  8
0
100
AcDbText
 10
220.0714285714286
 20
6.230338100985607
 30
0.0
 40
3.0
  1
5
  7
ADESK1
 72
     1
 11
221.4999999999999
 21
6.230338100985607
 31
0.0
100
AcDbText
  0
TEXT
  5
7B
330
24
100
AcDbEntity
  8
0
100
AcDbText
 10
263.6666666666666
 20
6.230338100985607
 30
0.0
 40
3.0
  1
6
  7
ADESK1
 72
     1
 11
265.1666666666666
 21
6.230338100985607
 31
0.0
100
AcDbText
  0
TEXT
  5
7C
330
24
100
AcDbEntity
  8
0
100
AcDbText
 10
287.9530581679809
 20
176.25
 30
0.0
 40
3.0
  1
A
  7
ADESK1
 72
     1
 11
289.2387724536952
 21
176.25
 31
0.0
100
AcDbText
  0
TEXT
  5
7D
330
24
100
AcDbEntity
  8
0
100
AcDbText
 10
287.6673438822666
 20
128.75
 30
0.0
 40
3.0
  1
B
  7
ADESK1
 72
     1
 11
289.2387724536952
 21
128.75
 31
0.0
100
AcDbText
  0
TEXT
  5
7E
330
24
100
AcDbEntity
  8
0
100
AcDbText
 10
287.7387724536952
 20
81.25
 30
0.0
 40
3.0
  1
C
  7
ADESK1
 72
     1
 11
289.2387724536952
 21
81.25
 31
0.0
100
AcDbText
  0
TEXT
  5
7F
330
24
100
AcDbEntity
  8
0
100
AcDbText
 10
287.6673438822666
 20
33.75
 30
0.0
 40
3.0
  1
D
  7
ADESK1
 72
     1
 11
289.2387724536952
 21
33.75
 31
0.0
100
AcDbText
  0
LINE
  5
80
330
24
100
AcDbEntity
  8
0
 62
     0
100
AcDbLine
 10
157.2978723404242
 20
49.00000000000036
 30
0.0
 11
287.0
 21
49.00000000000036
 31
0.0
  0
LINE
  5
81
330
24
100
AcDbEntity
  8
0
 62
     0
100
AcDbLine
 10
157.2978723404242
 20
13.00000000000004
 30
0.0
 11
287.0
 21
13.00000000000004
 31
0.0
  0
LINE
  5
82
330
24
100
AcDbEntity
  8
0
 62
     0
100
AcDbLine
 10
157.2978723404242
 20
37.00000000000024
 30
0.0
 11
287.0
 21
37.00000000000024
 31
0.0
  0
LINE
  5
83
330
24
100
AcDbEntity
  8
0
 62
     0
100
AcDbLine
 10
195.1276595744673
 20
22.00000000000012
 30
0.0
 11
287.0
 21
22.00000000000012
 31
0.0
  0
LINE
  5
84
330
24
100
AcDbEntity
  8
0
 62
     0
100
AcDbLine
 10
157.2978723404242
 20
10.0
 30
0.0
 11
287.0
 21
10.0
 31
0.0
  0
LINE
  5
85
330
24
100
AcDbEntity
  8
0
 62
     0
100
AcDbLine
 10
287.0
 20
49.00000000000036
 30
0.0
 11
157.2978723404242
 21
49.00000000000036
 31
0.0
  0
LINE
  5
86
330
24
100
AcDbEntity
  8
0
 62
     0
100
AcDbLine
 10
180.7163120567365
 20
37.00000000000024
 30
0.0
 11
180.7163120567365
 21
10.0
 31
0.0
  0
LINE
  5
87
330
24
100
AcDbEntity
  8
0
 62
     0
100
AcDbLine
 10
162.702127659573
 20
37.00000000000024
 30
0.0
 11
162.702127659573
 21
10.0
 31
0.0
  0
LINE
  5
88
330
24
100
AcDbEntity
  8
0
 62
     0
100
AcDbLine
 10
189.7234042553184
 20
37.00000000000024
 30
0.0
 11
189.7234042553184
 21
10.0
 31
0.0
  0
LINE
  5
89
330
24
100
AcDbEntity
  8
0
 62
     0
100
AcDbLine
 10
195.1276595744673
 20
25.00000000000012
 30
0.0
 11
195.1276595744673
 21
10.0
 31
0.0
  0
LINE
  5
8A
330
24
100
AcDbEntity
  8
0
 62
     0
100
AcDbLine
 10
157.2978723404242
 20
49.00000000000036
 30
0.0
 11
157.2978723404242
 21
10.0
 31
0.0
  0
LINE
  5
8B
330
24
100
AcDbEntity
  8
0
 62
     0
100
AcDbLine
 10
225.7517730496447
 20
49.00000000000036
 30
0.0
 11
225.7517730496447
 21
10.0
 31
0.0
  0
LINE
  5
8C
330
24
100
AcDbEntity
  8
0
 62
     0
100
AcDbLine
 10
205.7659574468077
 20
22.00000000000007
 30
0.0
 11
205.7659574468077
 21
10.0
 31
0.0
  0
LINE
  5
8D
330
24
100
AcDbEntity
  8
0
 62
     0
100
AcDbLine
 10
216.4042553191484
 20
22.00000000000007
 30
0.0
 11
216.4042553191484
 21
10.0
 31
0.0
  0
LINE
  5
8E
330
24
100
AcDbEntity
  8
0
 62
     0
100
AcDbLine
 10
157.2978723404242
 20
16.00000000000008
 30
0.0
 11
195.1276595744673
 21
16.00000000000008
 31
0.0
  0
LINE
  5
8F
330
24
100
AcDbEntity
  8
0
 62
     0
100
AcDbLine
 10
157.2978723404242
 20
10.0
 30
0.0
 11
157.2978723404242
 21
13.00000000000004
 31
0.0
  0
TEXT
  5
90
330
24
100
AcDbEntity
  8
0
 62
     0
100
AcDbText
 10
198.7174935280942
 20
10.48329012996929
 30
0.0
 40
1.791674070777747
  1
製図
  7
ADESK1
 72
     1
 11
200.5688900678978
 21
10.48329012996929
 31
0.0
100
AcDbText
  0
TEXT
  5
91
330
24
100
AcDbEntity
  8
0
 62
     0
100
AcDbText
 10
209.2960689314087
 20
10.48329012996929
 30
0.0
 40
1.791674070777747
  1
設計
  7
ADESK1
 72
     1
 11
211.2071879402383
 21
10.48329012996929
 31
0.0
100
AcDbText
  0
TEXT
  5
92
330
24
100
AcDbEntity
  8
0
 62
     0
100
AcDbText
 10
219.2447163844405
 20
10.55220101068186
 30
0.0
 40
1.791674070777747
  1
照査
  7
ADESK1
 72
     1
 11
221.1558353932701
 21
10.55220101068186
 31
0.0
100
AcDbText
  0
LINE
  5
93
330
24
100
AcDbEntity
  8
0
 62
     0
100
AcDbLine
 10
157.2978723404242
 20
25.00000000000012
 30
0.0
 11
195.1276595744673
 21
25.00000000000012
 31
0.0
  0
LINE
  5
94
330
24
100
AcDbEntity
  8
0
 62
     0
100
AcDbLine
 10
157.2978723404242
 20
22.00000000000007
 30
0.0
 11
195.1276595744673
 21
22.00000000000012
 31
0.0
  0
LINE
  5
95
330
24
100
AcDbEntity
  8
0
 62
     0
100
AcDbLine
 10
157.2978723404242
 20
19.00000000000007
 30
0.0
 11
195.1276595744673
 21
19.00000000000012
 31
0.0
  0
LINE
  5
96
330
24
100
AcDbEntity
  8
0
 62
     0
100
AcDbLine
 10
157.2978723404242
 20
34.00000000000024
 30
0.0
 11
225.7517730496447
 21
34.00000000000024
 31
0.0
  0
LINE
  5
97
330
24
100
AcDbEntity
  8
0
 62
     0
100
AcDbLine
 10
157.2978723404242
 20
31.0000000000002
 30
0.0
 11
225.7517730496447
 21
31.0000000000002
 31
0.0
  0
LINE
  5
98
330
24
100
AcDbEntity
  8
0
 62
     0
100
AcDbLine
 10
157.2978723404242
 20
28.00000000000015
 30
0.0
 11
225.7517730496447
 21
28.00000000000015
 31
0.0
  0
LINE
  5
99
330
24
100
AcDbEntity
  8
0
 62
     0
100
AcDbLine
 10
195.1276595744673
 20
25.00000000000012
 30
0.0
 11
225.7517730496447
 21
25.00000000000012
 31
0.0
  0
LINE
  5
9A
330
24
100
AcDbEntity
  8
0
 62
     0
100
AcDbLine
 10
195.1276595744673
 20
49.00000000000036
 30
0.0
 11
195.1276595744673
 21
25.00000000000012
 31
0.0
  0
LINE
  5
9B
330
24
100
AcDbEntity
  8
0
 62
     0
100
AcDbLine
 10
202.3333333333325
 20
37.00000000000024
 30
0.0
 11
202.3333333333325
 21
25.00000000000012
 31
0.0
  0
LINE
  5
9C
330
24
100
AcDbEntity
  8
0
 62
     0
100
AcDbLine
 10
213.1418439716305
 20
49.00000000000036
 30
0.0
 11
213.1418439716305
 21
22.00000000000012
 31
0.0
  0
LINE
  5
9D
330
24
100
AcDbEntity
  8
0
 62
     0
100
AcDbLine
 10
279.7943262411347
 20
22.00000000000012
 30
0.0
 11
279.7943262411347
 21
10.0
 31
0.0
  0
LINE
  5
9E
330
24
100
AcDbEntity
  8
0
 62
     0
100
AcDbLine
 10
287.0
 20
49.00000000000036
 30
0.0
 11
287.0
 21
10.0
 31
0.0
  0
LINE
  5
9F
330
24
100
AcDbEntity
  8
0
 62
     0
100
AcDbLine
 10
287.0
 20
10.0
 30
0.0
 11
287.0
 21
49.00000000000036
 31
0.0
  0
LINE
  5
A0
330
24
100
AcDbEntity
  8
0
 62
     0
100
AcDbLine
 10
279.7943262411347
 20
16.00000000000008
 30
0.0
 11
287.0
 21
16.00000000000008
 31
0.0
  0
ENDBLK
  5
A2
330
24
100
AcDbEntity
  8
0
100
AcDbBlockEnd
  0
BLOCK
  5
3443
330
3437
100
AcDbEntity
  8
0
100
AcDbBlockBegin
  2
*D1
 70
     1
 10
0.0
 20
0.0
 30
0.0
  3
*D1
  1

  0
LINE
  5
3438
330
3437
100
AcDbEntity
  8
OBJECT
 62
     0
370
    -2
100
AcDbLine
 10
-8068.568047744786
 20
3998.303038975791
 30
0.0
 11
-7757.422052324407
 21
3998.303038975791
 31
0.0
  0
LINE
  5
3439
330
3437
100
AcDbEntity
  8
OBJECT
 62
     0
370
    -2
100
AcDbLine
 10
-8068.568047744786
 20
4078.303038975791
 30
0.0
 11
-7757.422052324407
 21
4078.303038975791
 31
0.0
  0
LINE
  5
343A
330
3437
100
AcDbEntity
  8
OBJECT
 62
     0
370
    -2
100
AcDbLine
 10
-7776.172052324408
 20
3960.803038975791
 30
0.0
 11
-7776.172052324408
 21
3923.303038975791
 31
0.0
  0
LINE
  5
343B
330
3437
100
AcDbEntity
  8
OBJECT
 62
     0
370
    -2
100
AcDbLine
 10
-7776.172052324408
 20
4115.803038975792
 30
0.0
 11
-7776.172052324408
 21
4153.303038975791
 31
0.0
  0
LINE
  5
343C
330
3437
100
AcDbEntity
  8
OBJECT
 62
     0
370
    -2
100
AcDbLine
 10
-7776.172052324408
 20
3998.303038975791
 30
0.0
 11
-7776.172052324408
 21
4078.303038975791
 31
0.0
  0
SOLID
  5
343D
330
3437
100
AcDbEntity
  8
OBJECT
 62
     0
100
AcDbTrace
 10
-7782.422052324408
 20
3960.803038975791
 30
0.0
 11
-7769.922052324408
 21
3960.803038975791
 31
0.0
 12
-7776.172052324408
 22
3998.303038975791
 32
0.0
 13
-7776.172052324408
 23
3998.303038975791
 33
0.0
  0
SOLID
  5
343E
330
3437
100
AcDbEntity
  8
OBJECT
 62
     0
100
AcDbTrace
 10
-7782.422052324408
 20
4115.803038975792
 30
0.0
 11
-7769.922052324408
 21
4115.803038975792
 31
0.0
 12
-7776.172052324408
 22
4078.303038975791
 32
0.0
 13
-7776.172052324408
 23
4078.303038975791
 33
0.0
  0
MTEXT
  5
343F
330
3437
100
AcDbEntity
  8
OBJECT
 62
     0
100
AcDbMText
 10
-7804.297052324407
 20
4038.303038975789
 30
0.0
 40
37.5
 41
0.0
 71
     5
 72
     1
  1
\A1;80
 11
0.0000000000000001
 21
1.0
 31
0.0
 73
     1
 44
1.0
  0
POINT
  5
3440
330
3437
100
AcDbEntity
  8
DEFPOINTS
 62
     0
100
AcDbPoint
 10
-8077.943047744787
 20
3998.303038975791
 30
0.0
  0
POINT
  5
3441
330
3437
100
AcDbEntity
  8
DEFPOINTS
 62
     0
100
AcDbPoint
 10
-8077.943047744787
 20
4078.303038975791
 30
0.0
  0
POINT
  5
3442
330
3437
100
AcDbEntity
  8
DEFPOINTS
 62
     0
100
AcDbPoint
 10
-7776.172052324408
 20
4078.303038975791
 30
0.0
  0
ENDBLK
  5
3444
330
3437
100
AcDbEntity
  8
0
100
AcDbBlockEnd
  0
BLOCK
  5
3447
330
3445
100
AcDbEntity
  8
0
100
AcDbBlockBegin
  2
A$C23BB6A77
 70
     0
 10
0.0
 20
0.0
 30
0.0
  3
A$C23BB6A77
  1

  0
DIMENSION
  5
3446
330
3445
100
AcDbEntity
  8
OBJECT
100
AcDbDimension
  2
*D1
 10
301.7709854312124
 20
154.9999934708971
 30
0.0
 11
273.6459854312115
 21
114.9999934708962
 31
0.0
 12
8077.94303775562
 22
-3923.303045504894
 32
0.0
 71
     5
 42
79.99999999999954
  3
STANDARD
100
AcDbAlignedDimension
 13
-0.0000099891658465
 23
74.99999347089761
 33
0.0
 14
-0.0000099891658465
 24
154.9999934708971
 34
0.0
 50
90.0
100
AcDbRotatedDimension
1001
ACAD
1000
DSTYLE
1002
{
1070
    40
1040
15.0
1070
    41
1040
2.5
1070
    42
1040
0.625
1070
    43
1040
3.75
1070
    44
1040
1.25
1070
    73
1070
     0
1070
    74
1070
     0
1070
    77
1070
     1
1070
    78
1070
     8
1070
   140
1040
2.5
1070
   141
1040
2.5
1070
   143
1040
0.0394
1070
   147
1040
0.625
1070
   171
1070
     4
1070
   172
1070
     1
1070
   273
1070
     8
1070
   274
1070
     4
1070
   277
1070
     6
1002
}
  0
ENDBLK
  5
3448
330
3445
100
AcDbEntity
  8
0
100
AcDbBlockEnd
  0
ENDSEC
  0
SECTION
  2
ENTITIES
  0
MTEXT
  5
938
330
18
100
AcDbEntity
  8
上書線
100
AcDbMText
 10
1865.739761775792
 20
499.0283937835011
 30
0.0
 40
37.5
 41
0.0
 71
     4
 72
     1
  1
\A1;
 73
     1
 44
1.0
  0
LINE
  5
123E
330
18
100
AcDbEntity
  8
基準線
100
AcDbLine
 10
710.0813698183028
 20
2117.506972677286
 30
0.0
 11
731.0813698183028
 21
2117.506972677286
 31
0.0
  0
LINE
  5
14BB
330
18
100
AcDbEntity
  8
基準線
100
AcDbLine
 10
1281.296189060135
 20
2744.451732006984
 30
0.0
 11
1631.12377476475
 21
2744.451732006984
 31
0.0
  0
LINE
  5
14BC
330
18
100
AcDbEntity
  8
基準線
100
AcDbLine
 10
1131.296189060135
 20
2594.451732006984
 30
0.0
 11
1604.134047986604
 21
2594.451732006984
 31
0.0
  0
LINE
  5
1546
330
18
100
AcDbEntity
  8
基準線
100
AcDbLine
 10
2000.40772718317
 20
1104.126411816217
 30
0.0
 11
2000.40772718317
 21
1262.163674897728
 31
0.0
  0
LINE
  5
154B
330
18
100
AcDbEntity
  8
基準線
100
AcDbLine
 10
2550.40772718317
 20
1049.126411816217
 30
0.0
 11
2550.40772718317
 21
1211.614819254876
 31
0.0
  0
LINE
  5
154C
330
18
100
AcDbEntity
  8
基準線
100
AcDbLine
 10
2150.40772718317
 20
1049.126411816217
 30
0.0
 11
2150.40772718317
 21
1226.779475202555
 31
0.0
  0
LINE
  5
15CA
330
18
100
AcDbEntity
  8
基準線
100
AcDbLine
 10
3419.935833980378
 20
2804.85492986955
 30
0.0
 11
3776.432100616551
 21
2804.85492986955
 31
0.0
  0
LINE
  5
15CC
330
18
100
AcDbEntity
  8
基準線
100
AcDbLine
 10
3776.432100616551
 20
2804.85492986955
 30
0.0
 11
4171.357345948922
 21
2804.85492986955
 31
0.0
  0
LINE
  5
15D0
330
18
100
AcDbEntity
  8
基準線
100
AcDbLine
 10
3419.935833980378
 20
2684.85492986955
 30
0.0
 11
3776.432100616551
 21
2684.85492986955
 31
0.0
  0
LINE
  5
15D1
330
18
100
AcDbEntity
  8
基準線
100
AcDbLine
 10
3598.183967298465
 20
2684.85492986955
 30
0.0
 11
3598.183967298465
 21
984.8549298695507
 31
0.0
  0
LINE
  5
15D2
330
18
100
AcDbEntity
  8
基準線
100
AcDbLine
 10
3776.432100616551
 20
2484.854929869551
 30
0.0
 11
4171.357345948921
 21
2484.85492986955
 31
0.0
  0
LINE
  5
15D3
330
18
100
AcDbEntity
  8
基準線
100
AcDbLine
 10
3973.894723282737
 20
2684.854929869551
 30
0.0
 11
3973.894723282734
 21
984.8549298695507
 31
0.0
  0
LINE
  5
15D4
330
18
100
AcDbEntity
  8
基準線
100
AcDbLine
 10
3419.935833980378
 20
2684.85492986955
 30
0.0
 11
3419.935833980378
 21
2584.85492986955
 31
0.0
  0
LINE
  5
15D5
330
18
100
AcDbEntity
  8
基準線
100
AcDbLine
 10
3419.935833980378
 20
2634.85492986955
 30
0.0
 11
4114.659436953616
 21
2634.85492986955
 31
0.0
  0
MTEXT
  5
2600
330
18
100
AcDbEntity
  8
上書線
100
AcDbMText
 10
8259.720683857883
 20
6103.832559537903
 30
0.0
 40
60.0
 41
956.9129999999999
 71
     1
 72
     5
  1
重量表
 73
     1
 44
1.0
  0
MTEXT
  5
283E
330
18
100
AcDbEntity
  8
上線
100
AcDbMText
 10
8359.552618158776
 20
5928.990649956482
 30
0.0
 40
49.968
 41
197.7879999999999
 71
     1
 72
     5
  1
Ｈ
 73
     1
 44
1.0
  0
LINE
  5
283F
330
18
100
AcDbEntity
  8
上線
100
AcDbLine
 10
7983.497338964629
 20
5366.241014108876
 30
0.0
 11
8801.227846610872
 21
5366.241014108876
 31
0.0
  0
LINE
  5
2840
330
18
100
AcDbEntity
  8
上線
100
AcDbLine
 10
7983.497338964629
 20
5464.156371783944
 30
0.0
 11
8801.227846610872
 21
5464.156371783944
 31
0.0
  0
LINE
  5
2841
330
18
100
AcDbEntity
  8
上線
100
AcDbLine
 10
7983.497338964629
 20
5562.07172945901
 30
0.0
 11
8801.227846610872
 21
5562.07172945901
 31
0.0
  0
LINE
  5
2842
330
18
100
AcDbEntity
  8
上線
100
AcDbLine
 10
7983.497338964629
 20
5659.987087134077
 30
0.0
 11
8801.227846610872
 21
5659.987087134077
 31
0.0
  0
LINE
  5
2843
330
18
100
AcDbEntity
  8
上線
100
AcDbLine
 10
7983.497338964629
 20
5757.902444809145
 30
0.0
 11
8801.227846610872
 21
5757.902444809145
 31
0.0
  0
LINE
  5
2844
330
18
100
AcDbEntity
  8
上線
100
AcDbLine
 10
7983.497338964629
 20
5855.737802597976
 30
0.0
 11
8801.862505442347
 21
5855.737802597976
 31
0.0
  0
LINE
  5
2845
330
18
100
AcDbEntity
  8
上線
100
AcDbLine
 10
8801.227846610872
 20
5953.733160159281
 30
0.0
 11
7983.497338964629
 21
5953.733160159281
 31
0.0
  0
LINE
  5
284A
330
18
100
AcDbEntity
  8
上線
100
AcDbLine
 10
8256.074174846709
 20
5953.733160159281
 30
0.0
 11
8256.074174846709
 21
4974.579583408607
 31
0.0
  0
LINE
  5
284B
330
18
100
AcDbEntity
  8
上線
100
AcDbLine
 10
7983.497338964629
 20
5953.733160159281
 30
0.0
 11
7983.497338964629
 21
4974.579583408607
 31
0.0
  0
MTEXT
  5
285C
330
18
100
AcDbEntity
  8
上線
100
AcDbMText
 10
8078.084703989752
 20
5928.990649956482
 30
0.0
 40
49.968
 41
197.7879999999999
 71
     1
 72
     5
  1
h1
 73
     1
 44
1.0
  0
LINE
  5
285F
330
18
100
AcDbEntity
  8
上線
100
AcDbLine
 10
8528.651010728792
 20
5953.733160159281
 30
0.0
 11
8528.651010728792
 21
4974.579583408607
 31
0.0
  0
LINE
  5
2860
330
18
100
AcDbEntity
  8
上線
100
AcDbLine
 10
8801.227846610872
 20
4974.579583408607
 30
0.0
 11
8801.227846610872
 21
5953.733160159281
 31
0.0
  0
MTEXT
  5
2866
330
18
100
AcDbEntity
  8
上線
100
AcDbMText
 10
8571.774886154647
 20
5912.177239198883
 30
0.0
 40
24.984
 41
247.78800162
 71
     1
 72
     5
  1
\fＭＳ Ｐ明朝|b0|i0|c128|p18;参考重量（㎏）
 73
     1
 44
1.0
  0
LINE
  5
34F5
330
18
100
AcDbEntity
  8
上線
100
AcDbLine
 10
7983.497338964629
 20
5268.325656433808
 30
0.0
 11
8801.227846610872
 21
5268.325656433808
 31
0.0
  0
LINE
  5
34F6
330
18
100
AcDbEntity
  8
上線
100
AcDbLine
 10
7983.497338964629
 20
5170.410298758741
 30
0.0
 11
8801.227846610872
 21
5170.410298758741
 31
0.0
  0
MTEXT
  5
355D
330
18
100
AcDbEntity
  8
上線
100
AcDbMText
 10
8095.964606878441
 20
5240.698034585149
 30
0.0
 40
49.968
 41
247.7879999999999
 71
     1
 72
     5
  1
600
 73
     1
 44
1.0
  0
MTEXT
  5
355E
330
18
100
AcDbEntity
  8
上線
100
AcDbMText
 10
8095.964606878441
 20
5044.867319235016
 30
0.0
 40
49.968
 41
247.7879999999999
 71
     1
 72
     5
  1
700
 73
     1
 44
1.0
  0
MTEXT
  5
355F
330
18
100
AcDbEntity
  8
上線
100
AcDbMText
 10
8095.964606878441
 20
5436.528749935284
 30
0.0
 40
49.968
 41
247.7879999999999
 71
     1
 72
     5
  1
500
 73
     1
 44
1.0
  0
MTEXT
  5
3560
330
18
100
AcDbEntity
  8
上線
100
AcDbMText
 10
8097.839054711943
 20
5828.110180749317
 30
0.0
 40
49.968
 41
247.7879999999999
 71
     1
 72
     5
  1
300
 73
     1
 44
1.0
  0
MTEXT
  5
3561
330
18
100
AcDbEntity
  8
上線
100
AcDbMText
 10
8095.964606878441
 20
5632.359465285418
 30
0.0
 40
49.968
 41
247.7879999999999
 71
     1
 72
     5
  1
400
 73
     1
 44
1.0
  0
MTEXT
  5
3572
330
18
100
AcDbEntity
  8
上線
100
AcDbMText
 10
8336.573442760521
 20
5044.707319462544
 30
0.0
 40
49.968
 41
279.7559999999999
 71
     1
 72
     5
  1
1300
 73
     1
 44
1.0
  0
MTEXT
  5
3575
330
18
100
AcDbEntity
  8
上線
100
AcDbMText
 10
8368.541442760522
 20
5828.030180863082
 30
0.0
 40
49.968
 41
247.7879999999999
 71
     1
 72
     5
  1
900
 73
     1
 44
1.0
  0
MTEXT
  5
3589
330
18
100
AcDbEntity
  8
上線
100
AcDbMText
 10
8641.118278642601
 20
5240.698034585149
 30
0.0
 40
49.968
 41
247.7879999999999
 71
     1
 72
     5
  1
922
 73
     1
 44
1.0
  0
MTEXT
  5
358B
330
18
100
AcDbEntity
  8
上線
100
AcDbMText
 10
8641.118278642601
 20
5436.528749935284
 30
0.0
 40
49.968
 41
247.7879999999999
 71
     1
 72
     5
  1
832
 73
     1
 44
1.0
  0
MTEXT
  5
358C
330
18
100
AcDbEntity
  8
上線
100
AcDbMText
 10
8642.992726476105
 20
5828.110180749317
 30
0.0
 40
49.968
 41
247.7879999999999
 71
     1
 72
     5
  1
652
 73
     1
 44
1.0
  0
MTEXT
  5
358D
330
18
100
AcDbEntity
  8
上線
100
AcDbMText
 10
8641.118278642601
 20
5632.359465285418
 30
0.0
 40
49.968
 41
247.7879999999999
 71
     1
 72
     5
  1
742
 73
     1
 44
1.0
  0
MTEXT
  5
3599
330
18
100
AcDbEntity
  8
上線
100
AcDbMText
 10
8336.573442760521
 20
5240.538034812677
 30
0.0
 40
49.968
 41
279.7559999999999
 71
     1
 72
     5
  1
1200
 73
     1
 44
1.0
  0
MTEXT
  5
35A3
330
18
100
AcDbEntity
  8
上線
100
AcDbMText
 10
8336.573442760521
 20
5436.368750162813
 30
0.0
 40
49.968
 41
279.7559999999999
 71
     1
 72
     5
  1
1100
 73
     1
 44
1.0
  0
MTEXT
  5
35AD
330
18
100
AcDbEntity
  8
上線
100
AcDbMText
 10
8336.573442760521
 20
5632.199465512947
 30
0.0
 40
49.968
 41
279.7559999999999
 71
     1
 72
     5
  1
1000
 73
     1
 44
1.0
  0
HATCH
  5
36C8
330
18
100
AcDbEntity
  8
OBJECT
100
AcDbHatch
 10
0.0
 20
0.0
 30
0.0
210
0.0
220
0.0
230
1.0
  2
AR-SAND
 70
     0
 71
     1
 91
        2
 92
        1
 93
        4
 72
     1
 10
5596.873081881221
 20
5278.614889824989
 11
6208.873081881221
 21
5278.614889824989
 72
     1
 10
6208.873081881221
 20
5278.614889824989
 11
6208.873081881221
 21
5690.614889824989
 72
     1
 10
6208.873081881221
 20
5690.614889824989
 11
5596.873081881221
 21
5690.614889824989
 72
     1
 10
5596.873081881221
 20
5690.614889824989
 11
5596.873081881221
 21
5278.614889824989
 97
        4
330
36F6
330
36CB
330
3788
330
36CC
 92
       16
 93
        4
 72
     1
 10
5602.873081881221
 20
5284.61488982499
 11
6202.873081881222
 21
5284.61488982499
 72
     1
 10
6202.873081881222
 20
5284.61488982499
 11
6202.873081881222
 21
5684.614889824989
 72
     1
 10
6202.873081881222
 20
5684.614889824989
 11
5602.873081881221
 21
5684.614889824989
 72
     1
 10
5602.873081881221
 20
5684.614889824989
 11
5602.873081881221
 21
5284.61488982499
 97
        4
330
36F7
330
36CD
330
3789
330
36CE
 75
     0
 76
     1
 52
90.0
 41
1.0
 77
     0
 78
     4
 53
127.5
 43
10361.47983332115
 44
-683.4186487733886
 45
-48.94132373293423
 46
-1.600031295984042
 79
     6
 49
0.0
 49
-38.608
 49
0.0
 49
-43.18
 49
0.0
 49
-41.275
 53
97.49999999999998
 43
10361.47983332115
 44
-683.4186487733886
 45
-71.68251005683543
 46
44.95232831380027
 79
     6
 49
0.0
 49
-20.828
 49
0.0
 49
-34.79799999999999
 49
0.0
 49
-13.33499999999999
 53
57.49999999999997
 43
10361.47983332115
 44
-714.6606487733889
 45
-0.1437184678545643
 46
79.09923702414579
 79
     6
 49
0.0
 49
-12.69999999999999
 49
0.0
 49
-45.71999999999998
 49
0.0
 49
-59.68999999999998
 53
47.49999999999999
 43
10361.47983332115
 44
-714.6606487733889
 45
-22.29293232572162
 46
76.35564524722972
 79
     6
 49
0.0
 49
-6.349999999999999
 49
0.0
 49
-29.97199999999999
 49
0.0
 49
-34.29
 98
        1
 10
10361.47983332115
 20
-683.4186487733886
  0
HATCH
  5
36C9
330
18
100
AcDbEntity
  8
OBJECT
100
AcDbHatch
 10
0.0
 20
0.0
 30
0.0
210
0.0
220
0.0
230
1.0
  2
AR-SAND
 70
     0
 71
     0
 91
        1
 92
        1
 93
        4
 72
     1
 10
5802.873081881221
 20
5684.614889824989
 11
6202.873081881222
 21
5684.614889824989
 72
     1
 10
6202.873081881222
 20
5684.614889824989
 11
6202.873081881222
 21
5634.614889824989
 72
     1
 10
6202.873081881222
 20
5634.614889824989
 11
5827.873081881222
 21
5634.614889824989
 72
     1
 10
5827.873081881222
 20
5634.614889824989
 11
5802.873081881221
 21
5684.614889824989
 97
        0
 75
     0
 76
     1
 52
90.0
 41
1.0
 77
     0
 78
     4
 53
127.5
 43
10361.47983332115
 44
-683.4186487733886
 45
-48.94132373293423
 46
-1.600031295984042
 79
     6
 49
0.0
 49
-38.608
 49
0.0
 49
-43.18
 49
0.0
 49
-41.275
 53
97.49999999999998
 43
10361.47983332115
 44
-683.4186487733886
 45
-71.68251005683543
 46
44.95232831380027
 79
     6
 49
0.0
 49
-20.828
 49
0.0
 49
-34.79799999999999
 49
0.0
 49
-13.33499999999999
 53
57.49999999999997
 43
10361.47983332115
 44
-714.6606487733889
 45
-0.1437184678545643
 46
79.09923702414579
 79
     6
 49
0.0
 49
-12.69999999999999
 49
0.0
 49
-45.71999999999998
 49
0.0
 49
-59.68999999999998
 53
47.49999999999999
 43
10361.47983332115
 44
-714.6606487733889
 45
-22.29293232572162
 46
76.35564524722972
 79
     6
 49
0.0
 49
-6.349999999999999
 49
0.0
 49
-29.97199999999999
 49
0.0
 49
-34.29
 98
        1
 10
10361.47983332115
 20
-683.4186487733886
  0
LINE
  5
36CA
330
18
100
AcDbEntity
  8
OBJECT
100
AcDbLine
 10
5805.373085261975
 20
5679.614883063482
 30
0.0
 11
6000.373081881221
 21
5289.614889824989
 31
0.0
  0
LINE
  5
36CB
102
{ACAD_REACTORS
330
36C8
102
}
330
18
100
AcDbEntity
  8
OBJECT
100
AcDbLine
 10
6208.873081881221
 20
5278.614889824989
 30
0.0
 11
6208.873081881221
 21
5690.614889824989
 31
0.0
  0
LINE
  5
36CC
102
{ACAD_REACTORS
330
36C8
102
}
330
18
100
AcDbEntity
  8
OBJECT
100
AcDbLine
 10
5596.873081881221
 20
5278.614889824989
 30
0.0
 11
5596.873081881221
 21
5690.614889824989
 31
0.0
  0
LINE
  5
36CD
102
{ACAD_REACTORS
330
36C8
102
}
330
18
100
AcDbEntity
  8
OBJECT
100
AcDbLine
 10
6202.873081881222
 20
5284.61488982499
 30
0.0
 11
6202.873081881222
 21
5684.614889824989
 31
0.0
  0
LINE
  5
36CE
102
{ACAD_REACTORS
330
36C8
102
}
330
18
100
AcDbEntity
  8
OBJECT
100
AcDbLine
 10
5602.873081881221
 20
5284.61488982499
 30
0.0
 11
5602.873081881221
 21
5684.614889824989
 31
0.0
  0
LINE
  5
36CF
330
18
100
AcDbEntity
  8
OBJECT
100
AcDbLine
 10
5402.873081881221
 20
5754.614889824989
 30
0.0
 11
5402.873081881221
 21
5214.614889824989
 31
0.0
  0
LINE
  5
36D0
330
18
100
AcDbEntity
  8
OBJECT
100
AcDbLine
 10
6402.873081881221
 20
5214.614889824989
 30
0.0
 11
6402.873081881221
 21
5754.614889824989
 31
0.0
  0
ARC
  5
36D1
330
18
100
AcDbEntity
  8
上線
100
AcDbCircle
 10
7068.582265814973
 20
4364.61488982499
 30
0.0
 40
50.0
100
AcDbArc
 50
270.0
 51
359.1815445383053
  0
LINE
  5
36D2
330
18
100
AcDbEntity
  8
点線
100
AcDbLine
 10
6773.587367595507
 20
4864.61488982499
 30
0.0
 11
7173.587367595508
 21
4864.61488982499
 31
0.0
  0
LINE
  5
36D3
330
18
100
AcDbEntity
  8
上線
100
AcDbLine
 10
7242.873081881221
 20
4914.614889824989
 30
0.0
 11
6702.873081881221
 21
4914.614889824989
 31
0.0
  0
LINE
  5
36D4
330
18
100
AcDbEntity
  8
OBJECT
100
AcDbLine
 10
7242.873081881221
 20
3614.614889824988
 30
0.0
 11
6702.873081881221
 21
3614.61488982499
 31
0.0
  0
LINE
  5
36D5
330
18
100
AcDbEntity
  8
OBJECT
100
AcDbLine
 10
5669.342476253969
 20
5551.80362409942
 30
0.0
 11
5669.342476253969
 21
5672.963618273573
 31
0.0
  0
LINE
  5
36D6
330
18
100
AcDbEntity
  8
OBJECT
100
AcDbLine
 10
5666.726759626723
 20
5551.80362409942
 30
0.0
 11
5666.726759626723
 21
5672.963618273573
 31
0.0
  0
LINE
  5
36D7
330
18
100
AcDbEntity
  8
OBJECT
100
AcDbLine
 10
5649.724579962428
 20
5551.80362409942
 30
0.0
 11
5649.724579962428
 21
5672.963618273573
 31
0.0
  0
LINE
  5
36D8
330
18
100
AcDbEntity
  8
OBJECT
100
AcDbLine
 10
5784.434137375972
 20
5551.803604141056
 30
0.0
 11
5784.434137375972
 21
5672.96359831521
 31
0.0
  0
LINE
  5
36D9
330
18
100
AcDbEntity
  8
OBJECT
100
AcDbLine
 10
5708.578268837054
 20
5551.803612983644
 30
0.0
 11
5708.578268837054
 21
5672.963607157797
 31
0.0
  0
LINE
  5
36DA
330
18
100
AcDbEntity
  8
OBJECT
100
AcDbLine
 10
5705.962552209804
 20
5551.803612983644
 30
0.0
 11
5705.962552209804
 21
5672.963607157797
 31
0.0
  0
LINE
  5
36DB
330
18
100
AcDbEntity
  8
OBJECT
100
AcDbLine
 10
5725.580448501347
 20
5551.80362182623
 30
0.0
 11
5725.580448501347
 21
5672.963616000382
 31
0.0
  0
LINE
  5
36DC
330
18
100
AcDbEntity
  8
OBJECT
100
AcDbLine
 10
5728.196165128595
 20
5551.80362182623
 30
0.0
 11
5728.196165128595
 21
5672.963616000382
 31
0.0
  0
LINE
  5
36DD
330
18
100
AcDbEntity
  8
OBJECT
100
AcDbLine
 10
5767.431957711678
 20
5551.803630668817
 30
0.0
 11
5767.431957711678
 21
5672.963624842971
 31
0.0
  0
LINE
  5
36DE
330
18
100
AcDbEntity
  8
OBJECT
100
AcDbLine
 10
5764.81624108443
 20
5551.803630668817
 30
0.0
 11
5764.81624108443
 21
5672.963624842971
 31
0.0
  0
LINE
  5
36DF
330
18
100
AcDbEntity
  8
OBJECT
100
AcDbLine
 10
5745.198344792888
 20
5551.80362182623
 30
0.0
 11
5745.198344792888
 21
5672.963616000382
 31
0.0
  0
LINE
  5
36E0
330
18
100
AcDbEntity
  8
OBJECT
100
AcDbLine
 10
5747.814061420136
 20
5551.80362182623
 30
0.0
 11
5747.814061420136
 21
5672.963616000382
 31
0.0
  0
LINE
  5
36E1
330
18
100
AcDbEntity
  8
OBJECT
100
AcDbLine
 10
5686.344655918264
 20
5551.803632942007
 30
0.0
 11
5686.344655918264
 21
5672.96362711616
 31
0.0
  0
LINE
  5
36E2
330
18
100
AcDbEntity
  8
OBJECT
100
AcDbLine
 10
5688.960372545512
 20
5551.803632942007
 30
0.0
 11
5688.960372545512
 21
5672.96362711616
 31
0.0
  0
LINE
  5
36E3
330
18
100
AcDbEntity
  8
OBJECT
100
AcDbLine
 10
5647.10886333518
 20
5551.80362409942
 30
0.0
 11
5647.10886333518
 21
5672.963618273573
 31
0.0
  0
LINE
  5
36E4
330
18
100
AcDbEntity
  8
OBJECT
100
AcDbLine
 10
5627.490967043638
 20
5551.803615256832
 30
0.0
 11
5627.490967043638
 21
5672.963609430987
 31
0.0
  0
LINE
  5
36E5
330
18
100
AcDbEntity
  8
OBJECT
100
AcDbLine
 10
5630.106683670886
 20
5551.803615256832
 30
0.0
 11
5630.106683670886
 21
5672.963609430987
 31
0.0
  0
LINE
  5
36E6
330
18
100
AcDbEntity
  8
OBJECT
100
AcDbLine
 10
5787.049854003219
 20
5551.803604141056
 30
0.0
 11
5787.049854003219
 21
5672.96359831521
 31
0.0
  0
LINE
  5
36E7
330
18
100
AcDbEntity
  8
OBJECT
100
AcDbLine
 10
5804.052033667511
 20
5551.803612983644
 30
0.0
 11
5804.052033667511
 21
5672.963607157797
 31
0.0
  0
LINE
  5
36E8
330
18
100
AcDbEntity
  8
OBJECT
100
AcDbLine
 10
5806.667750294761
 20
5551.803612983644
 30
0.0
 11
5806.667750294761
 21
5672.963607157797
 31
0.0
  0
LINE
  5
36E9
330
18
100
AcDbEntity
  8
OBJECT
100
AcDbLine
 10
5610.488798508469
 20
5672.963613727194
 30
0.0
 11
5610.488798508469
 21
5296.266161376405
 31
0.0
  0
LINE
  5
36EA
330
18
100
AcDbEntity
  8
OBJECT
100
AcDbLine
 10
5607.873081881221
 20
5679.614886444236
 30
0.0
 11
5607.873081881221
 21
5289.614893205745
 31
0.0
  0
LINE
  5
36EB
330
18
100
AcDbEntity
  8
OBJECT
100
AcDbLine
 10
5823.669929959056
 20
5551.803612983644
 30
0.0
 11
5823.669929959056
 21
5643.02119366932
 31
0.0
  0
LINE
  5
36F4
330
18
100
AcDbEntity
  8
点線
100
AcDbLine
 10
5402.873081881221
 20
5634.614889824989
 30
0.0
 11
5827.873081881222
 21
5634.614889824989
 31
0.0
  0
LINE
  5
36F5
330
18
100
AcDbEntity
  8
点線
100
AcDbLine
 10
5402.873081881221
 20
5334.614889824989
 30
0.0
 11
5977.873081881221
 21
5334.614889824989
 31
0.0
  0
LINE
  5
36F6
102
{ACAD_REACTORS
330
36C8
102
}
330
18
100
AcDbEntity
  8
OBJECT
100
AcDbLine
 10
5596.873081881221
 20
5278.614889824989
 30
0.0
 11
6208.873081881221
 21
5278.614889824989
 31
0.0
  0
LINE
  5
36F7
102
{ACAD_REACTORS
330
36C8
102
}
330
18
100
AcDbEntity
  8
OBJECT
100
AcDbLine
 10
5602.873081881221
 20
5284.61488982499
 30
0.0
 11
6202.873081881222
 21
5284.61488982499
 31
0.0
  0
LINE
  5
36F8
330
18
100
AcDbEntity
  8
OBJECT
100
AcDbLine
 10
5402.873081881221
 20
5214.614889824989
 30
0.0
 11
6402.873081881221
 21
5214.614889824989
 31
0.0
  0
LINE
  5
36F9
330
18
100
AcDbEntity
  8
OBJECT
100
AcDbLine
 10
5936.467446745247
 20
5417.426160096937
 30
0.0
 11
5610.488798508469
 21
5417.426160096937
 31
0.0
  0
LINE
  5
36FA
330
18
100
AcDbEntity
  8
OBJECT
100
AcDbLine
 10
5933.163083113967
 20
5424.034887359496
 30
0.0
 11
5610.488798508469
 21
5424.034887359496
 31
0.0
  0
LINE
  5
36FB
330
18
100
AcDbEntity
  8
OBJECT
100
AcDbLine
 10
5872.5830837537
 20
5545.194886080031
 30
0.0
 11
5610.488798508469
 21
5545.194886080031
 31
0.0
  0
LINE
  5
36FC
330
18
100
AcDbEntity
  8
OBJECT
100
AcDbLine
 10
5869.278717017195
 20
5551.803619553041
 30
0.0
 11
5610.488798508469
 21
5551.803619553041
 31
0.0
  0
LINE
  5
36FD
330
18
100
AcDbEntity
  8
OBJECT
100
AcDbLine
 10
6000.373080190843
 20
5289.614893205743
 30
0.0
 11
5607.873081881221
 21
5289.614893205745
 31
0.0
  0
LINE
  5
36FE
330
18
100
AcDbEntity
  8
OBJECT
100
AcDbLine
 10
5997.047443832324
 20
5296.266165922783
 30
0.0
 11
5610.488798508469
 21
5296.266165922784
 31
0.0
  0
LINE
  5
3705
330
18
100
AcDbEntity
  8
OBJECT
100
AcDbLine
 10
6702.873081881221
 20
3614.61488982499
 30
0.0
 11
6702.873081881221
 21
4914.614889824989
 31
0.0
  0
LINE
  5
3706
330
18
100
AcDbEntity
  8
点線
100
AcDbLine
 10
6823.587367595507
 20
4864.61488982499
 30
0.0
 11
6823.587367595506
 21
3614.614889824989
 31
0.0
  0
LINE
  5
3707
330
18
100
AcDbEntity
  8
点線
100
AcDbLine
 10
7122.158796166934
 20
4864.61488982499
 30
0.0
 11
7122.158796166934
 21
3614.614889824989
 31
0.0
  0
ARC
  5
370D
330
18
100
AcDbEntity
  8
上線
100
AcDbCircle
 10
6877.163897947468
 20
4364.61488982499
 30
0.0
 40
50.0
100
AcDbArc
 50
180.8184554616945
 51
270.0
  0
LINE
  5
3713
330
18
100
AcDbEntity
  8
上線
100
AcDbLine
 10
7068.582265814973
 20
4314.61488982499
 30
0.0
 11
6877.163897947468
 21
4314.61488982499
 31
0.0
  0
HATCH
  5
3716
330
18
100
AcDbEntity
  8
OBJECT
100
AcDbHatch
 10
0.0
 20
0.0
 30
0.0
210
0.0
220
0.0
230
1.0
  2
AR-SAND
 70
     0
 71
     0
 91
        1
 92
        1
 93
        4
 72
     1
 10
6002.873081881221
 20
5284.61488982499
 11
6202.873081881222
 21
5284.61488982499
 72
     1
 10
6202.873081881222
 20
5284.61488982499
 11
6202.873081881222
 21
5334.614889824989
 72
     1
 10
6202.873081881222
 20
5334.614889824989
 11
5977.873081881221
 21
5334.614889824989
 72
     1
 10
5977.873081881221
 20
5334.614889824989
 11
6002.873081881221
 21
5284.61488982499
 97
        0
 75
     0
 76
     1
 52
90.0
 41
1.0
 77
     0
 78
     4
 53
127.5
 43
10361.47983332115
 44
-683.4186487733886
 45
-48.94132373293423
 46
-1.600031295984042
 79
     6
 49
0.0
 49
-38.608
 49
0.0
 49
-43.18
 49
0.0
 49
-41.275
 53
97.49999999999998
 43
10361.47983332115
 44
-683.4186487733886
 45
-71.68251005683543
 46
44.95232831380027
 79
     6
 49
0.0
 49
-20.828
 49
0.0
 49
-34.79799999999999
 49
0.0
 49
-13.33499999999999
 53
57.49999999999997
 43
10361.47983332115
 44
-714.6606487733889
 45
-0.1437184678545643
 46
79.09923702414579
 79
     6
 49
0.0
 49
-12.69999999999999
 49
0.0
 49
-45.71999999999998
 49
0.0
 49
-59.68999999999998
 53
47.49999999999999
 43
10361.47983332115
 44
-714.6606487733889
 45
-22.29293232572162
 46
76.35564524722972
 79
     6
 49
0.0
 49
-6.349999999999999
 49
0.0
 49
-29.97199999999999
 49
0.0
 49
-34.29
 98
        1
 10
10361.47983332115
 20
-683.4186487733886
  0
LINE
  5
3717
330
18
100
AcDbEntity
  8
OBJECT
100
AcDbLine
 10
5827.873081881222
 20
5634.614889824989
 30
0.0
 11
6202.873081881222
 21
5634.614889824989
 31
0.0
  0
LINE
  5
3718
330
18
100
AcDbEntity
  8
OBJECT
100
AcDbLine
 10
5977.873081881221
 20
5334.614889824989
 30
0.0
 11
6202.873081881222
 21
5334.614889824989
 31
0.0
  0
LINE
  5
3721
330
18
100
AcDbEntity
  8
上線
 48
10.0
100
AcDbLine
 10
6823.587367595507
 20
4814.61488982499
 30
0.0
 11
7122.158796166934
 21
4814.61488982499
 31
0.0
  0
LINE
  5
3722
330
18
100
AcDbEntity
  8
点線
100
AcDbLine
 10
6773.587367595507
 20
4864.61488982499
 30
0.0
 11
6773.587367595507
 21
4914.614889824989
 31
0.0
  0
LINE
  5
3727
330
18
100
AcDbEntity
  8
点線
100
AcDbLine
 10
6202.873081881222
 20
5634.614889824989
 30
0.0
 11
6402.873081881221
 21
5634.614889824989
 31
0.0
  0
LINE
  5
3728
330
18
100
AcDbEntity
  8
点線
100
AcDbLine
 10
6202.873081881222
 20
5334.614889824989
 30
0.0
 11
6402.873081881221
 21
5334.614889824989
 31
0.0
  0
LINE
  5
3729
330
18
100
AcDbEntity
  8
OBJECT
100
AcDbLine
 10
6202.873081881222
 20
5284.61488982499
 30
0.0
 11
6202.873081881222
 21
5334.614889824989
 31
0.0
  0
LINE
  5
372C
330
18
100
AcDbEntity
  8
OBJECT
100
AcDbLine
 10
5924.375128044011
 20
5424.034887359496
 30
0.0
 11
5924.375128044011
 21
5441.610797499407
 31
0.0
  0
LINE
  5
372D
330
18
100
AcDbEntity
  8
OBJECT
100
AcDbLine
 10
5921.759411416763
 20
5424.034887359496
 30
0.0
 11
5921.759411416763
 21
5446.842230753905
 31
0.0
  0
LINE
  5
372E
330
18
100
AcDbEntity
  8
OBJECT
100
AcDbLine
 10
5904.757231752471
 20
5424.034878516909
 30
0.0
 11
5904.757231752471
 21
5480.84659008249
 31
0.0
  0
LINE
  5
372F
330
18
100
AcDbEntity
  8
OBJECT
100
AcDbLine
 10
5902.141515125221
 20
5424.034878516909
 30
0.0
 11
5902.141515125221
 21
5486.078023336989
 31
0.0
  0
LINE
  5
3730
330
18
100
AcDbEntity
  8
OBJECT
100
AcDbLine
 10
5921.759411416763
 20
5417.426160096937
 30
0.0
 11
5921.759411416763
 21
5296.266165922784
 31
0.0
  0
LINE
  5
3731
330
18
100
AcDbEntity
  8
OBJECT
100
AcDbLine
 10
5902.141515125221
 20
5417.426168939525
 30
0.0
 11
5902.141515125221
 21
5296.266174765374
 31
0.0
  0
LINE
  5
3732
330
18
100
AcDbEntity
  8
OBJECT
100
AcDbLine
 10
5904.757231752471
 20
5417.426168939525
 30
0.0
 11
5904.757231752471
 21
5296.266174765374
 31
0.0
  0
LINE
  5
3733
330
18
100
AcDbEntity
  8
OBJECT
100
AcDbLine
 10
5924.375128044011
 20
5417.426160096937
 30
0.0
 11
5924.375128044011
 21
5296.266165922784
 31
0.0
  0
LINE
  5
3734
330
18
100
AcDbEntity
  8
OBJECT
100
AcDbLine
 10
5943.993024335553
 20
5402.375004916326
 30
0.0
 11
5943.993024335553
 21
5296.266181334768
 31
0.0
  0
LINE
  5
3735
330
18
100
AcDbEntity
  8
OBJECT
100
AcDbLine
 10
5941.377307708305
 20
5407.606438170821
 30
0.0
 11
5941.377307708305
 21
5296.266181334768
 31
0.0
  0
LINE
  5
3736
330
18
100
AcDbEntity
  8
OBJECT
100
AcDbLine
 10
5983.228816918637
 20
5323.903419750158
 30
0.0
 11
5983.228816918637
 21
5296.266172492183
 31
0.0
  0
LINE
  5
3737
330
18
100
AcDbEntity
  8
OBJECT
100
AcDbLine
 10
5980.613100291387
 20
5329.134853004656
 30
0.0
 11
5980.613100291387
 21
5296.266172492183
 31
0.0
  0
LINE
  5
3738
330
18
100
AcDbEntity
  8
OBJECT
100
AcDbLine
 10
5963.610920627095
 20
5363.139212333241
 30
0.0
 11
5963.610920627095
 21
5296.266172492183
 31
0.0
  0
LINE
  5
3739
330
18
100
AcDbEntity
  8
OBJECT
100
AcDbLine
 10
5960.995203999846
 20
5368.370645587737
 30
0.0
 11
5960.995203999846
 21
5296.266172492183
 31
0.0
  0
LINE
  5
373A
330
18
100
AcDbEntity
  8
OBJECT
100
AcDbLine
 10
5764.81624108443
 20
5424.034898475273
 30
0.0
 11
5764.81624108443
 21
5545.194892649426
 31
0.0
  0
LINE
  5
373B
330
18
100
AcDbEntity
  8
OBJECT
100
AcDbLine
 10
5767.431957711678
 20
5424.034898475273
 30
0.0
 11
5767.431957711678
 21
5545.194892649426
 31
0.0
  0
LINE
  5
373C
330
18
100
AcDbEntity
  8
OBJECT
100
AcDbLine
 10
5784.434137375972
 20
5424.034871947514
 30
0.0
 11
5784.434137375972
 21
5545.194866121668
 31
0.0
  0
LINE
  5
373D
330
18
100
AcDbEntity
  8
OBJECT
100
AcDbLine
 10
5787.049854003219
 20
5424.034871947514
 30
0.0
 11
5787.049854003219
 21
5545.194866121668
 31
0.0
  0
LINE
  5
373E
330
18
100
AcDbEntity
  8
OBJECT
100
AcDbLine
 10
5826.285646586303
 20
5424.0348807901
 30
0.0
 11
5826.285646586303
 21
5545.194874964252
 31
0.0
  0
LINE
  5
373F
330
18
100
AcDbEntity
  8
OBJECT
100
AcDbLine
 10
5823.669929959056
 20
5424.0348807901
 30
0.0
 11
5823.669929959056
 21
5545.194874964252
 31
0.0
  0
LINE
  5
3740
330
18
100
AcDbEntity
  8
OBJECT
100
AcDbLine
 10
5843.287826250596
 20
5424.034889632686
 30
0.0
 11
5843.287826250596
 21
5545.194883806839
 31
0.0
  0
LINE
  5
3741
330
18
100
AcDbEntity
  8
OBJECT
100
AcDbLine
 10
5845.903542877845
 20
5424.034889632686
 30
0.0
 11
5845.903542877845
 21
5545.194883806839
 31
0.0
  0
LINE
  5
3742
330
18
100
AcDbEntity
  8
OBJECT
100
AcDbLine
 10
5806.667750294761
 20
5424.0348807901
 30
0.0
 11
5806.667750294761
 21
5545.194874964252
 31
0.0
  0
LINE
  5
3743
330
18
100
AcDbEntity
  8
OBJECT
100
AcDbLine
 10
5804.052033667511
 20
5424.0348807901
 30
0.0
 11
5804.052033667511
 21
5545.194874964252
 31
0.0
  0
LINE
  5
3744
330
18
100
AcDbEntity
  8
OBJECT
100
AcDbLine
 10
5865.521439169388
 20
5424.034869674323
 30
0.0
 11
5865.521439169388
 21
5545.194863848476
 31
0.0
  0
LINE
  5
3745
330
18
100
AcDbEntity
  8
OBJECT
100
AcDbLine
 10
5862.905722542137
 20
5424.034869674323
 30
0.0
 11
5862.905722542137
 21
5545.194863848476
 31
0.0
  0
LINE
  5
3746
330
18
100
AcDbEntity
  8
OBJECT
100
AcDbLine
 10
5885.139335460929
 20
5424.034878516909
 30
0.0
 11
5885.139335460929
 21
5520.082382665574
 31
0.0
  0
LINE
  5
3747
330
18
100
AcDbEntity
  8
OBJECT
100
AcDbLine
 10
5882.52361883368
 20
5424.034878516909
 30
0.0
 11
5882.52361883368
 21
5525.313815920072
 31
0.0
  0
LINE
  5
3748
330
18
100
AcDbEntity
  8
OBJECT
100
AcDbLine
 10
5764.81624108443
 20
5417.426148981163
 30
0.0
 11
5764.81624108443
 21
5296.266154807007
 31
0.0
  0
LINE
  5
3749
330
18
100
AcDbEntity
  8
OBJECT
100
AcDbLine
 10
5767.431957711678
 20
5417.426148981163
 30
0.0
 11
5767.431957711678
 21
5296.266154807007
 31
0.0
  0
LINE
  5
374A
330
18
100
AcDbEntity
  8
OBJECT
100
AcDbLine
 10
5784.434137375972
 20
5417.426175508921
 30
0.0
 11
5784.434137375972
 21
5296.266181334768
 31
0.0
  0
LINE
  5
374B
330
18
100
AcDbEntity
  8
OBJECT
100
AcDbLine
 10
5787.049854003219
 20
5417.426175508921
 30
0.0
 11
5787.049854003219
 21
5296.266181334768
 31
0.0
  0
LINE
  5
374C
330
18
100
AcDbEntity
  8
OBJECT
100
AcDbLine
 10
5826.285646586303
 20
5417.426166666336
 30
0.0
 11
5826.285646586303
 21
5296.266172492183
 31
0.0
  0
LINE
  5
374D
330
18
100
AcDbEntity
  8
OBJECT
100
AcDbLine
 10
5823.669929959056
 20
5417.426166666336
 30
0.0
 11
5823.669929959056
 21
5296.266172492183
 31
0.0
  0
LINE
  5
374E
330
18
100
AcDbEntity
  8
OBJECT
100
AcDbLine
 10
5843.287826250596
 20
5417.426157823748
 30
0.0
 11
5843.287826250596
 21
5296.266163649597
 31
0.0
  0
LINE
  5
374F
330
18
100
AcDbEntity
  8
OBJECT
100
AcDbLine
 10
5845.903542877845
 20
5417.426157823748
 30
0.0
 11
5845.903542877845
 21
5296.266163649597
 31
0.0
  0
LINE
  5
3750
330
18
100
AcDbEntity
  8
OBJECT
100
AcDbLine
 10
5882.52361883368
 20
5417.426168939525
 30
0.0
 11
5882.52361883368
 21
5296.266174765374
 31
0.0
  0
LINE
  5
3751
330
18
100
AcDbEntity
  8
OBJECT
100
AcDbLine
 10
5885.139335460929
 20
5417.426168939525
 30
0.0
 11
5885.139335460929
 21
5296.266174765374
 31
0.0
  0
LINE
  5
3752
330
18
100
AcDbEntity
  8
OBJECT
100
AcDbLine
 10
5865.521439169388
 20
5417.426177782111
 30
0.0
 11
5865.521439169388
 21
5296.266183607958
 31
0.0
  0
LINE
  5
3753
330
18
100
AcDbEntity
  8
OBJECT
100
AcDbLine
 10
5862.905722542137
 20
5417.426177782111
 30
0.0
 11
5862.905722542137
 21
5296.266183607958
 31
0.0
  0
LINE
  5
3754
330
18
100
AcDbEntity
  8
OBJECT
100
AcDbLine
 10
5806.667750294761
 20
5417.426166666336
 30
0.0
 11
5806.667750294761
 21
5296.266172492183
 31
0.0
  0
LINE
  5
3755
330
18
100
AcDbEntity
  8
OBJECT
100
AcDbLine
 10
5804.052033667511
 20
5417.426166666336
 30
0.0
 11
5804.052033667511
 21
5296.266172492183
 31
0.0
  0
LINE
  5
3756
330
18
100
AcDbEntity
  8
OBJECT
100
AcDbLine
 10
5865.521439169388
 20
5551.803601867868
 30
0.0
 11
5865.521439169388
 21
5559.318175248657
 31
0.0
  0
LINE
  5
3757
330
18
100
AcDbEntity
  8
OBJECT
100
AcDbLine
 10
5862.905722542137
 20
5551.803601867868
 30
0.0
 11
5862.905722542137
 21
5564.549608503154
 31
0.0
  0
LINE
  5
3758
330
18
100
AcDbEntity
  8
OBJECT
100
AcDbLine
 10
5826.285646586303
 20
5551.803612983644
 30
0.0
 11
5826.285646586303
 21
5637.789760414825
 31
0.0
  0
LINE
  5
3759
330
18
100
AcDbEntity
  8
OBJECT
100
AcDbLine
 10
5845.903542877845
 20
5551.80362182623
 30
0.0
 11
5845.903542877845
 21
5598.55396783174
 31
0.0
  0
LINE
  5
375A
330
18
100
AcDbEntity
  8
OBJECT
100
AcDbLine
 10
5843.287826250596
 20
5551.80362182623
 30
0.0
 11
5843.287826250596
 21
5603.785401086238
 31
0.0
  0
LINE
  5
375B
330
18
100
AcDbEntity
  8
OBJECT
100
AcDbLine
 10
5630.106683670886
 20
5424.034883063289
 30
0.0
 11
5630.106683670886
 21
5545.194877237443
 31
0.0
  0
LINE
  5
375C
330
18
100
AcDbEntity
  8
OBJECT
100
AcDbLine
 10
5647.10886333518
 20
5424.034891905876
 30
0.0
 11
5647.10886333518
 21
5545.194886080031
 31
0.0
  0
LINE
  5
375D
330
18
100
AcDbEntity
  8
OBJECT
100
AcDbLine
 10
5649.724579962428
 20
5424.034891905876
 30
0.0
 11
5649.724579962428
 21
5545.194886080031
 31
0.0
  0
LINE
  5
375E
330
18
100
AcDbEntity
  8
OBJECT
100
AcDbLine
 10
5688.960372545512
 20
5424.034900748463
 30
0.0
 11
5688.960372545512
 21
5545.194894922616
 31
0.0
  0
LINE
  5
375F
330
18
100
AcDbEntity
  8
OBJECT
100
AcDbLine
 10
5686.344655918264
 20
5424.034900748463
 30
0.0
 11
5686.344655918264
 21
5545.194894922616
 31
0.0
  0
LINE
  5
3760
330
18
100
AcDbEntity
  8
OBJECT
100
AcDbLine
 10
5666.726759626723
 20
5424.034891905876
 30
0.0
 11
5666.726759626723
 21
5545.194886080031
 31
0.0
  0
LINE
  5
3761
330
18
100
AcDbEntity
  8
OBJECT
100
AcDbLine
 10
5669.342476253969
 20
5424.034891905876
 30
0.0
 11
5669.342476253969
 21
5545.194886080031
 31
0.0
  0
LINE
  5
3762
330
18
100
AcDbEntity
  8
OBJECT
100
AcDbLine
 10
5747.814061420136
 20
5424.034889632686
 30
0.0
 11
5747.814061420136
 21
5545.194883806839
 31
0.0
  0
LINE
  5
3763
330
18
100
AcDbEntity
  8
OBJECT
100
AcDbLine
 10
5745.198344792888
 20
5424.034889632686
 30
0.0
 11
5745.198344792888
 21
5545.194883806839
 31
0.0
  0
LINE
  5
3764
330
18
100
AcDbEntity
  8
OBJECT
100
AcDbLine
 10
5728.196165128595
 20
5424.034889632686
 30
0.0
 11
5728.196165128595
 21
5545.194883806839
 31
0.0
  0
LINE
  5
3765
330
18
100
AcDbEntity
  8
OBJECT
100
AcDbLine
 10
5725.580448501347
 20
5424.034889632686
 30
0.0
 11
5725.580448501347
 21
5545.194883806839
 31
0.0
  0
LINE
  5
3766
330
18
100
AcDbEntity
  8
OBJECT
100
AcDbLine
 10
5705.962552209804
 20
5424.0348807901
 30
0.0
 11
5705.962552209804
 21
5545.194874964252
 31
0.0
  0
LINE
  5
3767
330
18
100
AcDbEntity
  8
OBJECT
100
AcDbLine
 10
5708.578268837054
 20
5424.0348807901
 30
0.0
 11
5708.578268837054
 21
5545.194874964252
 31
0.0
  0
LINE
  5
3768
330
18
100
AcDbEntity
  8
OBJECT
100
AcDbLine
 10
5630.106683670886
 20
5417.426164393146
 30
0.0
 11
5630.106683670886
 21
5296.266170218991
 31
0.0
  0
LINE
  5
3769
330
18
100
AcDbEntity
  8
OBJECT
100
AcDbLine
 10
5647.10886333518
 20
5417.426155550559
 30
0.0
 11
5647.10886333518
 21
5296.266161376405
 31
0.0
  0
LINE
  5
376A
330
18
100
AcDbEntity
  8
OBJECT
100
AcDbLine
 10
5688.960372545512
 20
5417.426146707971
 30
0.0
 11
5688.960372545512
 21
5296.266152533818
 31
0.0
  0
LINE
  5
376B
330
18
100
AcDbEntity
  8
OBJECT
100
AcDbLine
 10
5686.344655918264
 20
5417.426146707971
 30
0.0
 11
5686.344655918264
 21
5296.266152533818
 31
0.0
  0
LINE
  5
376C
330
18
100
AcDbEntity
  8
OBJECT
100
AcDbLine
 10
5747.814061420136
 20
5417.426157823748
 30
0.0
 11
5747.814061420136
 21
5296.266163649597
 31
0.0
  0
LINE
  5
376D
330
18
100
AcDbEntity
  8
OBJECT
100
AcDbLine
 10
5745.198344792888
 20
5417.426157823748
 30
0.0
 11
5745.198344792888
 21
5296.266163649597
 31
0.0
  0
LINE
  5
376E
330
18
100
AcDbEntity
  8
OBJECT
100
AcDbLine
 10
5728.196165128595
 20
5417.426157823748
 30
0.0
 11
5728.196165128595
 21
5296.266163649597
 31
0.0
  0
LINE
  5
376F
330
18
100
AcDbEntity
  8
OBJECT
100
AcDbLine
 10
5725.580448501347
 20
5417.426157823748
 30
0.0
 11
5725.580448501347
 21
5296.266163649597
 31
0.0
  0
LINE
  5
3770
330
18
100
AcDbEntity
  8
OBJECT
100
AcDbLine
 10
5705.962552209804
 20
5417.426166666336
 30
0.0
 11
5705.962552209804
 21
5296.266172492183
 31
0.0
  0
LINE
  5
3771
330
18
100
AcDbEntity
  8
OBJECT
100
AcDbLine
 10
5708.578268837054
 20
5417.426166666336
 30
0.0
 11
5708.578268837054
 21
5296.266172492183
 31
0.0
  0
LINE
  5
3772
330
18
100
AcDbEntity
  8
OBJECT
100
AcDbLine
 10
5649.724579962428
 20
5417.426155550559
 30
0.0
 11
5649.724579962428
 21
5296.266161376405
 31
0.0
  0
LINE
  5
3773
330
18
100
AcDbEntity
  8
OBJECT
100
AcDbLine
 10
5666.726759626723
 20
5417.426155550559
 30
0.0
 11
5666.726759626723
 21
5296.266161376405
 31
0.0
  0
LINE
  5
3774
330
18
100
AcDbEntity
  8
OBJECT
100
AcDbLine
 10
5669.342476253969
 20
5417.426155550559
 30
0.0
 11
5669.342476253969
 21
5296.266161376405
 31
0.0
  0
LINE
  5
377E
330
18
100
AcDbEntity
  8
OBJECT
100
AcDbLine
 10
5627.490967043638
 20
5424.034883063289
 30
0.0
 11
5627.490967043638
 21
5545.194877237443
 31
0.0
  0
LINE
  5
377F
330
18
100
AcDbEntity
  8
OBJECT
100
AcDbLine
 10
5627.490967043638
 20
5417.426164393146
 30
0.0
 11
5627.490967043638
 21
5296.266170218991
 31
0.0
  0
LINE
  5
3788
102
{ACAD_REACTORS
330
36C8
102
}
330
18
100
AcDbEntity
  8
OBJECT
100
AcDbLine
 10
5596.873081881221
 20
5690.614889824989
 30
0.0
 11
6208.873081881221
 21
5690.614889824989
 31
0.0
  0
LINE
  5
3789
102
{ACAD_REACTORS
330
36C8
102
}
330
18
100
AcDbEntity
  8
OBJECT
100
AcDbLine
 10
5602.873081881221
 20
5684.614889824989
 30
0.0
 11
6202.873081881222
 21
5684.614889824989
 31
0.0
  0
LINE
  5
378A
330
18
100
AcDbEntity
  8
OBJECT
100
AcDbLine
 10
6402.873081881221
 20
5754.614889824989
 30
0.0
 11
5402.873081881221
 21
5754.614889824989
 31
0.0
  0
LINE
  5
378B
330
18
100
AcDbEntity
  8
OBJECT
100
AcDbLine
 10
5808.698719930117
 20
5672.963613727197
 30
0.0
 11
5610.488798508469
 21
5672.963613727194
 31
0.0
  0
LINE
  5
378C
330
18
100
AcDbEntity
  8
OBJECT
100
AcDbLine
 10
5805.373083571597
 20
5679.614886444236
 30
0.0
 11
5607.873081881221
 21
5679.614886444236
 31
0.0
  0
LINE
  5
378D
330
18
100
AcDbEntity
  8
OBJECT
100
AcDbLine
 10
6402.873081881221
 20
3614.614889824989
 30
0.0
 11
6402.873081881221
 21
4914.614889824989
 31
0.0
  0
LINE
  5
378E
330
18
100
AcDbEntity
  8
点線
100
AcDbLine
 10
6202.873081881222
 20
4864.61488982499
 30
0.0
 11
6202.873081881222
 21
3614.614889824989
 31
0.0
  0
LINE
  5
378F
330
18
100
AcDbEntity
  8
OBJECT
100
AcDbLine
 10
7242.873081881221
 20
4914.614889824989
 30
0.0
 11
7242.873081881221
 21
3614.614889824988
 31
0.0
  0
LINE
  5
3790
330
18
100
AcDbEntity
  8
OBJECT
100
AcDbLine
 10
5402.873081881221
 20
4914.614889824989
 30
0.0
 11
5402.873081881221
 21
3614.614889824989
 31
0.0
  0
LINE
  5
3791
330
18
100
AcDbEntity
  8
点線
100
AcDbLine
 10
5602.873081881221
 20
4864.61488982499
 30
0.0
 11
5602.873081881221
 21
3614.614889824989
 31
0.0
  0
LINE
  5
3792
330
18
100
AcDbEntity
  8
OBJECT
100
AcDbLine
 10
5402.873081881221
 20
3614.614889824989
 30
0.0
 11
6402.873081881221
 21
3614.614889824989
 31
0.0
  0
LINE
  5
3793
330
18
100
AcDbEntity
  8
点線
100
AcDbLine
 10
5602.873081881221
 20
4314.614889824987
 30
0.0
 11
5402.873081881221
 21
4314.614889824987
 31
0.0
  0
LINE
  5
3794
330
18
100
AcDbEntity
  8
点線
100
AcDbLine
 10
6202.873081881222
 20
4314.614889824987
 30
0.0
 11
6402.873081881221
 21
4314.614889824987
 31
0.0
  0
LINE
  5
3797
330
18
100
AcDbEntity
  8
OBJECT
100
AcDbLine
 10
5402.873081881221
 20
4914.614889824989
 30
0.0
 11
6402.873081881221
 21
4914.614889824989
 31
0.0
  0
LINE
  5
3798
330
18
100
AcDbEntity
  8
点線
100
AcDbLine
 10
5602.873081881221
 20
4864.61488982499
 30
0.0
 11
6202.873081881222
 21
4864.61488982499
 31
0.0
  0
LINE
  5
379D
330
18
100
AcDbEntity
  8
点線
100
AcDbLine
 10
5602.873081881221
 20
4814.614889824987
 30
0.0
 11
5402.873081881221
 21
4814.614889824987
 31
0.0
  0
LINE
  5
379E
330
18
100
AcDbEntity
  8
点線
100
AcDbLine
 10
7173.587367595508
 20
4864.61488982499
 30
0.0
 11
7173.587367595508
 21
4914.614889824989
 31
0.0
  0
LINE
  5
379F
330
18
100
AcDbEntity
  8
点線
100
AcDbLine
 10
5602.873081881221
 20
4914.614889824989
 30
0.0
 11
5602.873081881221
 21
4864.61488982499
 31
0.0
  0
LINE
  5
37A7
330
18
100
AcDbEntity
  8
点線
100
AcDbLine
 10
6202.873081881222
 20
4814.614889824987
 30
0.0
 11
6402.873081881221
 21
4814.614889824987
 31
0.0
  0
LINE
  5
37A8
330
18
100
AcDbEntity
  8
点線
100
AcDbLine
 10
6202.873081881222
 20
4864.61488982499
 30
0.0
 11
6202.873081881222
 21
4914.614889824989
 31
0.0
  0
LINE
  5
38E9
330
18
100
AcDbEntity
  8
上線
100
AcDbLine
 10
7983.497338964629
 20
5072.494941083674
 30
0.0
 11
8801.227846610872
 21
5072.494941083674
 31
0.0
  0
LINE
  5
38EA
330
18
100
AcDbEntity
  8
上線
100
AcDbLine
 10
7983.497338964629
 20
4974.579583408607
 30
0.0
 11
8801.227846610872
 21
4974.579583408607
 31
0.0
  0
MTEXT
  5
3908
330
18
100
AcDbEntity
  8
上線
100
AcDbMText
 10
8097.839054711943
 20
5730.274822960486
 30
0.0
 40
49.968
 41
247.7879999999999
 71
     1
 72
     5
  1
350
 73
     1
 44
1.0
  0
MTEXT
  5
3909
330
18
100
AcDbEntity
  8
上線
100
AcDbMText
 10
8095.964606878441
 20
5534.524107496586
 30
0.0
 40
49.968
 41
247.7879999999999
 71
     1
 72
     5
  1
450
 73
     1
 44
1.0
  0
MTEXT
  5
390A
330
18
100
AcDbEntity
  8
上線
100
AcDbMText
 10
8095.964606878441
 20
5338.693392146453
 30
0.0
 40
49.968
 41
247.7879999999999
 71
     1
 72
     5
  1
550
 73
     1
 44
1.0
  0
MTEXT
  5
390B
330
18
100
AcDbEntity
  8
上線
100
AcDbMText
 10
8095.964606878441
 20
5142.862676796318
 30
0.0
 40
49.968
 41
247.7879999999999
 71
     1
 72
     5
  1
650
 73
     1
 44
1.0
  0
MTEXT
  5
3910
330
18
100
AcDbEntity
  8
上線
100
AcDbMText
 10
8368.541442760522
 20
5730.194823074251
 30
0.0
 40
49.968
 41
247.7879999999999
 71
     1
 72
     5
  1
950
 73
     1
 44
1.0
  0
MTEXT
  5
3911
330
18
100
AcDbEntity
  8
上線
100
AcDbMText
 10
8336.573442760521
 20
5534.364107724116
 30
0.0
 40
49.968
 41
279.7559999999999
 71
     1
 72
     5
  1
1050
 73
     1
 44
1.0
  0
MTEXT
  5
3912
330
18
100
AcDbEntity
  8
上線
100
AcDbMText
 10
8336.573442760521
 20
5338.533392373982
 30
0.0
 40
49.968
 41
279.7559999999999
 71
     1
 72
     5
  1
1150
 73
     1
 44
1.0
  0
MTEXT
  5
3913
330
18
100
AcDbEntity
  8
上線
100
AcDbMText
 10
8336.573442760521
 20
5142.702677023846
 30
0.0
 40
49.968
 41
279.7559999999999
 71
     1
 72
     5
  1
1250
 73
     1
 44
1.0
  0
MTEXT
  5
3914
330
18
100
AcDbEntity
  8
上線
100
AcDbMText
 10
8642.992726476105
 20
5730.274822960486
 30
0.0
 40
49.968
 41
247.7879999999999
 71
     1
 72
     5
  1
697
 73
     1
 44
1.0
  0
MTEXT
  5
3915
330
18
100
AcDbEntity
  8
上線
100
AcDbMText
 10
8641.118278642601
 20
5534.524107496586
 30
0.0
 40
49.968
 41
247.7879999999999
 71
     1
 72
     5
  1
787
 73
     1
 44
1.0
  0
MTEXT
  5
3916
330
18
100
AcDbEntity
  8
上線
100
AcDbMText
 10
8641.118278642601
 20
5338.693392146453
 30
0.0
 40
49.968
 41
247.7879999999999
 71
     1
 72
     5
  1
877
 73
     1
 44
1.0
  0
MTEXT
  5
3917
330
18
100
AcDbEntity
  8
上線
100
AcDbMText
 10
8641.118278642601
 20
5142.862676796318
 30
0.0
 40
49.968
 41
247.7879999999999
 71
     1
 72
     5
  1
967
 73
     1
 44
1.0
  0
MTEXT
  5
3924
330
18
100
AcDbEntity
  8
上線
100
AcDbMText
 10
8609.1502786426
 20
5044.867319235016
 30
0.0
 40
49.968
 41
279.7559999999999
 71
     1
 72
     5
  1
1012
 73
     1
 44
1.0
  0
LINE
  5
3931
330
18
100
AcDbEntity
  8
OBJECT
100
AcDbLine
 10
6823.587367595507
 20
4814.61488982499
 30
0.0
 11
6827.168999207493
 21
4363.900676985841
 31
0.0
  0
LINE
  5
3932
330
18
100
AcDbEntity
  8
OBJECT
100
AcDbLine
 10
7122.158796166934
 20
4814.61488982499
 30
0.0
 11
7118.577164554948
 21
4363.900676985841
 31
0.0
  0
SOLID
  5
3A89
330
18
100
AcDbEntity
  8
0
  6
ByBlock
 62
     0
 48
10.0
100
AcDbTrace
 10
7280.373119562868
 20
5100.864881061569
 30
0.0
 11
7280.373119562868
 21
5088.364881061568
 31
0.0
 12
7242.873119562869
 22
5094.614881061568
 32
0.0
 13
7242.873119562869
 23
5094.614881061568
 33
0.0
  0
LINE
  5
3A8A
330
18
100
AcDbEntity
  8
OBJECT
 48
10.0
100
AcDbLine
 10
7242.873107703714
 20
5094.614881061572
 30
0.0
 11
7355.373107703714
 21
5094.61488106157
 31
0.0
  0
LINE
  5
3A8B
330
18
100
AcDbEntity
  8
WUWAGAKI
100
AcDbLine
 10
8971.75823541437
 20
6358.897508086726
 30
0.0
 11
4701.039316787452
 21
6358.897508086726
 31
0.0
  0
LINE
  5
3A8C
330
18
100
AcDbEntity
  8
WUWAGAKI
100
AcDbLine
 10
4701.039316787452
 20
3432.747656290602
 30
0.0
 11
8971.75823541437
 21
3432.747656290602
 31
0.0
  0
LINE
  5
3A8D
330
18
100
AcDbEntity
  8
0
 48
10.0
100
AcDbLine
 10
7242.873107703736
 20
4944.614889824993
 30
0.0
 11
7242.873107703736
 21
5274.614889824993
 31
0.0
  0
LINE
  5
3A8E
330
18
100
AcDbEntity
  8
0
 48
10.0
100
AcDbLine
 10
6702.873107703692
 20
4944.61488982499
 30
0.0
 11
6702.873107703692
 21
5274.614889824989
 31
0.0
  0
LINE
  5
3A8F
330
18
100
AcDbEntity
  8
WUWAGAKI
100
AcDbLine
 10
4701.039316787452
 20
6358.897508086726
 30
0.0
 11
4701.039316787452
 21
3432.747656290602
 31
0.0
  0
LINE
  5
3A93
330
18
100
AcDbEntity
  8
OBJECT
 48
10.0
100
AcDbLine
 10
5072.873090644643
 20
4914.614889824989
 30
0.0
 11
5072.873090644639
 21
3614.614889824988
 31
0.0
  0
LINE
  5
3A94
330
18
100
AcDbEntity
  8
OBJECT
 48
10.0
100
AcDbLine
 10
5222.873092621171
 20
3614.614889824988
 30
0.0
 11
5222.873092621171
 21
4914.614889824989
 31
0.0
  0
LINE
  5
3A97
330
18
100
AcDbEntity
  8
0
 48
10.0
100
AcDbLine
 10
5372.873081881221
 20
3614.614889824988
 30
0.0
 11
5042.873081881221
 21
3614.614889824988
 31
0.0
  0
SOLID
  5
3A98
330
18
100
AcDbEntity
  8
0
  6
ByBlock
 62
     0
 48
10.0
100
AcDbTrace
 10
5079.12308188122
 20
3652.11488982501
 30
0.0
 11
5066.623081881218
 21
3652.11488982501
 31
0.0
 12
5072.873081881218
 22
3614.61488982501
 32
0.0
 13
5072.873081881218
 23
3614.61488982501
 33
0.0
  0
SOLID
  5
3A99
330
18
100
AcDbEntity
  8
0
  6
ByBlock
 62
     0
 48
10.0
100
AcDbTrace
 10
5229.123092621168
 20
3652.114901684142
 30
0.0
 11
5216.623092621168
 21
3652.114901684142
 31
0.0
 12
5222.873092621168
 22
3614.614901684142
 32
0.0
 13
5222.873092621168
 23
3614.614901684142
 33
0.0
  0
MTEXT
  5
3A9A
330
18
100
AcDbEntity
  8
0
  6
ByBlock
 62
     0
 48
10.0
100
AcDbMText
 10
5192.873090644641
 20
3964.614889824989
 30
0.0
 40
37.5
 41
0.0
 71
     5
 72
     1
  1
h1
 11
0.0000000000000001
 21
1.0
 31
0.0
 73
     1
 44
1.0
  0
LINE
  5
3A9B
330
18
100
AcDbEntity
  8
0
 48
10.0
100
AcDbLine
 10
5372.873081881221
 20
4914.614889824989
 30
0.0
 11
5042.873081881221
 21
4914.614889824989
 31
0.0
  0
MTEXT
  5
3A9C
330
18
100
AcDbEntity
  8
0
  6
ByBlock
 62
     0
 48
10.0
100
AcDbMText
 10
5042.87308188122
 20
4264.614889824988
 30
0.0
 40
37.5
 41
0.0
 71
     5
 72
     1
  1
H
 11
0.0000000000000001
 21
1.0
 31
0.0
 73
     1
 44
1.0
  0
SOLID
  5
3A9D
330
18
100
AcDbEntity
  8
0
  6
ByBlock
 62
     0
 48
10.0
100
AcDbTrace
 10
5079.12308188122
 20
4877.114889824968
 30
0.0
 11
5066.623081881218
 21
4877.114889824968
 31
0.0
 12
5072.873081881218
 22
4914.614889824967
 32
0.0
 13
5072.873081881218
 23
4914.614889824967
 33
0.0
  0
SOLID
  5
3A9F
330
18
100
AcDbEntity
  8
0
  6
ByBlock
 62
     0
 48
10.0
100
AcDbTrace
 10
5229.123081881223
 20
4352.114889824989
 30
0.0
 11
5216.623081881223
 21
4352.114889824989
 31
0.0
 12
5222.873081881221
 22
4314.61488982499
 32
0.0
 13
5222.873081881221
 23
4314.61488982499
 33
0.0
  0
LINE
  5
3AA0
330
18
100
AcDbEntity
  8
0
 48
10.0
100
AcDbLine
 10
5372.873081881221
 20
4314.61488982499
 30
0.0
 11
5192.873081881221
 21
4314.61488982499
 31
0.0
  0
SOLID
  5
3AA1
330
18
100
AcDbEntity
  8
0
  6
ByBlock
 62
     0
 48
10.0
100
AcDbTrace
 10
5229.123081881223
 20
4277.114889824989
 30
0.0
 11
5216.623081881223
 21
4277.114889824989
 31
0.0
 12
5222.873081881221
 22
4314.61488982499
 32
0.0
 13
5222.873081881221
 23
4314.61488982499
 33
0.0
  0
MTEXT
  5
3AA2
330
18
100
AcDbEntity
  8
0
  6
ByBlock
 62
     0
 48
10.0
100
AcDbMText
 10
5192.87308188122
 20
4564.61488982499
 30
0.0
 40
37.5
 41
0.0
 71
     5
 72
     1
  1
500
 11
0.0000000000000001
 21
1.0
 31
0.0
 73
     1
 44
1.0
  0
LINE
  5
3AA4
330
18
100
AcDbEntity
  8
0
 48
10.0
100
AcDbLine
 10
5372.873081881221
 20
4814.61488982499
 30
0.0
 11
5192.873081881221
 21
4814.61488982499
 31
0.0
  0
MTEXT
  5
3AA5
330
18
100
AcDbEntity
  8
0
  6
ByBlock
 62
     0
 48
10.0
100
AcDbMText
 10
5192.873090644641
 20
4864.61488982499
 30
0.0
 40
37.5
 41
0.0
 71
     5
 72
     1
  1
100
 11
0.0000000000000001
 21
1.0
 31
0.0
 73
     1
 44
1.0
  0
SOLID
  5
3AA6
330
18
100
AcDbEntity
  8
0
  6
ByBlock
 62
     0
 48
10.0
100
AcDbTrace
 10
5229.123081881223
 20
4852.114889824992
 30
0.0
 11
5216.623081881223
 21
4852.114889824992
 31
0.0
 12
5222.873081881221
 22
4814.614889824992
 32
0.0
 13
5222.873081881221
 23
4814.614889824992
 33
0.0
  0
SOLID
  5
3AA7
330
18
100
AcDbEntity
  8
0
  6
ByBlock
 62
     0
 48
10.0
100
AcDbTrace
 10
5229.123081881223
 20
4777.114954264685
 30
0.0
 11
5216.623081881223
 21
4777.114954264685
 31
0.0
 12
5222.873081881221
 22
4814.614954264684
 32
0.0
 13
5222.873081881221
 23
4814.614954264684
 33
0.0
  0
SOLID
  5
3AA8
330
18
100
AcDbEntity
  8
0
  6
ByBlock
 62
     0
 48
10.0
100
AcDbTrace
 10
5229.123092621168
 20
4877.114877965835
 30
0.0
 11
5216.623092621168
 21
4877.114877965835
 31
0.0
 12
5222.873092621168
 22
4914.614877965835
 32
0.0
 13
5222.873092621168
 23
4914.614877965835
 33
0.0
  0
LINE
  5
3AB4
330
18
100
AcDbEntity
  8
0
 48
10.0
100
AcDbLine
 10
7117.873107703736
 20
4594.614879729799
 30
0.0
 11
7117.873107703736
 21
4774.614879729798
 31
0.0
  0
LINE
  5
3AB5
330
18
100
AcDbEntity
  8
0
 48
10.0
100
AcDbLine
 10
6827.873107703692
 20
4594.614879729799
 30
0.0
 11
6827.873107703692
 21
4774.614879729798
 31
0.0
  0
LINE
  5
3AB8
330
18
100
AcDbEntity
  8
WUWAGAKI
 48
10.0
100
AcDbLine
 10
6857.126711149885
 20
4340.17110355788
 30
0.0
 11
6933.278445938566
 21
4396.600568493477
 31
0.0
210
0.0
220
0.0
230
-1.0
1001
ACAD
1000
DSTYLE
1002
{
1070
    78
1070
     8
1070
   270
1070
     8
1070
   140
1040
2.5
1070
    74
1070
     0
1070
   172
1070
     1
1070
    73
1070
     0
1070
    77
1070
     1
1070
    40
1040
10.0
1070
   147
1040
0.625
1070
    42
1040
0.625
1070
    44
1040
1.25
1070
    43
1040
3.75
1070
   141
1040
2.5
1070
    41
1040
2.5
1070
   273
1070
     8
1070
   274
1070
     4
1070
   143
1040
0.0394
1070
   171
1070
     4
1002
}
  0
SOLID
  5
3ABA
330
18
100
AcDbEntity
  8
0
  6
ByBlock
 62
     0
 48
10.0
100
AcDbTrace
 10
6868.607968487096
 20
4356.222322745688
 30
0.0
 11
6875.999338486377
 21
4346.141764748547
 31
0.0
 12
6842.061979495319
 22
4329.007933749263
 32
0.0
 13
6842.061979495319
 23
4329.007933749263
 33
0.0
  0
MTEXT
  5
3ABD
330
18
100
AcDbEntity
  8
0
  6
ByBlock
 62
     0
 48
10.0
100
AcDbMText
 10
6985.778445938565
 20
4426.600568493477
 30
0.0
 40
30.0
 41
0.0
 71
     5
 72
     1
  1
50R
 73
     1
 44
1.0
  0
LINE
  5
3ABE
330
18
100
AcDbEntity
  8
OBJECT
 48
10.0
100
AcDbLine
 10
6933.278445938566
 20
4396.600568493477
 30
0.0
 11
7038.278445938566
 21
4396.600568493477
 31
0.0
  0
LINE
  5
3ABF
330
18
100
AcDbEntity
  8
OBJECT
 48
10.0
100
AcDbLine
 10
6827.873107703692
 20
4744.614881061571
 30
0.0
 11
7117.873107703736
 21
4744.614881061573
 31
0.0
  0
LINE
  5
3AC0
330
18
100
AcDbEntity
  8
OBJECT
 48
10.0
100
AcDbLine
 10
6747.873107703693
 20
5094.614881061572
 30
0.0
 11
7242.873107703736
 21
5094.614881061573
 31
0.0
  0
LINE
  5
3AC4
330
18
100
AcDbEntity
  8
0
 48
10.0
100
AcDbLine
 10
6822.873107703692
 20
4944.614879729798
 30
0.0
 11
6822.873107703692
 21
5124.614879729798
 31
0.0
  0
SOLID
  5
3AC5
330
18
100
AcDbEntity
  8
0
  6
ByBlock
 62
     0
 48
10.0
100
AcDbTrace
 10
6865.3731077037
 20
4738.364898588414
 30
0.0
 11
6865.3731077037
 21
4750.864898588412
 31
0.0
 12
6827.873107703699
 22
4744.614898588415
 32
0.0
 13
6827.873107703699
 23
4744.614898588415
 33
0.0
  0
SOLID
  5
3AC7
330
18
100
AcDbEntity
  8
0
  6
ByBlock
 62
     0
 48
10.0
100
AcDbTrace
 10
6740.373119562846
 20
5100.864881061569
 30
0.0
 11
6740.373119562846
 21
5088.364881061568
 31
0.0
 12
6702.873119562847
 22
5094.614881061568
 32
0.0
 13
6702.873119562847
 23
5094.614881061568
 33
0.0
  0
MTEXT
  5
3AC8
330
18
100
AcDbEntity
  8
0
  6
ByBlock
 62
     0
 48
10.0
100
AcDbMText
 10
6762.873107703693
 20
5124.614883038105
 30
0.0
 40
37.5
 41
0.0
 71
     5
 72
     1
  1
120
 73
     1
 44
1.0
  0
SOLID
  5
3AC9
330
18
100
AcDbEntity
  8
0
  6
ByBlock
 62
     0
 48
10.0
100
AcDbTrace
 10
6785.373107703687
 20
5088.364898588413
 30
0.0
 11
6785.373107703687
 21
5100.864898588412
 31
0.0
 12
6822.873107703687
 22
5094.614898588416
 32
0.0
 13
6822.873107703687
 23
5094.614898588416
 33
0.0
  0
SOLID
  5
3ACA
330
18
100
AcDbEntity
  8
0
  6
ByBlock
 62
     0
 48
10.0
100
AcDbTrace
 10
6860.3731077037
 20
5088.364898588413
 30
0.0
 11
6860.3731077037
 21
5100.864898588412
 31
0.0
 12
6822.873107703699
 22
5094.614898588416
 32
0.0
 13
6822.873107703699
 23
5094.614898588416
 33
0.0
  0
LINE
  5
3ACB
330
18
100
AcDbEntity
  8
0
 48
10.0
100
AcDbLine
 10
7122.873107703736
 20
4944.614879729798
 30
0.0
 11
7122.873107703736
 21
5124.614879729798
 31
0.0
  0
LINE
  5
3ACC
330
18
100
AcDbEntity
  8
0
 48
10.0
100
AcDbLine
 10
7172.873107703736
 20
4944.61488982499
 30
0.0
 11
7172.873107703736
 21
5124.614889824989
 31
0.0
  0
SOLID
  5
3ACD
330
18
100
AcDbEntity
  8
0
  6
ByBlock
 62
     0
 48
10.0
100
AcDbTrace
 10
7080.373212864782
 20
4738.364889824993
 30
0.0
 11
7080.373212864782
 21
4750.864889824991
 31
0.0
 12
7117.873212864783
 22
4744.614889824995
 32
0.0
 13
7117.873212864783
 23
4744.614889824995
 33
0.0
  0
MTEXT
  5
3ACE
330
18
100
AcDbEntity
  8
0
  6
ByBlock
 62
     0
 48
10.0
100
AcDbMText
 10
6972.873107703737
 20
4774.614889824991
 30
0.0
 40
37.5
 41
0.0
 71
     5
 72
     1
  1
290
 73
     1
 44
1.0
  0
MTEXT
  5
3AD0
330
18
100
AcDbEntity
  8
0
  6
ByBlock
 62
     0
 48
10.0
100
AcDbMText
 10
6972.873107703737
 20
5124.614889824991
 30
0.0
 40
37.5
 41
0.0
 71
     5
 72
     1
  1
300
 73
     1
 44
1.0
  0
MTEXT
  5
3AD1
330
18
100
AcDbEntity
  8
0
  6
ByBlock
 62
     0
 48
10.0
100
AcDbMText
 10
7147.873107703737
 20
5154.614881061572
 30
0.0
 40
37.5
 41
0.0
 71
     5
 72
     1
  1
50
 73
     1
 44
1.0
  0
LWPOLYLINE
  5
3AD2
330
18
100
AcDbEntity
  8
上線
 48
10.0
100
AcDbPolyline
 90
        2
 70
     1
 43
5.0
 10
7170.373107703736
 20
5094.592943453765
 42
1.0
 10
7175.373107703737
 20
5094.592943453765
 42
1.0
  0
SOLID
  5
3AD3
330
18
100
AcDbEntity
  8
0
  6
ByBlock
 62
     0
 48
10.0
100
AcDbTrace
 10
7085.373212864782
 20
5088.364889824993
 30
0.0
 11
7085.373212864782
 21
5100.864889824991
 31
0.0
 12
7122.873212864782
 22
5094.614889824995
 32
0.0
 13
7122.873212864782
 23
5094.614889824995
 33
0.0
  0
MTEXT
  5
3AD4
330
18
100
AcDbEntity
  8
0
  6
ByBlock
 62
     0
 48
10.0
100
AcDbMText
 10
7207.873107703736
 20
5124.614881061574
 30
0.0
 40
37.5
 41
0.0
 71
     5
 72
     1
  1
70
 73
     1
 44
1.0
  0
LINE
  5
3AD5
330
18
100
AcDbEntity
  8
OBJECT
 48
10.0
100
AcDbLine
 10
5402.873081881221
 20
5934.614879085039
 30
0.0
 11
6402.873081881221
 21
5934.614879085039
 31
0.0
  0
LINE
  5
3AD6
330
18
100
AcDbEntity
  8
OBJECT
 48
10.0
100
AcDbLine
 10
6402.873081881221
 20
6084.614881061568
 30
0.0
 11
5402.873081881221
 21
6084.614881061569
 31
0.0
  0
LINE
  5
3AE8
330
18
100
AcDbEntity
  8
0
 48
10.0
100
AcDbLine
 10
5372.873081881217
 20
5754.614915647505
 30
0.0
 11
5042.873081881218
 21
5754.614915647505
 31
0.0
  0
LINE
  5
3AE9
330
18
100
AcDbEntity
  8
0
 48
10.0
100
AcDbLine
 10
5372.873081881221
 20
5214.614915647461
 30
0.0
 11
5042.873081881221
 21
5214.614915647461
 31
0.0
  0
LINE
  5
3AEA
330
18
100
AcDbEntity
  8
OBJECT
 48
10.0
100
AcDbLine
 10
5072.873081881215
 20
5259.61491564746
 30
0.0
 11
5072.873081881215
 21
5754.614915647483
 31
0.0
  0
MTEXT
  5
3AEB
330
18
100
AcDbEntity
  8
0
  6
ByBlock
 62
     0
 48
10.0
100
AcDbMText
 10
5042.873081881218
 20
5484.614915647505
 30
0.0
 40
37.5
 41
0.0
 71
     5
 72
     1
  1
540
 11
0.0000000000000001
 21
1.0
 31
0.0
 73
     1
 44
1.0
  0
SOLID
  5
3AEC
330
18
100
AcDbEntity
  8
0
  6
ByBlock
 62
     0
 48
10.0
100
AcDbTrace
 10
5079.123081881217
 20
5252.114915647483
 30
0.0
 11
5066.623081881218
 21
5252.114915647483
 31
0.0
 12
5072.873081881215
 22
5214.614915647484
 32
0.0
 13
5072.873081881215
 23
5214.614915647484
 33
0.0
  0
SOLID
  5
3AED
330
18
100
AcDbEntity
  8
0
  6
ByBlock
 62
     0
 48
10.0
100
AcDbTrace
 10
5079.123081881217
 20
5717.114915647483
 30
0.0
 11
5066.623081881218
 21
5717.114915647483
 31
0.0
 12
5072.873081881215
 22
5754.614915647483
 32
0.0
 13
5072.873081881215
 23
5754.614915647483
 33
0.0
  0
MTEXT
  5
3AEE
330
18
100
AcDbEntity
  8
0
  6
ByBlock
 62
     0
 48
10.0
100
AcDbMText
 10
5192.873090644638
 20
5719.614915647505
 30
0.0
 40
37.5
 41
0.0
 71
     5
 72
     1
  1
70
 11
0.0000000000000001
 21
1.0
 31
0.0
 73
     1
 44
1.0
  0
LINE
  5
3AEF
330
18
100
AcDbEntity
  8
OBJECT
 48
10.0
100
AcDbLine
 10
5222.87309064464
 20
5259.61491564746
 30
0.0
 11
5222.873090644637
 21
5754.614915647505
 31
0.0
  0
MTEXT
  5
3AF2
330
18
100
AcDbEntity
  8
0
  6
ByBlock
 62
     0
 48
10.0
100
AcDbMText
 10
5192.873081881219
 20
5484.614915647505
 30
0.0
 40
37.5
 41
0.0
 71
     5
 72
     1
  1
300
 11
0.0000000000000001
 21
1.0
 31
0.0
 73
     1
 44
1.0
  0
LINE
  5
3AF3
330
18
100
AcDbEntity
  8
0
 48
10.0
100
AcDbLine
 10
5372.873091976412
 20
5334.614915647461
 30
0.0
 11
5192.873091976412
 21
5334.614915647461
 31
0.0
  0
SOLID
  5
3AF4
330
18
100
AcDbEntity
  8
0
  6
ByBlock
 62
     0
 48
10.0
100
AcDbTrace
 10
5229.123073117797
 20
5297.114915647455
 30
0.0
 11
5216.623073117798
 21
5297.114915647455
 31
0.0
 12
5222.873073117795
 22
5334.614915647455
 32
0.0
 13
5222.873073117795
 23
5334.614915647455
 33
0.0
  0
MTEXT
  5
3AF5
330
18
100
AcDbEntity
  8
0
  6
ByBlock
 62
     0
 48
10.0
100
AcDbMText
 10
5192.873088668105
 20
5274.614915647461
 30
0.0
 40
37.5
 41
0.0
 71
     5
 72
     1
  1
120
 11
0.0000000000000001
 21
1.0
 31
0.0
 73
     1
 44
1.0
  0
SOLID
  5
3AF6
330
18
100
AcDbEntity
  8
0
  6
ByBlock
 62
     0
 48
10.0
100
AcDbTrace
 10
5216.623090644641
 20
5252.114927506616
 30
0.0
 11
5229.123090644643
 21
5252.114927506616
 31
0.0
 12
5222.873090644643
 22
5214.614927506616
 32
0.0
 13
5222.873090644643
 23
5214.614927506616
 33
0.0
  0
SOLID
  5
3AF7
330
18
100
AcDbEntity
  8
0
  6
ByBlock
 62
     0
 48
10.0
100
AcDbTrace
 10
5229.123073117797
 20
5372.114915647467
 30
0.0
 11
5216.623073117798
 21
5372.114915647467
 31
0.0
 12
5222.873073117795
 22
5334.614915647467
 32
0.0
 13
5222.873073117795
 23
5334.614915647467
 33
0.0
  0
LINE
  5
3AF8
330
18
100
AcDbEntity
  8
0
 48
10.0
100
AcDbLine
 10
5372.873091976412
 20
5634.614915647505
 30
0.0
 11
5192.873091976412
 21
5634.614915647505
 31
0.0
  0
LINE
  5
3AF9
330
18
100
AcDbEntity
  8
0
 48
10.0
100
AcDbLine
 10
5372.873081881221
 20
5684.614915647505
 30
0.0
 11
5192.873081881221
 21
5684.614915647505
 31
0.0
  0
MTEXT
  5
3AFA
330
18
100
AcDbEntity
  8
0
  6
ByBlock
 62
     0
 48
10.0
100
AcDbMText
 10
5162.873090644637
 20
5659.614915647505
 30
0.0
 40
37.5
 41
0.0
 71
     5
 72
     1
  1
50
 11
0.0000000000000001
 21
1.0
 31
0.0
 73
     1
 44
1.0
  0
LWPOLYLINE
  5
3AFB
330
18
100
AcDbEntity
  8
上線
 48
10.0
100
AcDbPolyline
 90
        2
 70
     1
 43
5.0
 10
5222.895028252445
 20
5682.114915647505
 42
1.0
 10
5222.895028252445
 20
5687.114915647505
 42
1.0
  0
SOLID
  5
3AFC
330
18
100
AcDbEntity
  8
0
  6
ByBlock
 62
     0
 48
10.0
100
AcDbTrace
 10
5229.123081881217
 20
5597.11502080855
 30
0.0
 11
5216.62308188122
 21
5597.11502080855
 31
0.0
 12
5222.873081881215
 22
5634.61502080855
 32
0.0
 13
5222.873081881215
 23
5634.61502080855
 33
0.0
  0
MTEXT
  5
3B45
330
18
100
AcDbEntity
  8
0
  6
ByBlock
 62
     0
 48
10.0
100
AcDbMText
 10
5502.873081881221
 20
5964.61488106157
 30
0.0
 40
37.5
 41
0.0
 71
     5
 72
     1
  1
200
 73
     1
 44
1.0
  0
LINE
  5
3B46
330
18
100
AcDbEntity
  8
0
 48
10.0
100
AcDbLine
 10
5402.873081881221
 20
5784.61488982499
 30
0.0
 11
5402.873081881221
 21
6114.61488982499
 31
0.0
  0
LINE
  5
3B47
330
18
100
AcDbEntity
  8
OBJECT
 48
10.0
100
AcDbLine
 10
5222.87309064464
 20
5754.614915647483
 30
0.0
 11
5222.87309064464
 21
5867.114915647483
 31
0.0
  0
SOLID
  5
3B48
330
18
100
AcDbEntity
  8
0
  6
ByBlock
 62
     0
 48
10.0
100
AcDbTrace
 10
5216.623090644641
 20
5792.114927506638
 30
0.0
 11
5229.123090644643
 21
5792.114927506638
 31
0.0
 12
5222.873090644643
 22
5754.614927506637
 32
0.0
 13
5222.873090644643
 23
5754.614927506637
 33
0.0
  0
SOLID
  5
3B49
330
18
100
AcDbEntity
  8
0
  6
ByBlock
 62
     0
 48
10.0
100
AcDbTrace
 10
5440.373093740375
 20
5928.364879085042
 30
0.0
 11
5440.373093740375
 21
5940.864879085043
 31
0.0
 12
5402.873093740375
 22
5934.614879085042
 32
0.0
 13
5402.873093740375
 23
5934.614879085042
 33
0.0
  0
SOLID
  5
3B4A
330
18
100
AcDbEntity
  8
0
  6
ByBlock
 62
     0
 48
10.0
100
AcDbTrace
 10
5440.373081881243
 20
6078.364889824992
 30
0.0
 11
5440.373081881243
 21
6090.864889824992
 31
0.0
 12
5402.873081881242
 22
6084.614889824993
 32
0.0
 13
5402.873081881242
 23
6084.614889824993
 33
0.0
  0
LINE
  5
3B4B
330
18
100
AcDbEntity
  8
0
 48
10.0
100
AcDbLine
 10
5602.873081881221
 20
5784.61488982499
 30
0.0
 11
5602.873081881221
 21
5964.614889824989
 31
0.0
  0
SOLID
  5
3B4C
330
18
100
AcDbEntity
  8
0
  6
ByBlock
 62
     0
 48
10.0
100
AcDbTrace
 10
5565.373081881219
 20
5928.364889824988
 30
0.0
 11
5565.373081881219
 21
5940.864889824988
 31
0.0
 12
5602.873081881218
 22
5934.614889824989
 32
0.0
 13
5602.873081881218
 23
5934.614889824989
 33
0.0
  0
SOLID
  5
3B4D
330
18
100
AcDbEntity
  8
0
  6
ByBlock
 62
     0
 48
10.0
100
AcDbTrace
 10
5640.373017441525
 20
5928.364889824988
 30
0.0
 11
5640.373017441525
 21
5940.864889824988
 31
0.0
 12
5602.873017441526
 22
5934.614889824989
 32
0.0
 13
5602.873017441526
 23
5934.614889824989
 33
0.0
  0
LINE
  5
3B4E
330
18
100
AcDbEntity
  8
OBJECT
 48
10.0
100
AcDbLine
 10
5951.716706815444
 20
5386.927639956542
 30
0.0
 11
6682.922894275503
 21
5386.927639956542
 31
0.0
  0
MTEXT
  5
3B4F
330
18
100
AcDbEntity
  8
0
  6
ByBlock
 62
     0
 48
10.0
100
AcDbMText
 10
6555.422894275503
 20
5416.927639956543
 30
0.0
 40
30.0
 41
0.0
 71
     5
 72
     1
  1
グレーチング
 73
     1
 44
1.0
  0
LINE
  5
3B51
330
18
100
AcDbEntity
  8
WUWAGAKI
 48
10.0
100
AcDbLine
 10
6087.036597090573
 20
5627.274547888709
 30
0.0
 11
6437.922894275502
 21
5477.992872821304
 31
0.0
210
0.0
220
0.0
230
-1.0
1001
ACAD
1000
DSTYLE
1002
{
1070
    78
1070
     8
1070
   270
1070
     8
1070
   140
1040
2.5
1070
    74
1070
     0
1070
   172
1070
     1
1070
    73
1070
     0
1070
    77
1070
     1
1070
    40
1040
10.0
1070
   147
1040
0.625
1070
    42
1040
0.625
1070
    44
1040
1.25
1070
    43
1040
3.75
1070
   141
1040
2.5
1070
    41
1040
2.5
1070
   273
1070
     8
1070
   274
1070
     4
1070
   143
1040
0.0394
1070
   171
1070
     4
1002
}
  0
SOLID
  5
3B6D
330
18
100
AcDbEntity
  8
0
  6
ByBlock
 62
     0
 48
10.0
100
AcDbTrace
 10
5988.640254871928
 20
5392.899631188378
 30
0.0
 11
5988.580281004512
 21
5380.399775063798
 31
0.0
 12
5951.110699564476
 22
5386.829624728329
 32
0.0
 13
5951.110699564476
 23
5386.829624728329
 33
0.0
  0
SOLID
  5
3B73
330
18
100
AcDbEntity
  8
0
  6
ByBlock
 62
     0
 48
10.0
100
AcDbTrace
 10
6106.691335306038
 20
5625.49911184652
 30
0.0
 11
6101.739829033785
 21
5614.021630169958
 31
0.0
 12
6069.783137140219
 22
5634.614889824989
 32
0.0
 13
6069.783137140219
 23
5634.614889824989
 33
0.0
  0
LINE
  5
3B79
330
18
100
AcDbEntity
  8
OBJECT
 48
10.0
100
AcDbLine
 10
6437.922894275502
 20
5477.992872821304
 30
0.0
 11
6542.922894275502
 21
5477.992872821304
 31
0.0
  0
MTEXT
  5
3B7A
330
18
100
AcDbEntity
  8
0
  6
ByBlock
 62
     0
 48
10.0
100
AcDbMText
 10
6490.422894275503
 20
5507.992872821304
 30
0.0
 40
30.0
 41
0.0
 71
     5
 72
     1
  1
受枠
 73
     1
 44
1.0
  0
SOLID
  5
3B7B
330
18
100
AcDbEntity
  8
0
  6
ByBlock
 62
     0
 48
10.0
100
AcDbTrace
 10
6165.373146320916
 20
5928.364889824988
 30
0.0
 11
6165.373146320916
 21
5940.864889824988
 31
0.0
 12
6202.873146320916
 22
5934.614889824989
 32
0.0
 13
6202.873146320916
 23
5934.614889824989
 33
0.0
  0
MTEXT
  5
3B7C
330
18
100
AcDbEntity
  8
0
  6
ByBlock
 62
     0
 48
10.0
100
AcDbMText
 10
5902.873081881221
 20
5964.61488982499
 30
0.0
 40
37.5
 41
0.0
 71
     5
 72
     1
  1
600
 73
     1
 44
1.0
  0
MTEXT
  5
3B7D
330
18
100
AcDbEntity
  8
0
  6
ByBlock
 62
     0
 48
10.0
100
AcDbMText
 10
5902.873081881221
 20
6114.614889824991
 30
0.0
 40
37.5
 41
0.0
 71
     5
 72
     1
  1
1000
 73
     1
 44
1.0
  0
MTEXT
  5
3B7E
330
18
100
AcDbEntity
  8
0
  6
ByBlock
 62
     0
 48
10.0
100
AcDbMText
 10
6302.873081881221
 20
5964.61488106157
 30
0.0
 40
37.5
 41
0.0
 71
     5
 72
     1
  1
200
 73
     1
 44
1.0
  0
LINE
  5
3B7F
330
18
100
AcDbEntity
  8
0
 48
10.0
100
AcDbLine
 10
6402.873081881221
 20
5784.61488982499
 30
0.0
 11
6402.873081881221
 21
6114.61488982499
 31
0.0
  0
LINE
  5
3B80
330
18
100
AcDbEntity
  8
0
 48
10.0
100
AcDbLine
 10
6202.873081881222
 20
5784.61488982499
 30
0.0
 11
6202.873081881222
 21
5964.614889824989
 31
0.0
  0
SOLID
  5
3B81
330
18
100
AcDbEntity
  8
0
  6
ByBlock
 62
     0
 48
10.0
100
AcDbTrace
 10
6365.373070022067
 20
5928.364879085042
 30
0.0
 11
6365.373070022067
 21
5940.864879085043
 31
0.0
 12
6402.873070022066
 22
5934.614879085042
 32
0.0
 13
6402.873070022066
 23
5934.614879085042
 33
0.0
  0
SOLID
  5
3B82
330
18
100
AcDbEntity
  8
0
  6
ByBlock
 62
     0
 48
10.0
100
AcDbTrace
 10
6240.373081881223
 20
5928.364889824988
 30
0.0
 11
6240.373081881223
 21
5940.864889824988
 31
0.0
 12
6202.873081881223
 22
5934.614889824989
 32
0.0
 13
6202.873081881223
 23
5934.614889824989
 33
0.0
  0
SOLID
  5
3B83
330
18
100
AcDbEntity
  8
0
  6
ByBlock
 62
     0
 48
10.0
100
AcDbTrace
 10
6365.373081881199
 20
6078.364889824992
 30
0.0
 11
6365.373081881199
 21
6090.864889824992
 31
0.0
 12
6402.8730818812
 22
6084.614889824993
 32
0.0
 13
6402.8730818812
 23
6084.614889824993
 33
0.0
  0
LINE
  5
3B84
330
18
100
AcDbEntity
  8
OBJECT
 48
10.0
100
AcDbLine
 10
6747.873107703693
 20
5244.614889824995
 30
0.0
 11
7242.873107703714
 21
5244.614889824995
 31
0.0
  0
SOLID
  5
3B85
330
18
100
AcDbEntity
  8
0
  6
ByBlock
 62
     0
 48
10.0
100
AcDbTrace
 10
6740.373107703715
 20
5238.364889824993
 30
0.0
 11
6740.373107703715
 21
5250.864889824993
 31
0.0
 12
6702.873107703715
 22
5244.614889824995
 32
0.0
 13
6702.873107703715
 23
5244.614889824995
 33
0.0
  0
MTEXT
  5
3B86
330
18
100
AcDbEntity
  8
0
  6
ByBlock
 62
     0
 48
10.0
100
AcDbMText
 10
6972.873107703737
 20
5274.614889824993
 30
0.0
 40
37.5
 41
0.0
 71
     5
 72
     1
  1
540
 73
     1
 44
1.0
  0
SOLID
  5
3B87
330
18
100
AcDbEntity
  8
0
  6
ByBlock
 62
     0
 48
10.0
100
AcDbTrace
 10
7205.373107703714
 20
5238.364889824993
 30
0.0
 11
7205.373107703714
 21
5250.864889824993
 31
0.0
 12
7242.873107703714
 22
5244.614889824995
 32
0.0
 13
7242.873107703714
 23
5244.614889824995
 33
0.0
  0
LINE
  5
3B88
330
18
100
AcDbEntity
  8
WUWAGAKI
100
AcDbLine
 10
8971.75823541437
 20
3432.747656290602
 30
0.0
 11
8971.75823541437
 21
6358.897508086726
 31
0.0
  0
LINE
  5
3B90
330
18
100
AcDbEntity
  8
WUWAGAKI
100
AcDbLine
 10
7812.458647505991
 20
3921.227623361973
 30
0.0
 11
8905.255222606415
 21
3921.227623361973
 31
0.0
  0
LINE
  5
3B91
330
18
100
AcDbEntity
  8
WUWAGAKI
100
AcDbLine
 10
7812.458647505991
 20
3826.697335416837
 30
0.0
 11
8902.623400270652
 21
3826.697335416837
 31
0.0
  0
LINE
  5
3B92
330
18
100
AcDbEntity
  8
WUWAGAKI
100
AcDbLine
 10
7812.458647505991
 20
3826.697335416837
 30
0.0
 11
8902.623400270652
 21
3826.697335416837
 31
0.0
  0
LINE
  5
3B93
330
18
100
AcDbEntity
  8
WUWAGAKI
100
AcDbLine
 10
7812.458647505991
 20
3501.247190732405
 30
0.0
 11
8905.255222606415
 21
3501.247190732405
 31
0.0
  0
LINE
  5
3B94
330
18
100
AcDbEntity
  8
WUWAGAKI
100
AcDbLine
 10
7812.458647505991
 20
3730.790950452222
 30
0.0
 11
8905.255222606411
 21
3730.790950452222
 31
0.0
  0
LINE
  5
3B95
330
18
100
AcDbEntity
  8
WUWAGAKI
100
AcDbLine
 10
7812.458647505991
 20
3632.275886287616
 30
0.0
 11
8905.255222606411
 21
3632.275886287616
 31
0.0
  0
TEXT
  5
3B96
330
18
100
AcDbEntity
  8
WUWAGAKI
100
AcDbText
 10
8098.911522437331
 20
3755.214712003907
 30
0.0
 40
38.2725
  1
300×U500×1000×120/120×H
100
AcDbText
  0
TEXT
  5
3BA0
330
18
100
AcDbEntity
  8
WUWAGAKI
100
AcDbText
 10
7859.992303154692
 20
3852.983222634352
 30
0.0
 40
45.0
  1
種　別
100
AcDbText
  0
TEXT
  5
3BA1
330
18
100
AcDbEntity
  8
WUWAGAKI
100
AcDbText
 10
7884.984849029354
 20
3655.34642960589
 30
0.0
 40
45.0
  1
縮尺
100
AcDbText
  0
TEXT
  5
3BA2
330
18
100
AcDbEntity
  8
WUWAGAKI
100
AcDbText
 10
7857.337091268272
 20
3751.844382597371
 30
0.0
 40
45.0
  1
寸　法
100
AcDbText
  0
LINE
  5
3BA3
330
18
100
AcDbEntity
  8
WUWAGAKI
100
AcDbLine
 10
7812.458647505991
 20
3921.227623361973
 30
0.0
 11
7812.458647505991
 21
3501.247190732405
 31
0.0
  0
LINE
  5
3BA4
330
18
100
AcDbEntity
  8
WUWAGAKI
100
AcDbLine
 10
8642.973032020726
 20
3730.790950452222
 30
0.0
 11
8642.973032020726
 21
3632.275886287616
 31
0.0
  0
LINE
  5
3BA5
330
18
100
AcDbEntity
  8
WUWAGAKI
100
AcDbLine
 10
8458.744605258409
 20
3730.790950452222
 30
0.0
 11
8458.744605258409
 21
3632.275886287616
 31
0.0
  0
TEXT
  5
3BA6
330
18
100
AcDbEntity
  8
WUWAGAKI
100
AcDbText
 10
8098.911522437331
 20
3656.648345035347
 30
0.0
 40
45.0
  1
S＝　1：15
100
AcDbText
  0
LINE
  5
3BA7
330
18
100
AcDbEntity
  8
WUWAGAKI
100
AcDbLine
 10
8064.5751190745
 20
3921.227623361973
 30
0.0
 11
8064.5751190745
 21
3632.275886287616
 31
0.0
  0
TEXT
  5
3BA8
330
18
100
AcDbEntity
  8
WUWAGAKI
100
AcDbText
 10
8485.672381010555
 20
3656.697782546888
 30
0.0
 40
45.0
  1
重量
100
AcDbText
  0
TEXT
  5
3BA9
330
18
100
AcDbEntity
  8
WUWAGAKI
100
AcDbText
 10
8051.164080405467
 20
3532.854757538791
 30
0.0
 40
60.0
  1
㈱　ウ　チ　コ　ン
100
AcDbText
  0
TEXT
  5
3BAA
330
18
100
AcDbEntity
  8
WUWAGAKI
100
AcDbText
 10
8098.911522437331
 20
3850.404062438293
 30
0.0
 40
45.0
  1
集水桝
100
AcDbText
  0
LINE
  5
3BB3
330
18
100
AcDbEntity
  8
WUWAGAKI
100
AcDbLine
 10
8905.255222606415
 20
3501.247190732405
 30
0.0
 11
8905.255222606415
 21
3921.227623361973
 31
0.0
  0
VIEWPORT
  5
298
330
15
100
AcDbEntity
 67
     1
  8
0
100
AcDbViewport
 10
291.7632241813602
 20
148.5
 30
0.0
 40
583.5264483627204
 41
297.0
 68
     1
 69
     1
 12
291.7632241813602
 22
148.5
 13
0.0
 23
0.0
 14
10.0
 24
10.0
 15
10.0
 25
10.0
 16
0.0
 26
0.0
 36
1.0
 17
0.0
 27
0.0
 37
0.0
 42
50.0
 43
0.0
 44
0.0
 45
297.0
 50
0.0
 51
0.0
 72
   100
 90
    32800
  1

281
     0
 71
     1
 74
     0
110
0.0
120
0.0
130
0.0
111
1.0
121
0.0
131
0.0
112
0.0
122
1.0
132
0.0
 79
     0
146
0.0
  0
ENDSEC
  0
SECTION
  2
OBJECTS
  0
DICTIONARY
  5
C
330
0
100
AcDbDictionary
281
     1
  3
ACAD_GROUP
350
D
  3
ACAD_LAYOUT
350
15FE
  3
ACAD_MLINESTYLE
350
1B
  3
ACAD_PLOTSETTINGS
350
15FF
  3
ACAD_PLOTSTYLENAME
350
15FC
  3
ACDBVARIABLEDICTIONARY
350
B2A
  3
DRAWINGVARIABLESDICT
350
1212
  0
DICTIONARY
  5
D
102
{ACAD_REACTORS
330
C
102
}
330
C
100
AcDbDictionary
281
     1
  3
*A1
350
1DE1
  3
*A2
350
2483
  3
*A3
350
2486
  3
*A4
350
2971
  3
*A5
350
3003
  3
*A6
350
34F4
  0
DICTIONARY
  5
15FE
102
{ACAD_REACTORS
330
C
102
}
330
C
100
AcDbDictionary
281
     1
  3
Model
350
1600
  3
ﾚｲｱｳﾄ1
350
1601
  0
DICTIONARY
  5
1B
102
{ACAD_REACTORS
330
C
102
}
330
C
100
AcDbDictionary
281
     1
  3
STANDARD
350
1C
  0
DICTIONARY
  5
15FF
102
{ACAD_REACTORS
330
C
102
}
330
C
100
AcDbDictionary
281
     1
  0
ACDBDICTIONARYWDFLT
  5
15FC
102
{ACAD_REACTORS
330
C
102
}
330
C
100
AcDbDictionary
281
     1
  3
Normal
350
15FD
100
AcDbDictionaryWithDefault
340
15FD
  0
DICTIONARY
  5
B2A
102
{ACAD_REACTORS
330
C
102
}
330
C
100
AcDbDictionary
281
     1
  3
SORTENTS
350
B2B
  0
DICTIONARY
  5
1212
102
{ACAD_REACTORS
330
C
102
}
330
C
100
AcDbDictionary
281
     1
1001
DRAWINGVARIABLESXDATA
1000
POLARANG
1000
0.785398
1000
POLARMODE
1000
0
  0
GROUP
  5
1DE1
102
{ACAD_REACTORS
330
D
102
}
330
D
100
AcDbGroup
300

 70
     1
 71
     1
  0
GROUP
  5
2483
102
{ACAD_REACTORS
330
D
102
}
330
D
100
AcDbGroup
300

 70
     1
 71
     1
  0
GROUP
  5
2486
102
{ACAD_REACTORS
330
D
102
}
330
D
100
AcDbGroup
300

 70
     1
 71
     1
  0
GROUP
  5
2971
102
{ACAD_REACTORS
330
D
102
}
330
D
100
AcDbGroup
300

 70
     1
 71
     1
  0
GROUP
  5
3003
102
{ACAD_REACTORS
330
D
102
}
330
D
100
AcDbGroup
300

 70
     1
 71
     1
  0
GROUP
  5
34F4
102
{ACAD_REACTORS
330
D
102
}
330
D
100
AcDbGroup
300

 70
     1
 71
     1
  0
LAYOUT
  5
1600
102
{ACAD_REACTORS
330
15FE
102
}
330
15FE
100
AcDbPlotSettings
  1

  2
Canon LBP3800 LIPSLX
  4
A4
  6

 40
5.873749732971191
 41
5.873747825622558
 42
5.873748779296875
 43
5.873748779296875
 44
209.9733276367187
 45
296.9259948730469
 46
0.0
 47
0.0
 48
0.0
 49
0.0
140
0.0
141
0.0
142
1.0
143
1.0
 70
 11952
 72
     1
 73
     1
 74
     0
  7

 75
     0
147
1.0
148
-1119.838883806218
149
-2764.341960111367
100
AcDbLayout
  1
Model
 70
     1
 71
     0
 10
0.0
 20
0.0
 11
12.0
 21
9.0
 12
0.0
 22
0.0
 32
0.0
 14
0.0
 24
0.0
 34
0.0
 15
0.0
 25
0.0
 35
0.0
146
0.0
 13
0.0
 23
0.0
 33
0.0
 16
1.0
 26
0.0
 36
0.0
 17
0.0
 27
1.0
 37
0.0
 76
     0
330
18
  0
LAYOUT
  5
1601
102
{ACAD_REACTORS
330
15FE
102
}
330
15FE
100
AcDbPlotSettings
  1

  2
Canon LBP3800 LIPSLX
  4

  6

 40
0.0
 41
0.0
 42
0.0
 43
0.0
 44
0.0
 45
0.0
 46
0.0
 47
0.0
 48
0.0
 49
0.0
140
0.0
141
0.0
142
1.0
143
1.0
 70
   688
 72
     0
 73
     0
 74
     5
  7

 75
    16
147
1.0
148
0.0
149
0.0
100
AcDbLayout
  1
ﾚｲｱｳﾄ1
 70
     1
 71
     1
 10
0.0
 20
0.0
 11
420.0
 21
297.0
 12
0.0
 22
0.0
 32
0.0
 14
1.000000000000000E+20
 24
1.000000000000000E+20
 34
1.000000000000000E+20
 15
-1.000000000000000E+20
 25
-1.000000000000000E+20
 35
-1.000000000000000E+20
146
0.0
 13
0.0
 23
0.0
 33
0.0
 16
1.0
 26
0.0
 36
0.0
 17
0.0
 27
1.0
 37
0.0
 76
     0
330
15
331
298
  0
MLINESTYLE
  5
1C
102
{ACAD_REACTORS
330
1B
102
}
330
1B
100
AcDbMlineStyle
  2
STANDARD
 70
     0
  3

 62
   256
 51
90.0
 52
90.0
 71
     2
 49
0.5
 62
   256
  6
BYLAYER
 49
-0.5
 62
   256
  6
BYLAYER
  0
ACDBPLACEHOLDER
  5
15FD
102
{ACAD_REACTORS
330
15FC
102
}
330
15FC
  0
DICTIONARYVAR
  5
B2B
102
{ACAD_REACTORS
330
B2A
102
}
330
B2A
100
DictionaryVariables
280
     0
  1
96
  0
ENDSEC
  0
EOF
