  0
SECTION
  2
HEADER
  9
$ACADVER
  1
AC1015
  9
$ACADMAINTVER
 70
     6
  9
$DWGCODEPAGE
  3
ANSI_932
  9
$INSBASE
 10
0.0
 20
0.0
 30
0.0
  9
$EXTMIN
 10
710.0813698183028
 20
984.8549298695507
 30
0.0
  9
$EXTMAX
 10
9199.182435831231
 20
6162.046576712646
 30
0.0
  9
$LIMMIN
 10
0.0
 20
0.0
  9
$LIMMAX
 10
4455.0
 20
3150.0
  9
$ORTHOMODE
 70
     0
  9
$REGENMODE
 70
     1
  9
$FILLMODE
 70
     1
  9
$QTEXTMODE
 70
     0
  9
$MIRRTEXT
 70
     1
  9
$LTSCALE
 40
5.0
  9
$ATTMODE
 70
     1
  9
$TEXTSIZE
 40
2.5
  9
$TRACEWID
 40
1.0
  9
$TEXTSTYLE
  7
STANDARD
  9
$CLAYER
  8
OBJECT
  9
$CELTYPE
  6
BYLAYER
  9
$CECOLOR
 62
   256
  9
$CELTSCALE
 40
1.0
  9
$DISPSILH
 70
     0
  9
$DIMSCALE
 40
15.0
  9
$DIMASZ
 40
2.5
  9
$DIMEXO
 40
0.625
  9
$DIMDLI
 40
3.75
  9
$DIMRND
 40
0.0
  9
$DIMDLE
 40
0.0
  9
$DIMEXE
 40
1.25
  9
$DIMTP
 40
0.0
  9
$DIMTM
 40
0.0
  9
$DIMTXT
 40
2.5
  9
$DIMCEN
 40
2.5
  9
$DIMTSZ
 40
0.0
  9
$DIMTOL
 70
     0
  9
$DIMLIM
 70
     0
  9
$DIMTIH
 70
     0
  9
$DIMTOH
 70
     0
  9
$DIMSE1
 70
     0
  9
$DIMSE2
 70
     0
  9
$DIMTAD
 70
     1
  9
$DIMZIN
 70
     8
  9
$DIMBLK
  1

  9
$DIMASO
 70
     1
  9
$DIMSHO
 70
     1
  9
$DIMPOST
  1

  9
$DIMAPOST
  1

  9
$DIMALT
 70
     0
  9
$DIMALTD
 70
     4
  9
$DIMALTF
 40
0.0394
  9
$DIMLFAC
 40
1.0
  9
$DIMTOFL
 70
     1
  9
$DIMTVP
 40
0.0
  9
$DIMTIX
 70
     0
  9
$DIMSOXD
 70
     0
  9
$DIMSAH
 70
     0
  9
$DIMBLK1
  1

  9
$DIMBLK2
  1

  9
$DIMSTYLE
  2
STANDARD
  9
$DIMCLRD
 70
     0
  9
$DIMCLRE
 70
     0
  9
$DIMCLRT
 70
     0
  9
$DIMTFAC
 40
1.0
  9
$DIMGAP
 40
0.625
  9
$DIMJUST
 70
     0
  9
$DIMSD1
 70
     0
  9
$DIMSD2
 70
     0
  9
$DIMTOLJ
 70
     1
  9
$DIMTZIN
 70
     0
  9
$DIMALTZ
 70
     0
  9
$DIMALTTZ
 70
     0
  9
$DIMUPT
 70
     0
  9
$DIMDEC
 70
     4
  9
$DIMTDEC
 70
     4
  9
$DIMALTU
 70
     8
  9
$DIMALTTD
 70
     4
  9
$DIMTXSTY
  7
STANDARD
  9
$DIMAUNIT
 70
     0
  9
$DIMADEC
 70
     0
  9
$DIMALTRND
 40
0.0
  9
$DIMAZIN
 70
     0
  9
$DIMDSEP
 70
    46
  9
$DIMATFIT
 70
     3
  9
$DIMFRAC
 70
     0
  9
$DIMLDRBLK
  1

  9
$DIMLUNIT
 70
     6
  9
$DIMLWD
 70
    -2
  9
$DIMLWE
 70
    -2
  9
$DIMTMOVE
 70
     0
  9
$LUNITS
 70
     2
  9
$LUPREC
 70
     4
  9
$SKETCHINC
 40
1.0
  9
$FILLETRAD
 40
10.0
  9
$AUNITS
 70
     0
  9
$AUPREC
 70
     0
  9
$MENU
  1
acad
  9
$ELEVATION
 40
0.0
  9
$PELEVATION
 40
0.0
  9
$THICKNESS
 40
0.0
  9
$LIMCHECK
 70
     0
  9
$CHAMFERA
 40
10.0
  9
$CHAMFERB
 40
10.0
  9
$CHAMFERC
 40
20.0
  9
$CHAMFERD
 40
0.0
  9
$SKPOLY
 70
     0
  9
$TDCREATE
 40
2452111.335768865
  9
$TDUCREATE
 40
2452110.960768866
  9
$TDUPDATE
 40
2454547.712641227
  9
$TDUUPDATE
 40
2454547.337641227
  9
$TDINDWG
 40
1.2837159722
  9
$TDUSRTIMER
 40
1.2837159722
  9
$USRTIMER
 70
     1
  9
$ANGBASE
 50
0.0
  9
$ANGDIR
 70
     0
  9
$PDMODE
 70
     0
  9
$PDSIZE
 40
0.0
  9
$PLINEWID
 40
0.0
  9
$SPLFRAME
 70
     0
  9
$SPLINETYPE
 70
     6
  9
$SPLINESEGS
 70
     8
  9
$HANDSEED
  5
415E
  9
$SURFTAB1
 70
     6
  9
$SURFTAB2
 70
     6
  9
$SURFTYPE
 70
     6
  9
$SURFU
 70
     6
  9
$SURFV
 70
     6
  9
$UCSBASE
  2

  9
$UCSNAME
  2

  9
$UCSORG
 10
0.0
 20
0.0
 30
0.0
  9
$UCSXDIR
 10
1.0
 20
0.0
 30
0.0
  9
$UCSYDIR
 10
0.0
 20
1.0
 30
0.0
  9
$UCSORTHOREF
  2

  9
$UCSORTHOVIEW
 70
     0
  9
$UCSORGTOP
 10
0.0
 20
0.0
 30
0.0
  9
$UCSORGBOTTOM
 10
0.0
 20
0.0
 30
0.0
  9
$UCSORGLEFT
 10
0.0
 20
0.0
 30
0.0
  9
$UCSORGRIGHT
 10
0.0
 20
0.0
 30
0.0
  9
$UCSORGFRONT
 10
0.0
 20
0.0
 30
0.0
  9
$UCSORGBACK
 10
0.0
 20
0.0
 30
0.0
  9
$PUCSBASE
  2

  9
$PUCSNAME
  2

  9
$PUCSORG
 10
0.0
 20
0.0
 30
0.0
  9
$PUCSXDIR
 10
1.0
 20
0.0
 30
0.0
  9
$PUCSYDIR
 10
0.0
 20
1.0
 30
0.0
  9
$PUCSORTHOREF
  2

  9
$PUCSORTHOVIEW
 70
     0
  9
$PUCSORGTOP
 10
0.0
 20
0.0
 30
0.0
  9
$PUCSORGBOTTOM
 10
0.0
 20
0.0
 30
0.0
  9
$PUCSORGLEFT
 10
0.0
 20
0.0
 30
0.0
  9
$PUCSORGRIGHT
 10
0.0
 20
0.0
 30
0.0
  9
$PUCSORGFRONT
 10
0.0
 20
0.0
 30
0.0
  9
$PUCSORGBACK
 10
0.0
 20
0.0
 30
0.0
  9
$USERI1
 70
     0
  9
$USERI2
 70
     0
  9
$USERI3
 70
     0
  9
$USERI4
 70
     0
  9
$USERI5
 70
     0
  9
$USERR1
 40
0.0
  9
$USERR2
 40
0.0
  9
$USERR3
 40
0.0
  9
$USERR4
 40
0.0
  9
$USERR5
 40
0.0
  9
$WORLDVIEW
 70
     1
  9
$SHADEDGE
 70
     3
  9
$SHADEDIF
 70
    70
  9
$TILEMODE
 70
     1
  9
$MAXACTVP
 70
    48
  9
$PINSBASE
 10
0.0
 20
0.0
 30
0.0
  9
$PLIMCHECK
 70
     0
  9
$PEXTMIN
 10
1.000000000000000E+20
 20
1.000000000000000E+20
 30
1.000000000000000E+20
  9
$PEXTMAX
 10
-1.000000000000000E+20
 20
-1.000000000000000E+20
 30
-1.000000000000000E+20
  9
$PLIMMIN
 10
0.0
 20
0.0
  9
$PLIMMAX
 10
420.0
 20
297.0
  9
$UNITMODE
 70
     0
  9
$VISRETAIN
 70
     1
  9
$PLINEGEN
 70
     0
  9
$PSLTSCALE
 70
     1
  9
$TREEDEPTH
 70
  3020
  9
$CMLSTYLE
  2
STANDARD
  9
$CMLJUST
 70
     0
  9
$CMLSCALE
 40
20.0
  9
$PROXYGRAPHICS
 70
     1
  9
$MEASUREMENT
 70
     1
  9
$CELWEIGHT
370
    -1
  9
$ENDCAPS
280
     0
  9
$JOINSTYLE
280
     0
  9
$LWDISPLAY
290
     0
  9
$INSUNITS
 70
     0
  9
$HYPERLINKBASE
  1

  9
$STYLESHEET
  1

  9
$XEDIT
290
     1
  9
$CEPSNTYPE
380
     0
  9
$PSTYLEMODE
290
     1
  9
$FINGERPRINTGUID
  2
{C9668057-E409-4CFD-A4F9-6C0551275C13}
  9
$VERSIONGUID
  2
{B799A612-8FFC-4A4C-BEC3-54E81993B0FF}
  9
$EXTNAMES
290
     1
  9
$PSVPSCALE
 40
0.0
  9
$OLESTARTUP
290
     0
  0
ENDSEC
  0
SECTION
  2
CLASSES
  0
CLASS
  1
LWPOLYLINE
  2
AcDbPolyline
  3
AutoCAD 2000
 90
    32768
280
     0
281
     1
  0
CLASS
  1
DICTIONARYVAR
  2
AcDbDictionaryVar
  3
AutoCAD 2000
 90
        0
280
     0
281
     0
  0
CLASS
  1
HATCH
  2
AcDbHatch
  3
AutoCAD 2000
 90
    32768
280
     0
281
     1
  0
CLASS
  1
ACDBDICTIONARYWDFLT
  2
AcDbDictionaryWithDefault
  3
AutoCAD 2000
 90
        0
280
     0
281
     0
  0
CLASS
  1
ACDBPLACEHOLDER
  2
AcDbPlaceHolder
  3
AutoCAD 2000
 90
        0
280
     0
281
     0
  0
CLASS
  1
LAYOUT
  2
AcDbLayout
  3
AutoCAD 2000
 90
        0
280
     0
281
     0
  0
ENDSEC
  0
SECTION
  2
TABLES
  0
TABLE
  2
VPORT
  5
8
330
0
100
AcDbSymbolTable
 70
     3
  0
VPORT
  5
415D
330
8
100
AcDbSymbolTableRecord
100
AcDbViewportTableRecord
  2
*Active
 70
     0
 10
0.0
 20
0.0
 11
1.0
 21
1.0
 12
7370.411784540188
 22
4597.804548183892
 13
0.0
 23
0.0
 14
10.0
 24
10.0
 15
10.0
 25
10.0
 16
0.0
 26
0.0
 36
1.0
 17
0.0
 27
0.0
 37
0.0
 40
3305.393497350324
 41
1.731203007518796
 42
50.0
 43
0.0
 44
0.0
 50
0.0
 51
0.0
 71
     0
 72
   100
 73
     1
 74
     1
 75
     0
 76
     0
 77
     0
 78
     0
281
     0
 65
     1
110
0.0
120
0.0
130
0.0
111
1.0
121
0.0
131
0.0
112
0.0
122
1.0
132
0.0
 79
     0
146
0.0
  0
ENDTAB
  0
TABLE
  2
LTYPE
  5
5
330
0
100
AcDbSymbolTable
 70
    46
  0
LTYPE
  5
12
330
5
100
AcDbSymbolTableRecord
100
AcDbLinetypeTableRecord
  2
BYBLOCK
 70
     0
  3

 72
    65
 73
     0
 40
0.0
  0
LTYPE
  5
13
330
5
100
AcDbSymbolTableRecord
100
AcDbLinetypeTableRecord
  2
BYLAYER
 70
     0
  3

 72
    65
 73
     0
 40
0.0
  0
LTYPE
  5
14
330
5
100
AcDbSymbolTableRecord
100
AcDbLinetypeTableRecord
  2
CONTINUOUS
 70
     0
  3
Solid line
 72
    65
 73
     0
 40
0.0
  0
LTYPE
  5
128
330
5
100
AcDbSymbolTableRecord
100
AcDbLinetypeTableRecord
  2
ACAD_ISO02W100
 70
     0
  3
ISO dash __ __ __ __ __ __ __ __ __ __ __ __ __
 72
    65
 73
     2
 40
15.0
 49
12.0
 74
     0
 49
-3.0
 74
     0
  0
LTYPE
  5
129
330
5
100
AcDbSymbolTableRecord
100
AcDbLinetypeTableRecord
  2
ACAD_ISO03W100
 70
     0
  3
ISO dash space __    __    __    __    __    __
 72
    65
 73
     2
 40
30.0
 49
12.0
 74
     0
 49
-18.0
 74
     0
  0
LTYPE
  5
12A
330
5
100
AcDbSymbolTableRecord
100
AcDbLinetypeTableRecord
  2
ACAD_ISO04W100
 70
     0
  3
ISO long-dash dot ____ . ____ . ____ . ____ . _
 72
    65
 73
     4
 40
30.5
 49
24.0
 74
     0
 49
-3.0
 74
     0
 49
0.5
 74
     0
 49
-3.0
 74
     0
  0
LTYPE
  5
12B
330
5
100
AcDbSymbolTableRecord
100
AcDbLinetypeTableRecord
  2
ACAD_ISO05W100
 70
     0
  3
ISO long-dash double-dot ____ .. ____ .. ____ .
 72
    65
 73
     8
 40
37.5
 49
24.0
 74
     0
 49
-3.0
 74
     0
 49
0.5
 74
     0
 49
-3.0
 74
     0
 49
0.5
 74
     0
 49
-3.0
 74
     0
 49
0.5
 74
     0
 49
-3.0
 74
     0
  0
LTYPE
  5
12C
330
5
100
AcDbSymbolTableRecord
100
AcDbLinetypeTableRecord
  2
ACAD_ISO06W100
 70
     0
  3
ISO long-dash triple-dot ____ ... ____ ... ____
 72
    65
 73
     8
 40
37.5
 49
24.0
 74
     0
 49
-3.0
 74
     0
 49
0.5
 74
     0
 49
-3.0
 74
     0
 49
0.5
 74
     0
 49
-3.0
 74
     0
 49
0.5
 74
     0
 49
-3.0
 74
     0
  0
LTYPE
  5
12D
330
5
100
AcDbSymbolTableRecord
100
AcDbLinetypeTableRecord
  2
ACAD_ISO07W100
 70
     0
  3
ISO dot . . . . . . . . . . . . . . . . . . . .
 72
    65
 73
     2
 40
3.5
 49
0.5
 74
     0
 49
-3.0
 74
     0
  0
LTYPE
  5
12E
330
5
100
AcDbSymbolTableRecord
100
AcDbLinetypeTableRecord
  2
ACAD_ISO08W100
 70
     0
  3
ISO long-dash short-dash ____ __ ____ __ ____ _
 72
    65
 73
     4
 40
36.0
 49
24.0
 74
     0
 49
-3.0
 74
     0
 49
6.0
 74
     0
 49
-3.0
 74
     0
  0
LTYPE
  5
12F
330
5
100
AcDbSymbolTableRecord
100
AcDbLinetypeTableRecord
  2
ACAD_ISO09W100
 70
     0
  3
ISO long-dash double-short-dash ____ __ __ ____
 72
    65
 73
     6
 40
45.0
 49
24.0
 74
     0
 49
-3.0
 74
     0
 49
6.0
 74
     0
 49
-3.0
 74
     0
 49
6.0
 74
     0
 49
-3.0
 74
     0
  0
LTYPE
  5
130
330
5
100
AcDbSymbolTableRecord
100
AcDbLinetypeTableRecord
  2
ACAD_ISO10W100
 70
     0
  3
ISO dash dot __ . __ . __ . __ . __ . __ . __ .
 72
    65
 73
     4
 40
18.5
 49
12.0
 74
     0
 49
-3.0
 74
     0
 49
0.5
 74
     0
 49
-3.0
 74
     0
  0
LTYPE
  5
131
330
5
100
AcDbSymbolTableRecord
100
AcDbLinetypeTableRecord
  2
ACAD_ISO11W100
 70
     0
  3
ISO double-dash dot __ __ . __ __ . __ __ . __ 
 72
    65
 73
     6
 40
33.5
 49
12.0
 74
     0
 49
-3.0
 74
     0
 49
12.0
 74
     0
 49
-3.0
 74
     0
 49
0.5
 74
     0
 49
-3.0
 74
     0
  0
LTYPE
  5
132
330
5
100
AcDbSymbolTableRecord
100
AcDbLinetypeTableRecord
  2
ACAD_ISO12W100
 70
     0
  3
ISO dash double-dot __ . . __ . . __ . . __ . .
 72
    65
 73
     6
 40
22.0
 49
12.0
 74
     0
 49
-3.0
 74
     0
 49
0.5
 74
     0
 49
-3.0
 74
     0
 49
0.5
 74
     0
 49
-3.0
 74
     0
  0
LTYPE
  5
133
330
5
100
AcDbSymbolTableRecord
100
AcDbLinetypeTableRecord
  2
ACAD_ISO13W100
 70
     0
  3
ISO double-dash double-dot __ __ . . __ __ . . 
 72
    65
 73
     8
 40
37.0
 49
12.0
 74
     0
 49
-3.0
 74
     0
 49
12.0
 74
     0
 49
-3.0
 74
     0
 49
0.5
 74
     0
 49
-3.0
 74
     0
 49
0.5
 74
     0
 49
-3.0
 74
     0
  0
LTYPE
  5
134
330
5
100
AcDbSymbolTableRecord
100
AcDbLinetypeTableRecord
  2
ACAD_ISO14W100
 70
     0
  3
ISO dash triple-dot __ . . . __ . . . __ . . . 
 72
    65
 73
     8
 40
25.5
 49
12.0
 74
     0
 49
-3.0
 74
     0
 49
0.5
 74
     0
 49
-3.0
 74
     0
 49
0.5
 74
     0
 49
-3.0
 74
     0
 49
0.5
 74
     0
 49
-3.0
 74
     0
  0
LTYPE
  5
135
330
5
100
AcDbSymbolTableRecord
100
AcDbLinetypeTableRecord
  2
ACAD_ISO15W100
 70
     0
  3
ISO double-dash triple-dot __ __ . . . __ __ . 
 72
    65
 73
    10
 40
40.49999999999999
 49
12.0
 74
     0
 49
-3.0
 74
     0
 49
12.0
 74
     0
 49
-3.0
 74
     0
 49
0.5
 74
     0
 49
-3.0
 74
     0
 49
0.5
 74
     0
 49
-3.0
 74
     0
 49
0.5
 74
     0
 49
-3.0
 74
     0
  0
LTYPE
  5
136
330
5
100
AcDbSymbolTableRecord
100
AcDbLinetypeTableRecord
  2
BATTING
 70
     0
  3
Batting SSSSSSSSSSSSSSSSSSSSSSSSSSSSSSSSSSSSSSS
 72
    65
 73
     4
 40
10.16253999999999
 49
0.00254
 74
     0
 49
-2.54
 74
     4
 75
   134
340
127
 46
2.54
 50
0.0
 44
-2.54
 45
0.0
 49
-5.08
 74
     4
 75
   134
340
127
 46
2.54
 50
180.0
 44
2.54
 45
0.0
 49
-2.54
 74
     0
  0
LTYPE
  5
137
330
5
100
AcDbSymbolTableRecord
100
AcDbLinetypeTableRecord
  2
BORDER
 70
     0
  3
Border __ __ . __ __ . __ __ . __ __ . __ __ .
 72
    65
 73
     6
 40
44.45
 49
12.7
 74
     0
 49
-6.349999999999999
 74
     0
 49
12.7
 74
     0
 49
-6.349999999999999
 74
     0
 49
0.0
 74
     0
 49
-6.349999999999999
 74
     0
  0
LTYPE
  5
138
330
5
100
AcDbSymbolTableRecord
100
AcDbLinetypeTableRecord
  2
BORDER2
 70
     0
  3
Border (.5x) __.__.__.__.__.__.__.__.__.__.__.
 72
    65
 73
     6
 40
22.225
 49
6.349999999999999
 74
     0
 49
-3.174999999999999
 74
     0
 49
6.349999999999999
 74
     0
 49
-3.174999999999999
 74
     0
 49
0.0
 74
     0
 49
-3.174999999999999
 74
     0
  0
LTYPE
  5
139
330
5
100
AcDbSymbolTableRecord
100
AcDbLinetypeTableRecord
  2
BORDERX2
 70
     0
  3
Border (2x) ____  ____  .  ____  ____  .  ___
 72
    65
 73
     6
 40
88.9
 49
25.4
 74
     0
 49
-12.7
 74
     0
 49
25.4
 74
     0
 49
-12.7
 74
     0
 49
0.0
 74
     0
 49
-12.7
 74
     0
  0
LTYPE
  5
13A
330
5
100
AcDbSymbolTableRecord
100
AcDbLinetypeTableRecord
  2
CENTER
 70
     0
  3
Center ____ _ ____ _ ____ _ ____ _ ____ _ ____
 72
    65
 73
     4
 40
50.8
 49
31.75
 74
     0
 49
-6.349999999999999
 74
     0
 49
6.349999999999999
 74
     0
 49
-6.349999999999999
 74
     0
  0
LTYPE
  5
13B
330
5
100
AcDbSymbolTableRecord
100
AcDbLinetypeTableRecord
  2
CENTER2
 70
     0
  3
Center (.5x) ___ _ ___ _ ___ _ ___ _ ___ _ ___
 72
    65
 73
     4
 40
28.57499999999999
 49
19.05
 74
     0
 49
-3.174999999999999
 74
     0
 49
3.174999999999999
 74
     0
 49
-3.174999999999999
 74
     0
  0
LTYPE
  5
13C
330
5
100
AcDbSymbolTableRecord
100
AcDbLinetypeTableRecord
  2
CENTERX2
 70
     0
  3
Center (2x) ________  __  ________  __  _____
 72
    65
 73
     4
 40
101.6
 49
63.5
 74
     0
 49
-12.7
 74
     0
 49
12.7
 74
     0
 49
-12.7
 74
     0
  0
LTYPE
  5
13D
330
5
100
AcDbSymbolTableRecord
100
AcDbLinetypeTableRecord
  2
DASHDOT
 70
     0
  3
Dash dot __ . __ . __ . __ . __ . __ . __ . __
 72
    65
 73
     4
 40
25.4
 49
12.7
 74
     0
 49
-6.349999999999999
 74
     0
 49
0.0
 74
     0
 49
-6.349999999999999
 74
     0
  0
LTYPE
  5
13E
330
5
100
AcDbSymbolTableRecord
100
AcDbLinetypeTableRecord
  2
DASHDOT2
 70
     0
  3
Dash dot (.5x) _._._._._._._._._._._._._._._.
 72
    65
 73
     4
 40
12.7
 49
6.349999999999999
 74
     0
 49
-3.174999999999999
 74
     0
 49
0.0
 74
     0
 49
-3.174999999999999
 74
     0
  0
LTYPE
  5
13F
330
5
100
AcDbSymbolTableRecord
100
AcDbLinetypeTableRecord
  2
DASHDOTX2
 70
     0
  3
Dash dot (2x) ____  .  ____  .  ____  .  ___
 72
    65
 73
     4
 40
50.8
 49
25.4
 74
     0
 49
-12.7
 74
     0
 49
0.0
 74
     0
 49
-12.7
 74
     0
  0
LTYPE
  5
140
330
5
100
AcDbSymbolTableRecord
100
AcDbLinetypeTableRecord
  2
DASHED
 70
     0
  3
Dashed __ __ __ __ __ __ __ __ __ __ __ __ __ _
 72
    65
 73
     2
 40
19.04999999999999
 49
12.7
 74
     0
 49
-6.349999999999999
 74
     0
  0
LTYPE
  5
141
330
5
100
AcDbSymbolTableRecord
100
AcDbLinetypeTableRecord
  2
DASHED2
 70
     0
  3
Dashed (.5x) _ _ _ _ _ _ _ _ _ _ _ _ _ _ _ _ _
 72
    65
 73
     2
 40
9.524999999999998
 49
6.349999999999999
 74
     0
 49
-3.174999999999999
 74
     0
  0
LTYPE
  5
142
330
5
100
AcDbSymbolTableRecord
100
AcDbLinetypeTableRecord
  2
DASHEDX2
 70
     0
  3
Dashed (2x) ____  ____  ____  ____  ____  ___
 72
    65
 73
     2
 40
38.09999999999999
 49
25.4
 74
     0
 49
-12.7
 74
     0
  0
LTYPE
  5
143
330
5
100
AcDbSymbolTableRecord
100
AcDbLinetypeTableRecord
  2
DIVIDE
 70
     0
  3
Divide ____ . . ____ . . ____ . . ____ . . ____
 72
    65
 73
     6
 40
31.74999999999999
 49
12.7
 74
     0
 49
-6.349999999999999
 74
     0
 49
0.0
 74
     0
 49
-6.349999999999999
 74
     0
 49
0.0
 74
     0
 49
-6.349999999999999
 74
     0
  0
LTYPE
  5
144
330
5
100
AcDbSymbolTableRecord
100
AcDbLinetypeTableRecord
  2
DIVIDE2
 70
     0
  3
Divide (.5x) __..__..__..__..__..__..__..__.._
 72
    65
 73
     6
 40
15.87499999999999
 49
6.349999999999999
 74
     0
 49
-3.174999999999999
 74
     0
 49
0.0
 74
     0
 49
-3.174999999999999
 74
     0
 49
0.0
 74
     0
 49
-3.174999999999999
 74
     0
  0
LTYPE
  5
145
330
5
100
AcDbSymbolTableRecord
100
AcDbLinetypeTableRecord
  2
DIVIDEX2
 70
     0
  3
Divide (2x) ________  .  .  ________  .  .  _
 72
    65
 73
     6
 40
63.49999999999999
 49
25.4
 74
     0
 49
-12.7
 74
     0
 49
0.0
 74
     0
 49
-12.7
 74
     0
 49
0.0
 74
     0
 49
-12.7
 74
     0
  0
LTYPE
  5
146
330
5
100
AcDbSymbolTableRecord
100
AcDbLinetypeTableRecord
  2
DOT
 70
     0
  3
Dot . . . . . . . . . . . . . . . . . . . . . .
 72
    65
 73
     2
 40
6.349999999999999
 49
0.0
 74
     0
 49
-6.349999999999999
 74
     0
  0
LTYPE
  5
147
330
5
100
AcDbSymbolTableRecord
100
AcDbLinetypeTableRecord
  2
DOT2
 70
     0
  3
Dot (.5x) .....................................
 72
    65
 73
     2
 40
3.174999999999999
 49
0.0
 74
     0
 49
-3.174999999999999
 74
     0
  0
LTYPE
  5
148
330
5
100
AcDbSymbolTableRecord
100
AcDbLinetypeTableRecord
  2
DOTX2
 70
     0
  3
Dot (2x) .  .  .  .  .  .  .  .  .  .  .  .  . 
 72
    65
 73
     2
 40
12.7
 49
0.0
 74
     0
 49
-12.7
 74
     0
  0
LTYPE
  5
149
330
5
100
AcDbSymbolTableRecord
100
AcDbLinetypeTableRecord
  2
FENCELINE1
 70
     0
  3
Fenceline circle ----0-----0----0-----0----0---
 72
    65
 73
     4
 40
36.82999999999999
 49
6.349999999999999
 74
     0
 49
-2.54
 74
     4
 75
   133
340
127
 46
2.54
 50
0.0
 44
-2.54
 45
0.0
 49
-2.54
 74
     0
 49
25.4
 74
     0
  0
LTYPE
  5
14A
330
5
100
AcDbSymbolTableRecord
100
AcDbLinetypeTableRecord
  2
FENCELINE2
 70
     0
  3
Fenceline square ----[]-----[]----[]-----[]----
 72
    65
 73
     4
 40
36.82999999999999
 49
6.349999999999999
 74
     0
 49
-2.54
 74
     4
 75
   132
340
127
 46
2.54
 50
0.0
 44
-2.54
 45
0.0
 49
-2.54
 74
     0
 49
25.4
 74
     0
  0
LTYPE
  5
14B
330
5
100
AcDbSymbolTableRecord
100
AcDbLinetypeTableRecord
  2
GAS_LINE
 70
     0
  3
Gas line ----GAS----GAS----GAS----GAS----GAS---
 72
    65
 73
     3
 40
24.13
 49
12.7
 74
     0
 49
-5.08
 74
     2
 75
     0
340
F
 46
2.54
 50
0.0
 44
-2.54
 45
-1.27
  9
GAS
 49
-6.349999999999999
 74
     0
  0
LTYPE
  5
14C
330
5
100
AcDbSymbolTableRecord
100
AcDbLinetypeTableRecord
  2
HIDDEN
 70
     0
  3
Hidden __ __ __ __ __ __ __ __ __ __ __ __ __ _
 72
    65
 73
     2
 40
9.524999999999998
 49
6.349999999999999
 74
     0
 49
-3.174999999999999
 74
     0
  0
LTYPE
  5
14D
330
5
100
AcDbSymbolTableRecord
100
AcDbLinetypeTableRecord
  2
HIDDEN2
 70
     0
  3
Hidden (.5x) _ _ _ _ _ _ _ _ _ _ _ _ _ _ _ _ _
 72
    65
 73
     2
 40
4.762499999999999
 49
3.174999999999999
 74
     0
 49
-1.587499999999999
 74
     0
  0
LTYPE
  5
14E
330
5
100
AcDbSymbolTableRecord
100
AcDbLinetypeTableRecord
  2
HIDDENX2
 70
     0
  3
Hidden (2x) ____ ____ ____ ____ ____ ____ ____
 72
    65
 73
     2
 40
19.04999999999999
 49
12.7
 74
     0
 49
-6.349999999999999
 74
     0
  0
LTYPE
  5
14F
330
5
100
AcDbSymbolTableRecord
100
AcDbLinetypeTableRecord
  2
HOT_WATER_SUPPLY
 70
     0
  3
Hot water supply ---- HW ---- HW ---- HW ----
 72
    65
 73
     3
 40
22.86
 49
12.7
 74
     0
 49
-5.08
 74
     2
 75
     0
340
F
 46
2.54
 50
0.0
 44
-2.54
 45
-1.27
  9
HW
 49
-5.08
 74
     0
  0
LTYPE
  5
150
330
5
100
AcDbSymbolTableRecord
100
AcDbLinetypeTableRecord
  2
PHANTOM
 70
     0
  3
Phantom ______  __  __  ______  __  __  ______
 72
    65
 73
     6
 40
63.5
 49
31.75
 74
     0
 49
-6.349999999999999
 74
     0
 49
6.349999999999999
 74
     0
 49
-6.349999999999999
 74
     0
 49
6.349999999999999
 74
     0
 49
-6.349999999999999
 74
     0
  0
LTYPE
  5
151
330
5
100
AcDbSymbolTableRecord
100
AcDbLinetypeTableRecord
  2
PHANTOM2
 70
     0
  3
Phantom (.5x) ___ _ _ ___ _ _ ___ _ _ ___ _ _
 72
    65
 73
     6
 40
31.75
 49
15.875
 74
     0
 49
-3.174999999999999
 74
     0
 49
3.174999999999999
 74
     0
 49
-3.174999999999999
 74
     0
 49
3.174999999999999
 74
     0
 49
-3.174999999999999
 74
     0
  0
LTYPE
  5
152
330
5
100
AcDbSymbolTableRecord
100
AcDbLinetypeTableRecord
  2
PHANTOMX2
 70
     0
  3
Phantom (2x) ____________    ____    ____   _
 72
    65
 73
     6
 40
127.0
 49
63.5
 74
     0
 49
-12.7
 74
     0
 49
12.7
 74
     0
 49
-12.7
 74
     0
 49
12.7
 74
     0
 49
-12.7
 74
     0
  0
LTYPE
  5
153
330
5
100
AcDbSymbolTableRecord
100
AcDbLinetypeTableRecord
  2
TRACKS
 70
     0
  3
Tracks -|-|-|-|-|-|-|-|-|-|-|-|-|-|-|-|-|-|-|-|
 72
    65
 73
     2
 40
7.62
 49
3.81
 74
     4
 75
   130
340
127
 46
6.349999999999999
 50
0.0
 44
0.0
 45
0.0
 49
3.81
 74
     0
  0
LTYPE
  5
154
330
5
100
AcDbSymbolTableRecord
100
AcDbLinetypeTableRecord
  2
ZIGZAG
 70
     0
  3
Zig zag /\/\/\/\/\/\/\/\/\/\/\/\/\/\/\/\/\/\/\/
 72
    65
 73
     4
 40
20.32254
 49
0.00254
 74
     0
 49
-5.08
 74
     4
 75
   131
340
127
 46
5.08
 50
0.0
 44
-5.08
 45
0.0
 49
-10.16
 74
     4
 75
   131
340
127
 46
5.08
 50
180.0
 44
5.08
 45
0.0
 49
-5.08
 74
     0
  0
ENDTAB
  0
TABLE
  2
LAYER
  5
2
330
0
100
AcDbSymbolTable
 70
    10
  0
LAYER
  5
E
330
2
100
AcDbSymbolTableRecord
100
AcDbLayerTableRecord
  2
0
 70
     0
 62
     7
  6
CONTINUOUS
370
    -3
390
15FD
  0
LAYER
  5
20
330
2
100
AcDbSymbolTableRecord
100
AcDbLayerTableRecord
  2
DEFPOINTS
 70
     0
 62
     7
  6
CONTINUOUS
290
     0
370
    -3
390
15FD
  0
LAYER
  5
21
330
2
100
AcDbSymbolTableRecord
100
AcDbLayerTableRecord
  2
OBJECT
 70
     0
 62
     7
  6
CONTINUOUS
370
    -3
390
15FD
  0
LAYER
  5
155
330
2
100
AcDbSymbolTableRecord
100
AcDbLayerTableRecord
  2
上書線
 70
     0
 62
     7
  6
CONTINUOUS
370
    -3
390
15FD
  0
LAYER
  5
156
330
2
100
AcDbSymbolTableRecord
100
AcDbLayerTableRecord
  2
基準線
 70
     0
 62
    -1
  6
CONTINUOUS
370
    -3
390
15FD
  0
LAYER
  5
157
330
2
100
AcDbSymbolTableRecord
100
AcDbLayerTableRecord
  2
点線
 70
     0
 62
     5
  6
HIDDEN
370
    -3
390
15FD
  0
LAYER
  5
158
330
2
100
AcDbSymbolTableRecord
100
AcDbLayerTableRecord
  2
寸法線
 70
     0
 62
     2
  6
CONTINUOUS
370
    -3
390
15FD
  0
LAYER
  5
19D7
330
2
100
AcDbSymbolTableRecord
100
AcDbLayerTableRecord
  2
上線
 70
     0
 62
     7
  6
CONTINUOUS
370
    -3
390
15FD
  0
LAYER
  5
2EB9
330
2
100
AcDbSymbolTableRecord
100
AcDbLayerTableRecord
  2
中心線
 70
     0
 62
     6
  6
CENTER
370
    -3
390
15FD
  0
LAYER
  5
3ECE
330
2
100
AcDbSymbolTableRecord
100
AcDbLayerTableRecord
  2
WUWAGAKI
 70
     0
 62
     7
  6
CONTINUOUS
370
    -3
390
15FD
  0
ENDTAB
  0
TABLE
  2
STYLE
  5
3
330
0
100
AcDbSymbolTable
 70
     3
  0
STYLE
  5
F
330
3
100
AcDbSymbolTableRecord
100
AcDbTextStyleTableRecord
  2
STANDARD
 70
     0
 40
0.0
 41
1.0
 50
0.0
 71
     0
 42
2.5
  3
MS PMincho.ttf
  4

1001
ACAD
1000
MS PMincho
1071
    32786
  0
STYLE
  5
22
330
3
100
AcDbSymbolTableRecord
100
AcDbTextStyleTableRecord
  2
ADESK1
 70
     0
 40
0.0
 41
1.0
 50
0.0
 71
     0
 42
5.0
  3
romans
  4
bigfont
  0
STYLE
  5
127
330
3
100
AcDbSymbolTableRecord
100
AcDbTextStyleTableRecord
  2

 70
     1
 40
0.0
 41
1.0
 50
0.0
 71
     0
 42
2.5
  3
ltypeshp.shx
  4

  0
ENDTAB
  0
TABLE
  2
VIEW
  5
6
330
0
100
AcDbSymbolTable
 70
     0
  0
ENDTAB
  0
TABLE
  2
UCS
  5
7
330
0
100
AcDbSymbolTable
 70
     0
  0
ENDTAB
  0
TABLE
  2
APPID
  5
9
330
0
100
AcDbSymbolTable
 70
     2
  0
APPID
  5
10
330
9
100
AcDbSymbolTableRecord
100
AcDbRegAppTableRecord
  2
ACAD
 70
     0
  0
APPID
  5
1213
330
9
100
AcDbSymbolTableRecord
100
AcDbRegAppTableRecord
  2
DRAWINGVARIABLESXDATA
 70
     0
  0
ENDTAB
  0
TABLE
  2
DIMSTYLE
  5
A
330
0
100
AcDbSymbolTable
 70
     2
100
AcDbDimStyleTable
 71
     1
340
1D
  0
DIMSTYLE
105
1D
330
A
100
AcDbSymbolTableRecord
100
AcDbDimStyleTableRecord
  2
STANDARD
 70
     0
340
F
  0
DIMSTYLE
105
23
330
A
100
AcDbSymbolTableRecord
100
AcDbDimStyleTableRecord
  2
JIS
 70
     0
 41
2.5
 42
1.0
 43
7.0
 44
1.0
 73
     0
 74
     0
 77
     1
 78
     8
140
2.5
141
0.0
143
0.0394
147
0.0
172
     1
174
     1
175
     1
340
F
  0
ENDTAB
  0
TABLE
  2
BLOCK_RECORD
  5
1
330
0
100
AcDbSymbolTable
 70
     3
  0
BLOCK_RECORD
  5
18
330
1
100
AcDbSymbolTableRecord
100
AcDbBlockTableRecord
  2
*MODEL_SPACE
340
1600
  0
BLOCK_RECORD
  5
15
330
1
100
AcDbSymbolTableRecord
100
AcDbBlockTableRecord
  2
*PAPER_SPACE
340
1601
  0
BLOCK_RECORD
  5
24
330
1
100
AcDbSymbolTableRecord
100
AcDbBlockTableRecord
  2
JIS_A4L
340
0
  0
BLOCK_RECORD
  5
3437
330
1
100
AcDbSymbolTableRecord
100
AcDbBlockTableRecord
  2
*D1
340
0
  0
BLOCK_RECORD
  5
3445
330
1
100
AcDbSymbolTableRecord
100
AcDbBlockTableRecord
  2
A$C23BB6A77
340
0
  0
ENDTAB
  0
ENDSEC
  0
SECTION
  2
BLOCKS
  0
BLOCK
  5
19
330
18
100
AcDbEntity
  8
0
100
AcDbBlockBegin
  2
*MODEL_SPACE
 70
     2
 10
0.0
 20
0.0
 30
0.0
  3
*MODEL_SPACE
  1

  0
ENDBLK
  5
1A
330
18
100
AcDbEntity
  8
0
100
AcDbBlockEnd
  0
BLOCK
  5
16
330
15
100
AcDbEntity
 67
     1
  8
0
100
AcDbBlockBegin
  2
*PAPER_SPACE
 70
     0
 10
0.0
 20
0.0
 30
0.0
  3
*PAPER_SPACE
  1

  0
ENDBLK
  5
17
330
15
100
AcDbEntity
 67
     1
  8
0
100
AcDbBlockEnd
  0
BLOCK
  5
A1
330
24
100
AcDbEntity
  8
0
100
AcDbBlockBegin
  2
JIS_A4L
 70
     2
 10
0.0
 20
0.0
 30
0.0
  3
JIS_A4L
  1

  0
LINE
  5
25
330
24
100
AcDbEntity
  8
0
100
AcDbLine
 10
0.0
 20
0.0
 30
0.0
 11
0.0
 21
10.0
 31
0.0
  0
LINE
  5
26
330
24
100
AcDbEntity
  8
0
100
AcDbLine
 10
0.0
 20
210.0
 30
0.0
 11
25.0
 21
210.0
 31
0.0
  0
LINE
  5
27
330
24
100
AcDbEntity
  8
0
100
AcDbLine
 10
297.0
 20
210.0
 30
0.0
 11
297.0
 21
200.0
 31
0.0
  0
LINE
  5
28
330
24
100
AcDbEntity
  8
0
100
AcDbLine
 10
297.0
 20
0.0
 30
0.0
 11
287.0
 21
0.0
 31
0.0
  0
LINE
  5
29
330
24
100
AcDbEntity
  8
0
100
AcDbLine
 10
25.0
 20
10.0
 30
0.0
 11
25.0
 21
200.0
 31
0.0
  0
LINE
  5
2A
330
24
100
AcDbEntity
  8
0
100
AcDbLine
 10
287.0
 20
10.0
 30
0.0
 11
25.0
 21
10.0
 31
0.0
  0
LINE
  5
2B
330
24
100
AcDbEntity
  8
0
100
AcDbLine
 10
287.0
 20
200.0
 30
0.0
 11
287.0
 21
10.0
 31
0.0
  0
LINE
  5
2C
330
24
100
AcDbEntity
  8
0
100
AcDbLine
 10
25.0
 20
200.0
 30
0.0
 11
287.0
 21
200.0
 31
0.0
  0
LINE
  5
2D
330
24
100
AcDbEntity
  8
0
100
AcDbLine
 10
0.0
 20
200.0
 30
0.0
 11
0.0
 21
210.0
 31
0.0
  0
LINE
  5
2E
330
24
100
AcDbEntity
  8
0
100
AcDbLine
 10
25.0
 20
0.0
 30
0.0
 11
0.0
 21
0.0
 31
0.0
  0
LINE
  5
2F
330
24
100
AcDbEntity
  8
0
100
AcDbLine
 10
297.0
 20
10.0
 30
0.0
 11
297.0
 21
0.0
 31
0.0
  0
LINE
  5
30
330
24
100
AcDbEntity
  8
0
100
AcDbLine
 10
287.0
 20
210.0
 30
0.0
 11
297.0
 21
210.0
 31
0.0
  0
ATTDEF
  5
31
330
24
100
AcDbEntity
  8
0
 62
     0
100
AcDbText
 10
19.0
 20
10.0
 30
0.0
 40
3.0
  1

 50
90.0
  7
ADESK1
100
AcDbAttributeDefinition
  3

  2
USER
 70
     8
  0
ATTDEF
  5
32
330
24
100
AcDbEntity
  8
0
 62
     0
100
AcDbText
 10
19.0
 20
70.0
 30
0.0
 40
3.0
  1

 50
90.0
  7
ADESK1
100
AcDbAttributeDefinition
  3

  2
REVDATE
 70
     8
  0
ATTDEF
  5
33
330
24
100
AcDbEntity
  8
0
 62
     0
100
AcDbText
 10
19.0
 20
118.0
 30
0.0
 40
3.0
  1

 50
90.0
  7
ADESK1
100
AcDbAttributeDefinition
  3

  2
FNAME
 70
     8
  0
LINE
  5
34
330
24
100
AcDbEntity
  8
OBJECT
100
AcDbLine
 10
130.0
 20
16.0
 30
0.0
 11
25.0
 21
16.0
 31
0.0
  0
LINE
  5
35
330
24
100
AcDbEntity
  8
OBJECT
100
AcDbLine
 10
130.0
 20
22.0
 30
0.0
 11
25.0
 21
22.0
 31
0.0
  0
LINE
  5
36
330
24
100
AcDbEntity
  8
OBJECT
100
AcDbLine
 10
130.0
 20
28.0
 30
0.0
 11
25.0
 21
28.0
 31
0.0
  0
LINE
  5
37
330
24
100
AcDbEntity
  8
OBJECT
100
AcDbLine
 10
130.0
 20
34.0
 30
0.0
 11
25.0
 21
34.0
 31
0.0
  0
LINE
  5
38
330
24
100
AcDbEntity
  8
OBJECT
100
AcDbLine
 10
130.0
 20
40.0
 30
0.0
 11
25.0
 21
40.0
 31
0.0
  0
LINE
  5
39
330
24
100
AcDbEntity
  8
OBJECT
100
AcDbLine
 10
28.0
 20
11.53589799999999
 30
0.0
 11
30.0
 21
15.0
 31
0.0
  0
LINE
  5
3A
330
24
100
AcDbEntity
  8
OBJECT
100
AcDbLine
 10
32.0
 20
11.53589799999999
 30
0.0
 11
30.0
 21
15.0
 31
0.0
  0
LINE
  5
3B
330
24
100
AcDbEntity
  8
OBJECT
100
AcDbLine
 10
35.0
 20
10.0
 30
0.0
 11
35.0
 21
40.0
 31
0.0
  0
LINE
  5
3C
330
24
100
AcDbEntity
  8
OBJECT
100
AcDbLine
 10
50.0
 20
10.0
 30
0.0
 11
50.0
 21
40.0
 31
0.0
  0
LINE
  5
3D
330
24
100
AcDbEntity
  8
OBJECT
100
AcDbLine
 10
80.0
 20
10.0
 30
0.0
 11
80.0
 21
40.0
 31
0.0
  0
LINE
  5
3E
330
24
100
AcDbEntity
  8
OBJECT
100
AcDbLine
 10
28.0
 20
11.53589799999999
 30
0.0
 11
32.0
 21
11.53589799999999
 31
0.0
  0
LINE
  5
3F
330
24
100
AcDbEntity
  8
OBJECT
100
AcDbLine
 10
39.5
 20
13.0
 30
0.0
 11
40.49999999999999
 21
13.0
 31
0.0
  0
LINE
  5
40
330
24
100
AcDbEntity
  8
OBJECT
100
AcDbLine
 10
44.5
 20
13.0
 30
0.0
 11
45.49999999999999
 21
13.0
 31
0.0
  0
LINE
  5
41
330
24
100
AcDbEntity
  8
OBJECT
100
AcDbLine
 10
32.0
 20
17.535898
 30
0.0
 11
30.0
 21
20.99999999999999
 31
0.0
  0
LINE
  5
42
330
24
100
AcDbEntity
  8
OBJECT
100
AcDbLine
 10
28.0
 20
17.535898
 30
0.0
 11
32.0
 21
17.535898
 31
0.0
  0
LINE
  5
43
330
24
100
AcDbEntity
  8
OBJECT
100
AcDbLine
 10
28.0
 20
17.535898
 30
0.0
 11
30.0
 21
20.99999999999999
 31
0.0
  0
LINE
  5
44
330
24
100
AcDbEntity
  8
OBJECT
100
AcDbLine
 10
32.0
 20
23.53589799999999
 30
0.0
 11
30.0
 21
26.99999999999999
 31
0.0
  0
LINE
  5
45
330
24
100
AcDbEntity
  8
OBJECT
100
AcDbLine
 10
28.0
 20
23.53589799999999
 30
0.0
 11
32.0
 21
23.53589799999999
 31
0.0
  0
LINE
  5
46
330
24
100
AcDbEntity
  8
OBJECT
100
AcDbLine
 10
28.0
 20
23.53589799999999
 30
0.0
 11
30.0
 21
26.99999999999999
 31
0.0
  0
LINE
  5
47
330
24
100
AcDbEntity
  8
OBJECT
100
AcDbLine
 10
28.0
 20
35.53589799999999
 30
0.0
 11
30.0
 21
39.0
 31
0.0
  0
LINE
  5
48
330
24
100
AcDbEntity
  8
OBJECT
100
AcDbLine
 10
32.0
 20
35.53589799999999
 30
0.0
 11
30.0
 21
39.0
 31
0.0
  0
LINE
  5
49
330
24
100
AcDbEntity
  8
OBJECT
100
AcDbLine
 10
28.0
 20
35.53589799999999
 30
0.0
 11
32.0
 21
35.53589799999999
 31
0.0
  0
LINE
  5
4A
330
24
100
AcDbEntity
  8
OBJECT
100
AcDbLine
 10
32.0
 20
29.53589799999999
 30
0.0
 11
30.0
 21
33.0
 31
0.0
  0
LINE
  5
4B
330
24
100
AcDbEntity
  8
OBJECT
100
AcDbLine
 10
28.0
 20
29.53589799999999
 30
0.0
 11
32.0
 21
29.53589799999999
 31
0.0
  0
LINE
  5
4C
330
24
100
AcDbEntity
  8
OBJECT
100
AcDbLine
 10
28.0
 20
29.53589799999999
 30
0.0
 11
30.0
 21
33.0
 31
0.0
  0
LINE
  5
4D
330
24
100
AcDbEntity
  8
OBJECT
100
AcDbLine
 10
39.5
 20
19.0
 30
0.0
 11
40.49999999999999
 21
19.0
 31
0.0
  0
LINE
  5
4E
330
24
100
AcDbEntity
  8
OBJECT
100
AcDbLine
 10
44.5
 20
19.0
 30
0.0
 11
45.49999999999999
 21
19.0
 31
0.0
  0
LINE
  5
4F
330
24
100
AcDbEntity
  8
OBJECT
100
AcDbLine
 10
39.5
 20
25.0
 30
0.0
 11
40.49999999999999
 21
25.0
 31
0.0
  0
LINE
  5
50
330
24
100
AcDbEntity
  8
OBJECT
100
AcDbLine
 10
44.5
 20
25.0
 30
0.0
 11
45.49999999999999
 21
25.0
 31
0.0
  0
LINE
  5
51
330
24
100
AcDbEntity
  8
OBJECT
100
AcDbLine
 10
39.5
 20
31.0
 30
0.0
 11
40.49999999999999
 21
31.0
 31
0.0
  0
LINE
  5
52
330
24
100
AcDbEntity
  8
OBJECT
100
AcDbLine
 10
39.5
 20
37.0
 30
0.0
 11
40.49999999999999
 21
37.0
 31
0.0
  0
LINE
  5
53
330
24
100
AcDbEntity
  8
OBJECT
100
AcDbLine
 10
44.5
 20
31.0
 30
0.0
 11
45.49999999999999
 21
31.0
 31
0.0
  0
LINE
  5
54
330
24
100
AcDbEntity
  8
OBJECT
100
AcDbLine
 10
44.5
 20
37.0
 30
0.0
 11
45.49999999999999
 21
37.0
 31
0.0
  0
LINE
  5
55
330
24
100
AcDbEntity
  8
OBJECT
100
AcDbLine
 10
120.0
 20
10.0
 30
0.0
 11
120.0
 21
40.0
 31
0.0
  0
LINE
  5
56
330
24
100
AcDbEntity
  8
OBJECT
100
AcDbLine
 10
130.0
 20
40.0
 30
0.0
 11
130.0
 21
10.0
 31
0.0
  0
LINE
  5
57
330
24
100
AcDbEntity
  8
0
100
AcDbLine
 10
156.0
 20
10.0
 30
0.0
 11
156.0
 21
0.0
 31
0.0
  0
LINE
  5
58
330
24
100
AcDbEntity
  8
0
100
AcDbLine
 10
156.0
 20
200.0
 30
0.0
 11
156.0
 21
210.0
 31
0.0
  0
LINE
  5
59
330
24
100
AcDbEntity
  8
0
100
AcDbLine
 10
287.0
 20
105.0
 30
0.0
 11
297.0
 21
105.0
 31
0.0
  0
LINE
  5
5A
330
24
100
AcDbEntity
  8
0
100
AcDbLine
 10
25.0
 20
105.0
 30
0.0
 11
0.0
 21
105.0
 31
0.0
  0
TEXT
  5
5B
330
24
100
AcDbEntity
  8
0
100
AcDbText
 10
1.0
 20
1.0
 30
0.0
 40
3.0
  1
この図枠はサンプルです。社内の規格やプロッタの出力範囲に合わせて適当に変更してご利用ください。
  7
ADESK1
100
AcDbText
  0
LINE
  5
5C
330
24
100
AcDbEntity
  8
0
100
AcDbLine
 10
25.0
 20
152.5
 30
0.0
 11
20.0
 21
152.5
 31
0.0
  0
LINE
  5
5D
330
24
100
AcDbEntity
  8
0
100
AcDbLine
 10
25.0
 20
105.0
 30
0.0
 11
20.0
 21
105.0
 31
0.0
  0
LINE
  5
5E
330
24
100
AcDbEntity
  8
0
100
AcDbLine
 10
25.0
 20
57.5
 30
0.0
 11
20.0
 21
57.5
 31
0.0
  0
LINE
  5
5F
330
24
100
AcDbEntity
  8
0
100
AcDbLine
 10
68.66666666666668
 20
10.0
 30
0.0
 11
68.66666666666668
 21
5.0
 31
0.0
  0
LINE
  5
60
330
24
100
AcDbEntity
  8
0
100
AcDbLine
 10
112.3333333333333
 20
10.0
 30
0.0
 11
112.3333333333333
 21
5.0
 31
0.0
  0
LINE
  5
61
330
24
100
AcDbEntity
  8
0
100
AcDbLine
 10
156.0
 20
10.0
 30
0.0
 11
156.0
 21
5.0
 31
0.0
  0
LINE
  5
62
330
24
100
AcDbEntity
  8
0
100
AcDbLine
 10
199.6666666666666
 20
10.0
 30
0.0
 11
199.6666666666666
 21
5.0
 31
0.0
  0
LINE
  5
63
330
24
100
AcDbEntity
  8
0
100
AcDbLine
 10
243.3333333333333
 20
10.0
 30
0.0
 11
243.3333333333333
 21
5.0
 31
0.0
  0
LINE
  5
64
330
24
100
AcDbEntity
  8
0
100
AcDbLine
 10
287.0
 20
57.5
 30
0.0
 11
292.0
 21
57.5
 31
0.0
  0
LINE
  5
65
330
24
100
AcDbEntity
  8
0
100
AcDbLine
 10
287.0
 20
105.0
 30
0.0
 11
292.0
 21
105.0
 31
0.0
  0
LINE
  5
66
330
24
100
AcDbEntity
  8
0
100
AcDbLine
 10
287.0
 20
152.5
 30
0.0
 11
292.0
 21
152.5
 31
0.0
  0
LINE
  5
67
330
24
100
AcDbEntity
  8
0
100
AcDbLine
 10
243.3333333333333
 20
200.0
 30
0.0
 11
243.3333333333333
 21
205.0
 31
0.0
  0
LINE
  5
68
330
24
100
AcDbEntity
  8
0
100
AcDbLine
 10
199.6666666666666
 20
200.0
 30
0.0
 11
199.6666666666666
 21
205.0
 31
0.0
  0
LINE
  5
69
330
24
100
AcDbEntity
  8
0
100
AcDbLine
 10
156.0
 20
200.0
 30
0.0
 11
156.0
 21
205.0
 31
0.0
  0
LINE
  5
6A
330
24
100
AcDbEntity
  8
0
100
AcDbLine
 10
112.3333333333333
 20
200.0
 30
0.0
 11
112.3333333333333
 21
205.0
 31
0.0
  0
LINE
  5
6B
330
24
100
AcDbEntity
  8
0
100
AcDbLine
 10
68.66666666666666
 20
200.0
 30
0.0
 11
68.66666666666666
 21
205.0
 31
0.0
  0
TEXT
  5
6C
330
24
100
AcDbEntity
  8
0
100
AcDbText
 10
45.61904761904761
 20
201.0
 30
0.0
 40
3.0
  1
1
  7
ADESK1
 72
     1
 11
46.83333333333332
 21
201.0
 31
0.0
100
AcDbText
  0
TEXT
  5
6D
330
24
100
AcDbEntity
  8
0
100
AcDbText
 10
21.66139736003921
 20
176.25
 30
0.0
 40
3.0
  1
A
  7
ADESK1
 72
     1
 11
22.94711164575349
 21
176.25
 31
0.0
100
AcDbText
  0
TEXT
  5
6E
330
24
100
AcDbEntity
  8
0
100
AcDbText
 10
89.07142857142856
 20
201.0
 30
0.0
 40
3.0
  1
2
  7
ADESK1
 72
     1
 11
90.5
 21
201.0
 31
0.0
100
AcDbText
  0
TEXT
  5
6F
330
24
100
AcDbEntity
  8
0
100
AcDbText
 10
132.7380952380952
 20
201.0
 30
0.0
 40
3.0
  1
3
  7
ADESK1
 72
     1
 11
134.1666666666666
 21
201.0
 31
0.0
100
AcDbText
  0
TEXT
  5
70
330
24
100
AcDbEntity
  8
0
100
AcDbText
 10
176.3333333333333
 20
201.0
 30
0.0
 40
3.0
  1
4
  7
ADESK1
 72
     1
 11
177.8333333333333
 21
201.0
 31
0.0
100
AcDbText
  0
TEXT
  5
71
330
24
100
AcDbEntity
  8
0
100
AcDbText
 10
220.0714285714286
 20
201.0
 30
0.0
 40
3.0
  1
5
  7
ADESK1
 72
     1
 11
221.4999999999999
 21
201.0
 31
0.0
100
AcDbText
  0
TEXT
  5
72
330
24
100
AcDbEntity
  8
0
100
AcDbText
 10
263.6666666666666
 20
201.0
 30
0.0
 40
3.0
  1
6
  7
ADESK1
 72
     1
 11
265.1666666666666
 21
201.0
 31
0.0
100
AcDbText
  0
TEXT
  5
73
330
24
100
AcDbEntity
  8
0
100
AcDbText
 10
21.37568307432492
 20
128.75
 30
0.0
 40
3.0
  1
B
  7
ADESK1
 72
     1
 11
22.94711164575349
 21
128.75
 31
0.0
100
AcDbText
  0
TEXT
  5
74
330
24
100
AcDbEntity
  8
0
100
AcDbText
 10
21.44711164575349
 20
81.25
 30
0.0
 40
3.0
  1
C
  7
ADESK1
 72
     1
 11
22.94711164575349
 21
81.25
 31
0.0
100
AcDbText
  0
TEXT
  5
75
330
24
100
AcDbEntity
  8
0
100
AcDbText
 10
21.37568307432492
 20
33.75
 30
0.0
 40
3.0
  1
D
  7
ADESK1
 72
     1
 11
22.94711164575349
 21
33.75
 31
0.0
100
AcDbText
  0
TEXT
  5
76
330
24
100
AcDbEntity
  8
0
100
AcDbText
 10
45.61904761904759
 20
6.230338100985607
 30
0.0
 40
3.0
  1
1
  7
ADESK1
 72
     1
 11
46.83333333333331
 21
6.230338100985607
 31
0.0
100
AcDbText
  0
TEXT
  5
77
330
24
100
AcDbEntity
  8
0
100
AcDbText
 10
89.07142857142856
 20
6.230338100985607
 30
0.0
 40
3.0
  1
2
  7
ADESK1
 72
     1
 11
90.5
 21
6.230338100985607
 31
0.0
100
AcDbText
  0
TEXT
  5
78
330
24
100
AcDbEntity
  8
0
100
AcDbText
 10
132.7380952380952
 20
6.230338100985607
 30
0.0
 40
3.0
  1
3
  7
ADESK1
 72
     1
 11
134.1666666666666
 21
6.230338100985607
 31
0.0
100
AcDbText
  0
TEXT
  5
79
330
24
100
AcDbEntity
  8
0
100
AcDbText
 10
176.3333333333333
 20
6.230338100985607
 30
0.0
 40
3.0
  1
4
  7
ADESK1
 72
     1
 11
177.8333333333333
 21
6.230338100985607
 31
0.0
100
AcDbText
  0
TEXT
  5
7A
330
24
100
AcDbEntity
  8
0
100
AcDbText
 10
220.0714285714286
 20
6.230338100985607
 30
0.0
 40
3.0
  1
5
  7
ADESK1
 72
     1
 11
221.4999999999999
 21
6.230338100985607
 31
0.0
100
AcDbText
  0
TEXT
  5
7B
330
24
100
AcDbEntity
  8
0
100
AcDbText
 10
263.6666666666666
 20
6.230338100985607
 30
0.0
 40
3.0
  1
6
  7
ADESK1
 72
     1
 11
265.1666666666666
 21
6.230338100985607
 31
0.0
100
AcDbText
  0
TEXT
  5
7C
330
24
100
AcDbEntity
  8
0
100
AcDbText
 10
287.9530581679809
 20
176.25
 30
0.0
 40
3.0
  1
A
  7
ADESK1
 72
     1
 11
289.2387724536952
 21
176.25
 31
0.0
100
AcDbText
  0
TEXT
  5
7D
330
24
100
AcDbEntity
  8
0
100
AcDbText
 10
287.6673438822666
 20
128.75
 30
0.0
 40
3.0
  1
B
  7
ADESK1
 72
     1
 11
289.2387724536952
 21
128.75
 31
0.0
100
AcDbText
  0
TEXT
  5
7E
330
24
100
AcDbEntity
  8
0
100
AcDbText
 10
287.7387724536952
 20
81.25
 30
0.0
 40
3.0
  1
C
  7
ADESK1
 72
     1
 11
289.2387724536952
 21
81.25
 31
0.0
100
AcDbText
  0
TEXT
  5
7F
330
24
100
AcDbEntity
  8
0
100
AcDbText
 10
287.6673438822666
 20
33.75
 30
0.0
 40
3.0
  1
D
  7
ADESK1
 72
     1
 11
289.2387724536952
 21
33.75
 31
0.0
100
AcDbText
  0
LINE
  5
80
330
24
100
AcDbEntity
  8
0
 62
     0
100
AcDbLine
 10
157.2978723404242
 20
49.00000000000036
 30
0.0
 11
287.0
 21
49.00000000000036
 31
0.0
  0
LINE
  5
81
330
24
100
AcDbEntity
  8
0
 62
     0
100
AcDbLine
 10
157.2978723404242
 20
13.00000000000004
 30
0.0
 11
287.0
 21
13.00000000000004
 31
0.0
  0
LINE
  5
82
330
24
100
AcDbEntity
  8
0
 62
     0
100
AcDbLine
 10
157.2978723404242
 20
37.00000000000024
 30
0.0
 11
287.0
 21
37.00000000000024
 31
0.0
  0
LINE
  5
83
330
24
100
AcDbEntity
  8
0
 62
     0
100
AcDbLine
 10
195.1276595744673
 20
22.00000000000012
 30
0.0
 11
287.0
 21
22.00000000000012
 31
0.0
  0
LINE
  5
84
330
24
100
AcDbEntity
  8
0
 62
     0
100
AcDbLine
 10
157.2978723404242
 20
10.0
 30
0.0
 11
287.0
 21
10.0
 31
0.0
  0
LINE
  5
85
330
24
100
AcDbEntity
  8
0
 62
     0
100
AcDbLine
 10
287.0
 20
49.00000000000036
 30
0.0
 11
157.2978723404242
 21
49.00000000000036
 31
0.0
  0
LINE
  5
86
330
24
100
AcDbEntity
  8
0
 62
     0
100
AcDbLine
 10
180.7163120567365
 20
37.00000000000024
 30
0.0
 11
180.7163120567365
 21
10.0
 31
0.0
  0
LINE
  5
87
330
24
100
AcDbEntity
  8
0
 62
     0
100
AcDbLine
 10
162.702127659573
 20
37.00000000000024
 30
0.0
 11
162.702127659573
 21
10.0
 31
0.0
  0
LINE
  5
88
330
24
100
AcDbEntity
  8
0
 62
     0
100
AcDbLine
 10
189.7234042553184
 20
37.00000000000024
 30
0.0
 11
189.7234042553184
 21
10.0
 31
0.0
  0
LINE
  5
89
330
24
100
AcDbEntity
  8
0
 62
     0
100
AcDbLine
 10
195.1276595744673
 20
25.00000000000012
 30
0.0
 11
195.1276595744673
 21
10.0
 31
0.0
  0
LINE
  5
8A
330
24
100
AcDbEntity
  8
0
 62
     0
100
AcDbLine
 10
157.2978723404242
 20
49.00000000000036
 30
0.0
 11
157.2978723404242
 21
10.0
 31
0.0
  0
LINE
  5
8B
330
24
100
AcDbEntity
  8
0
 62
     0
100
AcDbLine
 10
225.7517730496447
 20
49.00000000000036
 30
0.0
 11
225.7517730496447
 21
10.0
 31
0.0
  0
LINE
  5
8C
330
24
100
AcDbEntity
  8
0
 62
     0
100
AcDbLine
 10
205.7659574468077
 20
22.00000000000007
 30
0.0
 11
205.7659574468077
 21
10.0
 31
0.0
  0
LINE
  5
8D
330
24
100
AcDbEntity
  8
0
 62
     0
100
AcDbLine
 10
216.4042553191484
 20
22.00000000000007
 30
0.0
 11
216.4042553191484
 21
10.0
 31
0.0
  0
LINE
  5
8E
330
24
100
AcDbEntity
  8
0
 62
     0
100
AcDbLine
 10
157.2978723404242
 20
16.00000000000008
 30
0.0
 11
195.1276595744673
 21
16.00000000000008
 31
0.0
  0
LINE
  5
8F
330
24
100
AcDbEntity
  8
0
 62
     0
100
AcDbLine
 10
157.2978723404242
 20
10.0
 30
0.0
 11
157.2978723404242
 21
13.00000000000004
 31
0.0
  0
TEXT
  5
90
330
24
100
AcDbEntity
  8
0
 62
     0
100
AcDbText
 10
198.7174935280942
 20
10.48329012996929
 30
0.0
 40
1.791674070777747
  1
製図
  7
ADESK1
 72
     1
 11
200.5688900678978
 21
10.48329012996929
 31
0.0
100
AcDbText
  0
TEXT
  5
91
330
24
100
AcDbEntity
  8
0
 62
     0
100
AcDbText
 10
209.2960689314087
 20
10.48329012996929
 30
0.0
 40
1.791674070777747
  1
設計
  7
ADESK1
 72
     1
 11
211.2071879402383
 21
10.48329012996929
 31
0.0
100
AcDbText
  0
TEXT
  5
92
330
24
100
AcDbEntity
  8
0
 62
     0
100
AcDbText
 10
219.2447163844405
 20
10.55220101068186
 30
0.0
 40
1.791674070777747
  1
照査
  7
ADESK1
 72
     1
 11
221.1558353932701
 21
10.55220101068186
 31
0.0
100
AcDbText
  0
LINE
  5
93
330
24
100
AcDbEntity
  8
0
 62
     0
100
AcDbLine
 10
157.2978723404242
 20
25.00000000000012
 30
0.0
 11
195.1276595744673
 21
25.00000000000012
 31
0.0
  0
LINE
  5
94
330
24
100
AcDbEntity
  8
0
 62
     0
100
AcDbLine
 10
157.2978723404242
 20
22.00000000000007
 30
0.0
 11
195.1276595744673
 21
22.00000000000012
 31
0.0
  0
LINE
  5
95
330
24
100
AcDbEntity
  8
0
 62
     0
100
AcDbLine
 10
157.2978723404242
 20
19.00000000000007
 30
0.0
 11
195.1276595744673
 21
19.00000000000012
 31
0.0
  0
LINE
  5
96
330
24
100
AcDbEntity
  8
0
 62
     0
100
AcDbLine
 10
157.2978723404242
 20
34.00000000000024
 30
0.0
 11
225.7517730496447
 21
34.00000000000024
 31
0.0
  0
LINE
  5
97
330
24
100
AcDbEntity
  8
0
 62
     0
100
AcDbLine
 10
157.2978723404242
 20
31.0000000000002
 30
0.0
 11
225.7517730496447
 21
31.0000000000002
 31
0.0
  0
LINE
  5
98
330
24
100
AcDbEntity
  8
0
 62
     0
100
AcDbLine
 10
157.2978723404242
 20
28.00000000000015
 30
0.0
 11
225.7517730496447
 21
28.00000000000015
 31
0.0
  0
LINE
  5
99
330
24
100
AcDbEntity
  8
0
 62
     0
100
AcDbLine
 10
195.1276595744673
 20
25.00000000000012
 30
0.0
 11
225.7517730496447
 21
25.00000000000012
 31
0.0
  0
LINE
  5
9A
330
24
100
AcDbEntity
  8
0
 62
     0
100
AcDbLine
 10
195.1276595744673
 20
49.00000000000036
 30
0.0
 11
195.1276595744673
 21
25.00000000000012
 31
0.0
  0
LINE
  5
9B
330
24
100
AcDbEntity
  8
0
 62
     0
100
AcDbLine
 10
202.3333333333325
 20
37.00000000000024
 30
0.0
 11
202.3333333333325
 21
25.00000000000012
 31
0.0
  0
LINE
  5
9C
330
24
100
AcDbEntity
  8
0
 62
     0
100
AcDbLine
 10
213.1418439716305
 20
49.00000000000036
 30
0.0
 11
213.1418439716305
 21
22.00000000000012
 31
0.0
  0
LINE
  5
9D
330
24
100
AcDbEntity
  8
0
 62
     0
100
AcDbLine
 10
279.7943262411347
 20
22.00000000000012
 30
0.0
 11
279.7943262411347
 21
10.0
 31
0.0
  0
LINE
  5
9E
330
24
100
AcDbEntity
  8
0
 62
     0
100
AcDbLine
 10
287.0
 20
49.00000000000036
 30
0.0
 11
287.0
 21
10.0
 31
0.0
  0
LINE
  5
9F
330
24
100
AcDbEntity
  8
0
 62
     0
100
AcDbLine
 10
287.0
 20
10.0
 30
0.0
 11
287.0
 21
49.00000000000036
 31
0.0
  0
LINE
  5
A0
330
24
100
AcDbEntity
  8
0
 62
     0
100
AcDbLine
 10
279.7943262411347
 20
16.00000000000008
 30
0.0
 11
287.0
 21
16.00000000000008
 31
0.0
  0
ENDBLK
  5
A2
330
24
100
AcDbEntity
  8
0
100
AcDbBlockEnd
  0
BLOCK
  5
3443
330
3437
100
AcDbEntity
  8
0
100
AcDbBlockBegin
  2
*D1
 70
     1
 10
0.0
 20
0.0
 30
0.0
  3
*D1
  1

  0
LINE
  5
3438
330
3437
100
AcDbEntity
  8
OBJECT
 62
     0
370
    -2
100
AcDbLine
 10
-8068.568047744786
 20
3998.303038975791
 30
0.0
 11
-7757.422052324407
 21
3998.303038975791
 31
0.0
  0
LINE
  5
3439
330
3437
100
AcDbEntity
  8
OBJECT
 62
     0
370
    -2
100
AcDbLine
 10
-8068.568047744786
 20
4078.303038975791
 30
0.0
 11
-7757.422052324407
 21
4078.303038975791
 31
0.0
  0
LINE
  5
343A
330
3437
100
AcDbEntity
  8
OBJECT
 62
     0
370
    -2
100
AcDbLine
 10
-7776.172052324408
 20
3960.803038975791
 30
0.0
 11
-7776.172052324408
 21
3923.303038975791
 31
0.0
  0
LINE
  5
343B
330
3437
100
AcDbEntity
  8
OBJECT
 62
     0
370
    -2
100
AcDbLine
 10
-7776.172052324408
 20
4115.803038975792
 30
0.0
 11
-7776.172052324408
 21
4153.303038975791
 31
0.0
  0
LINE
  5
343C
330
3437
100
AcDbEntity
  8
OBJECT
 62
     0
370
    -2
100
AcDbLine
 10
-7776.172052324408
 20
3998.303038975791
 30
0.0
 11
-7776.172052324408
 21
4078.303038975791
 31
0.0
  0
SOLID
  5
343D
330
3437
100
AcDbEntity
  8
OBJECT
 62
     0
100
AcDbTrace
 10
-7782.422052324408
 20
3960.803038975791
 30
0.0
 11
-7769.922052324408
 21
3960.803038975791
 31
0.0
 12
-7776.172052324408
 22
3998.303038975791
 32
0.0
 13
-7776.172052324408
 23
3998.303038975791
 33
0.0
  0
SOLID
  5
343E
330
3437
100
AcDbEntity
  8
OBJECT
 62
     0
100
AcDbTrace
 10
-7782.422052324408
 20
4115.803038975792
 30
0.0
 11
-7769.922052324408
 21
4115.803038975792
 31
0.0
 12
-7776.172052324408
 22
4078.303038975791
 32
0.0
 13
-7776.172052324408
 23
4078.303038975791
 33
0.0
  0
MTEXT
  5
343F
330
3437
100
AcDbEntity
  8
OBJECT
 62
     0
100
AcDbMText
 10
-7804.297052324407
 20
4038.303038975789
 30
0.0
 40
37.5
 41
0.0
 71
     5
 72
     1
  1
\A1;80
 11
0.0000000000000001
 21
1.0
 31
0.0
 73
     1
 44
1.0
  0
POINT
  5
3440
330
3437
100
AcDbEntity
  8
DEFPOINTS
 62
     0
100
AcDbPoint
 10
-8077.943047744787
 20
3998.303038975791
 30
0.0
  0
POINT
  5
3441
330
3437
100
AcDbEntity
  8
DEFPOINTS
 62
     0
100
AcDbPoint
 10
-8077.943047744787
 20
4078.303038975791
 30
0.0
  0
POINT
  5
3442
330
3437
100
AcDbEntity
  8
DEFPOINTS
 62
     0
100
AcDbPoint
 10
-7776.172052324408
 20
4078.303038975791
 30
0.0
  0
ENDBLK
  5
3444
330
3437
100
AcDbEntity
  8
0
100
AcDbBlockEnd
  0
BLOCK
  5
3447
330
3445
100
AcDbEntity
  8
0
100
AcDbBlockBegin
  2
A$C23BB6A77
 70
     0
 10
0.0
 20
0.0
 30
0.0
  3
A$C23BB6A77
  1

  0
DIMENSION
  5
3446
330
3445
100
AcDbEntity
  8
OBJECT
100
AcDbDimension
  2
*D1
 10
301.7709854312124
 20
154.9999934708971
 30
0.0
 11
273.6459854312115
 21
114.9999934708962
 31
0.0
 12
8077.94303775562
 22
-3923.303045504894
 32
0.0
 71
     5
 42
79.99999999999954
  3
STANDARD
100
AcDbAlignedDimension
 13
-0.0000099891658465
 23
74.99999347089761
 33
0.0
 14
-0.0000099891658465
 24
154.9999934708971
 34
0.0
 50
90.0
100
AcDbRotatedDimension
1001
ACAD
1000
DSTYLE
1002
{
1070
    40
1040
15.0
1070
    41
1040
2.5
1070
    42
1040
0.625
1070
    43
1040
3.75
1070
    44
1040
1.25
1070
    73
1070
     0
1070
    74
1070
     0
1070
    77
1070
     1
1070
    78
1070
     8
1070
   140
1040
2.5
1070
   141
1040
2.5
1070
   143
1040
0.0394
1070
   147
1040
0.625
1070
   171
1070
     4
1070
   172
1070
     1
1070
   273
1070
     8
1070
   274
1070
     4
1070
   277
1070
     6
1002
}
  0
ENDBLK
  5
3448
330
3445
100
AcDbEntity
  8
0
100
AcDbBlockEnd
  0
ENDSEC
  0
SECTION
  2
ENTITIES
  0
MTEXT
  5
938
330
18
100
AcDbEntity
  8
上書線
100
AcDbMText
 10
1865.739761775792
 20
499.0283937835011
 30
0.0
 40
37.5
 41
0.0
 71
     4
 72
     1
  1
\A1;
 73
     1
 44
1.0
  0
LINE
  5
123E
330
18
100
AcDbEntity
  8
基準線
100
AcDbLine
 10
710.0813698183028
 20
2117.506972677286
 30
0.0
 11
731.0813698183028
 21
2117.506972677286
 31
0.0
  0
LINE
  5
14BB
330
18
100
AcDbEntity
  8
基準線
100
AcDbLine
 10
1281.296189060135
 20
2744.451732006984
 30
0.0
 11
1631.12377476475
 21
2744.451732006984
 31
0.0
  0
LINE
  5
14BC
330
18
100
AcDbEntity
  8
基準線
100
AcDbLine
 10
1131.296189060135
 20
2594.451732006984
 30
0.0
 11
1604.134047986604
 21
2594.451732006984
 31
0.0
  0
LINE
  5
1546
330
18
100
AcDbEntity
  8
基準線
100
AcDbLine
 10
2000.40772718317
 20
1104.126411816217
 30
0.0
 11
2000.40772718317
 21
1262.163674897728
 31
0.0
  0
LINE
  5
154B
330
18
100
AcDbEntity
  8
基準線
100
AcDbLine
 10
2550.40772718317
 20
1049.126411816217
 30
0.0
 11
2550.40772718317
 21
1211.614819254876
 31
0.0
  0
LINE
  5
154C
330
18
100
AcDbEntity
  8
基準線
100
AcDbLine
 10
2150.40772718317
 20
1049.126411816217
 30
0.0
 11
2150.40772718317
 21
1226.779475202555
 31
0.0
  0
LINE
  5
15CA
330
18
100
AcDbEntity
  8
基準線
100
AcDbLine
 10
3419.935833980378
 20
2804.85492986955
 30
0.0
 11
3776.432100616551
 21
2804.85492986955
 31
0.0
  0
LINE
  5
15CC
330
18
100
AcDbEntity
  8
基準線
100
AcDbLine
 10
3776.432100616551
 20
2804.85492986955
 30
0.0
 11
4171.357345948922
 21
2804.85492986955
 31
0.0
  0
LINE
  5
15D0
330
18
100
AcDbEntity
  8
基準線
100
AcDbLine
 10
3419.935833980378
 20
2684.85492986955
 30
0.0
 11
3776.432100616551
 21
2684.85492986955
 31
0.0
  0
LINE
  5
15D1
330
18
100
AcDbEntity
  8
基準線
100
AcDbLine
 10
3598.183967298465
 20
2684.85492986955
 30
0.0
 11
3598.183967298465
 21
984.8549298695507
 31
0.0
  0
LINE
  5
15D2
330
18
100
AcDbEntity
  8
基準線
100
AcDbLine
 10
3776.432100616551
 20
2484.854929869551
 30
0.0
 11
4171.357345948921
 21
2484.85492986955
 31
0.0
  0
LINE
  5
15D3
330
18
100
AcDbEntity
  8
基準線
100
AcDbLine
 10
3973.894723282737
 20
2684.854929869551
 30
0.0
 11
3973.894723282734
 21
984.8549298695507
 31
0.0
  0
LINE
  5
15D4
330
18
100
AcDbEntity
  8
基準線
100
AcDbLine
 10
3419.935833980378
 20
2684.85492986955
 30
0.0
 11
3419.935833980378
 21
2584.85492986955
 31
0.0
  0
LINE
  5
15D5
330
18
100
AcDbEntity
  8
基準線
100
AcDbLine
 10
3419.935833980378
 20
2634.85492986955
 30
0.0
 11
4114.659436953616
 21
2634.85492986955
 31
0.0
  0
LINE
  5
3C4D
330
18
100
AcDbEntity
  8
点線
100
AcDbLine
 10
7065.751616501953
 20
4526.481126650972
 30
0.0
 11
7405.751616501952
 21
4526.481126650972
 31
0.0
  0
LINE
  5
3C4E
330
18
100
AcDbEntity
  8
OBJECT
100
AcDbLine
 10
7475.037330787666
 20
3676.481126650972
 30
0.0
 11
6995.037330787666
 21
3676.481126650972
 31
0.0
  0
LINE
  5
3C4F
330
18
100
AcDbEntity
  8
上線
100
AcDbLine
 10
7475.037330787666
 20
4576.481126650972
 30
0.0
 11
6995.037330787666
 21
4576.481126650972
 31
0.0
  0
LINE
  5
3C55
330
18
100
AcDbEntity
  8
OBJECT
100
AcDbLine
 10
6995.037330787666
 20
3676.481126650972
 30
0.0
 11
6995.037330787666
 21
4576.481126650972
 31
0.0
  0
LINE
  5
3C66
330
18
100
AcDbEntity
  8
点線
100
AcDbLine
 10
7065.751616501953
 20
4526.481126650972
 30
0.0
 11
7065.751616501953
 21
4576.481126650972
 31
0.0
  0
LINE
  5
3C6E
330
18
100
AcDbEntity
  8
点線
100
AcDbLine
 10
6575.037330787665
 20
4526.481126650972
 30
0.0
 11
6575.037330787665
 21
3676.481126650972
 31
0.0
  0
LINE
  5
3C6F
330
18
100
AcDbEntity
  8
点線
100
AcDbLine
 10
5975.037330787666
 20
4526.481126650972
 30
0.0
 11
5975.037330787666
 21
3676.481126650972
 31
0.0
  0
LINE
  5
3C70
330
18
100
AcDbEntity
  8
OBJECT
100
AcDbLine
 10
6695.037330787666
 20
3676.481126650972
 30
0.0
 11
6695.037330787666
 21
4576.481126650972
 31
0.0
  0
LINE
  5
3C71
330
18
100
AcDbEntity
  8
OBJECT
100
AcDbLine
 10
5855.037330787666
 20
4576.481126650972
 30
0.0
 11
5855.037330787666
 21
3676.481126650972
 31
0.0
  0
LINE
  5
3C72
330
18
100
AcDbEntity
  8
点線
100
AcDbLine
 10
7354.32304507338
 20
4526.481126650972
 30
0.0
 11
7354.32304507338
 21
3676.481126650972
 31
0.0
  0
LINE
  5
3C73
330
18
100
AcDbEntity
  8
点線
100
AcDbLine
 10
7115.751616501952
 20
4526.481126650972
 30
0.0
 11
7115.751616501952
 21
3676.481126650972
 31
0.0
  0
LINE
  5
3C74
330
18
100
AcDbEntity
  8
OBJECT
100
AcDbLine
 10
7475.037330787666
 20
4576.481126650972
 30
0.0
 11
7475.037330787666
 21
3676.481126650972
 31
0.0
  0
LINE
  5
3C75
330
18
100
AcDbEntity
  8
OBJECT
100
AcDbLine
 10
5855.037330787666
 20
3676.481126650972
 30
0.0
 11
6695.037330787666
 21
3676.481126650972
 31
0.0
  0
LINE
  5
3C78
330
18
100
AcDbEntity
  8
点線
100
AcDbLine
 10
5975.037330787666
 20
4526.481126650972
 30
0.0
 11
6575.037330787665
 21
4526.481126650972
 31
0.0
  0
LINE
  5
3C79
330
18
100
AcDbEntity
  8
OBJECT
100
AcDbLine
 10
5855.037330787666
 20
4576.481126650972
 30
0.0
 11
6695.037330787666
 21
4576.481126650972
 31
0.0
  0
LINE
  5
3C7C
330
18
100
AcDbEntity
  8
上線
 48
10.0
100
AcDbLine
 10
7354.32304507338
 20
4476.481126650972
 30
0.0
 11
7350.741413461394
 21
4025.766913811824
 31
0.0
  0
LINE
  5
3C7D
330
18
100
AcDbEntity
  8
上線
 48
10.0
100
AcDbLine
 10
7115.751616501952
 20
4476.481126650972
 30
0.0
 11
7119.333248113939
 21
4025.766913811824
 31
0.0
  0
LINE
  5
3C81
330
18
100
AcDbEntity
  8
上線
100
AcDbLine
 10
7300.746514721417
 20
3976.481126650972
 30
0.0
 11
7169.328146853914
 21
3976.481126650972
 31
0.0
  0
ARC
  5
3C82
330
18
100
AcDbEntity
  8
上線
100
AcDbCircle
 10
7169.328146853914
 20
4026.481126650972
 30
0.0
 40
50.0
100
AcDbArc
 50
180.8184554616949
 51
270.0
  0
ARC
  5
3C83
330
18
100
AcDbEntity
  8
上線
100
AcDbCircle
 10
7300.746514721417
 20
4026.481126650972
 30
0.0
 40
50.0
100
AcDbArc
 50
270.0
 51
359.181544538305
  0
LINE
  5
3C84
330
18
100
AcDbEntity
  8
上線
 48
10.0
100
AcDbLine
 10
7115.751616501952
 20
4476.481126650972
 30
0.0
 11
7354.32304507338
 21
4476.481126650972
 31
0.0
  0
LINE
  5
3C85
330
18
100
AcDbEntity
  8
点線
100
AcDbLine
 10
7405.751616501952
 20
4526.481126650972
 30
0.0
 11
7405.751616501952
 21
4576.481126650972
 31
0.0
  0
LINE
  5
3C86
330
18
100
AcDbEntity
  8
点線
100
AcDbLine
 10
5975.037330787666
 20
3976.481126650972
 30
0.0
 11
5855.037330787666
 21
3976.481126650972
 31
0.0
  0
LINE
  5
3C87
330
18
100
AcDbEntity
  8
点線
100
AcDbLine
 10
5975.037330787666
 20
4576.481126650972
 30
0.0
 11
5975.037330787666
 21
4526.481126650972
 31
0.0
  0
LINE
  5
3C88
330
18
100
AcDbEntity
  8
点線
100
AcDbLine
 10
5975.037330787666
 20
4476.481126650972
 30
0.0
 11
5855.037330787666
 21
4476.481126650972
 31
0.0
  0
LINE
  5
3C96
330
18
100
AcDbEntity
  8
点線
100
AcDbLine
 10
6575.037330787665
 20
3976.481126650972
 30
0.0
 11
6695.037330787666
 21
3976.481126650972
 31
0.0
  0
LINE
  5
3C97
330
18
100
AcDbEntity
  8
点線
100
AcDbLine
 10
6575.037330787665
 20
4476.481126650972
 30
0.0
 11
6695.037330787666
 21
4476.481126650972
 31
0.0
  0
LINE
  5
3C98
330
18
100
AcDbEntity
  8
点線
100
AcDbLine
 10
6575.037330787665
 20
4526.481126650972
 30
0.0
 11
6575.037330787665
 21
4576.481126650972
 31
0.0
  0
LINE
  5
400C
330
18
100
AcDbEntity
  8
OBJECT
 48
10.0
100
AcDbLine
 10
6995.037356610137
 20
4906.481126650978
 30
0.0
 11
7475.03735661016
 21
4906.481126650978
 31
0.0
  0
LINE
  5
400D
330
18
100
AcDbEntity
  8
OBJECT
 48
10.0
100
AcDbLine
 10
7120.037356610137
 20
4406.481117887554
 30
0.0
 11
7350.037356610181
 21
4406.481117887556
 31
0.0
  0
LINE
  5
400E
330
18
100
AcDbEntity
  8
OBJECT
 48
10.0
100
AcDbLine
 10
6995.037356610137
 20
4756.481117887553
 30
0.0
 11
7475.037356610181
 21
4756.481117887556
 31
0.0
  0
MTEXT
  5
400F
330
18
100
AcDbEntity
  8
0
  6
ByBlock
 62
     0
 48
10.0
100
AcDbMText
 10
7247.942694845011
 20
4066.236399764475
 30
0.0
 40
30.0
 41
0.0
 71
     5
 72
     1
  1
50R
 73
     1
 44
1.0
  0
LINE
  5
4010
330
18
100
AcDbEntity
  8
OBJECT
 48
10.0
100
AcDbLine
 10
7195.44269484501
 20
4036.236399764475
 30
0.0
 11
7300.442694845012
 21
4036.236399764475
 31
0.0
  0
LINE
  5
4011
330
18
100
AcDbEntity
  8
WUWAGAKI
100
AcDbLine
 10
9199.182435831231
 20
6162.046576712646
 30
0.0
 11
4928.463517204312
 21
6162.046576712646
 31
0.0
  0
LINE
  5
4012
330
18
100
AcDbEntity
  8
WUWAGAKI
100
AcDbLine
 10
4928.463517204312
 20
3235.896724916522
 30
0.0
 11
9199.182435831231
 21
3235.896724916522
 31
0.0
  0
LINE
  5
4018
330
18
100
AcDbEntity
  8
OBJECT
100
AcDbLine
 10
6695.037330787666
 20
4876.481126650972
 30
0.0
 11
6695.037330787666
 21
5356.481126650972
 31
0.0
  0
LINE
  5
4019
102
{ACAD_REACTORS
330
4052
102
}
330
18
100
AcDbEntity
  8
OBJECT
100
AcDbLine
 10
6575.037330787665
 20
5286.481126650972
 30
0.0
 11
6575.037330787665
 21
4946.481126650972
 31
0.0
  0
LINE
  5
401A
102
{ACAD_REACTORS
330
4052
102
}
330
18
100
AcDbEntity
  8
OBJECT
100
AcDbLine
 10
6581.037330787665
 20
4940.481126650972
 30
0.0
 11
6581.037330787665
 21
5292.481126650972
 31
0.0
  0
LINE
  5
401B
330
18
100
AcDbEntity
  8
OBJECT
100
AcDbLine
 10
6345.232002948019
 20
4997.150177524646
 30
0.0
 11
6345.232002948019
 21
4957.109143193685
 31
0.0
  0
LINE
  5
401C
330
18
100
AcDbEntity
  8
OBJECT
100
AcDbLine
 10
6347.445301636017
 20
4993.387569755047
 30
0.0
 11
6347.445301636017
 21
4957.109143193685
 31
0.0
  0
LINE
  5
401D
330
18
100
AcDbEntity
  8
OBJECT
100
AcDbLine
 10
6312.032486095873
 20
5053.589356173296
 30
0.0
 11
6312.032486095873
 21
4957.109133788026
 31
0.0
  0
LINE
  5
401E
330
18
100
AcDbEntity
  8
OBJECT
100
AcDbLine
 10
6314.245784783871
 20
5049.826748403695
 30
0.0
 11
6314.245784783871
 21
4957.109133788026
 31
0.0
  0
LINE
  5
401F
330
18
100
AcDbEntity
  8
OBJECT
100
AcDbLine
 10
6330.845543209944
 20
5021.607159079372
 30
0.0
 11
6330.845543209944
 21
4957.109150675872
 31
0.0
  0
LINE
  5
4020
330
18
100
AcDbEntity
  8
OBJECT
100
AcDbLine
 10
6328.632244521946
 20
5025.369766848971
 30
0.0
 11
6328.632244521946
 21
4957.109150675872
 31
0.0
  0
LINE
  5
4021
330
18
100
AcDbEntity
  8
OBJECT
100
AcDbLine
 10
6129.435143409065
 20
5059.629143980564
 30
0.0
 11
6129.435143409065
 21
4957.109148752404
 31
0.0
  0
LINE
  5
4022
330
18
100
AcDbEntity
  8
OBJECT
100
AcDbLine
 10
6164.847958949212
 20
5059.629136498375
 30
0.0
 11
6164.847958949212
 21
4957.109141270216
 31
0.0
  0
LINE
  5
4023
330
18
100
AcDbEntity
  8
OBJECT
100
AcDbLine
 10
6162.634660261211
 20
5059.629136498375
 30
0.0
 11
6162.634660261211
 21
4957.109141270216
 31
0.0
  0
LINE
  5
4024
330
18
100
AcDbEntity
  8
OBJECT
100
AcDbLine
 10
6148.248200523139
 20
5059.629136498375
 30
0.0
 11
6148.248200523139
 21
4957.109141270216
 31
0.0
  0
LINE
  5
4025
330
18
100
AcDbEntity
  8
OBJECT
100
AcDbLine
 10
6146.034901835138
 20
5059.629136498375
 30
0.0
 11
6146.034901835138
 21
4957.109141270216
 31
0.0
  0
LINE
  5
4026
330
18
100
AcDbEntity
  8
OBJECT
100
AcDbLine
 10
6131.648442097065
 20
5059.629143980564
 30
0.0
 11
6131.648442097065
 21
4957.109148752404
 31
0.0
  0
LINE
  5
4027
330
18
100
AcDbEntity
  8
OBJECT
100
AcDbLine
 10
6245.63345239158
 20
5059.629130939655
 30
0.0
 11
6245.63345239158
 21
4957.109135711494
 31
0.0
  0
LINE
  5
4028
330
18
100
AcDbEntity
  8
OBJECT
100
AcDbLine
 10
6297.646026357798
 20
5059.629136498375
 30
0.0
 11
6297.646026357798
 21
4957.109141270216
 31
0.0
  0
LINE
  5
4029
330
18
100
AcDbEntity
  8
OBJECT
100
AcDbLine
 10
6295.432727669799
 20
5059.629136498375
 30
0.0
 11
6295.432727669799
 21
4957.109141270216
 31
0.0
  0
LINE
  5
402A
330
18
100
AcDbEntity
  8
OBJECT
100
AcDbLine
 10
6281.046267931725
 20
5059.629136498375
 30
0.0
 11
6281.046267931725
 21
4957.109141270216
 31
0.0
  0
LINE
  5
402B
330
18
100
AcDbEntity
  8
OBJECT
100
AcDbLine
 10
6278.832969243726
 20
5059.629136498375
 30
0.0
 11
6278.832969243726
 21
4957.109141270216
 31
0.0
  0
LINE
  5
402C
330
18
100
AcDbEntity
  8
OBJECT
100
AcDbLine
 10
6264.446509505653
 20
5059.629143980564
 30
0.0
 11
6264.446509505653
 21
4957.109148752404
 31
0.0
  0
LINE
  5
402D
330
18
100
AcDbEntity
  8
OBJECT
100
AcDbLine
 10
6247.846751079578
 20
5059.629130939655
 30
0.0
 11
6247.846751079578
 21
4957.109135711494
 31
0.0
  0
LINE
  5
402E
330
18
100
AcDbEntity
  8
OBJECT
100
AcDbLine
 10
6262.233210817654
 20
5059.629143980564
 30
0.0
 11
6262.233210817654
 21
4957.109148752404
 31
0.0
  0
LINE
  5
402F
330
18
100
AcDbEntity
  8
OBJECT
100
AcDbLine
 10
6179.234418687284
 20
5059.629129016187
 30
0.0
 11
6179.234418687284
 21
4957.109133788026
 31
0.0
  0
LINE
  5
4030
330
18
100
AcDbEntity
  8
OBJECT
100
AcDbLine
 10
6181.447717375284
 20
5059.629129016187
 30
0.0
 11
6181.447717375284
 21
4957.109133788026
 31
0.0
  0
LINE
  5
4031
330
18
100
AcDbEntity
  8
OBJECT
100
AcDbLine
 10
6212.433935539433
 20
5059.629138421843
 30
0.0
 11
6212.433935539433
 21
4957.109143193685
 31
0.0
  0
LINE
  5
4032
330
18
100
AcDbEntity
  8
OBJECT
100
AcDbLine
 10
6214.647234227433
 20
5059.629138421843
 30
0.0
 11
6214.647234227433
 21
4957.109143193685
 31
0.0
  0
LINE
  5
4033
330
18
100
AcDbEntity
  8
OBJECT
100
AcDbLine
 10
6229.033693965505
 20
5059.629138421843
 30
0.0
 11
6229.033693965505
 21
4957.109143193685
 31
0.0
  0
LINE
  5
4034
330
18
100
AcDbEntity
  8
OBJECT
100
AcDbLine
 10
6231.246992653506
 20
5059.629138421843
 30
0.0
 11
6231.246992653506
 21
4957.109143193685
 31
0.0
  0
LINE
  5
4035
330
18
100
AcDbEntity
  8
OBJECT
100
AcDbLine
 10
6198.047475801359
 20
5059.629145904033
 30
0.0
 11
6198.047475801359
 21
4957.109150675872
 31
0.0
  0
LINE
  5
4036
330
18
100
AcDbEntity
  8
OBJECT
100
AcDbLine
 10
6195.834177113359
 20
5059.629145904033
 30
0.0
 11
6195.834177113359
 21
4957.109150675872
 31
0.0
  0
LINE
  5
4037
330
18
100
AcDbEntity
  8
OBJECT
100
AcDbLine
 10
6175.037326991358
 20
5286.481126650972
 30
0.0
 11
6375.037326991355
 21
4946.481126650972
 31
0.0
  0
HATCH
  5
4038
330
18
100
AcDbEntity
  8
OBJECT
100
AcDbHatch
 10
0.0
 20
0.0
 30
0.0
210
0.0
220
0.0
230
1.0
  2
AR-SAND
 70
     0
 71
     0
 91
        2
 92
        1
 93
        4
 72
     1
 10
6575.037330787665
 20
5286.481126650972
 11
6175.037326991356
 21
5286.481126650972
 72
     1
 10
6175.037326991358
 20
5286.481126650972
 11
6204.449091697239
 21
5236.481126650972
 72
     1
 10
6204.44909169724
 20
5236.481126650972
 11
6575.037330787669
 21
5236.481126650972
 72
     1
 10
6575.037330787665
 20
5236.481126650972
 11
6575.037330787665
 21
5286.481126650972
 97
        0
 92
       33
 93
        4
 72
     1
 10
6575.037330787665
 20
4946.481126650972
 11
6575.037330787665
 21
4996.481126650973
 72
     1
 10
6375.037326991355
 20
4946.481126650972
 11
6575.037330787665
 21
4946.481126650972
 72
     1
 10
6345.625562285474
 20
4996.481126650973
 11
6375.037316319066
 21
4946.481144793867
 72
     1
 10
6345.625562285474
 20
4996.481126650973
 11
6575.037330787667
 21
4996.481126650973
 97
        0
 75
     0
 76
     1
 52
90.0
 41
1.0
 77
     0
 78
     4
 53
127.5
 43
8081.118534411897
 44
7758.325634567876
 45
-48.94132373293423
 46
-1.600031295984042
 79
     6
 49
0.0
 49
-38.608
 49
0.0
 49
-43.18
 49
0.0
 49
-41.275
 53
97.49999999999985
 43
8081.118534411897
 44
7758.325634567876
 45
-71.68251005683543
 46
44.95232831380027
 79
     6
 49
0.0
 49
-20.82799999999999
 49
0.0
 49
-34.79799999999999
 49
0.0
 49
-13.33499999999999
 53
57.49999999999997
 43
8081.118534411897
 44
7727.083634567875
 45
-0.1437184678545643
 46
79.09923702414579
 79
     6
 49
0.0
 49
-12.69999999999997
 49
0.0
 49
-45.71999999999991
 49
0.0
 49
-59.6899999999999
 53
47.49999999999999
 43
8081.118534411897
 44
7727.083634567875
 45
-22.29293232572162
 46
76.35564524722972
 79
     6
 49
0.0
 49
-6.349999999999999
 49
0.0
 49
-29.97199999999999
 49
0.0
 49
-34.29
 98
        1
 10
8081.118534411897
 20
7758.325634567876
  0
LINE
  5
4039
330
18
100
AcDbEntity
  8
OBJECT
100
AcDbLine
 10
5996.63707600048
 20
5059.629134574906
 30
0.0
 11
5996.63707600048
 21
4957.109139346748
 31
0.0
  0
LINE
  5
403A
330
18
100
AcDbEntity
  8
OBJECT
100
AcDbLine
 10
6112.835384982992
 20
5059.629121533998
 30
0.0
 11
6112.835384982992
 21
4957.109126305837
 31
0.0
  0
LINE
  5
403B
330
18
100
AcDbEntity
  8
OBJECT
100
AcDbLine
 10
6115.048683670991
 20
5059.629121533998
 30
0.0
 11
6115.048683670991
 21
4957.109126305837
 31
0.0
  0
LINE
  5
403C
330
18
100
AcDbEntity
  8
OBJECT
100
AcDbLine
 10
5998.850374688479
 20
5059.629134574906
 30
0.0
 11
5998.850374688479
 21
4957.109139346748
 31
0.0
  0
LINE
  5
403D
330
18
100
AcDbEntity
  8
OBJECT
100
AcDbLine
 10
6013.236834426553
 20
5059.629127092719
 30
0.0
 11
6013.236834426553
 21
4957.109131864557
 31
0.0
  0
LINE
  5
403E
330
18
100
AcDbEntity
  8
OBJECT
100
AcDbLine
 10
6048.649649966698
 20
5059.62911961053
 30
0.0
 11
6048.649649966698
 21
4957.10912438237
 31
0.0
  0
LINE
  5
403F
330
18
100
AcDbEntity
  8
OBJECT
100
AcDbLine
 10
6046.4363512787
 20
5059.62911961053
 30
0.0
 11
6046.4363512787
 21
4957.10912438237
 31
0.0
  0
LINE
  5
4040
330
18
100
AcDbEntity
  8
OBJECT
100
AcDbLine
 10
6098.448925244918
 20
5059.629129016187
 30
0.0
 11
6098.448925244918
 21
4957.109133788026
 31
0.0
  0
LINE
  5
4041
330
18
100
AcDbEntity
  8
OBJECT
100
AcDbLine
 10
6096.235626556919
 20
5059.629129016187
 30
0.0
 11
6096.235626556919
 21
4957.109133788026
 31
0.0
  0
LINE
  5
4042
330
18
100
AcDbEntity
  8
OBJECT
100
AcDbLine
 10
6081.849166818845
 20
5059.629129016187
 30
0.0
 11
6081.849166818845
 21
4957.109133788026
 31
0.0
  0
LINE
  5
4043
330
18
100
AcDbEntity
  8
OBJECT
100
AcDbLine
 10
6079.635868130845
 20
5059.629129016187
 30
0.0
 11
6079.635868130845
 21
4957.109133788026
 31
0.0
  0
LINE
  5
4044
330
18
100
AcDbEntity
  8
OBJECT
100
AcDbLine
 10
6063.036109704772
 20
5059.629136498375
 30
0.0
 11
6063.036109704772
 21
4957.109141270216
 31
0.0
  0
LINE
  5
4045
330
18
100
AcDbEntity
  8
OBJECT
100
AcDbLine
 10
6065.249408392771
 20
5059.629136498375
 30
0.0
 11
6065.249408392771
 21
4957.109141270216
 31
0.0
  0
LINE
  5
4046
330
18
100
AcDbEntity
  8
OBJECT
100
AcDbLine
 10
6015.450133114552
 20
5059.629127092719
 30
0.0
 11
6015.450133114552
 21
4957.109131864557
 31
0.0
  0
LINE
  5
4047
330
18
100
AcDbEntity
  8
OBJECT
100
AcDbLine
 10
6029.836592852626
 20
5059.629127092719
 30
0.0
 11
6029.836592852626
 21
4957.109131864557
 31
0.0
  0
LINE
  5
4048
330
18
100
AcDbEntity
  8
OBJECT
100
AcDbLine
 10
6032.049891540625
 20
5059.629127092719
 30
0.0
 11
6032.049891540625
 21
4957.109131864557
 31
0.0
  0
LINE
  5
4049
330
18
100
AcDbEntity
  8
OBJECT
100
AcDbLine
 10
5855.037330787666
 20
5356.481126650972
 30
0.0
 11
5855.037330787666
 21
4876.481126650972
 31
0.0
  0
LINE
  5
404A
102
{ACAD_REACTORS
330
4052
102
}
330
18
100
AcDbEntity
  8
OBJECT
100
AcDbLine
 10
5975.037330787666
 20
4946.481126650972
 30
0.0
 11
5975.037330787666
 21
5286.481126650972
 31
0.0
  0
LINE
  5
404B
330
18
100
AcDbEntity
  8
OBJECT
100
AcDbLine
 10
5982.250625679358
 20
5275.853130497909
 30
0.0
 11
5982.250625679358
 21
4957.109131864557
 31
0.0
  0
LINE
  5
404C
330
18
100
AcDbEntity
  8
OBJECT
100
AcDbLine
 10
5980.037326991356
 20
5281.481130497909
 30
0.0
 11
5980.037326991356
 21
4951.481135711492
 31
0.0
  0
LINE
  5
404D
102
{ACAD_REACTORS
330
4052
102
}
330
18
100
AcDbEntity
  8
OBJECT
100
AcDbLine
 10
5969.037330787666
 20
4940.481126650972
 30
0.0
 11
5969.037330787666
 21
5292.481126650972
 31
0.0
  0
MTEXT
  5
404E
330
18
100
AcDbEntity
  8
0
  6
ByBlock
 62
     0
 48
10.0
100
AcDbMText
 10
5645.037337574552
 20
4936.481152473444
 30
0.0
 40
37.5
 41
0.0
 71
     5
 72
     1
  1
120
 11
0.0000000000000001
 21
1.0
 31
0.0
 73
     1
 44
1.0
  0
SOLID
  5
404F
330
18
100
AcDbEntity
  8
0
  6
ByBlock
 62
     0
 48
10.0
100
AcDbTrace
 10
5681.287322024243
 20
4958.981152473437
 30
0.0
 11
5668.787322024244
 21
4958.981152473437
 31
0.0
 12
5675.037322024241
 22
4996.481152473438
 32
0.0
 13
5675.037322024241
 23
4996.481152473438
 33
0.0
  0
LINE
  5
4050
330
18
100
AcDbEntity
  8
OBJECT
 48
10.0
100
AcDbLine
 10
5525.037330787663
 20
4876.481152473444
 30
0.0
 11
5525.037330787663
 21
5356.481152473466
 31
0.0
  0
LINE
  5
4051
330
18
100
AcDbEntity
  8
OBJECT
 48
10.0
100
AcDbLine
 10
5675.037339551086
 20
4876.481152473444
 30
0.0
 11
5675.037339551084
 21
5356.481152473488
 31
0.0
  0
HATCH
  5
4052
330
18
100
AcDbEntity
  8
OBJECT
100
AcDbHatch
 10
0.0
 20
0.0
 30
0.0
210
0.0
220
0.0
230
1.0
  2
AR-SAND
 70
     0
 71
     1
 91
        2
 92
        1
 93
        4
 72
     1
 10
6581.037330787665
 20
5292.481126650972
 11
5969.037330787666
 21
5292.481126650972
 72
     1
 10
5969.037330787666
 20
5292.481126650972
 11
5969.037330787666
 21
4940.481126650972
 72
     1
 10
5969.037330787666
 20
4940.481126650972
 11
6581.037330787665
 21
4940.481126650972
 72
     1
 10
6581.037330787665
 20
4940.481126650972
 11
6581.037330787665
 21
5292.481126650972
 97
        4
330
409A
330
404D
330
4065
330
401A
 92
       16
 93
        4
 72
     1
 10
5975.037330787666
 20
5286.481126650972
 11
6575.037330787665
 21
5286.481126650972
 72
     1
 10
6575.037330787665
 20
5286.481126650972
 11
6575.037330787665
 21
4946.481126650972
 72
     1
 10
6575.037330787665
 20
4946.481126650972
 11
5975.037330787666
 21
4946.481126650972
 72
     1
 10
5975.037330787666
 20
4946.481126650972
 11
5975.037330787666
 21
5286.481126650972
 97
        4
330
4099
330
4019
330
4064
330
404A
 75
     0
 76
     1
 52
90.0
 41
1.0
 77
     0
 78
     4
 53
127.5
 43
8081.118534411897
 44
7758.325634567876
 45
-48.94132373293423
 46
-1.600031295984042
 79
     6
 49
0.0
 49
-38.608
 49
0.0
 49
-43.18
 49
0.0
 49
-41.275
 53
97.49999999999985
 43
8081.118534411897
 44
7758.325634567876
 45
-71.68251005683543
 46
44.95232831380027
 79
     6
 49
0.0
 49
-20.82799999999999
 49
0.0
 49
-34.79799999999999
 49
0.0
 49
-13.33499999999999
 53
57.49999999999997
 43
8081.118534411897
 44
7727.083634567875
 45
-0.1437184678545643
 46
79.09923702414579
 79
     6
 49
0.0
 49
-12.69999999999997
 49
0.0
 49
-45.71999999999991
 49
0.0
 49
-59.6899999999999
 53
47.49999999999999
 43
8081.118534411897
 44
7727.083634567875
 45
-22.29293232572162
 46
76.35564524722972
 79
     6
 49
0.0
 49
-6.349999999999999
 49
0.0
 49
-29.97199999999999
 49
0.0
 49
-34.29
 98
        1
 10
8081.118534411897
 20
7758.325634567876
  0
LINE
  5
4053
330
18
100
AcDbEntity
  8
WUWAGAKI
100
AcDbLine
 10
4928.463517204312
 20
6162.046576712646
 30
0.0
 11
4928.463517204312
 21
3235.896724916522
 31
0.0
  0
LINE
  5
4054
330
18
100
AcDbEntity
  8
OBJECT
 48
10.0
100
AcDbLine
 10
5675.037341527616
 20
3676.481126650971
 30
0.0
 11
5675.037341527616
 21
4576.481126650972
 31
0.0
  0
LINE
  5
4055
330
18
100
AcDbEntity
  8
OBJECT
 48
10.0
100
AcDbLine
 10
5525.037339551087
 20
4576.481126650972
 30
0.0
 11
5525.037339551084
 21
3676.481126650971
 31
0.0
  0
MTEXT
  5
405D
330
18
100
AcDbEntity
  8
0
  6
ByBlock
 62
     0
 48
10.0
100
AcDbMText
 10
5645.037339551086
 20
3826.481126650972
 30
0.0
 40
37.5
 41
0.0
 71
     5
 72
     1
  1
300
 11
0.0000000000000001
 21
1.0
 31
0.0
 73
     1
 44
1.0
  0
LINE
  5
405E
330
18
100
AcDbEntity
  8
0
 48
10.0
100
AcDbLine
 10
5825.037330787666
 20
3676.481126650971
 30
0.0
 11
5495.037330787666
 21
3676.481126650971
 31
0.0
  0
SOLID
  5
405F
330
18
100
AcDbEntity
  8
0
  6
ByBlock
 62
     0
 48
10.0
100
AcDbTrace
 10
5531.287330787666
 20
3713.981126650993
 30
0.0
 11
5518.787330787663
 21
3713.981126650993
 31
0.0
 12
5525.037330787664
 22
3676.481126650993
 32
0.0
 13
5525.037330787664
 23
3676.481126650993
 33
0.0
  0
SOLID
  5
4060
330
18
100
AcDbEntity
  8
0
  6
ByBlock
 62
     0
 48
10.0
100
AcDbTrace
 10
5681.287341527614
 20
3713.981138510126
 30
0.0
 11
5668.787341527614
 21
3713.981138510126
 31
0.0
 12
5675.037341527613
 22
3676.481138510126
 32
0.0
 13
5675.037341527613
 23
3676.481138510126
 33
0.0
  0
LINE
  5
4061
330
18
100
AcDbEntity
  8
OBJECT
100
AcDbLine
 10
6372.096145191051
 20
4951.481135711492
 30
0.0
 11
5980.037326991356
 21
4951.481135711492
 31
0.0
  0
LINE
  5
4062
330
18
100
AcDbEntity
  8
OBJECT
100
AcDbLine
 10
6368.785556955755
 20
4957.109135711494
 30
0.0
 11
5982.250625679358
 21
4957.109135711494
 31
0.0
  0
LINE
  5
4063
330
18
100
AcDbEntity
  8
OBJECT
100
AcDbLine
 10
5855.037330787666
 20
4876.481126650972
 30
0.0
 11
6695.037330787666
 21
4876.481126650972
 31
0.0
  0
LINE
  5
4064
102
{ACAD_REACTORS
330
4052
102
}
330
18
100
AcDbEntity
  8
OBJECT
100
AcDbLine
 10
6575.037330787665
 20
4946.481126650972
 30
0.0
 11
5975.037330787666
 21
4946.481126650972
 31
0.0
  0
LINE
  5
4065
102
{ACAD_REACTORS
330
4052
102
}
330
18
100
AcDbEntity
  8
OBJECT
100
AcDbLine
 10
6581.037330787665
 20
4940.481126650972
 30
0.0
 11
5969.037330787666
 21
4940.481126650972
 31
0.0
  0
SOLID
  5
4068
330
18
100
AcDbEntity
  8
0
  6
ByBlock
 62
     0
 48
10.0
100
AcDbTrace
 10
5681.287330787669
 20
4438.981191090667
 30
0.0
 11
5668.787330787669
 21
4438.981191090667
 31
0.0
 12
5675.037330787667
 22
4476.481191090667
 32
0.0
 13
5675.037330787667
 23
4476.481191090667
 33
0.0
  0
MTEXT
  5
4069
330
18
100
AcDbEntity
  8
0
  6
ByBlock
 62
     0
 48
10.0
100
AcDbMText
 10
5645.037330787666
 20
4226.481126650972
 30
0.0
 40
37.5
 41
0.0
 71
     5
 72
     1
  1
500
 11
0.0000000000000001
 21
1.0
 31
0.0
 73
     1
 44
1.0
  0
LINE
  5
406A
330
18
100
AcDbEntity
  8
0
 48
10.0
100
AcDbLine
 10
5825.037330787666
 20
3976.481126650972
 30
0.0
 11
5645.037330787666
 21
3976.481126650972
 31
0.0
  0
MTEXT
  5
406B
330
18
100
AcDbEntity
  8
0
  6
ByBlock
 62
     0
 48
10.0
100
AcDbMText
 10
5495.037330787665
 20
4156.481126650971
 30
0.0
 40
37.5
 41
0.0
 71
     5
 72
     1
  1
900
 11
0.0000000000000001
 21
1.0
 31
0.0
 73
     1
 44
1.0
  0
SOLID
  5
406D
330
18
100
AcDbEntity
  8
0
  6
ByBlock
 62
     0
 48
10.0
100
AcDbTrace
 10
5681.287330787669
 20
4013.981126650972
 30
0.0
 11
5668.787330787669
 21
4013.981126650972
 31
0.0
 12
5675.037330787667
 22
3976.481126650972
 32
0.0
 13
5675.037330787667
 23
3976.481126650972
 33
0.0
  0
SOLID
  5
406E
330
18
100
AcDbEntity
  8
0
  6
ByBlock
 62
     0
 48
10.0
100
AcDbTrace
 10
5681.287330787669
 20
3938.981126650972
 30
0.0
 11
5668.787330787669
 21
3938.981126650972
 31
0.0
 12
5675.037330787667
 22
3976.481126650972
 32
0.0
 13
5675.037330787667
 23
3976.481126650972
 33
0.0
  0
LINE
  5
406F
330
18
100
AcDbEntity
  8
0
 48
10.0
100
AcDbLine
 10
5825.037330787666
 20
4876.481152473444
 30
0.0
 11
5495.037330787666
 21
4876.481152473444
 31
0.0
  0
MTEXT
  5
4070
330
18
100
AcDbEntity
  8
0
  6
ByBlock
 62
     0
 48
10.0
100
AcDbMText
 10
5645.037339551086
 20
4526.481126650972
 30
0.0
 40
37.5
 41
0.0
 71
     5
 72
     1
  1
100
 11
0.0000000000000001
 21
1.0
 31
0.0
 73
     1
 44
1.0
  0
LINE
  5
4071
330
18
100
AcDbEntity
  8
0
 48
10.0
100
AcDbLine
 10
5825.037330787666
 20
4576.481126650972
 30
0.0
 11
5495.037330787666
 21
4576.481126650972
 31
0.0
  0
LINE
  5
4072
330
18
100
AcDbEntity
  8
0
 48
10.0
100
AcDbLine
 10
5825.037330787666
 20
4476.481126650972
 30
0.0
 11
5645.037330787666
 21
4476.481126650972
 31
0.0
  0
SOLID
  5
4073
330
18
100
AcDbEntity
  8
0
  6
ByBlock
 62
     0
 48
10.0
100
AcDbTrace
 10
5531.287330787666
 20
4538.98112665095
 30
0.0
 11
5518.787330787663
 21
4538.98112665095
 31
0.0
 12
5525.037330787664
 22
4576.48112665095
 32
0.0
 13
5525.037330787664
 23
4576.48112665095
 33
0.0
  0
SOLID
  5
4074
330
18
100
AcDbEntity
  8
0
  6
ByBlock
 62
     0
 48
10.0
100
AcDbTrace
 10
5531.287330787662
 20
4913.981152473466
 30
0.0
 11
5518.787330787663
 21
4913.981152473466
 31
0.0
 12
5525.037330787663
 22
4876.481152473466
 32
0.0
 13
5525.037330787663
 23
4876.481152473466
 33
0.0
  0
SOLID
  5
4076
330
18
100
AcDbEntity
  8
0
  6
ByBlock
 62
     0
 48
10.0
100
AcDbTrace
 10
5681.287330787669
 20
4513.981126650975
 30
0.0
 11
5668.787330787669
 21
4513.981126650975
 31
0.0
 12
5675.037330787667
 22
4476.481126650975
 32
0.0
 13
5675.037330787667
 23
4476.481126650975
 33
0.0
  0
SOLID
  5
4077
330
18
100
AcDbEntity
  8
0
  6
ByBlock
 62
     0
 48
10.0
100
AcDbTrace
 10
5681.287341527614
 20
4538.981114791818
 30
0.0
 11
5668.787341527614
 21
4538.981114791818
 31
0.0
 12
5675.037341527613
 22
4576.481114791818
 32
0.0
 13
5675.037341527613
 23
4576.481114791818
 33
0.0
  0
SOLID
  5
4079
330
18
100
AcDbEntity
  8
0
  6
ByBlock
 62
     0
 48
10.0
100
AcDbTrace
 10
5668.787339551087
 20
4913.981164332598
 30
0.0
 11
5681.287339551087
 21
4913.981164332598
 31
0.0
 12
5675.037339551088
 22
4876.481164332599
 32
0.0
 13
5675.037339551088
 23
4876.481164332599
 33
0.0
  0
SOLID
  5
407C
330
18
100
AcDbEntity
  8
0
  6
ByBlock
 62
     0
 48
10.0
100
AcDbTrace
 10
7160.772217393541
 20
4018.088559571671
 30
0.0
 11
7168.163587392823
 21
4008.00800157453
 31
0.0
 12
7134.226228401765
 22
3990.874170575246
 32
0.0
 13
7134.226228401765
 23
3990.874170575246
 33
0.0
  0
LINE
  5
407E
330
18
100
AcDbEntity
  8
WUWAGAKI
 48
10.0
100
AcDbLine
 10
7149.290960056331
 20
4002.037340383863
 30
0.0
 11
7195.44269484501
 21
4036.236399764475
 31
0.0
210
0.0
220
0.0
230
-1.0
1001
ACAD
1000
DSTYLE
1002
{
1070
    78
1070
     8
1070
   270
1070
     8
1070
   140
1040
2.5
1070
    74
1070
     0
1070
   172
1070
     1
1070
    73
1070
     0
1070
    77
1070
     1
1070
    40
1040
10.0
1070
   147
1040
0.625
1070
    42
1040
0.625
1070
    44
1040
1.25
1070
    43
1040
3.75
1070
   141
1040
2.5
1070
    41
1040
2.5
1070
   273
1070
     8
1070
   274
1070
     4
1070
   143
1040
0.0394
1070
   171
1070
     4
1002
}
  0
LINE
  5
407F
330
18
100
AcDbEntity
  8
0
 48
10.0
100
AcDbLine
 10
7120.037356610137
 20
4316.481116555781
 30
0.0
 11
7120.037356610137
 21
4436.481116555781
 31
0.0
  0
SOLID
  5
4080
330
18
100
AcDbEntity
  8
0
  6
ByBlock
 62
     0
 48
10.0
100
AcDbTrace
 10
7157.537356610145
 20
4400.231135414396
 30
0.0
 11
7157.537356610145
 21
4412.731135414395
 31
0.0
 12
7120.037356610144
 22
4406.481135414398
 32
0.0
 13
7120.037356610144
 23
4406.481135414398
 33
0.0
  0
MTEXT
  5
4081
330
18
100
AcDbEntity
  8
0
  6
ByBlock
 62
     0
 48
10.0
100
AcDbMText
 10
7235.037356610182
 20
4436.481126650973
 30
0.0
 40
37.5
 41
0.0
 71
     5
 72
     1
  1
230
 73
     1
 44
1.0
  0
LINE
  5
4084
330
18
100
AcDbEntity
  8
OBJECT
100
AcDbLine
 10
6361.831761374092
 20
4968.930588200322
 30
0.0
 11
6361.831761374092
 21
4957.109143193685
 31
0.0
  0
LINE
  5
4085
330
18
100
AcDbEntity
  8
OBJECT
100
AcDbLine
 10
6364.045060062093
 20
4965.167980430721
 30
0.0
 11
6364.045060062093
 21
4957.109143193685
 31
0.0
  0
LINE
  5
4086
330
18
100
AcDbEntity
  8
0
 48
10.0
100
AcDbLine
 10
7115.037356610137
 20
4606.481116555781
 30
0.0
 11
7115.037356610137
 21
4786.481116555781
 31
0.0
  0
LINE
  5
4087
330
18
100
AcDbEntity
  8
0
 48
10.0
100
AcDbLine
 10
6995.037356610137
 20
4606.481126650971
 30
0.0
 11
6995.037356610137
 21
4936.481126650972
 31
0.0
  0
SOLID
  5
4089
330
18
100
AcDbEntity
  8
0
  6
ByBlock
 62
     0
 48
10.0
100
AcDbTrace
 10
7032.53735661016
 20
4900.231126650976
 30
0.0
 11
7032.53735661016
 21
4912.731126650976
 31
0.0
 12
6995.03735661016
 22
4906.481126650978
 32
0.0
 13
6995.03735661016
 23
4906.481126650978
 33
0.0
  0
SOLID
  5
408A
330
18
100
AcDbEntity
  8
0
  6
ByBlock
 62
     0
 48
10.0
100
AcDbTrace
 10
7032.537368469293
 20
4762.731117887552
 30
0.0
 11
7032.537368469293
 21
4750.23111788755
 31
0.0
 12
6995.037368469294
 22
4756.481117887551
 32
0.0
 13
6995.037368469294
 23
4756.481117887551
 33
0.0
  0
SOLID
  5
408B
330
18
100
AcDbEntity
  8
0
  6
ByBlock
 62
     0
 48
10.0
100
AcDbTrace
 10
7152.537356610145
 20
4750.231135414397
 30
0.0
 11
7152.537356610145
 21
4762.731135414394
 31
0.0
 12
7115.037356610145
 22
4756.481135414398
 32
0.0
 13
7115.037356610145
 23
4756.481135414398
 33
0.0
  0
MTEXT
  5
408C
330
18
100
AcDbEntity
  8
0
  6
ByBlock
 62
     0
 48
10.0
100
AcDbMText
 10
7055.037356610139
 20
4786.481119864088
 30
0.0
 40
37.5
 41
0.0
 71
     5
 72
     1
  1
120
 73
     1
 44
1.0
  0
SOLID
  5
408D
330
18
100
AcDbEntity
  8
0
  6
ByBlock
 62
     0
 48
10.0
100
AcDbTrace
 10
7077.537356610132
 20
4750.231135414397
 30
0.0
 11
7077.537356610132
 21
4762.731135414394
 31
0.0
 12
7115.037356610132
 22
4756.481135414398
 32
0.0
 13
7115.037356610132
 23
4756.481135414398
 33
0.0
  0
MTEXT
  5
408E
330
18
100
AcDbEntity
  8
0
  6
ByBlock
 62
     0
 48
10.0
100
AcDbMText
 10
7235.037356610182
 20
4786.481126650974
 30
0.0
 40
37.5
 41
0.0
 71
     5
 72
     1
  1
240
 73
     1
 44
1.0
  0
MTEXT
  5
408F
330
18
100
AcDbEntity
  8
0
  6
ByBlock
 62
     0
 48
10.0
100
AcDbMText
 10
7235.037356610182
 20
4936.481126650976
 30
0.0
 40
37.5
 41
0.0
 71
     5
 72
     1
  1
480
 73
     1
 44
1.0
  0
LINE
  5
4090
330
18
100
AcDbEntity
  8
OBJECT
 48
10.0
100
AcDbLine
 10
6695.037330787666
 20
5686.48111788755
 30
0.0
 11
5855.037330787666
 21
5686.481117887552
 31
0.0
  0
LINE
  5
4091
330
18
100
AcDbEntity
  8
OBJECT
 48
10.0
100
AcDbLine
 10
5855.037330787666
 20
5536.481115911023
 30
0.0
 11
6695.037330787666
 21
5536.481115911023
 31
0.0
  0
LINE
  5
4092
330
18
100
AcDbEntity
  8
OBJECT
100
AcDbLine
 10
6244.884383836194
 20
5167.741130014752
 30
0.0
 11
5982.250625679358
 21
5167.741130014752
 31
0.0
  0
LINE
  5
4093
330
18
100
AcDbEntity
  8
OBJECT
100
AcDbLine
 10
6241.594968980314
 20
5173.333135269746
 30
0.0
 11
5982.250625679358
 21
5173.333135269746
 31
0.0
  0
LINE
  5
4094
330
18
100
AcDbEntity
  8
OBJECT
100
AcDbLine
 10
6308.479677409779
 20
5059.629130939654
 30
0.0
 11
5982.250625679358
 21
5059.629130939654
 31
0.0
  0
LINE
  5
4095
330
18
100
AcDbEntity
  8
OBJECT
100
AcDbLine
 10
6305.190265645074
 20
5065.221130939653
 30
0.0
 11
5982.250625679358
 21
5065.221130939653
 31
0.0
  0
LINE
  5
4096
330
18
100
AcDbEntity
  8
点線
100
AcDbLine
 10
6204.449087900929
 20
5236.4811331047
 30
0.0
 11
5855.037330787666
 21
5236.4811331047
 31
0.0
  0
LINE
  5
4097
330
18
100
AcDbEntity
  8
点線
100
AcDbLine
 10
6345.625562285474
 20
4996.481126650973
 30
0.0
 11
5855.037330787666
 21
4996.481133104699
 31
0.0
  0
LINE
  5
4098
330
18
100
AcDbEntity
  8
OBJECT
100
AcDbLine
 10
6695.037330787666
 20
5356.481126650972
 30
0.0
 11
5855.037330787666
 21
5356.481126650972
 31
0.0
  0
LINE
  5
4099
102
{ACAD_REACTORS
330
4052
102
}
330
18
100
AcDbEntity
  8
OBJECT
100
AcDbLine
 10
5975.037330787666
 20
5286.481126650972
 30
0.0
 11
6575.037330787665
 21
5286.481126650972
 31
0.0
  0
LINE
  5
409A
102
{ACAD_REACTORS
330
4052
102
}
330
18
100
AcDbEntity
  8
OBJECT
100
AcDbLine
 10
6581.037330787665
 20
5292.481126650972
 30
0.0
 11
5969.037330787666
 21
5292.481126650972
 31
0.0
  0
LINE
  5
409B
330
18
100
AcDbEntity
  8
0
 48
10.0
100
AcDbLine
 10
5855.037330787666
 20
5386.481126650973
 30
0.0
 11
5855.037330787666
 21
5716.481126650972
 31
0.0
  0
LINE
  5
409C
330
18
100
AcDbEntity
  8
0
 48
10.0
100
AcDbLine
 10
5975.037330787666
 20
5386.481126650973
 30
0.0
 11
5975.037330787666
 21
5566.481126650972
 31
0.0
  0
LINE
  5
409D
330
18
100
AcDbEntity
  8
OBJECT
 48
10.0
100
AcDbLine
 10
5675.037339551084
 20
5356.481152473466
 30
0.0
 11
5675.037339551084
 21
5468.981152473466
 31
0.0
  0
MTEXT
  5
409E
330
18
100
AcDbEntity
  8
0
  6
ByBlock
 62
     0
 48
10.0
100
AcDbMText
 10
5645.037339551084
 20
5321.481152473488
 30
0.0
 40
37.5
 41
0.0
 71
     5
 72
     1
  1
70
 11
0.0000000000000001
 21
1.0
 31
0.0
 73
     1
 44
1.0
  0
MTEXT
  5
409F
330
18
100
AcDbEntity
  8
0
  6
ByBlock
 62
     0
 48
10.0
100
AcDbMText
 10
5645.037330787666
 20
5116.481152473488
 30
0.0
 40
37.5
 41
0.0
 71
     5
 72
     1
  1
240
 11
0.0000000000000001
 21
1.0
 31
0.0
 73
     1
 44
1.0
  0
LINE
  5
40A0
330
18
100
AcDbEntity
  8
0
 48
10.0
100
AcDbLine
 10
5825.037340882857
 20
4996.481152473444
 30
0.0
 11
5645.037340882858
 21
4996.481152473444
 31
0.0
  0
LINE
  5
40A1
330
18
100
AcDbEntity
  8
0
 48
10.0
100
AcDbLine
 10
5825.037330787666
 20
5286.481152473488
 30
0.0
 11
5645.037330787666
 21
5286.481152473488
 31
0.0
  0
LINE
  5
40A2
330
18
100
AcDbEntity
  8
0
 48
10.0
100
AcDbLine
 10
5825.037340882857
 20
5236.481152473487
 30
0.0
 11
5645.037340882858
 21
5236.481152473487
 31
0.0
  0
LINE
  5
40A3
330
18
100
AcDbEntity
  8
0
 48
10.0
100
AcDbLine
 10
5825.037330787663
 20
5356.481152473488
 30
0.0
 11
5495.037330787662
 21
5356.481152473488
 31
0.0
  0
MTEXT
  5
40A4
330
18
100
AcDbEntity
  8
0
  6
ByBlock
 62
     0
 48
10.0
100
AcDbMText
 10
5495.037330787662
 20
5116.481152473488
 30
0.0
 40
37.5
 41
0.0
 71
     5
 72
     1
  1
480
 11
0.0000000000000001
 21
1.0
 31
0.0
 73
     1
 44
1.0
  0
SOLID
  5
40A5
330
18
100
AcDbEntity
  8
0
  6
ByBlock
 62
     0
 48
10.0
100
AcDbTrace
 10
5531.287330787662
 20
5318.981152473465
 30
0.0
 11
5518.787330787663
 21
5318.981152473465
 31
0.0
 12
5525.037330787663
 22
5356.481152473466
 32
0.0
 13
5525.037330787663
 23
5356.481152473466
 33
0.0
  0
MTEXT
  5
40A6
330
18
100
AcDbEntity
  8
0
  6
ByBlock
 62
     0
 48
10.0
100
AcDbMText
 10
5615.037339551084
 20
5261.481152473487
 30
0.0
 40
37.5
 41
0.0
 71
     5
 72
     1
  1
50
 11
0.0000000000000001
 21
1.0
 31
0.0
 73
     1
 44
1.0
  0
LINE
  5
40A7
330
18
100
AcDbEntity
  8
OBJECT
100
AcDbLine
 10
6129.435143409065
 20
5173.333122228837
 30
0.0
 11
6129.435143409065
 21
5275.853117456999
 31
0.0
  0
LINE
  5
40A8
330
18
100
AcDbEntity
  8
OBJECT
100
AcDbLine
 10
6131.648442097065
 20
5173.333122228837
 30
0.0
 11
6131.648442097065
 21
5275.853117456999
 31
0.0
  0
LINE
  5
40A9
330
18
100
AcDbEntity
  8
OBJECT
100
AcDbLine
 10
6146.034901835138
 20
5173.333129711028
 30
0.0
 11
6146.034901835138
 21
5275.853124939186
 31
0.0
  0
LINE
  5
40AA
330
18
100
AcDbEntity
  8
OBJECT
100
AcDbLine
 10
6148.248200523139
 20
5173.333129711028
 30
0.0
 11
6148.248200523139
 21
5275.853124939186
 31
0.0
  0
LINE
  5
40AB
330
18
100
AcDbEntity
  8
OBJECT
100
AcDbLine
 10
6162.634660261211
 20
5173.333129711028
 30
0.0
 11
6162.634660261211
 21
5275.853124939186
 31
0.0
  0
LINE
  5
40AC
330
18
100
AcDbEntity
  8
OBJECT
100
AcDbLine
 10
6164.847958949212
 20
5173.333129711028
 30
0.0
 11
6164.847958949212
 21
5275.853124939186
 31
0.0
  0
LINE
  5
40AD
330
18
100
AcDbEntity
  8
OBJECT
100
AcDbLine
 10
6195.834177113359
 20
5173.333120305368
 30
0.0
 11
6195.834177113359
 21
5251.12648144357
 31
0.0
  0
LINE
  5
40AE
330
18
100
AcDbEntity
  8
OBJECT
100
AcDbLine
 10
6198.047475801359
 20
5173.333120305368
 30
0.0
 11
6198.047475801359
 21
5247.363873673969
 31
0.0
  0
LINE
  5
40AF
330
18
100
AcDbEntity
  8
OBJECT
100
AcDbLine
 10
6181.447717375284
 20
5173.333137193215
 30
0.0
 11
6181.447717375284
 21
5275.853132421373
 31
0.0
  0
LINE
  5
40B0
330
18
100
AcDbEntity
  8
OBJECT
100
AcDbLine
 10
6179.234418687284
 20
5173.333137193215
 30
0.0
 11
6179.234418687284
 21
5275.853132421373
 31
0.0
  0
LINE
  5
40B1
330
18
100
AcDbEntity
  8
OBJECT
100
AcDbLine
 10
6065.249408392771
 20
5173.333129711028
 30
0.0
 11
6065.249408392771
 21
5275.853124939186
 31
0.0
  0
LINE
  5
40B2
330
18
100
AcDbEntity
  8
OBJECT
100
AcDbLine
 10
6063.036109704772
 20
5173.333129711028
 30
0.0
 11
6063.036109704772
 21
5275.853124939186
 31
0.0
  0
LINE
  5
40B3
330
18
100
AcDbEntity
  8
OBJECT
100
AcDbLine
 10
6079.635868130845
 20
5173.333137193215
 30
0.0
 11
6079.635868130845
 21
5275.853132421373
 31
0.0
  0
LINE
  5
40B4
330
18
100
AcDbEntity
  8
OBJECT
100
AcDbLine
 10
6081.849166818845
 20
5173.333137193215
 30
0.0
 11
6081.849166818845
 21
5275.853132421373
 31
0.0
  0
LINE
  5
40B5
330
18
100
AcDbEntity
  8
OBJECT
100
AcDbLine
 10
6115.048683670991
 20
5173.333144675403
 30
0.0
 11
6115.048683670991
 21
5275.853139903564
 31
0.0
  0
LINE
  5
40B6
330
18
100
AcDbEntity
  8
OBJECT
100
AcDbLine
 10
6112.835384982992
 20
5173.333144675403
 30
0.0
 11
6112.835384982992
 21
5275.853139903564
 31
0.0
  0
LINE
  5
40B7
330
18
100
AcDbEntity
  8
OBJECT
100
AcDbLine
 10
6096.235626556919
 20
5173.333137193215
 30
0.0
 11
6096.235626556919
 21
5275.853132421373
 31
0.0
  0
LINE
  5
40B8
330
18
100
AcDbEntity
  8
OBJECT
100
AcDbLine
 10
6098.448925244918
 20
5173.333137193215
 30
0.0
 11
6098.448925244918
 21
5275.853132421373
 31
0.0
  0
LINE
  5
40B9
330
18
100
AcDbEntity
  8
OBJECT
100
AcDbLine
 10
6046.4363512787
 20
5173.333146598871
 30
0.0
 11
6046.4363512787
 21
5275.853141827033
 31
0.0
  0
LINE
  5
40BA
330
18
100
AcDbEntity
  8
OBJECT
100
AcDbLine
 10
6048.649649966698
 20
5173.333146598871
 30
0.0
 11
6048.649649966698
 21
5275.853141827033
 31
0.0
  0
LINE
  5
40BB
330
18
100
AcDbEntity
  8
OBJECT
100
AcDbLine
 10
6032.049891540625
 20
5173.333139116684
 30
0.0
 11
6032.049891540625
 21
5275.853134344846
 31
0.0
  0
LINE
  5
40BC
330
18
100
AcDbEntity
  8
OBJECT
100
AcDbLine
 10
6029.836592852626
 20
5173.333139116684
 30
0.0
 11
6029.836592852626
 21
5275.853134344846
 31
0.0
  0
LINE
  5
40BD
330
18
100
AcDbEntity
  8
OBJECT
100
AcDbLine
 10
6015.450133114552
 20
5173.333139116684
 30
0.0
 11
6015.450133114552
 21
5275.853134344846
 31
0.0
  0
LINE
  5
40BE
330
18
100
AcDbEntity
  8
OBJECT
100
AcDbLine
 10
6013.236834426553
 20
5173.333139116684
 30
0.0
 11
6013.236834426553
 21
5275.853134344846
 31
0.0
  0
LINE
  5
40BF
330
18
100
AcDbEntity
  8
OBJECT
100
AcDbLine
 10
5996.63707600048
 20
5173.333131634495
 30
0.0
 11
5996.63707600048
 21
5275.853126862655
 31
0.0
  0
LINE
  5
40C0
330
18
100
AcDbEntity
  8
OBJECT
100
AcDbLine
 10
5998.850374688479
 20
5173.333131634495
 30
0.0
 11
5998.850374688479
 21
5275.853126862655
 31
0.0
  0
SOLID
  5
40C1
330
18
100
AcDbEntity
  8
0
  6
ByBlock
 62
     0
 48
10.0
100
AcDbTrace
 10
5681.287330787663
 20
5198.981257634533
 30
0.0
 11
5668.787330787666
 21
5198.981257634533
 31
0.0
 12
5675.037330787663
 22
5236.481257634533
 32
0.0
 13
5675.037330787663
 23
5236.481257634533
 33
0.0
  0
SOLID
  5
40C2
330
18
100
AcDbEntity
  8
0
  6
ByBlock
 62
     0
 48
10.0
100
AcDbTrace
 10
5681.287322024243
 20
5033.981152473451
 30
0.0
 11
5668.787322024244
 21
5033.981152473451
 31
0.0
 12
5675.037322024241
 22
4996.48115247345
 32
0.0
 13
5675.037322024241
 23
4996.48115247345
 33
0.0
  0
LINE
  5
40C3
330
18
100
AcDbEntity
  8
OBJECT
100
AcDbLine
 10
6148.248200523139
 20
5065.221125380934
 30
0.0
 11
6148.248200523139
 21
5167.741120609092
 31
0.0
  0
LINE
  5
40C4
330
18
100
AcDbEntity
  8
OBJECT
100
AcDbLine
 10
6146.034901835138
 20
5065.221125380934
 30
0.0
 11
6146.034901835138
 21
5167.741120609092
 31
0.0
  0
LINE
  5
40C5
330
18
100
AcDbEntity
  8
OBJECT
100
AcDbLine
 10
6129.435143409065
 20
5065.221117898744
 30
0.0
 11
6129.435143409065
 21
5167.741113126904
 31
0.0
  0
LINE
  5
40C6
330
18
100
AcDbEntity
  8
OBJECT
100
AcDbLine
 10
6131.648442097065
 20
5065.221117898744
 30
0.0
 11
6131.648442097065
 21
5167.741113126904
 31
0.0
  0
LINE
  5
40C7
330
18
100
AcDbEntity
  8
OBJECT
100
AcDbLine
 10
6164.847958949212
 20
5065.221125380934
 30
0.0
 11
6164.847958949212
 21
5167.741120609092
 31
0.0
  0
LINE
  5
40C8
330
18
100
AcDbEntity
  8
OBJECT
100
AcDbLine
 10
6162.634660261211
 20
5065.221125380934
 30
0.0
 11
6162.634660261211
 21
5167.741120609092
 31
0.0
  0
LINE
  5
40C9
330
18
100
AcDbEntity
  8
OBJECT
100
AcDbLine
 10
6179.234418687284
 20
5065.221132863121
 30
0.0
 11
6179.234418687284
 21
5167.741128091282
 31
0.0
  0
LINE
  5
40CA
330
18
100
AcDbEntity
  8
OBJECT
100
AcDbLine
 10
6181.447717375284
 20
5065.221132863121
 30
0.0
 11
6181.447717375284
 21
5167.741128091282
 31
0.0
  0
LINE
  5
40CB
330
18
100
AcDbEntity
  8
OBJECT
100
AcDbLine
 10
6198.047475801359
 20
5065.221115975274
 30
0.0
 11
6198.047475801359
 21
5167.741111203437
 31
0.0
  0
LINE
  5
40CC
330
18
100
AcDbEntity
  8
OBJECT
100
AcDbLine
 10
6195.834177113359
 20
5065.221115975274
 30
0.0
 11
6195.834177113359
 21
5167.741111203437
 31
0.0
  0
LINE
  5
40CD
330
18
100
AcDbEntity
  8
OBJECT
100
AcDbLine
 10
5996.63707600048
 20
5065.221127304402
 30
0.0
 11
5996.63707600048
 21
5167.741122532561
 31
0.0
  0
LINE
  5
40CE
330
18
100
AcDbEntity
  8
OBJECT
100
AcDbLine
 10
5998.850374688479
 20
5065.221127304402
 30
0.0
 11
5998.850374688479
 21
5167.741122532561
 31
0.0
  0
LINE
  5
40CF
330
18
100
AcDbEntity
  8
OBJECT
100
AcDbLine
 10
6013.236834426553
 20
5065.22113478659
 30
0.0
 11
6013.236834426553
 21
5167.741130014752
 31
0.0
  0
LINE
  5
40D0
330
18
100
AcDbEntity
  8
OBJECT
100
AcDbLine
 10
6015.450133114552
 20
5065.22113478659
 30
0.0
 11
6015.450133114552
 21
5167.741130014752
 31
0.0
  0
LINE
  5
40D1
330
18
100
AcDbEntity
  8
OBJECT
100
AcDbLine
 10
6029.836592852626
 20
5065.22113478659
 30
0.0
 11
6029.836592852626
 21
5167.741130014752
 31
0.0
  0
LINE
  5
40D2
330
18
100
AcDbEntity
  8
OBJECT
100
AcDbLine
 10
6032.049891540625
 20
5065.22113478659
 30
0.0
 11
6032.049891540625
 21
5167.741130014752
 31
0.0
  0
LINE
  5
40D3
330
18
100
AcDbEntity
  8
OBJECT
100
AcDbLine
 10
6048.649649966698
 20
5065.221142268779
 30
0.0
 11
6048.649649966698
 21
5167.741137496939
 31
0.0
  0
LINE
  5
40D4
330
18
100
AcDbEntity
  8
OBJECT
100
AcDbLine
 10
6046.4363512787
 20
5065.221142268779
 30
0.0
 11
6046.4363512787
 21
5167.741137496939
 31
0.0
  0
LINE
  5
40D5
330
18
100
AcDbEntity
  8
OBJECT
100
AcDbLine
 10
6081.849166818845
 20
5065.221132863121
 30
0.0
 11
6081.849166818845
 21
5167.741128091282
 31
0.0
  0
LINE
  5
40D6
330
18
100
AcDbEntity
  8
OBJECT
100
AcDbLine
 10
6079.635868130845
 20
5065.221132863121
 30
0.0
 11
6079.635868130845
 21
5167.741128091282
 31
0.0
  0
LINE
  5
40D7
330
18
100
AcDbEntity
  8
OBJECT
100
AcDbLine
 10
6063.036109704772
 20
5065.221125380934
 30
0.0
 11
6063.036109704772
 21
5167.741120609092
 31
0.0
  0
LINE
  5
40D8
330
18
100
AcDbEntity
  8
OBJECT
100
AcDbLine
 10
6065.249408392771
 20
5065.221125380934
 30
0.0
 11
6065.249408392771
 21
5167.741120609092
 31
0.0
  0
LINE
  5
40D9
330
18
100
AcDbEntity
  8
OBJECT
100
AcDbLine
 10
6112.835384982992
 20
5065.22114034531
 30
0.0
 11
6112.835384982992
 21
5167.741135573471
 31
0.0
  0
LINE
  5
40DA
330
18
100
AcDbEntity
  8
OBJECT
100
AcDbLine
 10
6115.048683670991
 20
5065.22114034531
 30
0.0
 11
6115.048683670991
 21
5167.741135573471
 31
0.0
  0
LINE
  5
40DB
330
18
100
AcDbEntity
  8
OBJECT
100
AcDbLine
 10
6098.448925244918
 20
5065.221132863121
 30
0.0
 11
6098.448925244918
 21
5167.741128091282
 31
0.0
  0
LINE
  5
40DC
330
18
100
AcDbEntity
  8
OBJECT
100
AcDbLine
 10
6096.235626556919
 20
5065.221132863121
 30
0.0
 11
6096.235626556919
 21
5167.741128091282
 31
0.0
  0
LWPOLYLINE
  5
40DD
330
18
100
AcDbEntity
  8
上線
 48
10.0
100
AcDbPolyline
 90
        2
 70
     1
 43
5.0
 10
5675.05927715889
 20
5283.981152473487
 42
1.0
 10
5675.05927715889
 20
5288.981152473488
 42
1.0
  0
SOLID
  5
40DE
330
18
100
AcDbEntity
  8
0
  6
ByBlock
 62
     0
 48
10.0
100
AcDbTrace
 10
5668.787339551087
 20
5393.98116433262
 30
0.0
 11
5681.287339551087
 21
5393.98116433262
 31
0.0
 12
5675.037339551088
 22
5356.48116433262
 32
0.0
 13
5675.037339551088
 23
5356.48116433262
 33
0.0
  0
LINE
  5
40DF
330
18
100
AcDbEntity
  8
OBJECT
100
AcDbLine
 10
6177.978501199042
 20
5281.481130497909
 30
0.0
 11
5980.037326991356
 21
5281.481130497909
 31
0.0
  0
LINE
  5
40E0
330
18
100
AcDbEntity
  8
OBJECT
100
AcDbLine
 10
6181.447717375284
 20
5275.583462998295
 30
0.0
 11
5982.250625679358
 21
5275.853130497909
 31
0.0
  0
MTEXT
  5
40E1
330
18
100
AcDbEntity
  8
0
  6
ByBlock
 62
     0
 48
10.0
100
AcDbMText
 10
5915.037330787666
 20
5566.481117887552
 30
0.0
 40
37.5
 41
0.0
 71
     5
 72
     1
  1
120
 73
     1
 44
1.0
  0
SOLID
  5
40E2
330
18
100
AcDbEntity
  8
0
  6
ByBlock
 62
     0
 48
10.0
100
AcDbTrace
 10
5892.537342646822
 20
5530.231115911025
 30
0.0
 11
5892.537342646822
 21
5542.731115911026
 31
0.0
 12
5855.037342646823
 22
5536.481115911026
 32
0.0
 13
5855.037342646823
 23
5536.481115911026
 33
0.0
  0
SOLID
  5
40E3
330
18
100
AcDbEntity
  8
0
  6
ByBlock
 62
     0
 48
10.0
100
AcDbTrace
 10
5892.537330787688
 20
5680.231126650974
 30
0.0
 11
5892.537330787688
 21
5692.731126650976
 31
0.0
 12
5855.037330787688
 22
5686.481126650976
 32
0.0
 13
5855.037330787688
 23
5686.481126650976
 33
0.0
  0
SOLID
  5
40E4
330
18
100
AcDbEntity
  8
0
  6
ByBlock
 62
     0
 48
10.0
100
AcDbTrace
 10
6012.537266347973
 20
5530.231126650971
 30
0.0
 11
6012.537266347973
 21
5542.73112665097
 31
0.0
 12
5975.037266347973
 22
5536.481126650972
 32
0.0
 13
5975.037266347973
 23
5536.481126650972
 33
0.0
  0
SOLID
  5
40E5
330
18
100
AcDbEntity
  8
0
  6
ByBlock
 62
     0
 48
10.0
100
AcDbTrace
 10
5937.537330787664
 20
5530.231126650971
 30
0.0
 11
5937.537330787664
 21
5542.73112665097
 31
0.0
 12
5975.037330787664
 22
5536.481126650972
 32
0.0
 13
5975.037330787664
 23
5536.481126650972
 33
0.0
  0
LINE
  5
40E6
330
18
100
AcDbEntity
  8
0
 48
10.0
100
AcDbLine
 10
6695.037330787666
 20
5386.481126650973
 30
0.0
 11
6695.037330787666
 21
5716.481126650972
 31
0.0
  0
LINE
  5
40E7
330
18
100
AcDbEntity
  8
0
 48
10.0
100
AcDbLine
 10
6575.037330787665
 20
5386.481126650973
 30
0.0
 11
6575.037330787665
 21
5566.481126650972
 31
0.0
  0
LINE
  5
40E8
330
18
100
AcDbEntity
  8
WUWAGAKI
 48
10.0
100
AcDbLine
 10
6429.82417723493
 20
5232.071807203723
 30
0.0
 11
6800.45197224393
 21
5142.398792144305
 31
0.0
210
0.0
220
0.0
230
-1.0
1001
ACAD
1000
DSTYLE
1002
{
1070
    78
1070
     8
1070
   270
1070
     8
1070
   140
1040
2.5
1070
    74
1070
     0
1070
   172
1070
     1
1070
    73
1070
     0
1070
    77
1070
     1
1070
    40
1040
10.0
1070
   147
1040
0.625
1070
    42
1040
0.625
1070
    44
1040
1.25
1070
    43
1040
3.75
1070
   141
1040
2.5
1070
    41
1040
2.5
1070
   273
1070
     8
1070
   274
1070
     4
1070
   143
1040
0.0394
1070
   171
1070
     4
1002
}
  0
LINE
  5
40E9
330
18
100
AcDbEntity
  8
OBJECT
 48
10.0
100
AcDbLine
 10
6314.245784783871
 20
5049.826748403695
 30
0.0
 11
7045.45197224393
 21
5049.826748403695
 31
0.0
  0
LINE
  5
40EA
330
18
100
AcDbEntity
  8
OBJECT
100
AcDbLine
 10
6214.647234227433
 20
5173.33312778756
 30
0.0
 11
6214.647234227433
 21
5219.144284349646
 31
0.0
  0
LINE
  5
40EB
330
18
100
AcDbEntity
  8
OBJECT
100
AcDbLine
 10
6212.433935539433
 20
5173.33312778756
 30
0.0
 11
6212.433935539433
 21
5222.906892119246
 31
0.0
  0
LINE
  5
40EC
330
18
100
AcDbEntity
  8
OBJECT
100
AcDbLine
 10
6345.625562285474
 20
4996.481126650973
 30
0.0
 11
6575.037330787665
 21
4996.481126650973
 31
0.0
  0
LINE
  5
40ED
330
18
100
AcDbEntity
  8
OBJECT
100
AcDbLine
 10
6281.046267931725
 20
5065.221125380934
 30
0.0
 11
6281.046267931725
 21
5106.265927052346
 31
0.0
  0
LINE
  5
40EE
330
18
100
AcDbEntity
  8
OBJECT
100
AcDbLine
 10
6278.832969243726
 20
5065.221125380934
 30
0.0
 11
6278.832969243726
 21
5110.028534821945
 31
0.0
  0
LINE
  5
40EF
330
18
100
AcDbEntity
  8
OBJECT
100
AcDbLine
 10
6262.233210817654
 20
5065.221117898744
 30
0.0
 11
6262.233210817654
 21
5138.248124146271
 31
0.0
  0
LINE
  5
40F0
330
18
100
AcDbEntity
  8
OBJECT
100
AcDbLine
 10
6264.446509505653
 20
5065.221117898744
 30
0.0
 11
6264.446509505653
 21
5134.48551637667
 31
0.0
  0
LINE
  5
40F1
330
18
100
AcDbEntity
  8
OBJECT
100
AcDbLine
 10
6247.846751079578
 20
5065.221130939653
 30
0.0
 11
6247.846751079578
 21
5162.705105700997
 31
0.0
  0
LINE
  5
40F2
330
18
100
AcDbEntity
  8
OBJECT
100
AcDbLine
 10
6245.63345239158
 20
5065.221130939653
 30
0.0
 11
6245.63345239158
 21
5167.741126167815
 31
0.0
  0
LINE
  5
40F3
330
18
100
AcDbEntity
  8
OBJECT
100
AcDbLine
 10
6212.433935539433
 20
5065.221123457465
 30
0.0
 11
6212.433935539433
 21
5167.741118685626
 31
0.0
  0
LINE
  5
40F4
330
18
100
AcDbEntity
  8
OBJECT
100
AcDbLine
 10
6214.647234227433
 20
5065.221123457465
 30
0.0
 11
6214.647234227433
 21
5167.741118685626
 31
0.0
  0
LINE
  5
40F5
330
18
100
AcDbEntity
  8
OBJECT
100
AcDbLine
 10
6229.033693965505
 20
5065.221123457465
 30
0.0
 11
6229.033693965505
 21
5167.741118685626
 31
0.0
  0
LINE
  5
40F6
330
18
100
AcDbEntity
  8
OBJECT
100
AcDbLine
 10
6231.246992653506
 20
5065.221123457465
 30
0.0
 11
6231.246992653506
 21
5167.741118685626
 31
0.0
  0
SOLID
  5
40F7
330
18
100
AcDbEntity
  8
0
  6
ByBlock
 62
     0
 48
10.0
100
AcDbTrace
 10
6351.169332840355
 20
5055.798739635531
 30
0.0
 11
6351.10935897294
 21
5043.298883510951
 31
0.0
 12
6313.639777532904
 22
5049.728733175482
 32
0.0
 13
6313.639777532904
 23
5049.728733175482
 33
0.0
  0
LINE
  5
40F8
330
18
100
AcDbEntity
  8
OBJECT
100
AcDbLine
 10
6297.646026357798
 20
5065.221125380934
 30
0.0
 11
6297.646026357798
 21
5078.046337728022
 31
0.0
  0
LINE
  5
40F9
330
18
100
AcDbEntity
  8
OBJECT
100
AcDbLine
 10
6295.432727669799
 20
5065.221125380934
 30
0.0
 11
6295.432727669799
 21
5081.808945497621
 31
0.0
  0
LINE
  5
40FA
330
18
100
AcDbEntity
  8
OBJECT
100
AcDbLine
 10
6231.246992653506
 20
5173.33312778756
 30
0.0
 11
6231.246992653506
 21
5190.924695025319
 31
0.0
  0
LINE
  5
40FB
330
18
100
AcDbEntity
  8
OBJECT
100
AcDbLine
 10
6229.033693965505
 20
5173.33312778756
 30
0.0
 11
6229.033693965505
 21
5194.687302794919
 31
0.0
  0
LINE
  5
40FC
330
18
100
AcDbEntity
  8
点線
100
AcDbLine
 10
6575.037330787665
 20
4996.481126650973
 30
0.0
 11
6695.037330787666
 21
4996.481126650973
 31
0.0
  0
LINE
  5
40FD
330
18
100
AcDbEntity
  8
OBJECT
100
AcDbLine
 10
6204.44909169724
 20
5236.481126650972
 30
0.0
 11
6575.037330787665
 21
5236.481126650972
 31
0.0
  0
SOLID
  5
40FE
330
18
100
AcDbEntity
  8
0
  6
ByBlock
 62
     0
 48
10.0
100
AcDbTrace
 10
6449.503801195439
 20
5233.546021649232
 30
0.0
 11
6446.503021477102
 21
5221.41155334271
 31
0.0
 12
6411.600006416697
 22
5236.481126650972
 32
0.0
 13
6411.600006416697
 23
5236.481126650972
 33
0.0
  0
LINE
  5
40FF
330
18
100
AcDbEntity
  8
点線
100
AcDbLine
 10
6575.037330787665
 20
5236.481126650972
 30
0.0
 11
6695.037330787666
 21
5236.481126650972
 31
0.0
  0
MTEXT
  5
4100
330
18
100
AcDbEntity
  8
0
  6
ByBlock
 62
     0
 48
10.0
100
AcDbMText
 10
6917.95197224393
 20
5079.826748403696
 30
0.0
 40
30.0
 41
0.0
 71
     5
 72
     1
  1
グレーチング
 73
     1
 44
1.0
  0
MTEXT
  5
4101
330
18
100
AcDbEntity
  8
0
  6
ByBlock
 62
     0
 48
10.0
100
AcDbMText
 10
6852.95197224393
 20
5172.398792144305
 30
0.0
 40
30.0
 41
0.0
 71
     5
 72
     1
  1
受枠
 73
     1
 44
1.0
  0
LINE
  5
4102
330
18
100
AcDbEntity
  8
OBJECT
 48
10.0
100
AcDbLine
 10
6800.45197224393
 20
5142.398792144305
 30
0.0
 11
6905.45197224393
 21
5142.398792144305
 31
0.0
  0
MTEXT
  5
4103
330
18
100
AcDbEntity
  8
0
  6
ByBlock
 62
     0
 48
10.0
100
AcDbMText
 10
6275.037330787666
 20
5716.481126650973
 30
0.0
 40
37.5
 41
0.0
 71
     5
 72
     1
  1
840
 73
     1
 44
1.0
  0
MTEXT
  5
4104
330
18
100
AcDbEntity
  8
0
  6
ByBlock
 62
     0
 48
10.0
100
AcDbMText
 10
6275.037330787666
 20
5566.481126650973
 30
0.0
 40
37.5
 41
0.0
 71
     5
 72
     1
  1
600
 73
     1
 44
1.0
  0
MTEXT
  5
4105
330
18
100
AcDbEntity
  8
0
  6
ByBlock
 62
     0
 48
10.0
100
AcDbMText
 10
6635.037330787667
 20
5566.481117887552
 30
0.0
 40
37.5
 41
0.0
 71
     5
 72
     1
  1
120
 73
     1
 44
1.0
  0
SOLID
  5
4106
330
18
100
AcDbEntity
  8
0
  6
ByBlock
 62
     0
 48
10.0
100
AcDbTrace
 10
6612.53733078767
 20
5530.231126650971
 30
0.0
 11
6612.53733078767
 21
5542.73112665097
 31
0.0
 12
6575.03733078767
 22
5536.481126650972
 32
0.0
 13
6575.03733078767
 23
5536.481126650972
 33
0.0
  0
SOLID
  5
4107
330
18
100
AcDbEntity
  8
0
  6
ByBlock
 62
     0
 48
10.0
100
AcDbTrace
 10
6537.537395227364
 20
5530.231126650971
 30
0.0
 11
6537.537395227364
 21
5542.73112665097
 31
0.0
 12
6575.037395227363
 22
5536.481126650972
 32
0.0
 13
6575.037395227363
 23
5536.481126650972
 33
0.0
  0
SOLID
  5
4108
330
18
100
AcDbEntity
  8
0
  6
ByBlock
 62
     0
 48
10.0
100
AcDbTrace
 10
6657.537318928515
 20
5530.231115911025
 30
0.0
 11
6657.537318928515
 21
5542.731115911026
 31
0.0
 12
6695.037318928514
 22
5536.481115911026
 32
0.0
 13
6695.037318928514
 23
5536.481115911026
 33
0.0
  0
SOLID
  5
4109
330
18
100
AcDbEntity
  8
0
  6
ByBlock
 62
     0
 48
10.0
100
AcDbTrace
 10
6657.537330787644
 20
5680.231126650974
 30
0.0
 11
6657.537330787644
 21
5692.731126650976
 31
0.0
 12
6695.037330787645
 22
5686.481126650976
 32
0.0
 13
6695.037330787645
 23
5686.481126650976
 33
0.0
  0
LINE
  5
410A
330
18
100
AcDbEntity
  8
WUWAGAKI
100
AcDbLine
 10
9199.182435831231
 20
3235.896724916522
 30
0.0
 11
9199.182435831231
 21
6162.046576712646
 31
0.0
  0
LINE
  5
410D
330
18
100
AcDbEntity
  8
WUWAGAKI
100
AcDbLine
 10
8039.882847922852
 20
3724.376691987894
 30
0.0
 11
9132.679423023274
 21
3724.376691987894
 31
0.0
  0
TEXT
  5
410E
330
18
100
AcDbEntity
  8
WUWAGAKI
100
AcDbText
 10
8278.588280822324
 20
3336.003826164711
 30
0.0
 40
60.0
  1
㈱　ウ　チ　コ　ン
100
AcDbText
  0
TEXT
  5
410F
330
18
100
AcDbEntity
  8
WUWAGAKI
100
AcDbText
 10
8326.33572285419
 20
3459.797413661267
 30
0.0
 40
45.0
  1
S＝　1：15
100
AcDbText
  0
TEXT
  5
4110
330
18
100
AcDbEntity
  8
WUWAGAKI
100
AcDbText
 10
8306.335722854191
 20
3558.363780629827
 30
0.0
 40
38.2725
  1
240×U500×840×120/120×H900
100
AcDbText
  0
LINE
  5
4111
330
18
100
AcDbEntity
  8
WUWAGAKI
100
AcDbLine
 10
8039.882847922852
 20
3435.424954913536
 30
0.0
 11
9132.679423023272
 21
3435.424954913536
 31
0.0
  0
LINE
  5
4112
330
18
100
AcDbEntity
  8
WUWAGAKI
100
AcDbLine
 10
8039.882847922852
 20
3533.940019078142
 30
0.0
 11
9132.679423023272
 21
3533.940019078142
 31
0.0
  0
LINE
  5
4113
330
18
100
AcDbEntity
  8
WUWAGAKI
100
AcDbLine
 10
8039.882847922852
 20
3304.396259358325
 30
0.0
 11
9132.679423023274
 21
3304.396259358325
 31
0.0
  0
LINE
  5
4114
330
18
100
AcDbEntity
  8
WUWAGAKI
100
AcDbLine
 10
8039.882847922852
 20
3629.846404042757
 30
0.0
 11
9130.047600687509
 21
3629.846404042757
 31
0.0
  0
LINE
  5
4115
330
18
100
AcDbEntity
  8
WUWAGAKI
100
AcDbLine
 10
8039.882847922852
 20
3629.846404042757
 30
0.0
 11
9130.047600687509
 21
3629.846404042757
 31
0.0
  0
TEXT
  5
4116
330
18
100
AcDbEntity
  8
WUWAGAKI
100
AcDbText
 10
8306.335722854191
 20
3653.553131064213
 30
0.0
 40
45.0
  1
集水桝
100
AcDbText
  0
TEXT
  5
4117
330
18
100
AcDbEntity
  8
WUWAGAKI
100
AcDbText
 10
8112.409049446211
 20
3458.49549823181
 30
0.0
 40
45.0
  1
縮尺
100
AcDbText
  0
LINE
  5
4118
330
18
100
AcDbEntity
  8
WUWAGAKI
100
AcDbLine
 10
8291.999319491358
 20
3724.376691987894
 30
0.0
 11
8291.999319491358
 21
3435.424954913536
 31
0.0
  0
LINE
  5
4119
330
18
100
AcDbEntity
  8
WUWAGAKI
100
AcDbLine
 10
8039.882847922852
 20
3724.376691987894
 30
0.0
 11
8039.882847922852
 21
3304.396259358325
 31
0.0
  0
TEXT
  5
411A
330
18
100
AcDbEntity
  8
WUWAGAKI
100
AcDbText
 10
8084.761291685131
 20
3554.993451223291
 30
0.0
 40
45.0
  1
寸　法
100
AcDbText
  0
TEXT
  5
411B
330
18
100
AcDbEntity
  8
WUWAGAKI
100
AcDbText
 10
8087.416503571551
 20
3656.132291260272
 30
0.0
 40
45.0
  1
種　別
100
AcDbText
  0
LINE
  5
411C
330
18
100
AcDbEntity
  8
WUWAGAKI
100
AcDbLine
 10
8870.397232437587
 20
3533.940019078142
 30
0.0
 11
8870.397232437587
 21
3435.424954913536
 31
0.0
  0
LINE
  5
411D
330
18
100
AcDbEntity
  8
WUWAGAKI
100
AcDbLine
 10
8686.168805675269
 20
3533.940019078142
 30
0.0
 11
8686.168805675269
 21
3435.424954913536
 31
0.0
  0
TEXT
  5
411E
330
18
100
AcDbEntity
  8
WUWAGAKI
100
AcDbText
 10
8713.096581427413
 20
3459.846851172808
 30
0.0
 40
45.0
  1
重量
100
AcDbText
  0
LINE
  5
411F
330
18
100
AcDbEntity
  8
WUWAGAKI
100
AcDbLine
 10
9132.679423023274
 20
3304.396259358325
 30
0.0
 11
9132.679423023274
 21
3724.376691987894
 31
0.0
  0
LINE
  5
4122
330
18
100
AcDbEntity
  8
0
 48
10.0
100
AcDbLine
 10
7350.037356610181
 20
4316.481116555781
 30
0.0
 11
7350.037356610181
 21
4436.481116555781
 31
0.0
  0
SOLID
  5
4123
330
18
100
AcDbEntity
  8
0
  6
ByBlock
 62
     0
 48
10.0
100
AcDbTrace
 10
7312.537461771227
 20
4400.231126650975
 30
0.0
 11
7312.537461771227
 21
4412.731126650974
 31
0.0
 12
7350.037461771226
 22
4406.481126650978
 32
0.0
 13
7350.037461771226
 23
4406.481126650978
 33
0.0
  0
LINE
  5
4124
330
18
100
AcDbEntity
  8
0
 48
10.0
100
AcDbLine
 10
7355.037356610181
 20
4606.481116555781
 30
0.0
 11
7355.037356610181
 21
4786.481116555781
 31
0.0
  0
LINE
  5
4125
330
18
100
AcDbEntity
  8
0
 48
10.0
100
AcDbLine
 10
7405.037356610181
 20
4606.481126650971
 30
0.0
 11
7405.037356610181
 21
4786.481126650972
 31
0.0
  0
LINE
  5
4126
330
18
100
AcDbEntity
  8
0
 48
10.0
100
AcDbLine
 10
7475.037356610181
 20
4606.481126650975
 30
0.0
 11
7475.037356610181
 21
4936.481126650976
 31
0.0
  0
LINE
  5
4128
330
18
100
AcDbEntity
  8
OBJECT
 48
10.0
100
AcDbLine
 10
7475.03735661016
 20
4756.481117887554
 30
0.0
 11
7587.53735661016
 21
4756.481117887554
 31
0.0
  0
MTEXT
  5
4129
330
18
100
AcDbEntity
  8
0
  6
ByBlock
 62
     0
 48
10.0
100
AcDbMText
 10
7380.037356610181
 20
4816.481117887556
 30
0.0
 40
37.5
 41
0.0
 71
     5
 72
     1
  1
50
 73
     1
 44
1.0
  0
LWPOLYLINE
  5
412A
330
18
100
AcDbEntity
  8
上線
 48
10.0
100
AcDbPolyline
 90
        2
 70
     1
 43
5.0
 10
7402.537356610181
 20
4756.459180279748
 42
1.0
 10
7407.537356610181
 20
4756.459180279748
 42
1.0
  0
SOLID
  5
412B
330
18
100
AcDbEntity
  8
0
  6
ByBlock
 62
     0
 48
10.0
100
AcDbTrace
 10
7317.537461771228
 20
4750.231126650976
 30
0.0
 11
7317.537461771228
 21
4762.731126650974
 31
0.0
 12
7355.037461771228
 22
4756.481126650977
 32
0.0
 13
7355.037461771228
 23
4756.481126650977
 33
0.0
  0
SOLID
  5
412C
330
18
100
AcDbEntity
  8
0
  6
ByBlock
 62
     0
 48
10.0
100
AcDbTrace
 10
7512.537368469314
 20
4762.731117887552
 30
0.0
 11
7512.537368469314
 21
4750.23111788755
 31
0.0
 12
7475.037368469314
 22
4756.481117887551
 32
0.0
 13
7475.037368469314
 23
4756.481117887551
 33
0.0
  0
MTEXT
  5
412D
330
18
100
AcDbEntity
  8
0
  6
ByBlock
 62
     0
 48
10.0
100
AcDbMText
 10
7440.037356610182
 20
4786.481117887556
 30
0.0
 40
37.5
 41
0.0
 71
     5
 72
     1
  1
70
 73
     1
 44
1.0
  0
SOLID
  5
412E
330
18
100
AcDbEntity
  8
0
  6
ByBlock
 62
     0
 48
10.0
100
AcDbTrace
 10
7437.537356610161
 20
4900.231126650976
 30
0.0
 11
7437.537356610161
 21
4912.731126650976
 31
0.0
 12
7475.037356610162
 22
4906.481126650978
 32
0.0
 13
7475.037356610162
 23
4906.481126650978
 33
0.0
  0
TEXT
  5
414C
330
18
100
AcDbEntity
  8
WUWAGAKI
100
AcDbText
 10
8904.733635800416
 20
3459.797413661267
 30
0.0
 40
45.0
  1
526kg
100
AcDbText
  0
VIEWPORT
  5
298
330
15
100
AcDbEntity
 67
     1
  8
0
100
AcDbViewport
 10
291.7632241813602
 20
148.5
 30
0.0
 40
583.5264483627204
 41
297.0
 68
     1
 69
     1
 12
291.7632241813602
 22
148.5
 13
0.0
 23
0.0
 14
10.0
 24
10.0
 15
10.0
 25
10.0
 16
0.0
 26
0.0
 36
1.0
 17
0.0
 27
0.0
 37
0.0
 42
50.0
 43
0.0
 44
0.0
 45
297.0
 50
0.0
 51
0.0
 72
   100
 90
    32800
  1

281
     0
 71
     1
 74
     0
110
0.0
120
0.0
130
0.0
111
1.0
121
0.0
131
0.0
112
0.0
122
1.0
132
0.0
 79
     0
146
0.0
  0
ENDSEC
  0
SECTION
  2
OBJECTS
  0
DICTIONARY
  5
C
330
0
100
AcDbDictionary
281
     1
  3
ACAD_GROUP
350
D
  3
ACAD_LAYOUT
350
15FE
  3
ACAD_MLINESTYLE
350
1B
  3
ACAD_PLOTSETTINGS
350
15FF
  3
ACAD_PLOTSTYLENAME
350
15FC
  3
ACDBVARIABLEDICTIONARY
350
B2A
  3
DRAWINGVARIABLESDICT
350
1212
  0
DICTIONARY
  5
D
102
{ACAD_REACTORS
330
C
102
}
330
C
100
AcDbDictionary
281
     1
  3
*A1
350
1DE1
  3
*A2
350
2483
  3
*A3
350
2486
  3
*A4
350
2971
  3
*A5
350
3003
  3
*A6
350
34F4
  0
DICTIONARY
  5
15FE
102
{ACAD_REACTORS
330
C
102
}
330
C
100
AcDbDictionary
281
     1
  3
Model
350
1600
  3
ﾚｲｱｳﾄ1
350
1601
  0
DICTIONARY
  5
1B
102
{ACAD_REACTORS
330
C
102
}
330
C
100
AcDbDictionary
281
     1
  3
STANDARD
350
1C
  0
DICTIONARY
  5
15FF
102
{ACAD_REACTORS
330
C
102
}
330
C
100
AcDbDictionary
281
     1
  0
ACDBDICTIONARYWDFLT
  5
15FC
102
{ACAD_REACTORS
330
C
102
}
330
C
100
AcDbDictionary
281
     1
  3
Normal
350
15FD
100
AcDbDictionaryWithDefault
340
15FD
  0
DICTIONARY
  5
B2A
102
{ACAD_REACTORS
330
C
102
}
330
C
100
AcDbDictionary
281
     1
  3
SORTENTS
350
B2B
  0
DICTIONARY
  5
1212
102
{ACAD_REACTORS
330
C
102
}
330
C
100
AcDbDictionary
281
     1
1001
DRAWINGVARIABLESXDATA
1000
POLARANG
1000
0.785398
1000
POLARMODE
1000
0
  0
GROUP
  5
1DE1
102
{ACAD_REACTORS
330
D
102
}
330
D
100
AcDbGroup
300

 70
     1
 71
     1
  0
GROUP
  5
2483
102
{ACAD_REACTORS
330
D
102
}
330
D
100
AcDbGroup
300

 70
     1
 71
     1
  0
GROUP
  5
2486
102
{ACAD_REACTORS
330
D
102
}
330
D
100
AcDbGroup
300

 70
     1
 71
     1
  0
GROUP
  5
2971
102
{ACAD_REACTORS
330
D
102
}
330
D
100
AcDbGroup
300

 70
     1
 71
     1
  0
GROUP
  5
3003
102
{ACAD_REACTORS
330
D
102
}
330
D
100
AcDbGroup
300

 70
     1
 71
     1
  0
GROUP
  5
34F4
102
{ACAD_REACTORS
330
D
102
}
330
D
100
AcDbGroup
300

 70
     1
 71
     1
  0
LAYOUT
  5
1600
102
{ACAD_REACTORS
330
15FE
102
}
330
15FE
100
AcDbPlotSettings
  1

  2
Canon LBP3800 LIPSLX
  4
A4
  6

 40
5.873749732971191
 41
5.873747825622558
 42
5.873748779296875
 43
5.873748779296875
 44
209.9733276367187
 45
296.9259948730469
 46
0.0
 47
0.0
 48
0.0
 49
0.0
140
0.0
141
0.0
142
1.0
143
1.0
 70
 11952
 72
     1
 73
     1
 74
     0
  7

 75
     0
147
1.0
148
-1119.838883806218
149
-2764.341960111367
100
AcDbLayout
  1
Model
 70
     1
 71
     0
 10
0.0
 20
0.0
 11
12.0
 21
9.0
 12
0.0
 22
0.0
 32
0.0
 14
0.0
 24
0.0
 34
0.0
 15
0.0
 25
0.0
 35
0.0
146
0.0
 13
0.0
 23
0.0
 33
0.0
 16
1.0
 26
0.0
 36
0.0
 17
0.0
 27
1.0
 37
0.0
 76
     0
330
18
  0
LAYOUT
  5
1601
102
{ACAD_REACTORS
330
15FE
102
}
330
15FE
100
AcDbPlotSettings
  1

  2
Canon LBP3800 LIPSLX
  4

  6

 40
0.0
 41
0.0
 42
0.0
 43
0.0
 44
0.0
 45
0.0
 46
0.0
 47
0.0
 48
0.0
 49
0.0
140
0.0
141
0.0
142
1.0
143
1.0
 70
   688
 72
     0
 73
     0
 74
     5
  7

 75
    16
147
1.0
148
0.0
149
0.0
100
AcDbLayout
  1
ﾚｲｱｳﾄ1
 70
     1
 71
     1
 10
0.0
 20
0.0
 11
420.0
 21
297.0
 12
0.0
 22
0.0
 32
0.0
 14
1.000000000000000E+20
 24
1.000000000000000E+20
 34
1.000000000000000E+20
 15
-1.000000000000000E+20
 25
-1.000000000000000E+20
 35
-1.000000000000000E+20
146
0.0
 13
0.0
 23
0.0
 33
0.0
 16
1.0
 26
0.0
 36
0.0
 17
0.0
 27
1.0
 37
0.0
 76
     0
330
15
331
298
  0
MLINESTYLE
  5
1C
102
{ACAD_REACTORS
330
1B
102
}
330
1B
100
AcDbMlineStyle
  2
STANDARD
 70
     0
  3

 62
   256
 51
90.0
 52
90.0
 71
     2
 49
0.5
 62
   256
  6
BYLAYER
 49
-0.5
 62
   256
  6
BYLAYER
  0
ACDBPLACEHOLDER
  5
15FD
102
{ACAD_REACTORS
330
15FC
102
}
330
15FC
  0
DICTIONARYVAR
  5
B2B
102
{ACAD_REACTORS
330
B2A
102
}
330
B2A
100
DictionaryVariables
280
     0
  1
96
  0
ENDSEC
  0
EOF
