  0
SECTION
  2
HEADER
  9
$ACADVER
  1
AC1015
  9
$ACADMAINTVER
 70
     6
  9
$DWGCODEPAGE
  3
ANSI_932
  9
$INSBASE
 10
0.0
 20
0.0
 30
0.0
  9
$EXTMIN
 10
710.0813698183028
 20
984.8549298695507
 30
0.0
  9
$EXTMAX
 10
8790.909160992658
 20
6359.404192224481
 30
0.0
  9
$LIMMIN
 10
0.0
 20
0.0
  9
$LIMMAX
 10
4455.0
 20
3150.0
  9
$ORTHOMODE
 70
     0
  9
$REGENMODE
 70
     1
  9
$FILLMODE
 70
     1
  9
$QTEXTMODE
 70
     0
  9
$MIRRTEXT
 70
     1
  9
$LTSCALE
 40
5.0
  9
$ATTMODE
 70
     1
  9
$TEXTSIZE
 40
2.5
  9
$TRACEWID
 40
1.0
  9
$TEXTSTYLE
  7
STANDARD
  9
$CLAYER
  8
OBJECT
  9
$CELTYPE
  6
BYLAYER
  9
$CECOLOR
 62
   256
  9
$CELTSCALE
 40
1.0
  9
$DISPSILH
 70
     0
  9
$DIMSCALE
 40
15.0
  9
$DIMASZ
 40
2.5
  9
$DIMEXO
 40
0.625
  9
$DIMDLI
 40
3.75
  9
$DIMRND
 40
0.0
  9
$DIMDLE
 40
0.0
  9
$DIMEXE
 40
1.25
  9
$DIMTP
 40
0.0
  9
$DIMTM
 40
0.0
  9
$DIMTXT
 40
2.5
  9
$DIMCEN
 40
2.5
  9
$DIMTSZ
 40
0.0
  9
$DIMTOL
 70
     0
  9
$DIMLIM
 70
     0
  9
$DIMTIH
 70
     0
  9
$DIMTOH
 70
     0
  9
$DIMSE1
 70
     0
  9
$DIMSE2
 70
     0
  9
$DIMTAD
 70
     1
  9
$DIMZIN
 70
     8
  9
$DIMBLK
  1

  9
$DIMASO
 70
     1
  9
$DIMSHO
 70
     1
  9
$DIMPOST
  1

  9
$DIMAPOST
  1

  9
$DIMALT
 70
     0
  9
$DIMALTD
 70
     4
  9
$DIMALTF
 40
0.0394
  9
$DIMLFAC
 40
1.0
  9
$DIMTOFL
 70
     1
  9
$DIMTVP
 40
0.0
  9
$DIMTIX
 70
     0
  9
$DIMSOXD
 70
     0
  9
$DIMSAH
 70
     0
  9
$DIMBLK1
  1

  9
$DIMBLK2
  1

  9
$DIMSTYLE
  2
STANDARD
  9
$DIMCLRD
 70
     0
  9
$DIMCLRE
 70
     0
  9
$DIMCLRT
 70
     0
  9
$DIMTFAC
 40
1.0
  9
$DIMGAP
 40
0.625
  9
$DIMJUST
 70
     0
  9
$DIMSD1
 70
     0
  9
$DIMSD2
 70
     0
  9
$DIMTOLJ
 70
     1
  9
$DIMTZIN
 70
     0
  9
$DIMALTZ
 70
     0
  9
$DIMALTTZ
 70
     0
  9
$DIMUPT
 70
     0
  9
$DIMDEC
 70
     4
  9
$DIMTDEC
 70
     4
  9
$DIMALTU
 70
     8
  9
$DIMALTTD
 70
     4
  9
$DIMTXSTY
  7
STANDARD
  9
$DIMAUNIT
 70
     0
  9
$DIMADEC
 70
     0
  9
$DIMALTRND
 40
0.0
  9
$DIMAZIN
 70
     0
  9
$DIMDSEP
 70
    46
  9
$DIMATFIT
 70
     3
  9
$DIMFRAC
 70
     0
  9
$DIMLDRBLK
  1

  9
$DIMLUNIT
 70
     6
  9
$DIMLWD
 70
    -2
  9
$DIMLWE
 70
    -2
  9
$DIMTMOVE
 70
     0
  9
$LUNITS
 70
     2
  9
$LUPREC
 70
     4
  9
$SKETCHINC
 40
1.0
  9
$FILLETRAD
 40
10.0
  9
$AUNITS
 70
     0
  9
$AUPREC
 70
     0
  9
$MENU
  1
acad
  9
$ELEVATION
 40
0.0
  9
$PELEVATION
 40
0.0
  9
$THICKNESS
 40
0.0
  9
$LIMCHECK
 70
     0
  9
$CHAMFERA
 40
10.0
  9
$CHAMFERB
 40
10.0
  9
$CHAMFERC
 40
20.0
  9
$CHAMFERD
 40
0.0
  9
$SKPOLY
 70
     0
  9
$TDCREATE
 40
2452111.335768865
  9
$TDUCREATE
 40
2452110.960768866
  9
$TDUPDATE
 40
2454547.712449282
  9
$TDUUPDATE
 40
2454547.337449282
  9
$TDINDWG
 40
1.2792513773
  9
$TDUSRTIMER
 40
1.2792513773
  9
$USRTIMER
 70
     1
  9
$ANGBASE
 50
0.0
  9
$ANGDIR
 70
     0
  9
$PDMODE
 70
     0
  9
$PDSIZE
 40
0.0
  9
$PLINEWID
 40
0.0
  9
$SPLFRAME
 70
     0
  9
$SPLINETYPE
 70
     6
  9
$SPLINESEGS
 70
     8
  9
$HANDSEED
  5
43D5
  9
$SURFTAB1
 70
     6
  9
$SURFTAB2
 70
     6
  9
$SURFTYPE
 70
     6
  9
$SURFU
 70
     6
  9
$SURFV
 70
     6
  9
$UCSBASE
  2

  9
$UCSNAME
  2

  9
$UCSORG
 10
0.0
 20
0.0
 30
0.0
  9
$UCSXDIR
 10
1.0
 20
0.0
 30
0.0
  9
$UCSYDIR
 10
0.0
 20
1.0
 30
0.0
  9
$UCSORTHOREF
  2

  9
$UCSORTHOVIEW
 70
     0
  9
$UCSORGTOP
 10
0.0
 20
0.0
 30
0.0
  9
$UCSORGBOTTOM
 10
0.0
 20
0.0
 30
0.0
  9
$UCSORGLEFT
 10
0.0
 20
0.0
 30
0.0
  9
$UCSORGRIGHT
 10
0.0
 20
0.0
 30
0.0
  9
$UCSORGFRONT
 10
0.0
 20
0.0
 30
0.0
  9
$UCSORGBACK
 10
0.0
 20
0.0
 30
0.0
  9
$PUCSBASE
  2

  9
$PUCSNAME
  2

  9
$PUCSORG
 10
0.0
 20
0.0
 30
0.0
  9
$PUCSXDIR
 10
1.0
 20
0.0
 30
0.0
  9
$PUCSYDIR
 10
0.0
 20
1.0
 30
0.0
  9
$PUCSORTHOREF
  2

  9
$PUCSORTHOVIEW
 70
     0
  9
$PUCSORGTOP
 10
0.0
 20
0.0
 30
0.0
  9
$PUCSORGBOTTOM
 10
0.0
 20
0.0
 30
0.0
  9
$PUCSORGLEFT
 10
0.0
 20
0.0
 30
0.0
  9
$PUCSORGRIGHT
 10
0.0
 20
0.0
 30
0.0
  9
$PUCSORGFRONT
 10
0.0
 20
0.0
 30
0.0
  9
$PUCSORGBACK
 10
0.0
 20
0.0
 30
0.0
  9
$USERI1
 70
     0
  9
$USERI2
 70
     0
  9
$USERI3
 70
     0
  9
$USERI4
 70
     0
  9
$USERI5
 70
     0
  9
$USERR1
 40
0.0
  9
$USERR2
 40
0.0
  9
$USERR3
 40
0.0
  9
$USERR4
 40
0.0
  9
$USERR5
 40
0.0
  9
$WORLDVIEW
 70
     1
  9
$SHADEDGE
 70
     3
  9
$SHADEDIF
 70
    70
  9
$TILEMODE
 70
     1
  9
$MAXACTVP
 70
    48
  9
$PINSBASE
 10
0.0
 20
0.0
 30
0.0
  9
$PLIMCHECK
 70
     0
  9
$PEXTMIN
 10
1.000000000000000E+20
 20
1.000000000000000E+20
 30
1.000000000000000E+20
  9
$PEXTMAX
 10
-1.000000000000000E+20
 20
-1.000000000000000E+20
 30
-1.000000000000000E+20
  9
$PLIMMIN
 10
0.0
 20
0.0
  9
$PLIMMAX
 10
420.0
 20
297.0
  9
$UNITMODE
 70
     0
  9
$VISRETAIN
 70
     1
  9
$PLINEGEN
 70
     0
  9
$PSLTSCALE
 70
     1
  9
$TREEDEPTH
 70
  3020
  9
$CMLSTYLE
  2
STANDARD
  9
$CMLJUST
 70
     0
  9
$CMLSCALE
 40
20.0
  9
$PROXYGRAPHICS
 70
     1
  9
$MEASUREMENT
 70
     1
  9
$CELWEIGHT
370
    -1
  9
$ENDCAPS
280
     0
  9
$JOINSTYLE
280
     0
  9
$LWDISPLAY
290
     0
  9
$INSUNITS
 70
     0
  9
$HYPERLINKBASE
  1

  9
$STYLESHEET
  1

  9
$XEDIT
290
     1
  9
$CEPSNTYPE
380
     0
  9
$PSTYLEMODE
290
     1
  9
$FINGERPRINTGUID
  2
{C9668057-E409-4CFD-A4F9-6C0551275C13}
  9
$VERSIONGUID
  2
{F183FD1A-84CD-4531-8DC3-3C643CFF5A75}
  9
$EXTNAMES
290
     1
  9
$PSVPSCALE
 40
0.0
  9
$OLESTARTUP
290
     0
  0
ENDSEC
  0
SECTION
  2
CLASSES
  0
CLASS
  1
LWPOLYLINE
  2
AcDbPolyline
  3
AutoCAD 2000
 90
    32768
280
     0
281
     1
  0
CLASS
  1
DICTIONARYVAR
  2
AcDbDictionaryVar
  3
AutoCAD 2000
 90
        0
280
     0
281
     0
  0
CLASS
  1
HATCH
  2
AcDbHatch
  3
AutoCAD 2000
 90
    32768
280
     0
281
     1
  0
CLASS
  1
ACDBDICTIONARYWDFLT
  2
AcDbDictionaryWithDefault
  3
AutoCAD 2000
 90
        0
280
     0
281
     0
  0
CLASS
  1
ACDBPLACEHOLDER
  2
AcDbPlaceHolder
  3
AutoCAD 2000
 90
        0
280
     0
281
     0
  0
CLASS
  1
LAYOUT
  2
AcDbLayout
  3
AutoCAD 2000
 90
        0
280
     0
281
     0
  0
ENDSEC
  0
SECTION
  2
TABLES
  0
TABLE
  2
VPORT
  5
8
330
0
100
AcDbSymbolTable
 70
     3
  0
VPORT
  5
43D4
330
8
100
AcDbSymbolTableRecord
100
AcDbViewportTableRecord
  2
*Active
 70
     0
 10
0.0
 20
0.0
 11
1.0
 21
1.0
 12
6794.608644400153
 22
4930.135213888043
 13
0.0
 23
0.0
 14
10.0
 24
10.0
 15
10.0
 25
10.0
 16
0.0
 26
0.0
 36
1.0
 17
0.0
 27
0.0
 37
0.0
 40
3243.489930919892
 41
1.731203007518796
 42
50.0
 43
0.0
 44
0.0
 50
0.0
 51
0.0
 71
     0
 72
   100
 73
     1
 74
     1
 75
     0
 76
     0
 77
     0
 78
     0
281
     0
 65
     1
110
0.0
120
0.0
130
0.0
111
1.0
121
0.0
131
0.0
112
0.0
122
1.0
132
0.0
 79
     0
146
0.0
  0
ENDTAB
  0
TABLE
  2
LTYPE
  5
5
330
0
100
AcDbSymbolTable
 70
    46
  0
LTYPE
  5
12
330
5
100
AcDbSymbolTableRecord
100
AcDbLinetypeTableRecord
  2
BYBLOCK
 70
     0
  3

 72
    65
 73
     0
 40
0.0
  0
LTYPE
  5
13
330
5
100
AcDbSymbolTableRecord
100
AcDbLinetypeTableRecord
  2
BYLAYER
 70
     0
  3

 72
    65
 73
     0
 40
0.0
  0
LTYPE
  5
14
330
5
100
AcDbSymbolTableRecord
100
AcDbLinetypeTableRecord
  2
CONTINUOUS
 70
     0
  3
Solid line
 72
    65
 73
     0
 40
0.0
  0
LTYPE
  5
128
330
5
100
AcDbSymbolTableRecord
100
AcDbLinetypeTableRecord
  2
ACAD_ISO02W100
 70
     0
  3
ISO dash __ __ __ __ __ __ __ __ __ __ __ __ __
 72
    65
 73
     2
 40
15.0
 49
12.0
 74
     0
 49
-3.0
 74
     0
  0
LTYPE
  5
129
330
5
100
AcDbSymbolTableRecord
100
AcDbLinetypeTableRecord
  2
ACAD_ISO03W100
 70
     0
  3
ISO dash space __    __    __    __    __    __
 72
    65
 73
     2
 40
30.0
 49
12.0
 74
     0
 49
-18.0
 74
     0
  0
LTYPE
  5
12A
330
5
100
AcDbSymbolTableRecord
100
AcDbLinetypeTableRecord
  2
ACAD_ISO04W100
 70
     0
  3
ISO long-dash dot ____ . ____ . ____ . ____ . _
 72
    65
 73
     4
 40
30.5
 49
24.0
 74
     0
 49
-3.0
 74
     0
 49
0.5
 74
     0
 49
-3.0
 74
     0
  0
LTYPE
  5
12B
330
5
100
AcDbSymbolTableRecord
100
AcDbLinetypeTableRecord
  2
ACAD_ISO05W100
 70
     0
  3
ISO long-dash double-dot ____ .. ____ .. ____ .
 72
    65
 73
     8
 40
37.5
 49
24.0
 74
     0
 49
-3.0
 74
     0
 49
0.5
 74
     0
 49
-3.0
 74
     0
 49
0.5
 74
     0
 49
-3.0
 74
     0
 49
0.5
 74
     0
 49
-3.0
 74
     0
  0
LTYPE
  5
12C
330
5
100
AcDbSymbolTableRecord
100
AcDbLinetypeTableRecord
  2
ACAD_ISO06W100
 70
     0
  3
ISO long-dash triple-dot ____ ... ____ ... ____
 72
    65
 73
     8
 40
37.5
 49
24.0
 74
     0
 49
-3.0
 74
     0
 49
0.5
 74
     0
 49
-3.0
 74
     0
 49
0.5
 74
     0
 49
-3.0
 74
     0
 49
0.5
 74
     0
 49
-3.0
 74
     0
  0
LTYPE
  5
12D
330
5
100
AcDbSymbolTableRecord
100
AcDbLinetypeTableRecord
  2
ACAD_ISO07W100
 70
     0
  3
ISO dot . . . . . . . . . . . . . . . . . . . .
 72
    65
 73
     2
 40
3.5
 49
0.5
 74
     0
 49
-3.0
 74
     0
  0
LTYPE
  5
12E
330
5
100
AcDbSymbolTableRecord
100
AcDbLinetypeTableRecord
  2
ACAD_ISO08W100
 70
     0
  3
ISO long-dash short-dash ____ __ ____ __ ____ _
 72
    65
 73
     4
 40
36.0
 49
24.0
 74
     0
 49
-3.0
 74
     0
 49
6.0
 74
     0
 49
-3.0
 74
     0
  0
LTYPE
  5
12F
330
5
100
AcDbSymbolTableRecord
100
AcDbLinetypeTableRecord
  2
ACAD_ISO09W100
 70
     0
  3
ISO long-dash double-short-dash ____ __ __ ____
 72
    65
 73
     6
 40
45.0
 49
24.0
 74
     0
 49
-3.0
 74
     0
 49
6.0
 74
     0
 49
-3.0
 74
     0
 49
6.0
 74
     0
 49
-3.0
 74
     0
  0
LTYPE
  5
130
330
5
100
AcDbSymbolTableRecord
100
AcDbLinetypeTableRecord
  2
ACAD_ISO10W100
 70
     0
  3
ISO dash dot __ . __ . __ . __ . __ . __ . __ .
 72
    65
 73
     4
 40
18.5
 49
12.0
 74
     0
 49
-3.0
 74
     0
 49
0.5
 74
     0
 49
-3.0
 74
     0
  0
LTYPE
  5
131
330
5
100
AcDbSymbolTableRecord
100
AcDbLinetypeTableRecord
  2
ACAD_ISO11W100
 70
     0
  3
ISO double-dash dot __ __ . __ __ . __ __ . __ 
 72
    65
 73
     6
 40
33.5
 49
12.0
 74
     0
 49
-3.0
 74
     0
 49
12.0
 74
     0
 49
-3.0
 74
     0
 49
0.5
 74
     0
 49
-3.0
 74
     0
  0
LTYPE
  5
132
330
5
100
AcDbSymbolTableRecord
100
AcDbLinetypeTableRecord
  2
ACAD_ISO12W100
 70
     0
  3
ISO dash double-dot __ . . __ . . __ . . __ . .
 72
    65
 73
     6
 40
22.0
 49
12.0
 74
     0
 49
-3.0
 74
     0
 49
0.5
 74
     0
 49
-3.0
 74
     0
 49
0.5
 74
     0
 49
-3.0
 74
     0
  0
LTYPE
  5
133
330
5
100
AcDbSymbolTableRecord
100
AcDbLinetypeTableRecord
  2
ACAD_ISO13W100
 70
     0
  3
ISO double-dash double-dot __ __ . . __ __ . . 
 72
    65
 73
     8
 40
37.0
 49
12.0
 74
     0
 49
-3.0
 74
     0
 49
12.0
 74
     0
 49
-3.0
 74
     0
 49
0.5
 74
     0
 49
-3.0
 74
     0
 49
0.5
 74
     0
 49
-3.0
 74
     0
  0
LTYPE
  5
134
330
5
100
AcDbSymbolTableRecord
100
AcDbLinetypeTableRecord
  2
ACAD_ISO14W100
 70
     0
  3
ISO dash triple-dot __ . . . __ . . . __ . . . 
 72
    65
 73
     8
 40
25.5
 49
12.0
 74
     0
 49
-3.0
 74
     0
 49
0.5
 74
     0
 49
-3.0
 74
     0
 49
0.5
 74
     0
 49
-3.0
 74
     0
 49
0.5
 74
     0
 49
-3.0
 74
     0
  0
LTYPE
  5
135
330
5
100
AcDbSymbolTableRecord
100
AcDbLinetypeTableRecord
  2
ACAD_ISO15W100
 70
     0
  3
ISO double-dash triple-dot __ __ . . . __ __ . 
 72
    65
 73
    10
 40
40.49999999999999
 49
12.0
 74
     0
 49
-3.0
 74
     0
 49
12.0
 74
     0
 49
-3.0
 74
     0
 49
0.5
 74
     0
 49
-3.0
 74
     0
 49
0.5
 74
     0
 49
-3.0
 74
     0
 49
0.5
 74
     0
 49
-3.0
 74
     0
  0
LTYPE
  5
136
330
5
100
AcDbSymbolTableRecord
100
AcDbLinetypeTableRecord
  2
BATTING
 70
     0
  3
Batting SSSSSSSSSSSSSSSSSSSSSSSSSSSSSSSSSSSSSSS
 72
    65
 73
     4
 40
10.16253999999999
 49
0.00254
 74
     0
 49
-2.54
 74
     4
 75
   134
340
127
 46
2.54
 50
0.0
 44
-2.54
 45
0.0
 49
-5.08
 74
     4
 75
   134
340
127
 46
2.54
 50
180.0
 44
2.54
 45
0.0
 49
-2.54
 74
     0
  0
LTYPE
  5
137
330
5
100
AcDbSymbolTableRecord
100
AcDbLinetypeTableRecord
  2
BORDER
 70
     0
  3
Border __ __ . __ __ . __ __ . __ __ . __ __ .
 72
    65
 73
     6
 40
44.45
 49
12.7
 74
     0
 49
-6.349999999999999
 74
     0
 49
12.7
 74
     0
 49
-6.349999999999999
 74
     0
 49
0.0
 74
     0
 49
-6.349999999999999
 74
     0
  0
LTYPE
  5
138
330
5
100
AcDbSymbolTableRecord
100
AcDbLinetypeTableRecord
  2
BORDER2
 70
     0
  3
Border (.5x) __.__.__.__.__.__.__.__.__.__.__.
 72
    65
 73
     6
 40
22.225
 49
6.349999999999999
 74
     0
 49
-3.174999999999999
 74
     0
 49
6.349999999999999
 74
     0
 49
-3.174999999999999
 74
     0
 49
0.0
 74
     0
 49
-3.174999999999999
 74
     0
  0
LTYPE
  5
139
330
5
100
AcDbSymbolTableRecord
100
AcDbLinetypeTableRecord
  2
BORDERX2
 70
     0
  3
Border (2x) ____  ____  .  ____  ____  .  ___
 72
    65
 73
     6
 40
88.9
 49
25.4
 74
     0
 49
-12.7
 74
     0
 49
25.4
 74
     0
 49
-12.7
 74
     0
 49
0.0
 74
     0
 49
-12.7
 74
     0
  0
LTYPE
  5
13A
330
5
100
AcDbSymbolTableRecord
100
AcDbLinetypeTableRecord
  2
CENTER
 70
     0
  3
Center ____ _ ____ _ ____ _ ____ _ ____ _ ____
 72
    65
 73
     4
 40
50.8
 49
31.75
 74
     0
 49
-6.349999999999999
 74
     0
 49
6.349999999999999
 74
     0
 49
-6.349999999999999
 74
     0
  0
LTYPE
  5
13B
330
5
100
AcDbSymbolTableRecord
100
AcDbLinetypeTableRecord
  2
CENTER2
 70
     0
  3
Center (.5x) ___ _ ___ _ ___ _ ___ _ ___ _ ___
 72
    65
 73
     4
 40
28.57499999999999
 49
19.05
 74
     0
 49
-3.174999999999999
 74
     0
 49
3.174999999999999
 74
     0
 49
-3.174999999999999
 74
     0
  0
LTYPE
  5
13C
330
5
100
AcDbSymbolTableRecord
100
AcDbLinetypeTableRecord
  2
CENTERX2
 70
     0
  3
Center (2x) ________  __  ________  __  _____
 72
    65
 73
     4
 40
101.6
 49
63.5
 74
     0
 49
-12.7
 74
     0
 49
12.7
 74
     0
 49
-12.7
 74
     0
  0
LTYPE
  5
13D
330
5
100
AcDbSymbolTableRecord
100
AcDbLinetypeTableRecord
  2
DASHDOT
 70
     0
  3
Dash dot __ . __ . __ . __ . __ . __ . __ . __
 72
    65
 73
     4
 40
25.4
 49
12.7
 74
     0
 49
-6.349999999999999
 74
     0
 49
0.0
 74
     0
 49
-6.349999999999999
 74
     0
  0
LTYPE
  5
13E
330
5
100
AcDbSymbolTableRecord
100
AcDbLinetypeTableRecord
  2
DASHDOT2
 70
     0
  3
Dash dot (.5x) _._._._._._._._._._._._._._._.
 72
    65
 73
     4
 40
12.7
 49
6.349999999999999
 74
     0
 49
-3.174999999999999
 74
     0
 49
0.0
 74
     0
 49
-3.174999999999999
 74
     0
  0
LTYPE
  5
13F
330
5
100
AcDbSymbolTableRecord
100
AcDbLinetypeTableRecord
  2
DASHDOTX2
 70
     0
  3
Dash dot (2x) ____  .  ____  .  ____  .  ___
 72
    65
 73
     4
 40
50.8
 49
25.4
 74
     0
 49
-12.7
 74
     0
 49
0.0
 74
     0
 49
-12.7
 74
     0
  0
LTYPE
  5
140
330
5
100
AcDbSymbolTableRecord
100
AcDbLinetypeTableRecord
  2
DASHED
 70
     0
  3
Dashed __ __ __ __ __ __ __ __ __ __ __ __ __ _
 72
    65
 73
     2
 40
19.04999999999999
 49
12.7
 74
     0
 49
-6.349999999999999
 74
     0
  0
LTYPE
  5
141
330
5
100
AcDbSymbolTableRecord
100
AcDbLinetypeTableRecord
  2
DASHED2
 70
     0
  3
Dashed (.5x) _ _ _ _ _ _ _ _ _ _ _ _ _ _ _ _ _
 72
    65
 73
     2
 40
9.524999999999998
 49
6.349999999999999
 74
     0
 49
-3.174999999999999
 74
     0
  0
LTYPE
  5
142
330
5
100
AcDbSymbolTableRecord
100
AcDbLinetypeTableRecord
  2
DASHEDX2
 70
     0
  3
Dashed (2x) ____  ____  ____  ____  ____  ___
 72
    65
 73
     2
 40
38.09999999999999
 49
25.4
 74
     0
 49
-12.7
 74
     0
  0
LTYPE
  5
143
330
5
100
AcDbSymbolTableRecord
100
AcDbLinetypeTableRecord
  2
DIVIDE
 70
     0
  3
Divide ____ . . ____ . . ____ . . ____ . . ____
 72
    65
 73
     6
 40
31.74999999999999
 49
12.7
 74
     0
 49
-6.349999999999999
 74
     0
 49
0.0
 74
     0
 49
-6.349999999999999
 74
     0
 49
0.0
 74
     0
 49
-6.349999999999999
 74
     0
  0
LTYPE
  5
144
330
5
100
AcDbSymbolTableRecord
100
AcDbLinetypeTableRecord
  2
DIVIDE2
 70
     0
  3
Divide (.5x) __..__..__..__..__..__..__..__.._
 72
    65
 73
     6
 40
15.87499999999999
 49
6.349999999999999
 74
     0
 49
-3.174999999999999
 74
     0
 49
0.0
 74
     0
 49
-3.174999999999999
 74
     0
 49
0.0
 74
     0
 49
-3.174999999999999
 74
     0
  0
LTYPE
  5
145
330
5
100
AcDbSymbolTableRecord
100
AcDbLinetypeTableRecord
  2
DIVIDEX2
 70
     0
  3
Divide (2x) ________  .  .  ________  .  .  _
 72
    65
 73
     6
 40
63.49999999999999
 49
25.4
 74
     0
 49
-12.7
 74
     0
 49
0.0
 74
     0
 49
-12.7
 74
     0
 49
0.0
 74
     0
 49
-12.7
 74
     0
  0
LTYPE
  5
146
330
5
100
AcDbSymbolTableRecord
100
AcDbLinetypeTableRecord
  2
DOT
 70
     0
  3
Dot . . . . . . . . . . . . . . . . . . . . . .
 72
    65
 73
     2
 40
6.349999999999999
 49
0.0
 74
     0
 49
-6.349999999999999
 74
     0
  0
LTYPE
  5
147
330
5
100
AcDbSymbolTableRecord
100
AcDbLinetypeTableRecord
  2
DOT2
 70
     0
  3
Dot (.5x) .....................................
 72
    65
 73
     2
 40
3.174999999999999
 49
0.0
 74
     0
 49
-3.174999999999999
 74
     0
  0
LTYPE
  5
148
330
5
100
AcDbSymbolTableRecord
100
AcDbLinetypeTableRecord
  2
DOTX2
 70
     0
  3
Dot (2x) .  .  .  .  .  .  .  .  .  .  .  .  . 
 72
    65
 73
     2
 40
12.7
 49
0.0
 74
     0
 49
-12.7
 74
     0
  0
LTYPE
  5
149
330
5
100
AcDbSymbolTableRecord
100
AcDbLinetypeTableRecord
  2
FENCELINE1
 70
     0
  3
Fenceline circle ----0-----0----0-----0----0---
 72
    65
 73
     4
 40
36.82999999999999
 49
6.349999999999999
 74
     0
 49
-2.54
 74
     4
 75
   133
340
127
 46
2.54
 50
0.0
 44
-2.54
 45
0.0
 49
-2.54
 74
     0
 49
25.4
 74
     0
  0
LTYPE
  5
14A
330
5
100
AcDbSymbolTableRecord
100
AcDbLinetypeTableRecord
  2
FENCELINE2
 70
     0
  3
Fenceline square ----[]-----[]----[]-----[]----
 72
    65
 73
     4
 40
36.82999999999999
 49
6.349999999999999
 74
     0
 49
-2.54
 74
     4
 75
   132
340
127
 46
2.54
 50
0.0
 44
-2.54
 45
0.0
 49
-2.54
 74
     0
 49
25.4
 74
     0
  0
LTYPE
  5
14B
330
5
100
AcDbSymbolTableRecord
100
AcDbLinetypeTableRecord
  2
GAS_LINE
 70
     0
  3
Gas line ----GAS----GAS----GAS----GAS----GAS---
 72
    65
 73
     3
 40
24.13
 49
12.7
 74
     0
 49
-5.08
 74
     2
 75
     0
340
F
 46
2.54
 50
0.0
 44
-2.54
 45
-1.27
  9
GAS
 49
-6.349999999999999
 74
     0
  0
LTYPE
  5
14C
330
5
100
AcDbSymbolTableRecord
100
AcDbLinetypeTableRecord
  2
HIDDEN
 70
     0
  3
Hidden __ __ __ __ __ __ __ __ __ __ __ __ __ _
 72
    65
 73
     2
 40
9.524999999999998
 49
6.349999999999999
 74
     0
 49
-3.174999999999999
 74
     0
  0
LTYPE
  5
14D
330
5
100
AcDbSymbolTableRecord
100
AcDbLinetypeTableRecord
  2
HIDDEN2
 70
     0
  3
Hidden (.5x) _ _ _ _ _ _ _ _ _ _ _ _ _ _ _ _ _
 72
    65
 73
     2
 40
4.762499999999999
 49
3.174999999999999
 74
     0
 49
-1.587499999999999
 74
     0
  0
LTYPE
  5
14E
330
5
100
AcDbSymbolTableRecord
100
AcDbLinetypeTableRecord
  2
HIDDENX2
 70
     0
  3
Hidden (2x) ____ ____ ____ ____ ____ ____ ____
 72
    65
 73
     2
 40
19.04999999999999
 49
12.7
 74
     0
 49
-6.349999999999999
 74
     0
  0
LTYPE
  5
14F
330
5
100
AcDbSymbolTableRecord
100
AcDbLinetypeTableRecord
  2
HOT_WATER_SUPPLY
 70
     0
  3
Hot water supply ---- HW ---- HW ---- HW ----
 72
    65
 73
     3
 40
22.86
 49
12.7
 74
     0
 49
-5.08
 74
     2
 75
     0
340
F
 46
2.54
 50
0.0
 44
-2.54
 45
-1.27
  9
HW
 49
-5.08
 74
     0
  0
LTYPE
  5
150
330
5
100
AcDbSymbolTableRecord
100
AcDbLinetypeTableRecord
  2
PHANTOM
 70
     0
  3
Phantom ______  __  __  ______  __  __  ______
 72
    65
 73
     6
 40
63.5
 49
31.75
 74
     0
 49
-6.349999999999999
 74
     0
 49
6.349999999999999
 74
     0
 49
-6.349999999999999
 74
     0
 49
6.349999999999999
 74
     0
 49
-6.349999999999999
 74
     0
  0
LTYPE
  5
151
330
5
100
AcDbSymbolTableRecord
100
AcDbLinetypeTableRecord
  2
PHANTOM2
 70
     0
  3
Phantom (.5x) ___ _ _ ___ _ _ ___ _ _ ___ _ _
 72
    65
 73
     6
 40
31.75
 49
15.875
 74
     0
 49
-3.174999999999999
 74
     0
 49
3.174999999999999
 74
     0
 49
-3.174999999999999
 74
     0
 49
3.174999999999999
 74
     0
 49
-3.174999999999999
 74
     0
  0
LTYPE
  5
152
330
5
100
AcDbSymbolTableRecord
100
AcDbLinetypeTableRecord
  2
PHANTOMX2
 70
     0
  3
Phantom (2x) ____________    ____    ____   _
 72
    65
 73
     6
 40
127.0
 49
63.5
 74
     0
 49
-12.7
 74
     0
 49
12.7
 74
     0
 49
-12.7
 74
     0
 49
12.7
 74
     0
 49
-12.7
 74
     0
  0
LTYPE
  5
153
330
5
100
AcDbSymbolTableRecord
100
AcDbLinetypeTableRecord
  2
TRACKS
 70
     0
  3
Tracks -|-|-|-|-|-|-|-|-|-|-|-|-|-|-|-|-|-|-|-|
 72
    65
 73
     2
 40
7.62
 49
3.81
 74
     4
 75
   130
340
127
 46
6.349999999999999
 50
0.0
 44
0.0
 45
0.0
 49
3.81
 74
     0
  0
LTYPE
  5
154
330
5
100
AcDbSymbolTableRecord
100
AcDbLinetypeTableRecord
  2
ZIGZAG
 70
     0
  3
Zig zag /\/\/\/\/\/\/\/\/\/\/\/\/\/\/\/\/\/\/\/
 72
    65
 73
     4
 40
20.32254
 49
0.00254
 74
     0
 49
-5.08
 74
     4
 75
   131
340
127
 46
5.08
 50
0.0
 44
-5.08
 45
0.0
 49
-10.16
 74
     4
 75
   131
340
127
 46
5.08
 50
180.0
 44
5.08
 45
0.0
 49
-5.08
 74
     0
  0
ENDTAB
  0
TABLE
  2
LAYER
  5
2
330
0
100
AcDbSymbolTable
 70
    10
  0
LAYER
  5
E
330
2
100
AcDbSymbolTableRecord
100
AcDbLayerTableRecord
  2
0
 70
     0
 62
     7
  6
CONTINUOUS
370
    -3
390
15FD
  0
LAYER
  5
20
330
2
100
AcDbSymbolTableRecord
100
AcDbLayerTableRecord
  2
DEFPOINTS
 70
     0
 62
     7
  6
CONTINUOUS
290
     0
370
    -3
390
15FD
  0
LAYER
  5
21
330
2
100
AcDbSymbolTableRecord
100
AcDbLayerTableRecord
  2
OBJECT
 70
     0
 62
     7
  6
CONTINUOUS
370
    -3
390
15FD
  0
LAYER
  5
155
330
2
100
AcDbSymbolTableRecord
100
AcDbLayerTableRecord
  2
上書線
 70
     0
 62
     7
  6
CONTINUOUS
370
    -3
390
15FD
  0
LAYER
  5
156
330
2
100
AcDbSymbolTableRecord
100
AcDbLayerTableRecord
  2
基準線
 70
     0
 62
    -1
  6
CONTINUOUS
370
    -3
390
15FD
  0
LAYER
  5
157
330
2
100
AcDbSymbolTableRecord
100
AcDbLayerTableRecord
  2
点線
 70
     0
 62
     5
  6
HIDDEN
370
    -3
390
15FD
  0
LAYER
  5
158
330
2
100
AcDbSymbolTableRecord
100
AcDbLayerTableRecord
  2
寸法線
 70
     0
 62
     2
  6
CONTINUOUS
370
    -3
390
15FD
  0
LAYER
  5
19D7
330
2
100
AcDbSymbolTableRecord
100
AcDbLayerTableRecord
  2
上線
 70
     0
 62
     7
  6
CONTINUOUS
370
    -3
390
15FD
  0
LAYER
  5
2EB9
330
2
100
AcDbSymbolTableRecord
100
AcDbLayerTableRecord
  2
中心線
 70
     0
 62
     6
  6
CENTER
370
    -3
390
15FD
  0
LAYER
  5
3EC1
330
2
100
AcDbSymbolTableRecord
100
AcDbLayerTableRecord
  2
WUWAGAKI
 70
     0
 62
     7
  6
CONTINUOUS
370
    -3
390
15FD
  0
ENDTAB
  0
TABLE
  2
STYLE
  5
3
330
0
100
AcDbSymbolTable
 70
     3
  0
STYLE
  5
F
330
3
100
AcDbSymbolTableRecord
100
AcDbTextStyleTableRecord
  2
STANDARD
 70
     0
 40
0.0
 41
1.0
 50
0.0
 71
     0
 42
2.5
  3
MS PMincho.ttf
  4

1001
ACAD
1000
MS PMincho
1071
    32786
  0
STYLE
  5
22
330
3
100
AcDbSymbolTableRecord
100
AcDbTextStyleTableRecord
  2
ADESK1
 70
     0
 40
0.0
 41
1.0
 50
0.0
 71
     0
 42
5.0
  3
romans
  4
bigfont
  0
STYLE
  5
127
330
3
100
AcDbSymbolTableRecord
100
AcDbTextStyleTableRecord
  2

 70
     1
 40
0.0
 41
1.0
 50
0.0
 71
     0
 42
2.5
  3
ltypeshp.shx
  4

  0
ENDTAB
  0
TABLE
  2
VIEW
  5
6
330
0
100
AcDbSymbolTable
 70
     0
  0
ENDTAB
  0
TABLE
  2
UCS
  5
7
330
0
100
AcDbSymbolTable
 70
     0
  0
ENDTAB
  0
TABLE
  2
APPID
  5
9
330
0
100
AcDbSymbolTable
 70
     2
  0
APPID
  5
10
330
9
100
AcDbSymbolTableRecord
100
AcDbRegAppTableRecord
  2
ACAD
 70
     0
  0
APPID
  5
1213
330
9
100
AcDbSymbolTableRecord
100
AcDbRegAppTableRecord
  2
DRAWINGVARIABLESXDATA
 70
     0
  0
ENDTAB
  0
TABLE
  2
DIMSTYLE
  5
A
330
0
100
AcDbSymbolTable
 70
     2
100
AcDbDimStyleTable
 71
     1
340
1D
  0
DIMSTYLE
105
1D
330
A
100
AcDbSymbolTableRecord
100
AcDbDimStyleTableRecord
  2
STANDARD
 70
     0
340
F
  0
DIMSTYLE
105
23
330
A
100
AcDbSymbolTableRecord
100
AcDbDimStyleTableRecord
  2
JIS
 70
     0
 41
2.5
 42
1.0
 43
7.0
 44
1.0
 73
     0
 74
     0
 77
     1
 78
     8
140
2.5
141
0.0
143
0.0394
147
0.0
172
     1
174
     1
175
     1
340
F
  0
ENDTAB
  0
TABLE
  2
BLOCK_RECORD
  5
1
330
0
100
AcDbSymbolTable
 70
     3
  0
BLOCK_RECORD
  5
18
330
1
100
AcDbSymbolTableRecord
100
AcDbBlockTableRecord
  2
*MODEL_SPACE
340
1600
  0
BLOCK_RECORD
  5
15
330
1
100
AcDbSymbolTableRecord
100
AcDbBlockTableRecord
  2
*PAPER_SPACE
340
1601
  0
BLOCK_RECORD
  5
24
330
1
100
AcDbSymbolTableRecord
100
AcDbBlockTableRecord
  2
JIS_A4L
340
0
  0
BLOCK_RECORD
  5
3437
330
1
100
AcDbSymbolTableRecord
100
AcDbBlockTableRecord
  2
*D1
340
0
  0
BLOCK_RECORD
  5
3445
330
1
100
AcDbSymbolTableRecord
100
AcDbBlockTableRecord
  2
A$C23BB6A77
340
0
  0
ENDTAB
  0
ENDSEC
  0
SECTION
  2
BLOCKS
  0
BLOCK
  5
19
330
18
100
AcDbEntity
  8
0
100
AcDbBlockBegin
  2
*MODEL_SPACE
 70
     2
 10
0.0
 20
0.0
 30
0.0
  3
*MODEL_SPACE
  1

  0
ENDBLK
  5
1A
330
18
100
AcDbEntity
  8
0
100
AcDbBlockEnd
  0
BLOCK
  5
16
330
15
100
AcDbEntity
 67
     1
  8
0
100
AcDbBlockBegin
  2
*PAPER_SPACE
 70
     0
 10
0.0
 20
0.0
 30
0.0
  3
*PAPER_SPACE
  1

  0
ENDBLK
  5
17
330
15
100
AcDbEntity
 67
     1
  8
0
100
AcDbBlockEnd
  0
BLOCK
  5
A1
330
24
100
AcDbEntity
  8
0
100
AcDbBlockBegin
  2
JIS_A4L
 70
     2
 10
0.0
 20
0.0
 30
0.0
  3
JIS_A4L
  1

  0
LINE
  5
25
330
24
100
AcDbEntity
  8
0
100
AcDbLine
 10
0.0
 20
0.0
 30
0.0
 11
0.0
 21
10.0
 31
0.0
  0
LINE
  5
26
330
24
100
AcDbEntity
  8
0
100
AcDbLine
 10
0.0
 20
210.0
 30
0.0
 11
25.0
 21
210.0
 31
0.0
  0
LINE
  5
27
330
24
100
AcDbEntity
  8
0
100
AcDbLine
 10
297.0
 20
210.0
 30
0.0
 11
297.0
 21
200.0
 31
0.0
  0
LINE
  5
28
330
24
100
AcDbEntity
  8
0
100
AcDbLine
 10
297.0
 20
0.0
 30
0.0
 11
287.0
 21
0.0
 31
0.0
  0
LINE
  5
29
330
24
100
AcDbEntity
  8
0
100
AcDbLine
 10
25.0
 20
10.0
 30
0.0
 11
25.0
 21
200.0
 31
0.0
  0
LINE
  5
2A
330
24
100
AcDbEntity
  8
0
100
AcDbLine
 10
287.0
 20
10.0
 30
0.0
 11
25.0
 21
10.0
 31
0.0
  0
LINE
  5
2B
330
24
100
AcDbEntity
  8
0
100
AcDbLine
 10
287.0
 20
200.0
 30
0.0
 11
287.0
 21
10.0
 31
0.0
  0
LINE
  5
2C
330
24
100
AcDbEntity
  8
0
100
AcDbLine
 10
25.0
 20
200.0
 30
0.0
 11
287.0
 21
200.0
 31
0.0
  0
LINE
  5
2D
330
24
100
AcDbEntity
  8
0
100
AcDbLine
 10
0.0
 20
200.0
 30
0.0
 11
0.0
 21
210.0
 31
0.0
  0
LINE
  5
2E
330
24
100
AcDbEntity
  8
0
100
AcDbLine
 10
25.0
 20
0.0
 30
0.0
 11
0.0
 21
0.0
 31
0.0
  0
LINE
  5
2F
330
24
100
AcDbEntity
  8
0
100
AcDbLine
 10
297.0
 20
10.0
 30
0.0
 11
297.0
 21
0.0
 31
0.0
  0
LINE
  5
30
330
24
100
AcDbEntity
  8
0
100
AcDbLine
 10
287.0
 20
210.0
 30
0.0
 11
297.0
 21
210.0
 31
0.0
  0
ATTDEF
  5
31
330
24
100
AcDbEntity
  8
0
 62
     0
100
AcDbText
 10
19.0
 20
10.0
 30
0.0
 40
3.0
  1

 50
90.0
  7
ADESK1
100
AcDbAttributeDefinition
  3

  2
USER
 70
     8
  0
ATTDEF
  5
32
330
24
100
AcDbEntity
  8
0
 62
     0
100
AcDbText
 10
19.0
 20
70.0
 30
0.0
 40
3.0
  1

 50
90.0
  7
ADESK1
100
AcDbAttributeDefinition
  3

  2
REVDATE
 70
     8
  0
ATTDEF
  5
33
330
24
100
AcDbEntity
  8
0
 62
     0
100
AcDbText
 10
19.0
 20
118.0
 30
0.0
 40
3.0
  1

 50
90.0
  7
ADESK1
100
AcDbAttributeDefinition
  3

  2
FNAME
 70
     8
  0
LINE
  5
34
330
24
100
AcDbEntity
  8
OBJECT
100
AcDbLine
 10
130.0
 20
16.0
 30
0.0
 11
25.0
 21
16.0
 31
0.0
  0
LINE
  5
35
330
24
100
AcDbEntity
  8
OBJECT
100
AcDbLine
 10
130.0
 20
22.0
 30
0.0
 11
25.0
 21
22.0
 31
0.0
  0
LINE
  5
36
330
24
100
AcDbEntity
  8
OBJECT
100
AcDbLine
 10
130.0
 20
28.0
 30
0.0
 11
25.0
 21
28.0
 31
0.0
  0
LINE
  5
37
330
24
100
AcDbEntity
  8
OBJECT
100
AcDbLine
 10
130.0
 20
34.0
 30
0.0
 11
25.0
 21
34.0
 31
0.0
  0
LINE
  5
38
330
24
100
AcDbEntity
  8
OBJECT
100
AcDbLine
 10
130.0
 20
40.0
 30
0.0
 11
25.0
 21
40.0
 31
0.0
  0
LINE
  5
39
330
24
100
AcDbEntity
  8
OBJECT
100
AcDbLine
 10
28.0
 20
11.53589799999999
 30
0.0
 11
30.0
 21
15.0
 31
0.0
  0
LINE
  5
3A
330
24
100
AcDbEntity
  8
OBJECT
100
AcDbLine
 10
32.0
 20
11.53589799999999
 30
0.0
 11
30.0
 21
15.0
 31
0.0
  0
LINE
  5
3B
330
24
100
AcDbEntity
  8
OBJECT
100
AcDbLine
 10
35.0
 20
10.0
 30
0.0
 11
35.0
 21
40.0
 31
0.0
  0
LINE
  5
3C
330
24
100
AcDbEntity
  8
OBJECT
100
AcDbLine
 10
50.0
 20
10.0
 30
0.0
 11
50.0
 21
40.0
 31
0.0
  0
LINE
  5
3D
330
24
100
AcDbEntity
  8
OBJECT
100
AcDbLine
 10
80.0
 20
10.0
 30
0.0
 11
80.0
 21
40.0
 31
0.0
  0
LINE
  5
3E
330
24
100
AcDbEntity
  8
OBJECT
100
AcDbLine
 10
28.0
 20
11.53589799999999
 30
0.0
 11
32.0
 21
11.53589799999999
 31
0.0
  0
LINE
  5
3F
330
24
100
AcDbEntity
  8
OBJECT
100
AcDbLine
 10
39.5
 20
13.0
 30
0.0
 11
40.49999999999999
 21
13.0
 31
0.0
  0
LINE
  5
40
330
24
100
AcDbEntity
  8
OBJECT
100
AcDbLine
 10
44.5
 20
13.0
 30
0.0
 11
45.49999999999999
 21
13.0
 31
0.0
  0
LINE
  5
41
330
24
100
AcDbEntity
  8
OBJECT
100
AcDbLine
 10
32.0
 20
17.535898
 30
0.0
 11
30.0
 21
20.99999999999999
 31
0.0
  0
LINE
  5
42
330
24
100
AcDbEntity
  8
OBJECT
100
AcDbLine
 10
28.0
 20
17.535898
 30
0.0
 11
32.0
 21
17.535898
 31
0.0
  0
LINE
  5
43
330
24
100
AcDbEntity
  8
OBJECT
100
AcDbLine
 10
28.0
 20
17.535898
 30
0.0
 11
30.0
 21
20.99999999999999
 31
0.0
  0
LINE
  5
44
330
24
100
AcDbEntity
  8
OBJECT
100
AcDbLine
 10
32.0
 20
23.53589799999999
 30
0.0
 11
30.0
 21
26.99999999999999
 31
0.0
  0
LINE
  5
45
330
24
100
AcDbEntity
  8
OBJECT
100
AcDbLine
 10
28.0
 20
23.53589799999999
 30
0.0
 11
32.0
 21
23.53589799999999
 31
0.0
  0
LINE
  5
46
330
24
100
AcDbEntity
  8
OBJECT
100
AcDbLine
 10
28.0
 20
23.53589799999999
 30
0.0
 11
30.0
 21
26.99999999999999
 31
0.0
  0
LINE
  5
47
330
24
100
AcDbEntity
  8
OBJECT
100
AcDbLine
 10
28.0
 20
35.53589799999999
 30
0.0
 11
30.0
 21
39.0
 31
0.0
  0
LINE
  5
48
330
24
100
AcDbEntity
  8
OBJECT
100
AcDbLine
 10
32.0
 20
35.53589799999999
 30
0.0
 11
30.0
 21
39.0
 31
0.0
  0
LINE
  5
49
330
24
100
AcDbEntity
  8
OBJECT
100
AcDbLine
 10
28.0
 20
35.53589799999999
 30
0.0
 11
32.0
 21
35.53589799999999
 31
0.0
  0
LINE
  5
4A
330
24
100
AcDbEntity
  8
OBJECT
100
AcDbLine
 10
32.0
 20
29.53589799999999
 30
0.0
 11
30.0
 21
33.0
 31
0.0
  0
LINE
  5
4B
330
24
100
AcDbEntity
  8
OBJECT
100
AcDbLine
 10
28.0
 20
29.53589799999999
 30
0.0
 11
32.0
 21
29.53589799999999
 31
0.0
  0
LINE
  5
4C
330
24
100
AcDbEntity
  8
OBJECT
100
AcDbLine
 10
28.0
 20
29.53589799999999
 30
0.0
 11
30.0
 21
33.0
 31
0.0
  0
LINE
  5
4D
330
24
100
AcDbEntity
  8
OBJECT
100
AcDbLine
 10
39.5
 20
19.0
 30
0.0
 11
40.49999999999999
 21
19.0
 31
0.0
  0
LINE
  5
4E
330
24
100
AcDbEntity
  8
OBJECT
100
AcDbLine
 10
44.5
 20
19.0
 30
0.0
 11
45.49999999999999
 21
19.0
 31
0.0
  0
LINE
  5
4F
330
24
100
AcDbEntity
  8
OBJECT
100
AcDbLine
 10
39.5
 20
25.0
 30
0.0
 11
40.49999999999999
 21
25.0
 31
0.0
  0
LINE
  5
50
330
24
100
AcDbEntity
  8
OBJECT
100
AcDbLine
 10
44.5
 20
25.0
 30
0.0
 11
45.49999999999999
 21
25.0
 31
0.0
  0
LINE
  5
51
330
24
100
AcDbEntity
  8
OBJECT
100
AcDbLine
 10
39.5
 20
31.0
 30
0.0
 11
40.49999999999999
 21
31.0
 31
0.0
  0
LINE
  5
52
330
24
100
AcDbEntity
  8
OBJECT
100
AcDbLine
 10
39.5
 20
37.0
 30
0.0
 11
40.49999999999999
 21
37.0
 31
0.0
  0
LINE
  5
53
330
24
100
AcDbEntity
  8
OBJECT
100
AcDbLine
 10
44.5
 20
31.0
 30
0.0
 11
45.49999999999999
 21
31.0
 31
0.0
  0
LINE
  5
54
330
24
100
AcDbEntity
  8
OBJECT
100
AcDbLine
 10
44.5
 20
37.0
 30
0.0
 11
45.49999999999999
 21
37.0
 31
0.0
  0
LINE
  5
55
330
24
100
AcDbEntity
  8
OBJECT
100
AcDbLine
 10
120.0
 20
10.0
 30
0.0
 11
120.0
 21
40.0
 31
0.0
  0
LINE
  5
56
330
24
100
AcDbEntity
  8
OBJECT
100
AcDbLine
 10
130.0
 20
40.0
 30
0.0
 11
130.0
 21
10.0
 31
0.0
  0
LINE
  5
57
330
24
100
AcDbEntity
  8
0
100
AcDbLine
 10
156.0
 20
10.0
 30
0.0
 11
156.0
 21
0.0
 31
0.0
  0
LINE
  5
58
330
24
100
AcDbEntity
  8
0
100
AcDbLine
 10
156.0
 20
200.0
 30
0.0
 11
156.0
 21
210.0
 31
0.0
  0
LINE
  5
59
330
24
100
AcDbEntity
  8
0
100
AcDbLine
 10
287.0
 20
105.0
 30
0.0
 11
297.0
 21
105.0
 31
0.0
  0
LINE
  5
5A
330
24
100
AcDbEntity
  8
0
100
AcDbLine
 10
25.0
 20
105.0
 30
0.0
 11
0.0
 21
105.0
 31
0.0
  0
TEXT
  5
5B
330
24
100
AcDbEntity
  8
0
100
AcDbText
 10
1.0
 20
1.0
 30
0.0
 40
3.0
  1
この図枠はサンプルです。社内の規格やプロッタの出力範囲に合わせて適当に変更してご利用ください。
  7
ADESK1
100
AcDbText
  0
LINE
  5
5C
330
24
100
AcDbEntity
  8
0
100
AcDbLine
 10
25.0
 20
152.5
 30
0.0
 11
20.0
 21
152.5
 31
0.0
  0
LINE
  5
5D
330
24
100
AcDbEntity
  8
0
100
AcDbLine
 10
25.0
 20
105.0
 30
0.0
 11
20.0
 21
105.0
 31
0.0
  0
LINE
  5
5E
330
24
100
AcDbEntity
  8
0
100
AcDbLine
 10
25.0
 20
57.5
 30
0.0
 11
20.0
 21
57.5
 31
0.0
  0
LINE
  5
5F
330
24
100
AcDbEntity
  8
0
100
AcDbLine
 10
68.66666666666668
 20
10.0
 30
0.0
 11
68.66666666666668
 21
5.0
 31
0.0
  0
LINE
  5
60
330
24
100
AcDbEntity
  8
0
100
AcDbLine
 10
112.3333333333333
 20
10.0
 30
0.0
 11
112.3333333333333
 21
5.0
 31
0.0
  0
LINE
  5
61
330
24
100
AcDbEntity
  8
0
100
AcDbLine
 10
156.0
 20
10.0
 30
0.0
 11
156.0
 21
5.0
 31
0.0
  0
LINE
  5
62
330
24
100
AcDbEntity
  8
0
100
AcDbLine
 10
199.6666666666666
 20
10.0
 30
0.0
 11
199.6666666666666
 21
5.0
 31
0.0
  0
LINE
  5
63
330
24
100
AcDbEntity
  8
0
100
AcDbLine
 10
243.3333333333333
 20
10.0
 30
0.0
 11
243.3333333333333
 21
5.0
 31
0.0
  0
LINE
  5
64
330
24
100
AcDbEntity
  8
0
100
AcDbLine
 10
287.0
 20
57.5
 30
0.0
 11
292.0
 21
57.5
 31
0.0
  0
LINE
  5
65
330
24
100
AcDbEntity
  8
0
100
AcDbLine
 10
287.0
 20
105.0
 30
0.0
 11
292.0
 21
105.0
 31
0.0
  0
LINE
  5
66
330
24
100
AcDbEntity
  8
0
100
AcDbLine
 10
287.0
 20
152.5
 30
0.0
 11
292.0
 21
152.5
 31
0.0
  0
LINE
  5
67
330
24
100
AcDbEntity
  8
0
100
AcDbLine
 10
243.3333333333333
 20
200.0
 30
0.0
 11
243.3333333333333
 21
205.0
 31
0.0
  0
LINE
  5
68
330
24
100
AcDbEntity
  8
0
100
AcDbLine
 10
199.6666666666666
 20
200.0
 30
0.0
 11
199.6666666666666
 21
205.0
 31
0.0
  0
LINE
  5
69
330
24
100
AcDbEntity
  8
0
100
AcDbLine
 10
156.0
 20
200.0
 30
0.0
 11
156.0
 21
205.0
 31
0.0
  0
LINE
  5
6A
330
24
100
AcDbEntity
  8
0
100
AcDbLine
 10
112.3333333333333
 20
200.0
 30
0.0
 11
112.3333333333333
 21
205.0
 31
0.0
  0
LINE
  5
6B
330
24
100
AcDbEntity
  8
0
100
AcDbLine
 10
68.66666666666666
 20
200.0
 30
0.0
 11
68.66666666666666
 21
205.0
 31
0.0
  0
TEXT
  5
6C
330
24
100
AcDbEntity
  8
0
100
AcDbText
 10
45.61904761904761
 20
201.0
 30
0.0
 40
3.0
  1
1
  7
ADESK1
 72
     1
 11
46.83333333333332
 21
201.0
 31
0.0
100
AcDbText
  0
TEXT
  5
6D
330
24
100
AcDbEntity
  8
0
100
AcDbText
 10
21.66139736003921
 20
176.25
 30
0.0
 40
3.0
  1
A
  7
ADESK1
 72
     1
 11
22.94711164575349
 21
176.25
 31
0.0
100
AcDbText
  0
TEXT
  5
6E
330
24
100
AcDbEntity
  8
0
100
AcDbText
 10
89.07142857142856
 20
201.0
 30
0.0
 40
3.0
  1
2
  7
ADESK1
 72
     1
 11
90.5
 21
201.0
 31
0.0
100
AcDbText
  0
TEXT
  5
6F
330
24
100
AcDbEntity
  8
0
100
AcDbText
 10
132.7380952380952
 20
201.0
 30
0.0
 40
3.0
  1
3
  7
ADESK1
 72
     1
 11
134.1666666666666
 21
201.0
 31
0.0
100
AcDbText
  0
TEXT
  5
70
330
24
100
AcDbEntity
  8
0
100
AcDbText
 10
176.3333333333333
 20
201.0
 30
0.0
 40
3.0
  1
4
  7
ADESK1
 72
     1
 11
177.8333333333333
 21
201.0
 31
0.0
100
AcDbText
  0
TEXT
  5
71
330
24
100
AcDbEntity
  8
0
100
AcDbText
 10
220.0714285714286
 20
201.0
 30
0.0
 40
3.0
  1
5
  7
ADESK1
 72
     1
 11
221.4999999999999
 21
201.0
 31
0.0
100
AcDbText
  0
TEXT
  5
72
330
24
100
AcDbEntity
  8
0
100
AcDbText
 10
263.6666666666666
 20
201.0
 30
0.0
 40
3.0
  1
6
  7
ADESK1
 72
     1
 11
265.1666666666666
 21
201.0
 31
0.0
100
AcDbText
  0
TEXT
  5
73
330
24
100
AcDbEntity
  8
0
100
AcDbText
 10
21.37568307432492
 20
128.75
 30
0.0
 40
3.0
  1
B
  7
ADESK1
 72
     1
 11
22.94711164575349
 21
128.75
 31
0.0
100
AcDbText
  0
TEXT
  5
74
330
24
100
AcDbEntity
  8
0
100
AcDbText
 10
21.44711164575349
 20
81.25
 30
0.0
 40
3.0
  1
C
  7
ADESK1
 72
     1
 11
22.94711164575349
 21
81.25
 31
0.0
100
AcDbText
  0
TEXT
  5
75
330
24
100
AcDbEntity
  8
0
100
AcDbText
 10
21.37568307432492
 20
33.75
 30
0.0
 40
3.0
  1
D
  7
ADESK1
 72
     1
 11
22.94711164575349
 21
33.75
 31
0.0
100
AcDbText
  0
TEXT
  5
76
330
24
100
AcDbEntity
  8
0
100
AcDbText
 10
45.61904761904759
 20
6.230338100985607
 30
0.0
 40
3.0
  1
1
  7
ADESK1
 72
     1
 11
46.83333333333331
 21
6.230338100985607
 31
0.0
100
AcDbText
  0
TEXT
  5
77
330
24
100
AcDbEntity
  8
0
100
AcDbText
 10
89.07142857142856
 20
6.230338100985607
 30
0.0
 40
3.0
  1
2
  7
ADESK1
 72
     1
 11
90.5
 21
6.230338100985607
 31
0.0
100
AcDbText
  0
TEXT
  5
78
330
24
100
AcDbEntity
  8
0
100
AcDbText
 10
132.7380952380952
 20
6.230338100985607
 30
0.0
 40
3.0
  1
3
  7
ADESK1
 72
     1
 11
134.1666666666666
 21
6.230338100985607
 31
0.0
100
AcDbText
  0
TEXT
  5
79
330
24
100
AcDbEntity
  8
0
100
AcDbText
 10
176.3333333333333
 20
6.230338100985607
 30
0.0
 40
3.0
  1
4
  7
ADESK1
 72
     1
 11
177.8333333333333
 21
6.230338100985607
 31
0.0
100
AcDbText
  0
TEXT
  5
7A
330
24
100
AcDbEntity
  8
0
100
AcDbText
 10
220.0714285714286
 20
6.230338100985607
 30
0.0
 40
3.0
  1
5
  7
ADESK1
 72
     1
 11
221.4999999999999
 21
6.230338100985607
 31
0.0
100
AcDbText
  0
TEXT
  5
7B
330
24
100
AcDbEntity
  8
0
100
AcDbText
 10
263.6666666666666
 20
6.230338100985607
 30
0.0
 40
3.0
  1
6
  7
ADESK1
 72
     1
 11
265.1666666666666
 21
6.230338100985607
 31
0.0
100
AcDbText
  0
TEXT
  5
7C
330
24
100
AcDbEntity
  8
0
100
AcDbText
 10
287.9530581679809
 20
176.25
 30
0.0
 40
3.0
  1
A
  7
ADESK1
 72
     1
 11
289.2387724536952
 21
176.25
 31
0.0
100
AcDbText
  0
TEXT
  5
7D
330
24
100
AcDbEntity
  8
0
100
AcDbText
 10
287.6673438822666
 20
128.75
 30
0.0
 40
3.0
  1
B
  7
ADESK1
 72
     1
 11
289.2387724536952
 21
128.75
 31
0.0
100
AcDbText
  0
TEXT
  5
7E
330
24
100
AcDbEntity
  8
0
100
AcDbText
 10
287.7387724536952
 20
81.25
 30
0.0
 40
3.0
  1
C
  7
ADESK1
 72
     1
 11
289.2387724536952
 21
81.25
 31
0.0
100
AcDbText
  0
TEXT
  5
7F
330
24
100
AcDbEntity
  8
0
100
AcDbText
 10
287.6673438822666
 20
33.75
 30
0.0
 40
3.0
  1
D
  7
ADESK1
 72
     1
 11
289.2387724536952
 21
33.75
 31
0.0
100
AcDbText
  0
LINE
  5
80
330
24
100
AcDbEntity
  8
0
 62
     0
100
AcDbLine
 10
157.2978723404242
 20
49.00000000000036
 30
0.0
 11
287.0
 21
49.00000000000036
 31
0.0
  0
LINE
  5
81
330
24
100
AcDbEntity
  8
0
 62
     0
100
AcDbLine
 10
157.2978723404242
 20
13.00000000000004
 30
0.0
 11
287.0
 21
13.00000000000004
 31
0.0
  0
LINE
  5
82
330
24
100
AcDbEntity
  8
0
 62
     0
100
AcDbLine
 10
157.2978723404242
 20
37.00000000000024
 30
0.0
 11
287.0
 21
37.00000000000024
 31
0.0
  0
LINE
  5
83
330
24
100
AcDbEntity
  8
0
 62
     0
100
AcDbLine
 10
195.1276595744673
 20
22.00000000000012
 30
0.0
 11
287.0
 21
22.00000000000012
 31
0.0
  0
LINE
  5
84
330
24
100
AcDbEntity
  8
0
 62
     0
100
AcDbLine
 10
157.2978723404242
 20
10.0
 30
0.0
 11
287.0
 21
10.0
 31
0.0
  0
LINE
  5
85
330
24
100
AcDbEntity
  8
0
 62
     0
100
AcDbLine
 10
287.0
 20
49.00000000000036
 30
0.0
 11
157.2978723404242
 21
49.00000000000036
 31
0.0
  0
LINE
  5
86
330
24
100
AcDbEntity
  8
0
 62
     0
100
AcDbLine
 10
180.7163120567365
 20
37.00000000000024
 30
0.0
 11
180.7163120567365
 21
10.0
 31
0.0
  0
LINE
  5
87
330
24
100
AcDbEntity
  8
0
 62
     0
100
AcDbLine
 10
162.702127659573
 20
37.00000000000024
 30
0.0
 11
162.702127659573
 21
10.0
 31
0.0
  0
LINE
  5
88
330
24
100
AcDbEntity
  8
0
 62
     0
100
AcDbLine
 10
189.7234042553184
 20
37.00000000000024
 30
0.0
 11
189.7234042553184
 21
10.0
 31
0.0
  0
LINE
  5
89
330
24
100
AcDbEntity
  8
0
 62
     0
100
AcDbLine
 10
195.1276595744673
 20
25.00000000000012
 30
0.0
 11
195.1276595744673
 21
10.0
 31
0.0
  0
LINE
  5
8A
330
24
100
AcDbEntity
  8
0
 62
     0
100
AcDbLine
 10
157.2978723404242
 20
49.00000000000036
 30
0.0
 11
157.2978723404242
 21
10.0
 31
0.0
  0
LINE
  5
8B
330
24
100
AcDbEntity
  8
0
 62
     0
100
AcDbLine
 10
225.7517730496447
 20
49.00000000000036
 30
0.0
 11
225.7517730496447
 21
10.0
 31
0.0
  0
LINE
  5
8C
330
24
100
AcDbEntity
  8
0
 62
     0
100
AcDbLine
 10
205.7659574468077
 20
22.00000000000007
 30
0.0
 11
205.7659574468077
 21
10.0
 31
0.0
  0
LINE
  5
8D
330
24
100
AcDbEntity
  8
0
 62
     0
100
AcDbLine
 10
216.4042553191484
 20
22.00000000000007
 30
0.0
 11
216.4042553191484
 21
10.0
 31
0.0
  0
LINE
  5
8E
330
24
100
AcDbEntity
  8
0
 62
     0
100
AcDbLine
 10
157.2978723404242
 20
16.00000000000008
 30
0.0
 11
195.1276595744673
 21
16.00000000000008
 31
0.0
  0
LINE
  5
8F
330
24
100
AcDbEntity
  8
0
 62
     0
100
AcDbLine
 10
157.2978723404242
 20
10.0
 30
0.0
 11
157.2978723404242
 21
13.00000000000004
 31
0.0
  0
TEXT
  5
90
330
24
100
AcDbEntity
  8
0
 62
     0
100
AcDbText
 10
198.7174935280942
 20
10.48329012996929
 30
0.0
 40
1.791674070777747
  1
製図
  7
ADESK1
 72
     1
 11
200.5688900678978
 21
10.48329012996929
 31
0.0
100
AcDbText
  0
TEXT
  5
91
330
24
100
AcDbEntity
  8
0
 62
     0
100
AcDbText
 10
209.2960689314087
 20
10.48329012996929
 30
0.0
 40
1.791674070777747
  1
設計
  7
ADESK1
 72
     1
 11
211.2071879402383
 21
10.48329012996929
 31
0.0
100
AcDbText
  0
TEXT
  5
92
330
24
100
AcDbEntity
  8
0
 62
     0
100
AcDbText
 10
219.2447163844405
 20
10.55220101068186
 30
0.0
 40
1.791674070777747
  1
照査
  7
ADESK1
 72
     1
 11
221.1558353932701
 21
10.55220101068186
 31
0.0
100
AcDbText
  0
LINE
  5
93
330
24
100
AcDbEntity
  8
0
 62
     0
100
AcDbLine
 10
157.2978723404242
 20
25.00000000000012
 30
0.0
 11
195.1276595744673
 21
25.00000000000012
 31
0.0
  0
LINE
  5
94
330
24
100
AcDbEntity
  8
0
 62
     0
100
AcDbLine
 10
157.2978723404242
 20
22.00000000000007
 30
0.0
 11
195.1276595744673
 21
22.00000000000012
 31
0.0
  0
LINE
  5
95
330
24
100
AcDbEntity
  8
0
 62
     0
100
AcDbLine
 10
157.2978723404242
 20
19.00000000000007
 30
0.0
 11
195.1276595744673
 21
19.00000000000012
 31
0.0
  0
LINE
  5
96
330
24
100
AcDbEntity
  8
0
 62
     0
100
AcDbLine
 10
157.2978723404242
 20
34.00000000000024
 30
0.0
 11
225.7517730496447
 21
34.00000000000024
 31
0.0
  0
LINE
  5
97
330
24
100
AcDbEntity
  8
0
 62
     0
100
AcDbLine
 10
157.2978723404242
 20
31.0000000000002
 30
0.0
 11
225.7517730496447
 21
31.0000000000002
 31
0.0
  0
LINE
  5
98
330
24
100
AcDbEntity
  8
0
 62
     0
100
AcDbLine
 10
157.2978723404242
 20
28.00000000000015
 30
0.0
 11
225.7517730496447
 21
28.00000000000015
 31
0.0
  0
LINE
  5
99
330
24
100
AcDbEntity
  8
0
 62
     0
100
AcDbLine
 10
195.1276595744673
 20
25.00000000000012
 30
0.0
 11
225.7517730496447
 21
25.00000000000012
 31
0.0
  0
LINE
  5
9A
330
24
100
AcDbEntity
  8
0
 62
     0
100
AcDbLine
 10
195.1276595744673
 20
49.00000000000036
 30
0.0
 11
195.1276595744673
 21
25.00000000000012
 31
0.0
  0
LINE
  5
9B
330
24
100
AcDbEntity
  8
0
 62
     0
100
AcDbLine
 10
202.3333333333325
 20
37.00000000000024
 30
0.0
 11
202.3333333333325
 21
25.00000000000012
 31
0.0
  0
LINE
  5
9C
330
24
100
AcDbEntity
  8
0
 62
     0
100
AcDbLine
 10
213.1418439716305
 20
49.00000000000036
 30
0.0
 11
213.1418439716305
 21
22.00000000000012
 31
0.0
  0
LINE
  5
9D
330
24
100
AcDbEntity
  8
0
 62
     0
100
AcDbLine
 10
279.7943262411347
 20
22.00000000000012
 30
0.0
 11
279.7943262411347
 21
10.0
 31
0.0
  0
LINE
  5
9E
330
24
100
AcDbEntity
  8
0
 62
     0
100
AcDbLine
 10
287.0
 20
49.00000000000036
 30
0.0
 11
287.0
 21
10.0
 31
0.0
  0
LINE
  5
9F
330
24
100
AcDbEntity
  8
0
 62
     0
100
AcDbLine
 10
287.0
 20
10.0
 30
0.0
 11
287.0
 21
49.00000000000036
 31
0.0
  0
LINE
  5
A0
330
24
100
AcDbEntity
  8
0
 62
     0
100
AcDbLine
 10
279.7943262411347
 20
16.00000000000008
 30
0.0
 11
287.0
 21
16.00000000000008
 31
0.0
  0
ENDBLK
  5
A2
330
24
100
AcDbEntity
  8
0
100
AcDbBlockEnd
  0
BLOCK
  5
3443
330
3437
100
AcDbEntity
  8
0
100
AcDbBlockBegin
  2
*D1
 70
     1
 10
0.0
 20
0.0
 30
0.0
  3
*D1
  1

  0
LINE
  5
3438
330
3437
100
AcDbEntity
  8
OBJECT
 62
     0
370
    -2
100
AcDbLine
 10
-8068.568047744786
 20
3998.303038975791
 30
0.0
 11
-7757.422052324407
 21
3998.303038975791
 31
0.0
  0
LINE
  5
3439
330
3437
100
AcDbEntity
  8
OBJECT
 62
     0
370
    -2
100
AcDbLine
 10
-8068.568047744786
 20
4078.303038975791
 30
0.0
 11
-7757.422052324407
 21
4078.303038975791
 31
0.0
  0
LINE
  5
343A
330
3437
100
AcDbEntity
  8
OBJECT
 62
     0
370
    -2
100
AcDbLine
 10
-7776.172052324408
 20
3960.803038975791
 30
0.0
 11
-7776.172052324408
 21
3923.303038975791
 31
0.0
  0
LINE
  5
343B
330
3437
100
AcDbEntity
  8
OBJECT
 62
     0
370
    -2
100
AcDbLine
 10
-7776.172052324408
 20
4115.803038975792
 30
0.0
 11
-7776.172052324408
 21
4153.303038975791
 31
0.0
  0
LINE
  5
343C
330
3437
100
AcDbEntity
  8
OBJECT
 62
     0
370
    -2
100
AcDbLine
 10
-7776.172052324408
 20
3998.303038975791
 30
0.0
 11
-7776.172052324408
 21
4078.303038975791
 31
0.0
  0
SOLID
  5
343D
330
3437
100
AcDbEntity
  8
OBJECT
 62
     0
100
AcDbTrace
 10
-7782.422052324408
 20
3960.803038975791
 30
0.0
 11
-7769.922052324408
 21
3960.803038975791
 31
0.0
 12
-7776.172052324408
 22
3998.303038975791
 32
0.0
 13
-7776.172052324408
 23
3998.303038975791
 33
0.0
  0
SOLID
  5
343E
330
3437
100
AcDbEntity
  8
OBJECT
 62
     0
100
AcDbTrace
 10
-7782.422052324408
 20
4115.803038975792
 30
0.0
 11
-7769.922052324408
 21
4115.803038975792
 31
0.0
 12
-7776.172052324408
 22
4078.303038975791
 32
0.0
 13
-7776.172052324408
 23
4078.303038975791
 33
0.0
  0
MTEXT
  5
343F
330
3437
100
AcDbEntity
  8
OBJECT
 62
     0
100
AcDbMText
 10
-7804.297052324407
 20
4038.303038975789
 30
0.0
 40
37.5
 41
0.0
 71
     5
 72
     1
  1
\A1;80
 11
0.0000000000000001
 21
1.0
 31
0.0
 73
     1
 44
1.0
  0
POINT
  5
3440
330
3437
100
AcDbEntity
  8
DEFPOINTS
 62
     0
100
AcDbPoint
 10
-8077.943047744787
 20
3998.303038975791
 30
0.0
  0
POINT
  5
3441
330
3437
100
AcDbEntity
  8
DEFPOINTS
 62
     0
100
AcDbPoint
 10
-8077.943047744787
 20
4078.303038975791
 30
0.0
  0
POINT
  5
3442
330
3437
100
AcDbEntity
  8
DEFPOINTS
 62
     0
100
AcDbPoint
 10
-7776.172052324408
 20
4078.303038975791
 30
0.0
  0
ENDBLK
  5
3444
330
3437
100
AcDbEntity
  8
0
100
AcDbBlockEnd
  0
BLOCK
  5
3447
330
3445
100
AcDbEntity
  8
0
100
AcDbBlockBegin
  2
A$C23BB6A77
 70
     0
 10
0.0
 20
0.0
 30
0.0
  3
A$C23BB6A77
  1

  0
DIMENSION
  5
3446
330
3445
100
AcDbEntity
  8
OBJECT
100
AcDbDimension
  2
*D1
 10
301.7709854312124
 20
154.9999934708971
 30
0.0
 11
273.6459854312115
 21
114.9999934708962
 31
0.0
 12
8077.94303775562
 22
-3923.303045504894
 32
0.0
 71
     5
 42
79.99999999999954
  3
STANDARD
100
AcDbAlignedDimension
 13
-0.0000099891658465
 23
74.99999347089761
 33
0.0
 14
-0.0000099891658465
 24
154.9999934708971
 34
0.0
 50
90.0
100
AcDbRotatedDimension
1001
ACAD
1000
DSTYLE
1002
{
1070
    40
1040
15.0
1070
    41
1040
2.5
1070
    42
1040
0.625
1070
    43
1040
3.75
1070
    44
1040
1.25
1070
    73
1070
     0
1070
    74
1070
     0
1070
    77
1070
     1
1070
    78
1070
     8
1070
   140
1040
2.5
1070
   141
1040
2.5
1070
   143
1040
0.0394
1070
   147
1040
0.625
1070
   171
1070
     4
1070
   172
1070
     1
1070
   273
1070
     8
1070
   274
1070
     4
1070
   277
1070
     6
1002
}
  0
ENDBLK
  5
3448
330
3445
100
AcDbEntity
  8
0
100
AcDbBlockEnd
  0
ENDSEC
  0
SECTION
  2
ENTITIES
  0
MTEXT
  5
938
330
18
100
AcDbEntity
  8
上書線
100
AcDbMText
 10
1865.739761775792
 20
499.0283937835011
 30
0.0
 40
37.5
 41
0.0
 71
     4
 72
     1
  1
\A1;
 73
     1
 44
1.0
  0
LINE
  5
123E
330
18
100
AcDbEntity
  8
基準線
100
AcDbLine
 10
710.0813698183028
 20
2117.506972677286
 30
0.0
 11
731.0813698183028
 21
2117.506972677286
 31
0.0
  0
LINE
  5
14BB
330
18
100
AcDbEntity
  8
基準線
100
AcDbLine
 10
1281.296189060135
 20
2744.451732006984
 30
0.0
 11
1631.12377476475
 21
2744.451732006984
 31
0.0
  0
LINE
  5
14BC
330
18
100
AcDbEntity
  8
基準線
100
AcDbLine
 10
1131.296189060135
 20
2594.451732006984
 30
0.0
 11
1604.134047986604
 21
2594.451732006984
 31
0.0
  0
LINE
  5
1546
330
18
100
AcDbEntity
  8
基準線
100
AcDbLine
 10
2000.40772718317
 20
1104.126411816217
 30
0.0
 11
2000.40772718317
 21
1262.163674897728
 31
0.0
  0
LINE
  5
154B
330
18
100
AcDbEntity
  8
基準線
100
AcDbLine
 10
2550.40772718317
 20
1049.126411816217
 30
0.0
 11
2550.40772718317
 21
1211.614819254876
 31
0.0
  0
LINE
  5
154C
330
18
100
AcDbEntity
  8
基準線
100
AcDbLine
 10
2150.40772718317
 20
1049.126411816217
 30
0.0
 11
2150.40772718317
 21
1226.779475202555
 31
0.0
  0
LINE
  5
15CA
330
18
100
AcDbEntity
  8
基準線
100
AcDbLine
 10
3419.935833980378
 20
2804.85492986955
 30
0.0
 11
3776.432100616551
 21
2804.85492986955
 31
0.0
  0
LINE
  5
15CC
330
18
100
AcDbEntity
  8
基準線
100
AcDbLine
 10
3776.432100616551
 20
2804.85492986955
 30
0.0
 11
4171.357345948922
 21
2804.85492986955
 31
0.0
  0
LINE
  5
15D0
330
18
100
AcDbEntity
  8
基準線
100
AcDbLine
 10
3419.935833980378
 20
2684.85492986955
 30
0.0
 11
3776.432100616551
 21
2684.85492986955
 31
0.0
  0
LINE
  5
15D1
330
18
100
AcDbEntity
  8
基準線
100
AcDbLine
 10
3598.183967298465
 20
2684.85492986955
 30
0.0
 11
3598.183967298465
 21
984.8549298695507
 31
0.0
  0
LINE
  5
15D2
330
18
100
AcDbEntity
  8
基準線
100
AcDbLine
 10
3776.432100616551
 20
2484.854929869551
 30
0.0
 11
4171.357345948921
 21
2484.85492986955
 31
0.0
  0
LINE
  5
15D3
330
18
100
AcDbEntity
  8
基準線
100
AcDbLine
 10
3973.894723282737
 20
2684.854929869551
 30
0.0
 11
3973.894723282734
 21
984.8549298695507
 31
0.0
  0
LINE
  5
15D4
330
18
100
AcDbEntity
  8
基準線
100
AcDbLine
 10
3419.935833980378
 20
2684.85492986955
 30
0.0
 11
3419.935833980378
 21
2584.85492986955
 31
0.0
  0
LINE
  5
15D5
330
18
100
AcDbEntity
  8
基準線
100
AcDbLine
 10
3419.935833980378
 20
2634.85492986955
 30
0.0
 11
4114.659436953616
 21
2634.85492986955
 31
0.0
  0
MTEXT
  5
2600
330
18
100
AcDbEntity
  8
上書線
100
AcDbMText
 10
8078.87160943617
 20
6107.146574063727
 30
0.0
 40
60.0
 41
956.9129999999999
 71
     1
 72
     5
  1
重量表
 73
     1
 44
1.0
  0
MTEXT
  5
283E
330
18
100
AcDbEntity
  8
上線
100
AcDbMText
 10
8178.703543737062
 20
5932.304664482305
 30
0.0
 40
49.968
 41
197.7879999999999
 71
     1
 72
     5
  1
Ｈ
 73
     1
 44
1.0
  0
LINE
  5
2841
330
18
100
AcDbEntity
  8
上線
100
AcDbLine
 10
7802.648264542916
 20
5565.385743984833
 30
0.0
 11
8620.378772189161
 21
5565.385743984833
 31
0.0
  0
LINE
  5
2842
330
18
100
AcDbEntity
  8
上線
100
AcDbLine
 10
7802.648264542916
 20
5663.3011016599
 30
0.0
 11
8620.378772189161
 21
5663.3011016599
 31
0.0
  0
LINE
  5
2843
330
18
100
AcDbEntity
  8
上線
100
AcDbLine
 10
7802.648264542916
 20
5761.216459334968
 30
0.0
 11
8620.378772189161
 21
5761.216459334968
 31
0.0
  0
LINE
  5
2844
330
18
100
AcDbEntity
  8
上線
100
AcDbLine
 10
7802.648264542916
 20
5859.051817123798
 30
0.0
 11
8621.013431020633
 21
5859.051817123798
 31
0.0
  0
LINE
  5
2845
330
18
100
AcDbEntity
  8
上線
100
AcDbLine
 10
8620.378772189161
 20
5957.047174685103
 30
0.0
 11
7802.648264542916
 21
5957.047174685103
 31
0.0
  0
LINE
  5
284A
330
18
100
AcDbEntity
  8
上線
100
AcDbLine
 10
8075.225100424997
 20
5957.047174685103
 30
0.0
 11
8075.225100424997
 21
5565.385743984833
 31
0.0
  0
LINE
  5
284B
330
18
100
AcDbEntity
  8
上線
100
AcDbLine
 10
7802.648264542916
 20
5957.047174685103
 30
0.0
 11
7802.648264542916
 21
5565.385743984833
 31
0.0
  0
MTEXT
  5
285C
330
18
100
AcDbEntity
  8
上線
100
AcDbMText
 10
7897.23562956804
 20
5932.304664482305
 30
0.0
 40
49.968
 41
197.7879999999999
 71
     1
 72
     5
  1
h1
 73
     1
 44
1.0
  0
LINE
  5
285F
330
18
100
AcDbEntity
  8
上線
100
AcDbLine
 10
8347.801936307078
 20
5957.047174685103
 30
0.0
 11
8347.801936307078
 21
5565.385743984833
 31
0.0
  0
LINE
  5
2860
330
18
100
AcDbEntity
  8
上線
100
AcDbLine
 10
8620.378772189161
 20
5565.385743984833
 30
0.0
 11
8620.378772189161
 21
5957.047174685103
 31
0.0
  0
MTEXT
  5
2866
330
18
100
AcDbEntity
  8
上線
100
AcDbMText
 10
8390.925811732934
 20
5915.491253724706
 30
0.0
 40
24.984
 41
247.78800162
 71
     1
 72
     5
  1
\fＭＳ Ｐ明朝|b0|i0|c128|p18;参考重量（㎏）
 73
     1
 44
1.0
  0
MTEXT
  5
3560
330
18
100
AcDbEntity
  8
上線
100
AcDbMText
 10
7916.989980290231
 20
5831.42419527514
 30
0.0
 40
49.968
 41
247.7879999999999
 71
     1
 72
     5
  1
300
 73
     1
 44
1.0
  0
MTEXT
  5
3561
330
18
100
AcDbEntity
  8
上線
100
AcDbMText
 10
7915.115532456728
 20
5635.673479811242
 30
0.0
 40
49.968
 41
247.7879999999999
 71
     1
 72
     5
  1
400
 73
     1
 44
1.0
  0
MTEXT
  5
3575
330
18
100
AcDbEntity
  8
上線
100
AcDbMText
 10
8187.692368338808
 20
5635.51348003877
 30
0.0
 40
49.968
 41
247.7879999999999
 71
     1
 72
     5
  1
900
 73
     1
 44
1.0
  0
MTEXT
  5
3577
330
18
100
AcDbEntity
  8
上線
100
AcDbMText
 10
8187.692368338808
 20
5831.344195388903
 30
0.0
 40
49.968
 41
247.7879999999999
 71
     1
 72
     5
  1
800
 73
     1
 44
1.0
  0
MTEXT
  5
358C
330
18
100
AcDbEntity
  8
上線
100
AcDbMText
 10
8462.143652054392
 20
5831.42419527514
 30
0.0
 40
49.968
 41
247.7879999999999
 71
     1
 72
     5
  1
476
 73
     1
 44
1.0
  0
MTEXT
  5
358D
330
18
100
AcDbEntity
  8
上線
100
AcDbMText
 10
8460.269204220889
 20
5635.673479811242
 30
0.0
 40
49.968
 41
247.7879999999999
 71
     1
 72
     5
  1
540
 73
     1
 44
1.0
  0
MTEXT
  5
3908
330
18
100
AcDbEntity
  8
上線
100
AcDbMText
 10
7916.989980290231
 20
5733.588837486308
 30
0.0
 40
49.968
 41
247.7879999999999
 71
     1
 72
     5
  1
350
 73
     1
 44
1.0
  0
MTEXT
  5
390F
330
18
100
AcDbEntity
  8
上線
100
AcDbMText
 10
8187.692368338808
 20
5733.508837600073
 30
0.0
 40
49.968
 41
247.7879999999999
 71
     1
 72
     5
  1
850
 73
     1
 44
1.0
  0
MTEXT
  5
3914
330
18
100
AcDbEntity
  8
上線
100
AcDbMText
 10
8462.143652054392
 20
5733.588837486308
 30
0.0
 40
49.968
 41
247.7879999999999
 71
     1
 72
     5
  1
508
 73
     1
 44
1.0
  0
LINE
  5
3C4D
330
18
100
AcDbEntity
  8
点線
100
AcDbLine
 10
6657.478341663381
 20
4723.838742162807
 30
0.0
 11
6997.478341663381
 21
4723.838742162807
 31
0.0
  0
LINE
  5
3C4E
330
18
100
AcDbEntity
  8
OBJECT
100
AcDbLine
 10
7066.764055949095
 20
3873.838742162807
 30
0.0
 11
6586.764055949095
 21
3873.838742162807
 31
0.0
  0
LINE
  5
3C4F
330
18
100
AcDbEntity
  8
上線
100
AcDbLine
 10
7066.764055949095
 20
4773.838742162808
 30
0.0
 11
6586.764055949095
 21
4773.838742162808
 31
0.0
  0
LINE
  5
3C55
330
18
100
AcDbEntity
  8
OBJECT
100
AcDbLine
 10
6586.764055949095
 20
3873.838742162807
 30
0.0
 11
6586.764055949095
 21
4773.838742162808
 31
0.0
  0
LINE
  5
3C66
330
18
100
AcDbEntity
  8
点線
100
AcDbLine
 10
6657.478341663381
 20
4723.838742162807
 30
0.0
 11
6657.478341663381
 21
4773.838742162808
 31
0.0
  0
LINE
  5
3C6E
330
18
100
AcDbEntity
  8
点線
100
AcDbLine
 10
6166.764055949094
 20
4723.838742162807
 30
0.0
 11
6166.764055949094
 21
3873.838742162807
 31
0.0
  0
LINE
  5
3C6F
330
18
100
AcDbEntity
  8
点線
100
AcDbLine
 10
5566.764055949095
 20
4723.838742162807
 30
0.0
 11
5566.764055949095
 21
3873.838742162807
 31
0.0
  0
LINE
  5
3C70
330
18
100
AcDbEntity
  8
OBJECT
100
AcDbLine
 10
6286.764055949095
 20
3873.838742162807
 30
0.0
 11
6286.764055949095
 21
4773.838742162808
 31
0.0
  0
LINE
  5
3C71
330
18
100
AcDbEntity
  8
OBJECT
100
AcDbLine
 10
5446.764055949095
 20
4773.838742162808
 30
0.0
 11
5446.764055949095
 21
3873.838742162807
 31
0.0
  0
LINE
  5
3C72
330
18
100
AcDbEntity
  8
点線
100
AcDbLine
 10
6946.049770234809
 20
4723.838742162807
 30
0.0
 11
6946.049770234809
 21
3873.838742162807
 31
0.0
  0
LINE
  5
3C73
330
18
100
AcDbEntity
  8
点線
100
AcDbLine
 10
6707.478341663381
 20
4723.838742162807
 30
0.0
 11
6707.478341663381
 21
3873.838742162807
 31
0.0
  0
LINE
  5
3C74
330
18
100
AcDbEntity
  8
OBJECT
100
AcDbLine
 10
7066.764055949095
 20
4773.838742162808
 30
0.0
 11
7066.764055949095
 21
3873.838742162807
 31
0.0
  0
LINE
  5
3C75
330
18
100
AcDbEntity
  8
OBJECT
100
AcDbLine
 10
5446.764055949095
 20
3873.838742162807
 30
0.0
 11
6286.764055949095
 21
3873.838742162807
 31
0.0
  0
LINE
  5
3C78
330
18
100
AcDbEntity
  8
点線
100
AcDbLine
 10
5566.764055949095
 20
4723.838742162807
 30
0.0
 11
6166.764055949094
 21
4723.838742162807
 31
0.0
  0
LINE
  5
3C79
330
18
100
AcDbEntity
  8
OBJECT
100
AcDbLine
 10
5446.764055949095
 20
4773.838742162808
 30
0.0
 11
6286.764055949095
 21
4773.838742162808
 31
0.0
  0
LINE
  5
3C7C
330
18
100
AcDbEntity
  8
上線
 48
10.0
100
AcDbLine
 10
6946.049770234809
 20
4673.838742162807
 30
0.0
 11
6942.468138622823
 21
4323.124529323659
 31
0.0
  0
LINE
  5
3C7D
330
18
100
AcDbEntity
  8
上線
 48
10.0
100
AcDbLine
 10
6707.478341663381
 20
4673.838742162807
 30
0.0
 11
6711.059973275367
 21
4323.124529323659
 31
0.0
  0
LINE
  5
3C81
330
18
100
AcDbEntity
  8
上線
100
AcDbLine
 10
6892.473239882846
 20
4273.838742162808
 30
0.0
 11
6761.054872015343
 21
4273.838742162808
 31
0.0
  0
ARC
  5
3C82
330
18
100
AcDbEntity
  8
上線
100
AcDbCircle
 10
6761.054872015343
 20
4323.838742162807
 30
0.0
 40
50.0
100
AcDbArc
 50
180.8184554616949
 51
270.0
  0
ARC
  5
3C83
330
18
100
AcDbEntity
  8
上線
100
AcDbCircle
 10
6892.473239882846
 20
4323.838742162807
 30
0.0
 40
50.0
100
AcDbArc
 50
270.0
 51
359.181544538305
  0
LINE
  5
3C84
330
18
100
AcDbEntity
  8
上線
 48
10.0
100
AcDbLine
 10
6707.478341663381
 20
4673.838742162807
 30
0.0
 11
6946.049770234809
 21
4673.838742162807
 31
0.0
  0
LINE
  5
3C85
330
18
100
AcDbEntity
  8
点線
100
AcDbLine
 10
6997.478341663381
 20
4723.838742162807
 30
0.0
 11
6997.478341663381
 21
4773.838742162808
 31
0.0
  0
LINE
  5
3C86
330
18
100
AcDbEntity
  8
点線
100
AcDbLine
 10
5566.764055949095
 20
4273.838742162807
 30
0.0
 11
5446.764055949095
 21
4273.838742162807
 31
0.0
  0
LINE
  5
3C87
330
18
100
AcDbEntity
  8
点線
100
AcDbLine
 10
5566.764055949095
 20
4773.838742162808
 30
0.0
 11
5566.764055949095
 21
4723.838742162807
 31
0.0
  0
LINE
  5
3C88
330
18
100
AcDbEntity
  8
点線
100
AcDbLine
 10
5566.764055949095
 20
4673.838742162806
 30
0.0
 11
5446.764055949095
 21
4673.838742162806
 31
0.0
  0
LINE
  5
3C96
330
18
100
AcDbEntity
  8
点線
100
AcDbLine
 10
6166.764055949094
 20
4273.838742162807
 30
0.0
 11
6286.764055949095
 21
4273.838742162807
 31
0.0
  0
LINE
  5
3C97
330
18
100
AcDbEntity
  8
点線
100
AcDbLine
 10
6166.764055949094
 20
4673.838742162806
 30
0.0
 11
6286.764055949095
 21
4673.838742162806
 31
0.0
  0
LINE
  5
3C98
330
18
100
AcDbEntity
  8
点線
100
AcDbLine
 10
6166.764055949094
 20
4723.838742162807
 30
0.0
 11
6166.764055949094
 21
4773.838742162808
 31
0.0
  0
LINE
  5
4003
330
18
100
AcDbEntity
  8
WUWAGAKI
100
AcDbLine
 10
8724.406148184703
 20
3501.75387487016
 30
0.0
 11
8724.406148184703
 21
3921.734307499729
 31
0.0
  0
LINE
  5
4004
330
18
100
AcDbEntity
  8
WUWAGAKI
100
AcDbLine
 10
7631.609573084279
 20
3921.734307499729
 30
0.0
 11
7631.609573084279
 21
3501.75387487016
 31
0.0
  0
LINE
  5
4005
330
18
100
AcDbEntity
  8
WUWAGAKI
100
AcDbLine
 10
7883.726044652786
 20
3921.734307499729
 30
0.0
 11
7883.726044652786
 21
3632.782570425372
 31
0.0
  0
LINE
  5
4006
330
18
100
AcDbEntity
  8
WUWAGAKI
100
AcDbLine
 10
8790.909160992658
 20
3433.254340428357
 30
0.0
 11
8790.909160992658
 21
6359.404192224481
 31
0.0
  0
LINE
  5
4007
330
18
100
AcDbEntity
  8
WUWAGAKI
100
AcDbLine
 10
4520.19024236574
 20
6359.404192224481
 30
0.0
 11
4520.19024236574
 21
3433.254340428357
 31
0.0
  0
TEXT
  5
4008
330
18
100
AcDbEntity
  8
WUWAGAKI
100
AcDbText
 10
7679.143228732979
 20
3853.489906772107
 30
0.0
 40
45.0
  1
種　別
100
AcDbText
  0
TEXT
  5
4009
330
18
100
AcDbEntity
  8
WUWAGAKI
100
AcDbText
 10
7918.062448015618
 20
3850.910746576048
 30
0.0
 40
45.0
  1
集水桝
100
AcDbText
  0
LINE
  5
400A
330
18
100
AcDbEntity
  8
WUWAGAKI
100
AcDbLine
 10
4520.19024236574
 20
3433.254340428357
 30
0.0
 11
8790.909160992658
 21
3433.254340428357
 31
0.0
  0
LINE
  5
400B
330
18
100
AcDbEntity
  8
WUWAGAKI
100
AcDbLine
 10
7631.609573084279
 20
3827.204019554592
 30
0.0
 11
8721.774325848938
 21
3827.204019554592
 31
0.0
  0
LINE
  5
400C
330
18
100
AcDbEntity
  8
WUWAGAKI
100
AcDbLine
 10
7631.609573084279
 20
3827.204019554592
 30
0.0
 11
8721.774325848938
 21
3827.204019554592
 31
0.0
  0
LINE
  5
400D
330
18
100
AcDbEntity
  8
WUWAGAKI
100
AcDbLine
 10
7631.609573084279
 20
3501.75387487016
 30
0.0
 11
8724.406148184703
 21
3501.75387487016
 31
0.0
  0
LINE
  5
400E
330
18
100
AcDbEntity
  8
WUWAGAKI
100
AcDbLine
 10
7631.609573084279
 20
3731.297634589977
 30
0.0
 11
8724.4061481847
 21
3731.297634589977
 31
0.0
  0
LINE
  5
400F
330
18
100
AcDbEntity
  8
WUWAGAKI
100
AcDbLine
 10
7631.609573084279
 20
3632.782570425372
 30
0.0
 11
8724.4061481847
 21
3632.782570425372
 31
0.0
  0
TEXT
  5
4010
330
18
100
AcDbEntity
  8
WUWAGAKI
100
AcDbText
 10
7918.062448015618
 20
3755.721396141662
 30
0.0
 40
38.2725
  1
240×U400×840×120/120×H
100
AcDbText
  0
TEXT
  5
4011
330
18
100
AcDbEntity
  8
WUWAGAKI
100
AcDbText
 10
7704.135774607641
 20
3655.853113743645
 30
0.0
 40
45.0
  1
縮尺
100
AcDbText
  0
TEXT
  5
4012
330
18
100
AcDbEntity
  8
WUWAGAKI
100
AcDbText
 10
7676.488016846559
 20
3752.351066735126
 30
0.0
 40
45.0
  1
寸　法
100
AcDbText
  0
TEXT
  5
4013
330
18
100
AcDbEntity
  8
WUWAGAKI
100
AcDbText
 10
7918.062448015618
 20
3657.155029173102
 30
0.0
 40
45.0
  1
S＝　1：15
100
AcDbText
  0
TEXT
  5
4014
330
18
100
AcDbEntity
  8
WUWAGAKI
100
AcDbText
 10
7870.315005983754
 20
3533.361441676547
 30
0.0
 40
60.0
  1
㈱　ウ　チ　コ　ン
100
AcDbText
  0
TEXT
  5
4015
330
18
100
AcDbEntity
  8
WUWAGAKI
100
AcDbText
 10
8304.823306588842
 20
3657.204466684643
 30
0.0
 40
45.0
  1
重量
100
AcDbText
  0
LINE
  5
4016
330
18
100
AcDbEntity
  8
WUWAGAKI
100
AcDbLine
 10
8277.895530836698
 20
3731.297634589977
 30
0.0
 11
8277.895530836698
 21
3632.782570425372
 31
0.0
  0
LINE
  5
4017
330
18
100
AcDbEntity
  8
WUWAGAKI
100
AcDbLine
 10
8462.123957599015
 20
3731.297634589977
 30
0.0
 11
8462.123957599015
 21
3632.782570425372
 31
0.0
  0
LINE
  5
4018
330
18
100
AcDbEntity
  8
WUWAGAKI
100
AcDbLine
 10
8790.909160992658
 20
6359.404192224481
 30
0.0
 11
4520.19024236574
 21
6359.404192224481
 31
0.0
  0
LINE
  5
4019
330
18
100
AcDbEntity
  8
OBJECT
 48
10.0
100
AcDbLine
 10
7066.764081771587
 20
4953.83873339939
 30
0.0
 11
7179.264081771588
 21
4953.83873339939
 31
0.0
  0
LINE
  5
4030
330
18
100
AcDbEntity
  8
OBJECT
 48
10.0
100
AcDbLine
 10
5116.764064712516
 20
4773.838742162808
 30
0.0
 11
5116.764064712512
 21
3873.838742162806
 31
0.0
  0
LINE
  5
4031
330
18
100
AcDbEntity
  8
OBJECT
 48
10.0
100
AcDbLine
 10
5266.764066689045
 20
3873.838742162806
 30
0.0
 11
5266.764066689045
 21
4773.838742162808
 31
0.0
  0
LINE
  5
4034
330
18
100
AcDbEntity
  8
0
 48
10.0
100
AcDbLine
 10
5416.764055949094
 20
4273.838742162808
 30
0.0
 11
5236.764055949095
 21
4273.838742162808
 31
0.0
  0
LINE
  5
4035
330
18
100
AcDbEntity
  8
0
 48
10.0
100
AcDbLine
 10
5416.764055949094
 20
3873.838742162806
 30
0.0
 11
5086.764055949095
 21
3873.838742162806
 31
0.0
  0
SOLID
  5
4036
330
18
100
AcDbEntity
  8
0
  6
ByBlock
 62
     0
 48
10.0
100
AcDbTrace
 10
5123.014055949094
 20
3911.338742162829
 30
0.0
 11
5110.514055949092
 21
3911.338742162829
 31
0.0
 12
5116.764055949092
 22
3873.838742162829
 32
0.0
 13
5116.764055949092
 23
3873.838742162829
 33
0.0
  0
SOLID
  5
4037
330
18
100
AcDbEntity
  8
0
  6
ByBlock
 62
     0
 48
10.0
100
AcDbTrace
 10
5273.014066689042
 20
3911.338754021961
 30
0.0
 11
5260.514066689042
 21
3911.338754021961
 31
0.0
 12
5266.764066689042
 22
3873.838754021961
 32
0.0
 13
5266.764066689042
 23
3873.838754021961
 33
0.0
  0
MTEXT
  5
4038
330
18
100
AcDbEntity
  8
0
  6
ByBlock
 62
     0
 48
10.0
100
AcDbMText
 10
5236.764064712514
 20
4073.838742162807
 30
0.0
 40
37.5
 41
0.0
 71
     5
 72
     1
  1
h1
 11
0.0000000000000001
 21
1.0
 31
0.0
 73
     1
 44
1.0
  0
MTEXT
  5
4039
330
18
100
AcDbEntity
  8
0
  6
ByBlock
 62
     0
 48
10.0
100
AcDbMText
 10
5086.764055949093
 20
4353.838742162806
 30
0.0
 40
37.5
 41
0.0
 71
     5
 72
     1
  1
H
 11
0.0000000000000001
 21
1.0
 31
0.0
 73
     1
 44
1.0
  0
SOLID
  5
403A
330
18
100
AcDbEntity
  8
0
  6
ByBlock
 62
     0
 48
10.0
100
AcDbTrace
 10
5273.014055949097
 20
4236.338742162807
 30
0.0
 11
5260.514055949098
 21
4236.338742162807
 31
0.0
 12
5266.764055949096
 22
4273.838742162808
 32
0.0
 13
5266.764055949096
 23
4273.838742162808
 33
0.0
  0
SOLID
  5
403B
330
18
100
AcDbEntity
  8
0
  6
ByBlock
 62
     0
 48
10.0
100
AcDbTrace
 10
5273.014055949097
 20
4311.338742162807
 30
0.0
 11
5260.514055949098
 21
4311.338742162807
 31
0.0
 12
5266.764055949096
 22
4273.838742162808
 32
0.0
 13
5266.764055949096
 23
4273.838742162808
 33
0.0
  0
LINE
  5
403D
330
18
100
AcDbEntity
  8
0
 48
10.0
100
AcDbLine
 10
5416.764055949094
 20
4673.838742162807
 30
0.0
 11
5236.764055949095
 21
4673.838742162807
 31
0.0
  0
LINE
  5
403E
330
18
100
AcDbEntity
  8
0
 48
10.0
100
AcDbLine
 10
5416.764055949094
 20
4773.838742162808
 30
0.0
 11
5086.764055949095
 21
4773.838742162808
 31
0.0
  0
SOLID
  5
403F
330
18
100
AcDbEntity
  8
0
  6
ByBlock
 62
     0
 48
10.0
100
AcDbTrace
 10
5273.014066689042
 20
4736.338730303653
 30
0.0
 11
5260.514066689042
 21
4736.338730303653
 31
0.0
 12
5266.764066689042
 22
4773.838730303653
 32
0.0
 13
5266.764066689042
 23
4773.838730303653
 33
0.0
  0
SOLID
  5
4040
330
18
100
AcDbEntity
  8
0
  6
ByBlock
 62
     0
 48
10.0
100
AcDbTrace
 10
5123.014055949094
 20
4736.338742162785
 30
0.0
 11
5110.514055949092
 21
4736.338742162785
 31
0.0
 12
5116.764055949092
 22
4773.838742162785
 32
0.0
 13
5116.764055949092
 23
4773.838742162785
 33
0.0
  0
MTEXT
  5
4041
330
18
100
AcDbEntity
  8
0
  6
ByBlock
 62
     0
 48
10.0
100
AcDbMText
 10
5236.764064712514
 20
4723.838742162807
 30
0.0
 40
37.5
 41
0.0
 71
     5
 72
     1
  1
100
 11
0.0000000000000001
 21
1.0
 31
0.0
 73
     1
 44
1.0
  0
MTEXT
  5
4042
330
18
100
AcDbEntity
  8
0
  6
ByBlock
 62
     0
 48
10.0
100
AcDbMText
 10
5236.764055949094
 20
4473.838742162807
 30
0.0
 40
37.5
 41
0.0
 71
     5
 72
     1
  1
400
 11
0.0000000000000001
 21
1.0
 31
0.0
 73
     1
 44
1.0
  0
SOLID
  5
4043
330
18
100
AcDbEntity
  8
0
  6
ByBlock
 62
     0
 48
10.0
100
AcDbTrace
 10
5273.014055949097
 20
4636.338806602503
 30
0.0
 11
5260.514055949098
 21
4636.338806602503
 31
0.0
 12
5266.764055949096
 22
4673.838806602502
 32
0.0
 13
5266.764055949096
 23
4673.838806602502
 33
0.0
  0
SOLID
  5
4044
330
18
100
AcDbEntity
  8
0
  6
ByBlock
 62
     0
 48
10.0
100
AcDbTrace
 10
5273.014055949097
 20
4711.33874216281
 30
0.0
 11
5260.514055949098
 21
4711.33874216281
 31
0.0
 12
5266.764055949096
 22
4673.83874216281
 32
0.0
 13
5266.764055949096
 23
4673.83874216281
 33
0.0
  0
LINE
  5
4098
330
18
100
AcDbEntity
  8
0
 48
10.0
100
AcDbLine
 10
6586.764081771566
 20
4803.838742162808
 30
0.0
 11
6586.764081771566
 21
5133.838742162808
 31
0.0
  0
LINE
  5
4099
330
18
100
AcDbEntity
  8
0
 48
10.0
100
AcDbLine
 10
7066.76408177161
 20
4803.838742162811
 30
0.0
 11
7066.76408177161
 21
5133.838742162811
 31
0.0
  0
LINE
  5
40A5
330
18
100
AcDbEntity
  8
WUWAGAKI
 48
10.0
100
AcDbLine
 10
6741.01768521776
 20
4299.394955895698
 30
0.0
 11
6787.169420006439
 21
4333.59401527631
 31
0.0
210
0.0
220
0.0
230
-1.0
1001
ACAD
1000
DSTYLE
1002
{
1070
    78
1070
     8
1070
   270
1070
     8
1070
   140
1040
2.5
1070
    74
1070
     0
1070
   172
1070
     1
1070
    73
1070
     0
1070
    77
1070
     1
1070
    40
1040
10.0
1070
   147
1040
0.625
1070
    42
1040
0.625
1070
    44
1040
1.25
1070
    43
1040
3.75
1070
   141
1040
2.5
1070
    41
1040
2.5
1070
   273
1070
     8
1070
   274
1070
     4
1070
   143
1040
0.0394
1070
   171
1070
     4
1002
}
  0
SOLID
  5
40A8
330
18
100
AcDbEntity
  8
0
  6
ByBlock
 62
     0
 48
10.0
100
AcDbTrace
 10
6752.498942554971
 20
4315.446175083506
 30
0.0
 11
6759.890312554251
 21
4305.365617086366
 31
0.0
 12
6725.952953563194
 22
4288.231786087082
 32
0.0
 13
6725.952953563194
 23
4288.231786087082
 33
0.0
  0
LINE
  5
40AB
330
18
100
AcDbEntity
  8
OBJECT
 48
10.0
100
AcDbLine
 10
6787.169420006439
 20
4333.59401527631
 30
0.0
 11
6892.169420006439
 21
4333.59401527631
 31
0.0
  0
MTEXT
  5
40AC
330
18
100
AcDbEntity
  8
0
  6
ByBlock
 62
     0
 48
10.0
100
AcDbMText
 10
6839.66942000644
 20
4363.59401527631
 30
0.0
 40
30.0
 41
0.0
 71
     5
 72
     1
  1
50R
 73
     1
 44
1.0
  0
LINE
  5
40AD
330
18
100
AcDbEntity
  8
OBJECT
 48
10.0
100
AcDbLine
 10
6586.764081771566
 20
4953.838733399389
 30
0.0
 11
7066.76408177161
 21
4953.838733399392
 31
0.0
  0
LINE
  5
40AE
330
18
100
AcDbEntity
  8
OBJECT
 48
10.0
100
AcDbLine
 10
6711.764081771566
 20
4603.838733399389
 30
0.0
 11
6941.76408177161
 21
4603.838733399391
 31
0.0
  0
SOLID
  5
40B3
330
18
100
AcDbEntity
  8
0
  6
ByBlock
 62
     0
 48
10.0
100
AcDbTrace
 10
6749.264081771572
 20
4597.588750926232
 30
0.0
 11
6749.264081771572
 21
4610.088750926229
 31
0.0
 12
6711.764081771573
 22
4603.838750926234
 32
0.0
 13
6711.764081771573
 23
4603.838750926234
 33
0.0
  0
LINE
  5
40B4
330
18
100
AcDbEntity
  8
0
 48
10.0
100
AcDbLine
 10
6711.764081771566
 20
4513.838732067616
 30
0.0
 11
6711.764081771566
 21
4633.838732067617
 31
0.0
  0
SOLID
  5
40B5
330
18
100
AcDbEntity
  8
0
  6
ByBlock
 62
     0
 48
10.0
100
AcDbTrace
 10
6624.264093630721
 20
4960.088733399388
 30
0.0
 11
6624.264093630721
 21
4947.588733399386
 31
0.0
 12
6586.764093630721
 22
4953.838733399386
 32
0.0
 13
6586.764093630721
 23
4953.838733399386
 33
0.0
  0
LINE
  5
40B6
330
18
100
AcDbEntity
  8
0
 48
10.0
100
AcDbLine
 10
6706.764081771567
 20
4803.838732067617
 30
0.0
 11
6706.764081771567
 21
4983.838732067617
 31
0.0
  0
SOLID
  5
40B7
330
18
100
AcDbEntity
  8
0
  6
ByBlock
 62
     0
 48
10.0
100
AcDbTrace
 10
6669.26408177156
 20
4947.588750926232
 30
0.0
 11
6669.26408177156
 21
4960.08875092623
 31
0.0
 12
6706.764081771559
 22
4953.838750926234
 32
0.0
 13
6706.764081771559
 23
4953.838750926234
 33
0.0
  0
MTEXT
  5
40B8
330
18
100
AcDbEntity
  8
0
  6
ByBlock
 62
     0
 48
10.0
100
AcDbMText
 10
6646.764081771566
 20
4983.838735375924
 30
0.0
 40
37.5
 41
0.0
 71
     5
 72
     1
  1
120
 73
     1
 44
1.0
  0
SOLID
  5
40B9
330
18
100
AcDbEntity
  8
0
  6
ByBlock
 62
     0
 48
10.0
100
AcDbTrace
 10
6744.264081771572
 20
4947.588750926232
 30
0.0
 11
6744.264081771572
 21
4960.08875092623
 31
0.0
 12
6706.764081771573
 22
4953.838750926234
 32
0.0
 13
6706.764081771573
 23
4953.838750926234
 33
0.0
  0
SOLID
  5
40BB
330
18
100
AcDbEntity
  8
0
  6
ByBlock
 62
     0
 48
10.0
100
AcDbTrace
 10
6904.264186932656
 20
4597.588742162812
 30
0.0
 11
6904.264186932656
 21
4610.088742162809
 31
0.0
 12
6941.764186932656
 22
4603.838742162813
 32
0.0
 13
6941.764186932656
 23
4603.838742162813
 33
0.0
  0
MTEXT
  5
40BC
330
18
100
AcDbEntity
  8
0
  6
ByBlock
 62
     0
 48
10.0
100
AcDbMText
 10
6826.76408177161
 20
4633.83874216281
 30
0.0
 40
37.5
 41
0.0
 71
     5
 72
     1
  1
230
 73
     1
 44
1.0
  0
LINE
  5
40BD
330
18
100
AcDbEntity
  8
0
 48
10.0
100
AcDbLine
 10
6941.76408177161
 20
4513.838732067616
 30
0.0
 11
6941.76408177161
 21
4633.838732067617
 31
0.0
  0
SOLID
  5
40BE
330
18
100
AcDbEntity
  8
0
  6
ByBlock
 62
     0
 48
10.0
100
AcDbTrace
 10
6909.264186932657
 20
4947.588742162811
 30
0.0
 11
6909.264186932657
 21
4960.08874216281
 31
0.0
 12
6946.764186932657
 22
4953.838742162813
 32
0.0
 13
6946.764186932657
 23
4953.838742162813
 33
0.0
  0
MTEXT
  5
40BF
330
18
100
AcDbEntity
  8
0
  6
ByBlock
 62
     0
 48
10.0
100
AcDbMText
 10
6826.76408177161
 20
4983.838742162809
 30
0.0
 40
37.5
 41
0.0
 71
     5
 72
     1
  1
240
 73
     1
 44
1.0
  0
LINE
  5
40C0
330
18
100
AcDbEntity
  8
0
 48
10.0
100
AcDbLine
 10
6996.76408177161
 20
4803.838742162808
 30
0.0
 11
6996.76408177161
 21
4983.838742162808
 31
0.0
  0
LINE
  5
40C1
330
18
100
AcDbEntity
  8
0
 48
10.0
100
AcDbLine
 10
6946.76408177161
 20
4803.838732067617
 30
0.0
 11
6946.76408177161
 21
4983.838732067617
 31
0.0
  0
MTEXT
  5
40C2
330
18
100
AcDbEntity
  8
0
  6
ByBlock
 62
     0
 48
10.0
100
AcDbMText
 10
7031.764081771609
 20
4983.838733399391
 30
0.0
 40
37.5
 41
0.0
 71
     5
 72
     1
  1
70
 73
     1
 44
1.0
  0
LWPOLYLINE
  5
40C3
330
18
100
AcDbEntity
  8
上線
 48
10.0
100
AcDbPolyline
 90
        2
 70
     1
 43
5.0
 10
6994.26408177161
 20
4953.816795791584
 42
1.0
 10
6999.26408177161
 20
4953.816795791584
 42
1.0
  0
MTEXT
  5
40C4
330
18
100
AcDbEntity
  8
0
  6
ByBlock
 62
     0
 48
10.0
100
AcDbMText
 10
6971.76408177161
 20
5013.838733399392
 30
0.0
 40
37.5
 41
0.0
 71
     5
 72
     1
  1
50
 73
     1
 44
1.0
  0
SOLID
  5
40C5
330
18
100
AcDbEntity
  8
0
  6
ByBlock
 62
     0
 48
10.0
100
AcDbTrace
 10
7104.264093630743
 20
4960.088733399388
 30
0.0
 11
7104.264093630743
 21
4947.588733399386
 31
0.0
 12
7066.764093630744
 22
4953.838733399386
 32
0.0
 13
7066.764093630744
 23
4953.838733399386
 33
0.0
  0
LINE
  5
4121
330
18
100
AcDbEntity
  8
OBJECT
 48
10.0
100
AcDbLine
 10
6586.764081771566
 20
5103.838742162813
 30
0.0
 11
7066.764081771587
 21
5103.838742162813
 31
0.0
  0
SOLID
  5
4122
330
18
100
AcDbEntity
  8
0
  6
ByBlock
 62
     0
 48
10.0
100
AcDbTrace
 10
6624.264081771589
 20
5097.588742162812
 30
0.0
 11
6624.264081771589
 21
5110.088742162812
 31
0.0
 12
6586.76408177159
 22
5103.838742162813
 32
0.0
 13
6586.76408177159
 23
5103.838742162813
 33
0.0
  0
MTEXT
  5
4123
330
18
100
AcDbEntity
  8
0
  6
ByBlock
 62
     0
 48
10.0
100
AcDbMText
 10
6826.76408177161
 20
5133.838742162811
 30
0.0
 40
37.5
 41
0.0
 71
     5
 72
     1
  1
480
 73
     1
 44
1.0
  0
SOLID
  5
4124
330
18
100
AcDbEntity
  8
0
  6
ByBlock
 62
     0
 48
10.0
100
AcDbTrace
 10
7029.264081771589
 20
5097.588742162812
 30
0.0
 11
7029.264081771589
 21
5110.088742162812
 31
0.0
 12
7066.764081771589
 22
5103.838742162813
 32
0.0
 13
7066.764081771589
 23
5103.838742162813
 33
0.0
  0
LINE
  5
4125
330
18
100
AcDbEntity
  8
WUWAGAKI
100
AcDbLine
 10
7631.609573084279
 20
3921.734307499729
 30
0.0
 11
8724.406148184703
 21
3921.734307499729
 31
0.0
  0
HATCH
  5
429F
330
18
100
AcDbEntity
  8
OBJECT
100
AcDbHatch
 10
0.0
 20
0.0
 30
0.0
210
0.0
220
0.0
230
1.0
  2
AR-SAND
 70
     0
 71
     1
 91
        2
 92
        1
 93
        4
 72
     1
 10
6172.764055949095
 20
5489.838742162808
 11
5560.764055949094
 21
5489.838742162808
 72
     1
 10
5560.764055949094
 20
5489.838742162808
 11
5560.764055949094
 21
5137.838742162808
 72
     1
 10
5560.764055949094
 20
5137.838742162808
 11
6172.764055949095
 21
5137.838742162808
 72
     1
 10
6172.764055949095
 20
5137.838742162808
 11
6172.764055949095
 21
5489.838742162808
 97
        4
330
42A0
330
42F3
330
42A1
330
439A
 92
       16
 93
        4
 72
     1
 10
5566.764055949095
 20
5483.838742162808
 11
6166.764055949094
 21
5483.838742162808
 72
     1
 10
6166.764055949094
 20
5483.838742162808
 11
6166.764055949094
 21
5143.838742162808
 72
     1
 10
6166.764055949094
 20
5143.838742162808
 11
5566.764055949095
 21
5143.838742162808
 72
     1
 10
5566.764055949095
 20
5143.838742162808
 11
5566.764055949095
 21
5483.838742162808
 97
        4
330
42A3
330
439B
330
42A2
330
42F6
 75
     0
 76
     1
 52
90.0
 41
1.0
 77
     0
 78
     4
 53
127.5
 43
7672.845259573326
 44
7955.683250079712
 45
-48.94132373293423
 46
-1.600031295984042
 79
     6
 49
0.0
 49
-38.608
 49
0.0
 49
-43.18
 49
0.0
 49
-41.275
 53
97.49999999999987
 43
7672.845259573326
 44
7955.683250079712
 45
-71.68251005683543
 46
44.95232831380027
 79
     6
 49
0.0
 49
-20.82799999999999
 49
0.0
 49
-34.79799999999999
 49
0.0
 49
-13.33499999999999
 53
57.49999999999997
 43
7672.845259573326
 44
7924.441250079711
 45
-0.1437184678545643
 46
79.09923702414579
 79
     6
 49
0.0
 49
-12.69999999999998
 49
0.0
 49
-45.71999999999993
 49
0.0
 49
-59.68999999999994
 53
47.49999999999999
 43
7672.845259573326
 44
7924.441250079711
 45
-22.29293232572162
 46
76.35564524722972
 79
     6
 49
0.0
 49
-6.349999999999999
 49
0.0
 49
-29.97199999999999
 49
0.0
 49
-34.29
 98
        1
 10
7672.845259573326
 20
7955.683250079712
  0
LINE
  5
42A0
102
{ACAD_REACTORS
330
429F
102
}
330
18
100
AcDbEntity
  8
OBJECT
100
AcDbLine
 10
6172.764055949095
 20
5489.838742162808
 30
0.0
 11
5560.764055949094
 21
5489.838742162808
 31
0.0
  0
LINE
  5
42A1
102
{ACAD_REACTORS
330
429F
102
}
330
18
100
AcDbEntity
  8
OBJECT
100
AcDbLine
 10
6172.764055949095
 20
5137.838742162808
 30
0.0
 11
5560.764055949094
 21
5137.838742162808
 31
0.0
  0
LINE
  5
42A2
102
{ACAD_REACTORS
330
429F
102
}
330
18
100
AcDbEntity
  8
OBJECT
100
AcDbLine
 10
6166.764055949094
 20
5143.838742162808
 30
0.0
 11
5566.764055949095
 21
5143.838742162808
 31
0.0
  0
LINE
  5
42A3
102
{ACAD_REACTORS
330
429F
102
}
330
18
100
AcDbEntity
  8
OBJECT
100
AcDbLine
 10
5566.764055949095
 20
5483.838742162808
 30
0.0
 11
6166.764055949094
 21
5483.838742162808
 31
0.0
  0
LINE
  5
42A4
330
18
100
AcDbEntity
  8
OBJECT
100
AcDbLine
 10
6286.764055949095
 20
5553.838742162808
 30
0.0
 11
5446.764055949095
 21
5553.838742162808
 31
0.0
  0
LINE
  5
42A5
330
18
100
AcDbEntity
  8
OBJECT
100
AcDbLine
 10
5446.764055949095
 20
5073.838742162807
 30
0.0
 11
6286.764055949095
 21
5073.838742162807
 31
0.0
  0
LINE
  5
42A6
330
18
100
AcDbEntity
  8
OBJECT
100
AcDbLine
 10
5960.512282117184
 20
5154.466751223329
 30
0.0
 11
5573.977350840786
 21
5154.466751223329
 31
0.0
  0
LINE
  5
42A7
330
18
100
AcDbEntity
  8
OBJECT
100
AcDbLine
 10
5963.82287035248
 20
5148.838751223329
 30
0.0
 11
5571.764052152784
 21
5148.838751223329
 31
0.0
  0
LINE
  5
42A8
330
18
100
AcDbEntity
  8
点線
100
AcDbLine
 10
5937.352287446902
 20
5193.838742162808
 30
0.0
 11
5446.764055949095
 21
5193.838748616535
 31
0.0
  0
LINE
  5
42A9
330
18
100
AcDbEntity
  8
点線
100
AcDbLine
 10
5796.175813062358
 20
5433.838748616534
 30
0.0
 11
5446.764055949095
 21
5433.838748616534
 31
0.0
  0
LINE
  5
42AA
330
18
100
AcDbEntity
  8
OBJECT
100
AcDbLine
 10
5773.174442536713
 20
5472.941078510131
 30
0.0
 11
5573.977350840786
 21
5473.210746009744
 31
0.0
  0
LINE
  5
42AB
330
18
100
AcDbEntity
  8
OBJECT
100
AcDbLine
 10
5769.70522636047
 20
5478.838746009745
 30
0.0
 11
5571.764052152784
 21
5478.838746009745
 31
0.0
  0
LINE
  5
42AC
330
18
100
AcDbEntity
  8
OBJECT
100
AcDbLine
 10
5896.916990806502
 20
5262.578746451488
 30
0.0
 11
5573.977350840786
 21
5262.578746451488
 31
0.0
  0
LINE
  5
42AD
330
18
100
AcDbEntity
  8
OBJECT
100
AcDbLine
 10
5900.206402571207
 20
5256.986746451489
 30
0.0
 11
5573.977350840786
 21
5256.986746451489
 31
0.0
  0
LINE
  5
42AE
330
18
100
AcDbEntity
  8
OBJECT
100
AcDbLine
 10
5833.321694141742
 20
5370.690750781582
 30
0.0
 11
5573.977350840786
 21
5370.690750781582
 31
0.0
  0
LINE
  5
42AF
330
18
100
AcDbEntity
  8
OBJECT
100
AcDbLine
 10
5836.611108997622
 20
5365.098745526587
 30
0.0
 11
5573.977350840786
 21
5365.098745526587
 31
0.0
  0
LINE
  5
42B0
330
18
100
AcDbEntity
  8
OBJECT
 48
10.0
100
AcDbLine
 10
5446.764055949095
 20
5733.838731422857
 30
0.0
 11
6286.764055949095
 21
5733.838731422857
 31
0.0
  0
LINE
  5
42B1
330
18
100
AcDbEntity
  8
OBJECT
 48
10.0
100
AcDbLine
 10
6286.764055949095
 20
5883.838733399386
 30
0.0
 11
5446.764055949095
 21
5883.838733399388
 31
0.0
  0
LINE
  5
42CC
330
18
100
AcDbEntity
  8
OBJECT
 48
10.0
100
AcDbLine
 10
5266.764064712512
 20
5553.838767985301
 30
0.0
 11
5266.764064712512
 21
5666.338767985301
 31
0.0
  0
LINE
  5
42CD
330
18
100
AcDbEntity
  8
0
 48
10.0
100
AcDbLine
 10
5566.764055949095
 20
5583.838742162807
 30
0.0
 11
5566.764055949095
 21
5763.838742162807
 31
0.0
  0
LINE
  5
42CE
330
18
100
AcDbEntity
  8
0
 48
10.0
100
AcDbLine
 10
5446.764055949095
 20
5583.838742162807
 30
0.0
 11
5446.764055949095
 21
5913.838742162807
 31
0.0
  0
LINE
  5
42CF
330
18
100
AcDbEntity
  8
0
 48
10.0
100
AcDbLine
 10
5416.764055949091
 20
5553.838767985323
 30
0.0
 11
5086.764055949091
 21
5553.838767985323
 31
0.0
  0
LINE
  5
42D0
330
18
100
AcDbEntity
  8
0
 48
10.0
100
AcDbLine
 10
5416.764066044286
 20
5433.838767985323
 30
0.0
 11
5236.764066044286
 21
5433.838767985323
 31
0.0
  0
LINE
  5
42D1
330
18
100
AcDbEntity
  8
0
 48
10.0
100
AcDbLine
 10
5416.764055949094
 20
5483.838767985323
 30
0.0
 11
5236.764055949095
 21
5483.838767985323
 31
0.0
  0
LINE
  5
42D2
330
18
100
AcDbEntity
  8
0
 48
10.0
100
AcDbLine
 10
5416.764066044286
 20
5193.83876798528
 30
0.0
 11
5236.764066044286
 21
5193.83876798528
 31
0.0
  0
LINE
  5
42D3
330
18
100
AcDbEntity
  8
0
 48
10.0
100
AcDbLine
 10
5416.764055949094
 20
5073.838767985279
 30
0.0
 11
5086.764055949095
 21
5073.838767985279
 31
0.0
  0
MTEXT
  5
42D4
330
18
100
AcDbEntity
  8
0
  6
ByBlock
 62
     0
 48
10.0
100
AcDbMText
 10
5236.764055949095
 20
5313.838767985323
 30
0.0
 40
37.5
 41
0.0
 71
     5
 72
     1
  1
240
 11
0.0000000000000001
 21
1.0
 31
0.0
 73
     1
 44
1.0
  0
MTEXT
  5
42D5
330
18
100
AcDbEntity
  8
0
  6
ByBlock
 62
     0
 48
10.0
100
AcDbMText
 10
5086.764055949091
 20
5313.838767985323
 30
0.0
 40
37.5
 41
0.0
 71
     5
 72
     1
  1
480
 11
0.0000000000000001
 21
1.0
 31
0.0
 73
     1
 44
1.0
  0
LINE
  5
42D6
330
18
100
AcDbEntity
  8
OBJECT
 48
10.0
100
AcDbLine
 10
5266.764064712514
 20
5073.838767985279
 30
0.0
 11
5266.764064712512
 21
5553.838767985323
 31
0.0
  0
LINE
  5
42D7
330
18
100
AcDbEntity
  8
OBJECT
 48
10.0
100
AcDbLine
 10
5116.764055949091
 20
5073.838767985279
 30
0.0
 11
5116.764055949091
 21
5553.838767985301
 31
0.0
  0
SOLID
  5
42D8
330
18
100
AcDbEntity
  8
0
  6
ByBlock
 62
     0
 48
10.0
100
AcDbTrace
 10
5123.014055949091
 20
5111.338767985301
 30
0.0
 11
5110.514055949091
 21
5111.338767985301
 31
0.0
 12
5116.764055949091
 22
5073.838767985301
 32
0.0
 13
5116.764055949091
 23
5073.838767985301
 33
0.0
  0
SOLID
  5
42D9
330
18
100
AcDbEntity
  8
0
  6
ByBlock
 62
     0
 48
10.0
100
AcDbTrace
 10
5273.014047185672
 20
5231.338767985286
 30
0.0
 11
5260.514047185672
 21
5231.338767985286
 31
0.0
 12
5266.764047185669
 22
5193.838767985286
 32
0.0
 13
5266.764047185669
 23
5193.838767985286
 33
0.0
  0
SOLID
  5
42DA
330
18
100
AcDbEntity
  8
0
  6
ByBlock
 62
     0
 48
10.0
100
AcDbTrace
 10
5273.014047185672
 20
5156.338767985273
 30
0.0
 11
5260.514047185672
 21
5156.338767985273
 31
0.0
 12
5266.764047185669
 22
5193.838767985273
 32
0.0
 13
5266.764047185669
 23
5193.838767985273
 33
0.0
  0
MTEXT
  5
42DB
330
18
100
AcDbEntity
  8
0
  6
ByBlock
 62
     0
 48
10.0
100
AcDbMText
 10
5236.76406273598
 20
5133.838767985279
 30
0.0
 40
37.5
 41
0.0
 71
     5
 72
     1
  1
120
 11
0.0000000000000001
 21
1.0
 31
0.0
 73
     1
 44
1.0
  0
SOLID
  5
42DC
330
18
100
AcDbEntity
  8
0
  6
ByBlock
 62
     0
 48
10.0
100
AcDbTrace
 10
5260.514064712516
 20
5111.338779844434
 30
0.0
 11
5273.014064712516
 21
5111.338779844434
 31
0.0
 12
5266.764064712516
 22
5073.838779844433
 32
0.0
 13
5266.764064712516
 23
5073.838779844433
 33
0.0
  0
MTEXT
  5
42DD
330
18
100
AcDbEntity
  8
0
  6
ByBlock
 62
     0
 48
10.0
100
AcDbMText
 10
5206.764064712513
 20
5458.838767985323
 30
0.0
 40
37.5
 41
0.0
 71
     5
 72
     1
  1
50
 11
0.0000000000000001
 21
1.0
 31
0.0
 73
     1
 44
1.0
  0
SOLID
  5
42DE
330
18
100
AcDbEntity
  8
0
  6
ByBlock
 62
     0
 48
10.0
100
AcDbTrace
 10
5123.014055949091
 20
5516.338767985302
 30
0.0
 11
5110.514055949091
 21
5516.338767985302
 31
0.0
 12
5116.764055949091
 22
5553.838767985301
 32
0.0
 13
5116.764055949091
 23
5553.838767985301
 33
0.0
  0
MTEXT
  5
42DF
330
18
100
AcDbEntity
  8
0
  6
ByBlock
 62
     0
 48
10.0
100
AcDbMText
 10
5236.764064712513
 20
5518.838767985323
 30
0.0
 40
37.5
 41
0.0
 71
     5
 72
     1
  1
70
 11
0.0000000000000001
 21
1.0
 31
0.0
 73
     1
 44
1.0
  0
LWPOLYLINE
  5
42E0
330
18
100
AcDbEntity
  8
上線
 48
10.0
100
AcDbPolyline
 90
        2
 70
     1
 43
5.0
 10
5266.786002320318
 20
5481.338767985324
 42
1.0
 10
5266.786002320318
 20
5486.338767985323
 42
1.0
  0
SOLID
  5
42E1
330
18
100
AcDbEntity
  8
0
  6
ByBlock
 62
     0
 48
10.0
100
AcDbTrace
 10
5273.014055949091
 20
5396.338873146368
 30
0.0
 11
5260.514055949094
 21
5396.338873146368
 31
0.0
 12
5266.764055949091
 22
5433.838873146368
 32
0.0
 13
5266.764055949091
 23
5433.838873146368
 33
0.0
  0
SOLID
  5
42E2
330
18
100
AcDbEntity
  8
0
  6
ByBlock
 62
     0
 48
10.0
100
AcDbTrace
 10
5260.514064712516
 20
5591.338779844456
 30
0.0
 11
5273.014064712516
 21
5591.338779844456
 31
0.0
 12
5266.764064712516
 22
5553.838779844455
 32
0.0
 13
5266.764064712516
 23
5553.838779844455
 33
0.0
  0
LINE
  5
42E3
330
18
100
AcDbEntity
  8
OBJECT
100
AcDbLine
 10
5687.962351718347
 20
5262.578748374956
 30
0.0
 11
5687.962351718347
 21
5365.098743603119
 31
0.0
  0
LINE
  5
42E4
330
18
100
AcDbEntity
  8
OBJECT
100
AcDbLine
 10
5690.175650406346
 20
5262.578748374956
 30
0.0
 11
5690.175650406346
 21
5365.098743603119
 31
0.0
  0
LINE
  5
42E5
330
18
100
AcDbEntity
  8
OBJECT
100
AcDbLine
 10
5706.775408832419
 20
5262.578755857146
 30
0.0
 11
5706.775408832419
 21
5365.098751085305
 31
0.0
  0
LINE
  5
42E6
330
18
100
AcDbEntity
  8
OBJECT
100
AcDbLine
 10
5704.56211014442
 20
5262.578755857146
 30
0.0
 11
5704.56211014442
 21
5365.098751085305
 31
0.0
  0
LINE
  5
42E7
330
18
100
AcDbEntity
  8
OBJECT
100
AcDbLine
 10
5656.976133554199
 20
5262.578740892769
 30
0.0
 11
5656.976133554199
 21
5365.098736120927
 31
0.0
  0
LINE
  5
42E8
330
18
100
AcDbEntity
  8
OBJECT
100
AcDbLine
 10
5654.7628348662
 20
5262.578740892769
 30
0.0
 11
5654.7628348662
 21
5365.098736120927
 31
0.0
  0
LINE
  5
42E9
330
18
100
AcDbEntity
  8
OBJECT
100
AcDbLine
 10
5671.362593292275
 20
5262.578748374956
 30
0.0
 11
5671.362593292275
 21
5365.098743603119
 31
0.0
  0
LINE
  5
42EA
330
18
100
AcDbEntity
  8
OBJECT
100
AcDbLine
 10
5673.575891980273
 20
5262.578748374956
 30
0.0
 11
5673.575891980273
 21
5365.098743603119
 31
0.0
  0
LINE
  5
42EB
330
18
100
AcDbEntity
  8
OBJECT
100
AcDbLine
 10
5638.163076440128
 20
5262.578757780614
 30
0.0
 11
5638.163076440128
 21
5365.098753008774
 31
0.0
  0
LINE
  5
42EC
330
18
100
AcDbEntity
  8
OBJECT
100
AcDbLine
 10
5640.376375128127
 20
5262.578757780614
 30
0.0
 11
5640.376375128127
 21
5365.098753008774
 31
0.0
  0
LINE
  5
42ED
330
18
100
AcDbEntity
  8
OBJECT
100
AcDbLine
 10
5623.776616702054
 20
5262.578750298425
 30
0.0
 11
5623.776616702054
 21
5365.098745526587
 31
0.0
  0
LINE
  5
42EE
330
18
100
AcDbEntity
  8
OBJECT
100
AcDbLine
 10
5621.563318014055
 20
5262.578750298425
 30
0.0
 11
5621.563318014055
 21
5365.098745526587
 31
0.0
  0
LINE
  5
42EF
330
18
100
AcDbEntity
  8
OBJECT
100
AcDbLine
 10
5607.17685827598
 20
5262.578750298425
 30
0.0
 11
5607.17685827598
 21
5365.098745526587
 31
0.0
  0
LINE
  5
42F0
330
18
100
AcDbEntity
  8
OBJECT
100
AcDbLine
 10
5604.963559587982
 20
5262.578750298425
 30
0.0
 11
5604.963559587982
 21
5365.098745526587
 31
0.0
  0
LINE
  5
42F1
330
18
100
AcDbEntity
  8
OBJECT
100
AcDbLine
 10
5590.577099849907
 20
5262.578742816238
 30
0.0
 11
5590.577099849907
 21
5365.098738044395
 31
0.0
  0
LINE
  5
42F2
330
18
100
AcDbEntity
  8
OBJECT
100
AcDbLine
 10
5588.363801161909
 20
5262.578742816238
 30
0.0
 11
5588.363801161909
 21
5365.098738044395
 31
0.0
  0
LINE
  5
42F3
102
{ACAD_REACTORS
330
429F
102
}
330
18
100
AcDbEntity
  8
OBJECT
100
AcDbLine
 10
5560.764055949094
 20
5137.838742162808
 30
0.0
 11
5560.764055949094
 21
5489.838742162808
 31
0.0
  0
LINE
  5
42F4
330
18
100
AcDbEntity
  8
OBJECT
100
AcDbLine
 10
5571.764052152784
 20
5478.838746009745
 30
0.0
 11
5571.764052152784
 21
5148.838751223329
 31
0.0
  0
LINE
  5
42F5
330
18
100
AcDbEntity
  8
OBJECT
100
AcDbLine
 10
5573.977350840786
 20
5473.210746009744
 30
0.0
 11
5573.977350840786
 21
5154.466747376392
 31
0.0
  0
LINE
  5
42F6
102
{ACAD_REACTORS
330
429F
102
}
330
18
100
AcDbEntity
  8
OBJECT
100
AcDbLine
 10
5566.764055949095
 20
5143.838742162808
 30
0.0
 11
5566.764055949095
 21
5483.838742162808
 31
0.0
  0
LINE
  5
42F7
330
18
100
AcDbEntity
  8
OBJECT
100
AcDbLine
 10
5446.764055949095
 20
5553.838742162808
 30
0.0
 11
5446.764055949095
 21
5073.838742162807
 31
0.0
  0
LINE
  5
42F8
330
18
100
AcDbEntity
  8
OBJECT
100
AcDbLine
 10
5623.776616702054
 20
5256.986742604554
 30
0.0
 11
5623.776616702054
 21
5154.466747376392
 31
0.0
  0
LINE
  5
42F9
330
18
100
AcDbEntity
  8
OBJECT
100
AcDbLine
 10
5621.563318014055
 20
5256.986742604554
 30
0.0
 11
5621.563318014055
 21
5154.466747376392
 31
0.0
  0
LINE
  5
42FA
330
18
100
AcDbEntity
  8
OBJECT
100
AcDbLine
 10
5607.17685827598
 20
5256.986742604554
 30
0.0
 11
5607.17685827598
 21
5154.466747376392
 31
0.0
  0
LINE
  5
42FB
330
18
100
AcDbEntity
  8
OBJECT
100
AcDbLine
 10
5656.976133554199
 20
5256.98675201021
 30
0.0
 11
5656.976133554199
 21
5154.466756782052
 31
0.0
  0
LINE
  5
42FC
330
18
100
AcDbEntity
  8
OBJECT
100
AcDbLine
 10
5654.7628348662
 20
5256.98675201021
 30
0.0
 11
5654.7628348662
 21
5154.466756782052
 31
0.0
  0
LINE
  5
42FD
330
18
100
AcDbEntity
  8
OBJECT
100
AcDbLine
 10
5671.362593292275
 20
5256.986744528022
 30
0.0
 11
5671.362593292275
 21
5154.466749299863
 31
0.0
  0
LINE
  5
42FE
330
18
100
AcDbEntity
  8
OBJECT
100
AcDbLine
 10
5673.575891980273
 20
5256.986744528022
 30
0.0
 11
5673.575891980273
 21
5154.466749299863
 31
0.0
  0
LINE
  5
42FF
330
18
100
AcDbEntity
  8
OBJECT
100
AcDbLine
 10
5687.962351718347
 20
5256.986744528022
 30
0.0
 11
5687.962351718347
 21
5154.466749299863
 31
0.0
  0
LINE
  5
4300
330
18
100
AcDbEntity
  8
OBJECT
100
AcDbLine
 10
5690.175650406346
 20
5256.986744528022
 30
0.0
 11
5690.175650406346
 21
5154.466749299863
 31
0.0
  0
LINE
  5
4301
330
18
100
AcDbEntity
  8
OBJECT
100
AcDbLine
 10
5638.163076440128
 20
5256.986735122365
 30
0.0
 11
5638.163076440128
 21
5154.466739894204
 31
0.0
  0
LINE
  5
4302
330
18
100
AcDbEntity
  8
OBJECT
100
AcDbLine
 10
5640.376375128127
 20
5256.986735122365
 30
0.0
 11
5640.376375128127
 21
5154.466739894204
 31
0.0
  0
LINE
  5
4303
330
18
100
AcDbEntity
  8
OBJECT
100
AcDbLine
 10
5604.963559587982
 20
5256.986742604554
 30
0.0
 11
5604.963559587982
 21
5154.466747376392
 31
0.0
  0
LINE
  5
4304
330
18
100
AcDbEntity
  8
OBJECT
100
AcDbLine
 10
5590.577099849907
 20
5256.986750086742
 30
0.0
 11
5590.577099849907
 21
5154.466754858583
 31
0.0
  0
LINE
  5
4305
330
18
100
AcDbEntity
  8
OBJECT
100
AcDbLine
 10
5706.775408832419
 20
5256.986737045833
 30
0.0
 11
5706.775408832419
 21
5154.466741817674
 31
0.0
  0
LINE
  5
4306
330
18
100
AcDbEntity
  8
OBJECT
100
AcDbLine
 10
5704.56211014442
 20
5256.986737045833
 30
0.0
 11
5704.56211014442
 21
5154.466741817674
 31
0.0
  0
LINE
  5
4307
330
18
100
AcDbEntity
  8
OBJECT
100
AcDbLine
 10
5588.363801161909
 20
5256.986750086742
 30
0.0
 11
5588.363801161909
 21
5154.466754858583
 31
0.0
  0
LINE
  5
4308
330
18
100
AcDbEntity
  8
OBJECT
100
AcDbLine
 10
5590.577099849907
 20
5370.69074714633
 30
0.0
 11
5590.577099849907
 21
5473.21074237449
 31
0.0
  0
LINE
  5
4309
330
18
100
AcDbEntity
  8
OBJECT
100
AcDbLine
 10
5588.363801161909
 20
5370.69074714633
 30
0.0
 11
5588.363801161909
 21
5473.21074237449
 31
0.0
  0
LINE
  5
430A
330
18
100
AcDbEntity
  8
OBJECT
100
AcDbLine
 10
5604.963559587982
 20
5370.690754628519
 30
0.0
 11
5604.963559587982
 21
5473.210749856681
 31
0.0
  0
LINE
  5
430B
330
18
100
AcDbEntity
  8
OBJECT
100
AcDbLine
 10
5607.17685827598
 20
5370.690754628519
 30
0.0
 11
5607.17685827598
 21
5473.210749856681
 31
0.0
  0
LINE
  5
430C
330
18
100
AcDbEntity
  8
OBJECT
100
AcDbLine
 10
5621.563318014055
 20
5370.690754628519
 30
0.0
 11
5621.563318014055
 21
5473.210749856681
 31
0.0
  0
LINE
  5
430D
330
18
100
AcDbEntity
  8
OBJECT
100
AcDbLine
 10
5623.776616702054
 20
5370.690754628519
 30
0.0
 11
5623.776616702054
 21
5473.210749856681
 31
0.0
  0
LINE
  5
430E
330
18
100
AcDbEntity
  8
OBJECT
100
AcDbLine
 10
5640.376375128127
 20
5370.690762110706
 30
0.0
 11
5640.376375128127
 21
5473.210757338868
 31
0.0
  0
LINE
  5
430F
330
18
100
AcDbEntity
  8
OBJECT
100
AcDbLine
 10
5638.163076440128
 20
5370.690762110706
 30
0.0
 11
5638.163076440128
 21
5473.210757338868
 31
0.0
  0
LINE
  5
4310
330
18
100
AcDbEntity
  8
OBJECT
100
AcDbLine
 10
5690.175650406346
 20
5370.690752705051
 30
0.0
 11
5690.175650406346
 21
5473.210747933209
 31
0.0
  0
LINE
  5
4311
330
18
100
AcDbEntity
  8
OBJECT
100
AcDbLine
 10
5687.962351718347
 20
5370.690752705051
 30
0.0
 11
5687.962351718347
 21
5473.210747933209
 31
0.0
  0
LINE
  5
4312
330
18
100
AcDbEntity
  8
OBJECT
100
AcDbLine
 10
5704.56211014442
 20
5370.690760187238
 30
0.0
 11
5704.56211014442
 21
5473.2107554154
 31
0.0
  0
LINE
  5
4313
330
18
100
AcDbEntity
  8
OBJECT
100
AcDbLine
 10
5706.775408832419
 20
5370.690760187238
 30
0.0
 11
5706.775408832419
 21
5473.2107554154
 31
0.0
  0
LINE
  5
4314
330
18
100
AcDbEntity
  8
OBJECT
100
AcDbLine
 10
5673.575891980273
 20
5370.690752705051
 30
0.0
 11
5673.575891980273
 21
5473.210747933209
 31
0.0
  0
LINE
  5
4315
330
18
100
AcDbEntity
  8
OBJECT
100
AcDbLine
 10
5671.362593292275
 20
5370.690752705051
 30
0.0
 11
5671.362593292275
 21
5473.210747933209
 31
0.0
  0
LINE
  5
4316
330
18
100
AcDbEntity
  8
OBJECT
100
AcDbLine
 10
5654.7628348662
 20
5370.690745222863
 30
0.0
 11
5654.7628348662
 21
5473.210740451022
 31
0.0
  0
LINE
  5
4317
330
18
100
AcDbEntity
  8
OBJECT
100
AcDbLine
 10
5656.976133554199
 20
5370.690745222863
 30
0.0
 11
5656.976133554199
 21
5473.210740451022
 31
0.0
  0
SOLID
  5
4318
330
18
100
AcDbEntity
  8
0
  6
ByBlock
 62
     0
 48
10.0
100
AcDbTrace
 10
5529.264055949092
 20
5727.588742162805
 30
0.0
 11
5529.264055949092
 21
5740.088742162805
 31
0.0
 12
5566.764055949093
 22
5733.838742162808
 32
0.0
 13
5566.764055949093
 23
5733.838742162808
 33
0.0
  0
MTEXT
  5
4319
330
18
100
AcDbEntity
  8
0
  6
ByBlock
 62
     0
 48
10.0
100
AcDbMText
 10
5506.764055949094
 20
5763.838733399388
 30
0.0
 40
37.5
 41
0.0
 71
     5
 72
     1
  1
120
 73
     1
 44
1.0
  0
SOLID
  5
431A
330
18
100
AcDbEntity
  8
0
  6
ByBlock
 62
     0
 48
10.0
100
AcDbTrace
 10
5484.264067808251
 20
5727.58873142286
 30
0.0
 11
5484.264067808251
 21
5740.088731422861
 31
0.0
 12
5446.764067808251
 22
5733.838731422861
 32
0.0
 13
5446.764067808251
 23
5733.838731422861
 33
0.0
  0
SOLID
  5
431B
330
18
100
AcDbEntity
  8
0
  6
ByBlock
 62
     0
 48
10.0
100
AcDbTrace
 10
5484.264055949116
 20
5877.58874216281
 30
0.0
 11
5484.264055949116
 21
5890.08874216281
 31
0.0
 12
5446.764055949117
 22
5883.838742162811
 32
0.0
 13
5446.764055949117
 23
5883.838742162811
 33
0.0
  0
SOLID
  5
431C
330
18
100
AcDbEntity
  8
0
  6
ByBlock
 62
     0
 48
10.0
100
AcDbTrace
 10
5604.263991509402
 20
5727.588742162805
 30
0.0
 11
5604.263991509402
 21
5740.088742162805
 31
0.0
 12
5566.763991509401
 22
5733.838742162808
 32
0.0
 13
5566.763991509401
 23
5733.838742162808
 33
0.0
  0
LINE
  5
434B
330
18
100
AcDbEntity
  8
OBJECT
 48
10.0
100
AcDbLine
 10
5905.9725099453
 20
5247.18436391553
 30
0.0
 11
6637.178697405359
 21
5247.18436391553
 31
0.0
  0
MTEXT
  5
434C
330
18
100
AcDbEntity
  8
0
  6
ByBlock
 62
     0
 48
10.0
100
AcDbMText
 10
6509.678697405359
 20
5277.18436391553
 30
0.0
 40
30.0
 41
0.0
 71
     5
 72
     1
  1
グレーチング
 73
     1
 44
1.0
  0
LINE
  5
434D
330
18
100
AcDbEntity
  8
OBJECT
 48
10.0
100
AcDbLine
 10
6392.178697405359
 20
5339.75640765614
 30
0.0
 11
6497.178697405359
 21
5339.75640765614
 31
0.0
  0
MTEXT
  5
434E
330
18
100
AcDbEntity
  8
0
  6
ByBlock
 62
     0
 48
10.0
100
AcDbMText
 10
6444.678697405358
 20
5369.75640765614
 30
0.0
 40
30.0
 41
0.0
 71
     5
 72
     1
  1
受枠
 73
     1
 44
1.0
  0
LINE
  5
434F
330
18
100
AcDbEntity
  8
0
 48
10.0
100
AcDbLine
 10
6166.764055949094
 20
5583.838742162807
 30
0.0
 11
6166.764055949094
 21
5763.838742162807
 31
0.0
  0
LINE
  5
4350
330
18
100
AcDbEntity
  8
0
 48
10.0
100
AcDbLine
 10
6286.764055949095
 20
5583.838742162807
 30
0.0
 11
6286.764055949095
 21
5913.838742162807
 31
0.0
  0
HATCH
  5
4351
330
18
100
AcDbEntity
  8
OBJECT
100
AcDbHatch
 10
0.0
 20
0.0
 30
0.0
210
0.0
220
0.0
230
1.0
  2
AR-SAND
 70
     0
 71
     0
 91
        2
 92
        1
 93
        4
 72
     1
 10
6166.764055949094
 20
5483.838742162808
 11
5766.764052152785
 21
5483.838742162808
 72
     1
 10
5766.764052152786
 20
5483.838742162808
 11
5796.175816858667
 21
5433.838742162808
 72
     1
 10
5796.175816858668
 20
5433.838742162808
 11
6166.764055949097
 21
5433.838742162808
 72
     1
 10
6166.764055949094
 20
5433.838742162808
 11
6166.764055949094
 21
5483.838742162808
 97
        0
 92
       33
 93
        4
 72
     1
 10
6166.764055949094
 20
5143.838742162808
 11
6166.764055949094
 21
5193.838742162808
 72
     1
 10
5966.764052152783
 20
5143.838742162808
 11
6166.764055949094
 21
5143.838742162808
 72
     1
 10
5937.352287446902
 20
5193.838742162808
 11
5966.764041480494
 21
5143.838760305701
 72
     1
 10
5937.352287446902
 20
5193.838742162808
 11
6166.764055949095
 21
5193.838742162808
 97
        0
 75
     0
 76
     1
 52
90.0
 41
1.0
 77
     0
 78
     4
 53
127.5
 43
7672.845259573326
 44
7955.683250079712
 45
-48.94132373293423
 46
-1.600031295984042
 79
     6
 49
0.0
 49
-38.608
 49
0.0
 49
-43.18
 49
0.0
 49
-41.275
 53
97.49999999999987
 43
7672.845259573326
 44
7955.683250079712
 45
-71.68251005683543
 46
44.95232831380027
 79
     6
 49
0.0
 49
-20.82799999999999
 49
0.0
 49
-34.79799999999999
 49
0.0
 49
-13.33499999999999
 53
57.49999999999997
 43
7672.845259573326
 44
7924.441250079711
 45
-0.1437184678545643
 46
79.09923702414579
 79
     6
 49
0.0
 49
-12.69999999999998
 49
0.0
 49
-45.71999999999993
 49
0.0
 49
-59.68999999999994
 53
47.49999999999999
 43
7672.845259573326
 44
7924.441250079711
 45
-22.29293232572162
 46
76.35564524722972
 79
     6
 49
0.0
 49
-6.349999999999999
 49
0.0
 49
-29.97199999999999
 49
0.0
 49
-34.29
 98
        1
 10
7672.845259573326
 20
7955.683250079712
  0
LINE
  5
4352
330
18
100
AcDbEntity
  8
OBJECT
100
AcDbLine
 10
5796.175816858668
 20
5433.838742162808
 30
0.0
 11
6166.764055949094
 21
5433.838742162808
 31
0.0
  0
LINE
  5
4353
330
18
100
AcDbEntity
  8
OBJECT
100
AcDbLine
 10
5937.352287446902
 20
5193.838742162808
 30
0.0
 11
6166.764055949094
 21
5193.838742162808
 31
0.0
  0
LINE
  5
4354
330
18
100
AcDbEntity
  8
WUWAGAKI
 48
10.0
100
AcDbLine
 10
6021.550902396358
 20
5429.429422715559
 30
0.0
 11
6392.178697405359
 21
5339.75640765614
 31
0.0
210
0.0
220
0.0
230
-1.0
1001
ACAD
1000
DSTYLE
1002
{
1070
    78
1070
     8
1070
   270
1070
     8
1070
   140
1040
2.5
1070
    74
1070
     0
1070
   172
1070
     1
1070
    73
1070
     0
1070
    77
1070
     1
1070
    40
1040
10.0
1070
   147
1040
0.625
1070
    42
1040
0.625
1070
    44
1040
1.25
1070
    43
1040
3.75
1070
   141
1040
2.5
1070
    41
1040
2.5
1070
   273
1070
     8
1070
   274
1070
     4
1070
   143
1040
0.0394
1070
   171
1070
     4
1002
}
  0
LINE
  5
4355
330
18
100
AcDbEntity
  8
OBJECT
100
AcDbLine
 10
5787.560902274788
 20
5262.57873148711
 30
0.0
 11
5787.560902274788
 21
5365.098726715271
 31
0.0
  0
LINE
  5
4356
330
18
100
AcDbEntity
  8
OBJECT
100
AcDbLine
 10
5789.774200962789
 20
5262.57873148711
 30
0.0
 11
5789.774200962789
 21
5365.098726715271
 31
0.0
  0
LINE
  5
4357
330
18
100
AcDbEntity
  8
OBJECT
100
AcDbLine
 10
5822.973717814934
 20
5262.578738969301
 30
0.0
 11
5822.973717814934
 21
5365.09873419746
 31
0.0
  0
LINE
  5
4358
330
18
100
AcDbEntity
  8
OBJECT
100
AcDbLine
 10
5820.760419126933
 20
5262.578738969301
 30
0.0
 11
5820.760419126933
 21
5365.09873419746
 31
0.0
  0
LINE
  5
4359
330
18
100
AcDbEntity
  8
OBJECT
100
AcDbLine
 10
5806.373959388861
 20
5262.578738969301
 30
0.0
 11
5806.373959388861
 21
5365.09873419746
 31
0.0
  0
LINE
  5
435A
330
18
100
AcDbEntity
  8
OBJECT
100
AcDbLine
 10
5804.160660700861
 20
5262.578738969301
 30
0.0
 11
5804.160660700861
 21
5365.09873419746
 31
0.0
  0
LINE
  5
435B
330
18
100
AcDbEntity
  8
OBJECT
100
AcDbLine
 10
5773.174442536713
 20
5262.578748374956
 30
0.0
 11
5773.174442536713
 21
5365.098743603119
 31
0.0
  0
LINE
  5
435C
330
18
100
AcDbEntity
  8
OBJECT
100
AcDbLine
 10
5770.961143848713
 20
5262.578748374956
 30
0.0
 11
5770.961143848713
 21
5365.098743603119
 31
0.0
  0
LINE
  5
435D
330
18
100
AcDbEntity
  8
OBJECT
100
AcDbLine
 10
5837.360177553009
 20
5262.578746451488
 30
0.0
 11
5837.360177553009
 21
5365.098741679649
 31
0.0
  0
LINE
  5
435E
330
18
100
AcDbEntity
  8
OBJECT
100
AcDbLine
 10
5839.573476241008
 20
5262.578746451488
 30
0.0
 11
5839.573476241008
 21
5360.062721212832
 31
0.0
  0
LINE
  5
435F
330
18
100
AcDbEntity
  8
OBJECT
100
AcDbLine
 10
5766.764052152786
 20
5483.838742162808
 30
0.0
 11
5966.764052152783
 21
5143.838742162808
 31
0.0
  0
LINE
  5
4360
330
18
100
AcDbEntity
  8
OBJECT
100
AcDbLine
 10
5754.36138542264
 20
5262.578740892769
 30
0.0
 11
5754.36138542264
 21
5365.098736120927
 31
0.0
  0
LINE
  5
4361
330
18
100
AcDbEntity
  8
OBJECT
100
AcDbLine
 10
5756.57468411064
 20
5262.578740892769
 30
0.0
 11
5756.57468411064
 21
5365.098736120927
 31
0.0
  0
LINE
  5
4362
330
18
100
AcDbEntity
  8
OBJECT
100
AcDbLine
 10
5723.375167258494
 20
5262.57873341058
 30
0.0
 11
5723.375167258494
 21
5365.09872863874
 31
0.0
  0
LINE
  5
4363
330
18
100
AcDbEntity
  8
OBJECT
100
AcDbLine
 10
5721.161868570494
 20
5262.57873341058
 30
0.0
 11
5721.161868570494
 21
5365.09872863874
 31
0.0
  0
LINE
  5
4364
330
18
100
AcDbEntity
  8
OBJECT
100
AcDbLine
 10
5737.761626996566
 20
5262.578740892769
 30
0.0
 11
5737.761626996566
 21
5365.098736120927
 31
0.0
  0
LINE
  5
4365
330
18
100
AcDbEntity
  8
OBJECT
100
AcDbLine
 10
5739.974925684567
 20
5262.578740892769
 30
0.0
 11
5739.974925684567
 21
5365.098736120927
 31
0.0
  0
LINE
  5
4366
330
18
100
AcDbEntity
  8
OBJECT
100
AcDbLine
 10
5787.560902274788
 20
5256.986761415867
 30
0.0
 11
5787.560902274788
 21
5154.466766187708
 31
0.0
  0
LINE
  5
4367
330
18
100
AcDbEntity
  8
OBJECT
100
AcDbLine
 10
5789.774200962789
 20
5256.986761415867
 30
0.0
 11
5789.774200962789
 21
5154.466766187708
 31
0.0
  0
LINE
  5
4368
330
18
100
AcDbEntity
  8
OBJECT
100
AcDbLine
 10
5822.973717814934
 20
5256.986753933678
 30
0.0
 11
5822.973717814934
 21
5154.46675870552
 31
0.0
  0
LINE
  5
4369
330
18
100
AcDbEntity
  8
OBJECT
100
AcDbLine
 10
5820.760419126933
 20
5256.986753933678
 30
0.0
 11
5820.760419126933
 21
5154.46675870552
 31
0.0
  0
LINE
  5
436A
330
18
100
AcDbEntity
  8
OBJECT
100
AcDbLine
 10
5806.373959388861
 20
5256.986753933678
 30
0.0
 11
5806.373959388861
 21
5154.46675870552
 31
0.0
  0
LINE
  5
436B
330
18
100
AcDbEntity
  8
OBJECT
100
AcDbLine
 10
5804.160660700861
 20
5256.986753933678
 30
0.0
 11
5804.160660700861
 21
5154.46675870552
 31
0.0
  0
LINE
  5
436C
330
18
100
AcDbEntity
  8
OBJECT
100
AcDbLine
 10
5773.174442536713
 20
5256.986744528022
 30
0.0
 11
5773.174442536713
 21
5154.466749299863
 31
0.0
  0
LINE
  5
436D
330
18
100
AcDbEntity
  8
OBJECT
100
AcDbLine
 10
5770.961143848713
 20
5256.986744528022
 30
0.0
 11
5770.961143848713
 21
5154.466749299863
 31
0.0
  0
LINE
  5
436E
330
18
100
AcDbEntity
  8
OBJECT
100
AcDbLine
 10
5853.959935979082
 20
5256.986759492399
 30
0.0
 11
5853.959935979082
 21
5154.466764264238
 31
0.0
  0
LINE
  5
436F
330
18
100
AcDbEntity
  8
OBJECT
100
AcDbLine
 10
5839.573476241008
 20
5256.986746451492
 30
0.0
 11
5839.573476241008
 21
5154.466751223329
 31
0.0
  0
LINE
  5
4370
330
18
100
AcDbEntity
  8
OBJECT
100
AcDbLine
 10
5856.173234667081
 20
5256.986759492399
 30
0.0
 11
5856.173234667081
 21
5154.466764264238
 31
0.0
  0
LINE
  5
4371
330
18
100
AcDbEntity
  8
OBJECT
100
AcDbLine
 10
5870.559694405155
 20
5256.98675201021
 30
0.0
 11
5870.559694405155
 21
5154.466756782052
 31
0.0
  0
LINE
  5
4372
330
18
100
AcDbEntity
  8
OBJECT
100
AcDbLine
 10
5872.772993093153
 20
5256.98675201021
 30
0.0
 11
5872.772993093153
 21
5154.466756782052
 31
0.0
  0
LINE
  5
4373
330
18
100
AcDbEntity
  8
OBJECT
100
AcDbLine
 10
5887.159452831228
 20
5256.98675201021
 30
0.0
 11
5887.159452831228
 21
5154.466756782052
 31
0.0
  0
LINE
  5
4374
330
18
100
AcDbEntity
  8
OBJECT
100
AcDbLine
 10
5889.372751519227
 20
5256.98675201021
 30
0.0
 11
5889.372751519227
 21
5154.466756782052
 31
0.0
  0
LINE
  5
4375
330
18
100
AcDbEntity
  8
OBJECT
100
AcDbLine
 10
5837.360177553009
 20
5256.986746451492
 30
0.0
 11
5837.360177553009
 21
5154.466751223329
 31
0.0
  0
LINE
  5
4376
330
18
100
AcDbEntity
  8
OBJECT
100
AcDbLine
 10
5723.375167258494
 20
5256.986759492399
 30
0.0
 11
5723.375167258494
 21
5154.466764264238
 31
0.0
  0
LINE
  5
4377
330
18
100
AcDbEntity
  8
OBJECT
100
AcDbLine
 10
5737.761626996566
 20
5256.98675201021
 30
0.0
 11
5737.761626996566
 21
5154.466756782052
 31
0.0
  0
LINE
  5
4378
330
18
100
AcDbEntity
  8
OBJECT
100
AcDbLine
 10
5739.974925684567
 20
5256.98675201021
 30
0.0
 11
5739.974925684567
 21
5154.466756782052
 31
0.0
  0
LINE
  5
4379
330
18
100
AcDbEntity
  8
OBJECT
100
AcDbLine
 10
5754.36138542264
 20
5256.98675201021
 30
0.0
 11
5754.36138542264
 21
5154.466756782052
 31
0.0
  0
LINE
  5
437A
330
18
100
AcDbEntity
  8
OBJECT
100
AcDbLine
 10
5756.57468411064
 20
5256.98675201021
 30
0.0
 11
5756.57468411064
 21
5154.466756782052
 31
0.0
  0
LINE
  5
437B
330
18
100
AcDbEntity
  8
OBJECT
100
AcDbLine
 10
5721.161868570494
 20
5256.986759492399
 30
0.0
 11
5721.161868570494
 21
5154.466764264238
 31
0.0
  0
LINE
  5
437C
330
18
100
AcDbEntity
  8
OBJECT
100
AcDbLine
 10
5887.159452831228
 20
5262.578740892769
 30
0.0
 11
5887.159452831228
 21
5279.166561009456
 31
0.0
  0
LINE
  5
437D
330
18
100
AcDbEntity
  8
OBJECT
100
AcDbLine
 10
5889.372751519227
 20
5262.578740892769
 30
0.0
 11
5889.372751519227
 21
5275.403953239857
 31
0.0
  0
LINE
  5
437E
330
18
100
AcDbEntity
  8
OBJECT
100
AcDbLine
 10
5856.173234667081
 20
5262.57873341058
 30
0.0
 11
5856.173234667081
 21
5331.843131888506
 31
0.0
  0
LINE
  5
437F
330
18
100
AcDbEntity
  8
OBJECT
100
AcDbLine
 10
5853.959935979082
 20
5262.57873341058
 30
0.0
 11
5853.959935979082
 21
5335.605739658106
 31
0.0
  0
LINE
  5
4380
330
18
100
AcDbEntity
  8
OBJECT
100
AcDbLine
 10
5870.559694405155
 20
5262.578740892769
 30
0.0
 11
5870.559694405155
 21
5307.38615033378
 31
0.0
  0
LINE
  5
4381
330
18
100
AcDbEntity
  8
OBJECT
100
AcDbLine
 10
5872.772993093153
 20
5262.578740892769
 30
0.0
 11
5872.772993093153
 21
5303.623542564182
 31
0.0
  0
LINE
  5
4382
330
18
100
AcDbEntity
  8
OBJECT
100
AcDbLine
 10
5920.358969683374
 20
5222.727382360806
 30
0.0
 11
5920.358969683374
 21
5154.466766187708
 31
0.0
  0
LINE
  5
4383
330
18
100
AcDbEntity
  8
OBJECT
100
AcDbLine
 10
5922.572268371373
 20
5218.964774591206
 30
0.0
 11
5922.572268371373
 21
5154.466766187708
 31
0.0
  0
LINE
  5
4384
330
18
100
AcDbEntity
  8
OBJECT
100
AcDbLine
 10
5905.9725099453
 20
5247.184363915532
 30
0.0
 11
5905.9725099453
 21
5154.466749299863
 31
0.0
  0
LINE
  5
4385
330
18
100
AcDbEntity
  8
OBJECT
100
AcDbLine
 10
5903.759211257301
 20
5250.946971685132
 30
0.0
 11
5903.759211257301
 21
5154.466749299863
 31
0.0
  0
LINE
  5
4386
330
18
100
AcDbEntity
  8
OBJECT
100
AcDbLine
 10
5939.172026797447
 20
5190.745185266883
 30
0.0
 11
5939.172026797447
 21
5154.46675870552
 31
0.0
  0
LINE
  5
4387
330
18
100
AcDbEntity
  8
OBJECT
100
AcDbLine
 10
5936.958728109448
 20
5194.507793036482
 30
0.0
 11
5936.958728109448
 21
5154.46675870552
 31
0.0
  0
LINE
  5
4388
330
18
100
AcDbEntity
  8
OBJECT
100
AcDbLine
 10
5955.771785223522
 20
5162.525595942557
 30
0.0
 11
5955.771785223522
 21
5154.46675870552
 31
0.0
  0
LINE
  5
4389
330
18
100
AcDbEntity
  8
OBJECT
100
AcDbLine
 10
5953.55848653552
 20
5166.288203712157
 30
0.0
 11
5953.55848653552
 21
5154.46675870552
 31
0.0
  0
SOLID
  5
438A
330
18
100
AcDbEntity
  8
0
  6
ByBlock
 62
     0
 48
10.0
100
AcDbTrace
 10
5942.896058001783
 20
5253.156355147367
 30
0.0
 11
5942.836084134368
 21
5240.656499022787
 31
0.0
 12
5905.366502694332
 22
5247.086348687317
 32
0.0
 13
5905.366502694332
 23
5247.086348687317
 33
0.0
  0
LINE
  5
438B
330
18
100
AcDbEntity
  8
OBJECT
100
AcDbLine
 10
5770.961143848713
 20
5370.690752705051
 30
0.0
 11
5770.961143848713
 21
5473.210747933209
 31
0.0
  0
LINE
  5
438C
330
18
100
AcDbEntity
  8
OBJECT
100
AcDbLine
 10
5773.174442536713
 20
5370.690752705051
 30
0.0
 11
5773.174442536713
 21
5473.210747933209
 31
0.0
  0
LINE
  5
438D
330
18
100
AcDbEntity
  8
OBJECT
100
AcDbLine
 10
5804.160660700861
 20
5370.690743299395
 30
0.0
 11
5804.160660700861
 21
5420.264507631081
 31
0.0
  0
LINE
  5
438E
330
18
100
AcDbEntity
  8
OBJECT
100
AcDbLine
 10
5789.774200962789
 20
5370.690735817204
 30
0.0
 11
5789.774200962789
 21
5444.721489185805
 31
0.0
  0
LINE
  5
438F
330
18
100
AcDbEntity
  8
OBJECT
100
AcDbLine
 10
5787.560902274788
 20
5370.690735817204
 30
0.0
 11
5787.560902274788
 21
5448.484096955406
 31
0.0
  0
LINE
  5
4390
330
18
100
AcDbEntity
  8
OBJECT
100
AcDbLine
 10
5756.57468411064
 20
5370.690745222863
 30
0.0
 11
5756.57468411064
 21
5473.210740451022
 31
0.0
  0
LINE
  5
4391
330
18
100
AcDbEntity
  8
OBJECT
100
AcDbLine
 10
5754.36138542264
 20
5370.690745222863
 30
0.0
 11
5754.36138542264
 21
5473.210740451022
 31
0.0
  0
LINE
  5
4392
330
18
100
AcDbEntity
  8
OBJECT
100
AcDbLine
 10
5739.974925684567
 20
5370.690745222863
 30
0.0
 11
5739.974925684567
 21
5473.210740451022
 31
0.0
  0
LINE
  5
4393
330
18
100
AcDbEntity
  8
OBJECT
100
AcDbLine
 10
5737.761626996566
 20
5370.690745222863
 30
0.0
 11
5737.761626996566
 21
5473.210740451022
 31
0.0
  0
LINE
  5
4394
330
18
100
AcDbEntity
  8
OBJECT
100
AcDbLine
 10
5723.375167258494
 20
5370.690737740672
 30
0.0
 11
5723.375167258494
 21
5473.210732968834
 31
0.0
  0
LINE
  5
4395
330
18
100
AcDbEntity
  8
OBJECT
100
AcDbLine
 10
5721.161868570494
 20
5370.690737740672
 30
0.0
 11
5721.161868570494
 21
5473.210732968834
 31
0.0
  0
LINE
  5
4396
330
18
100
AcDbEntity
  8
OBJECT
100
AcDbLine
 10
5806.373959388861
 20
5370.690743299395
 30
0.0
 11
5806.373959388861
 21
5416.50189986148
 31
0.0
  0
LINE
  5
4397
330
18
100
AcDbEntity
  8
OBJECT
100
AcDbLine
 10
5820.760419126933
 20
5370.690743299395
 30
0.0
 11
5820.760419126933
 21
5392.044918306755
 31
0.0
  0
LINE
  5
4398
330
18
100
AcDbEntity
  8
OBJECT
100
AcDbLine
 10
5822.973717814934
 20
5370.690743299395
 30
0.0
 11
5822.973717814934
 21
5388.282310537154
 31
0.0
  0
SOLID
  5
4399
330
18
100
AcDbEntity
  8
0
  6
ByBlock
 62
     0
 48
10.0
100
AcDbTrace
 10
6041.230526356867
 20
5430.903637161067
 30
0.0
 11
6038.229746638531
 21
5418.769168854545
 31
0.0
 12
6003.326731578126
 22
5433.838742162808
 32
0.0
 13
6003.326731578126
 23
5433.838742162808
 33
0.0
  0
LINE
  5
439A
102
{ACAD_REACTORS
330
429F
102
}
330
18
100
AcDbEntity
  8
OBJECT
100
AcDbLine
 10
6172.764055949095
 20
5137.838742162808
 30
0.0
 11
6172.764055949095
 21
5489.838742162808
 31
0.0
  0
LINE
  5
439B
102
{ACAD_REACTORS
330
429F
102
}
330
18
100
AcDbEntity
  8
OBJECT
100
AcDbLine
 10
6166.764055949094
 20
5483.838742162808
 30
0.0
 11
6166.764055949094
 21
5143.838742162808
 31
0.0
  0
LINE
  5
439C
330
18
100
AcDbEntity
  8
OBJECT
100
AcDbLine
 10
6286.764055949095
 20
5073.838742162807
 30
0.0
 11
6286.764055949095
 21
5553.838742162808
 31
0.0
  0
LINE
  5
439D
330
18
100
AcDbEntity
  8
点線
100
AcDbLine
 10
6166.764055949094
 20
5193.838742162808
 30
0.0
 11
6286.764055949095
 21
5193.838742162808
 31
0.0
  0
LINE
  5
439E
330
18
100
AcDbEntity
  8
点線
100
AcDbLine
 10
6166.764055949094
 20
5433.838742162808
 30
0.0
 11
6286.764055949095
 21
5433.838742162808
 31
0.0
  0
MTEXT
  5
439F
330
18
100
AcDbEntity
  8
0
  6
ByBlock
 62
     0
 48
10.0
100
AcDbMText
 10
5866.764055949095
 20
5913.838742162809
 30
0.0
 40
37.5
 41
0.0
 71
     5
 72
     1
  1
840
 73
     1
 44
1.0
  0
MTEXT
  5
43A0
330
18
100
AcDbEntity
  8
0
  6
ByBlock
 62
     0
 48
10.0
100
AcDbMText
 10
5866.764055949095
 20
5763.838742162809
 30
0.0
 40
37.5
 41
0.0
 71
     5
 72
     1
  1
600
 73
     1
 44
1.0
  0
MTEXT
  5
43A1
330
18
100
AcDbEntity
  8
0
  6
ByBlock
 62
     0
 48
10.0
100
AcDbMText
 10
6226.764055949095
 20
5763.838733399388
 30
0.0
 40
37.5
 41
0.0
 71
     5
 72
     1
  1
120
 73
     1
 44
1.0
  0
SOLID
  5
43A2
330
18
100
AcDbEntity
  8
0
  6
ByBlock
 62
     0
 48
10.0
100
AcDbTrace
 10
6129.264120388792
 20
5727.588742162805
 30
0.0
 11
6129.264120388792
 21
5740.088742162805
 31
0.0
 12
6166.764120388791
 22
5733.838742162808
 32
0.0
 13
6166.764120388791
 23
5733.838742162808
 33
0.0
  0
SOLID
  5
43A3
330
18
100
AcDbEntity
  8
0
  6
ByBlock
 62
     0
 48
10.0
100
AcDbTrace
 10
6204.264055949098
 20
5727.588742162805
 30
0.0
 11
6204.264055949098
 21
5740.088742162805
 31
0.0
 12
6166.764055949098
 22
5733.838742162808
 32
0.0
 13
6166.764055949098
 23
5733.838742162808
 33
0.0
  0
SOLID
  5
43A4
330
18
100
AcDbEntity
  8
0
  6
ByBlock
 62
     0
 48
10.0
100
AcDbTrace
 10
6249.264044089942
 20
5727.58873142286
 30
0.0
 11
6249.264044089942
 21
5740.088731422861
 31
0.0
 12
6286.764044089942
 22
5733.838731422861
 32
0.0
 13
6286.764044089942
 23
5733.838731422861
 33
0.0
  0
SOLID
  5
43A5
330
18
100
AcDbEntity
  8
0
  6
ByBlock
 62
     0
 48
10.0
100
AcDbTrace
 10
6249.264055949073
 20
5877.58874216281
 30
0.0
 11
6249.264055949073
 21
5890.08874216281
 31
0.0
 12
6286.764055949073
 22
5883.838742162811
 32
0.0
 13
6286.764055949073
 23
5883.838742162811
 33
0.0
  0
VIEWPORT
  5
298
330
15
100
AcDbEntity
 67
     1
  8
0
100
AcDbViewport
 10
291.7632241813602
 20
148.5
 30
0.0
 40
583.5264483627204
 41
297.0
 68
     1
 69
     1
 12
291.7632241813602
 22
148.5
 13
0.0
 23
0.0
 14
10.0
 24
10.0
 15
10.0
 25
10.0
 16
0.0
 26
0.0
 36
1.0
 17
0.0
 27
0.0
 37
0.0
 42
50.0
 43
0.0
 44
0.0
 45
297.0
 50
0.0
 51
0.0
 72
   100
 90
    32800
  1

281
     0
 71
     1
 74
     0
110
0.0
120
0.0
130
0.0
111
1.0
121
0.0
131
0.0
112
0.0
122
1.0
132
0.0
 79
     0
146
0.0
  0
ENDSEC
  0
SECTION
  2
OBJECTS
  0
DICTIONARY
  5
C
330
0
100
AcDbDictionary
281
     1
  3
ACAD_GROUP
350
D
  3
ACAD_LAYOUT
350
15FE
  3
ACAD_MLINESTYLE
350
1B
  3
ACAD_PLOTSETTINGS
350
15FF
  3
ACAD_PLOTSTYLENAME
350
15FC
  3
ACDBVARIABLEDICTIONARY
350
B2A
  3
DRAWINGVARIABLESDICT
350
1212
  0
DICTIONARY
  5
D
102
{ACAD_REACTORS
330
C
102
}
330
C
100
AcDbDictionary
281
     1
  3
*A1
350
1DE1
  3
*A2
350
2483
  3
*A3
350
2486
  3
*A4
350
2971
  3
*A5
350
3003
  3
*A6
350
34F4
  0
DICTIONARY
  5
15FE
102
{ACAD_REACTORS
330
C
102
}
330
C
100
AcDbDictionary
281
     1
  3
Model
350
1600
  3
ﾚｲｱｳﾄ1
350
1601
  0
DICTIONARY
  5
1B
102
{ACAD_REACTORS
330
C
102
}
330
C
100
AcDbDictionary
281
     1
  3
STANDARD
350
1C
  0
DICTIONARY
  5
15FF
102
{ACAD_REACTORS
330
C
102
}
330
C
100
AcDbDictionary
281
     1
  0
ACDBDICTIONARYWDFLT
  5
15FC
102
{ACAD_REACTORS
330
C
102
}
330
C
100
AcDbDictionary
281
     1
  3
Normal
350
15FD
100
AcDbDictionaryWithDefault
340
15FD
  0
DICTIONARY
  5
B2A
102
{ACAD_REACTORS
330
C
102
}
330
C
100
AcDbDictionary
281
     1
  3
SORTENTS
350
B2B
  0
DICTIONARY
  5
1212
102
{ACAD_REACTORS
330
C
102
}
330
C
100
AcDbDictionary
281
     1
1001
DRAWINGVARIABLESXDATA
1000
POLARANG
1000
0.785398
1000
POLARMODE
1000
0
  0
GROUP
  5
1DE1
102
{ACAD_REACTORS
330
D
102
}
330
D
100
AcDbGroup
300

 70
     1
 71
     1
  0
GROUP
  5
2483
102
{ACAD_REACTORS
330
D
102
}
330
D
100
AcDbGroup
300

 70
     1
 71
     1
  0
GROUP
  5
2486
102
{ACAD_REACTORS
330
D
102
}
330
D
100
AcDbGroup
300

 70
     1
 71
     1
  0
GROUP
  5
2971
102
{ACAD_REACTORS
330
D
102
}
330
D
100
AcDbGroup
300

 70
     1
 71
     1
  0
GROUP
  5
3003
102
{ACAD_REACTORS
330
D
102
}
330
D
100
AcDbGroup
300

 70
     1
 71
     1
  0
GROUP
  5
34F4
102
{ACAD_REACTORS
330
D
102
}
330
D
100
AcDbGroup
300

 70
     1
 71
     1
  0
LAYOUT
  5
1600
102
{ACAD_REACTORS
330
15FE
102
}
330
15FE
100
AcDbPlotSettings
  1

  2
Canon LBP3800 LIPSLX
  4
A4
  6

 40
5.873749732971191
 41
5.873747825622558
 42
5.873748779296875
 43
5.873748779296875
 44
209.9733276367187
 45
296.9259948730469
 46
0.0
 47
0.0
 48
0.0
 49
0.0
140
0.0
141
0.0
142
1.0
143
1.0
 70
 11952
 72
     1
 73
     1
 74
     0
  7

 75
     0
147
1.0
148
-1119.838883806218
149
-2764.341960111367
100
AcDbLayout
  1
Model
 70
     1
 71
     0
 10
0.0
 20
0.0
 11
12.0
 21
9.0
 12
0.0
 22
0.0
 32
0.0
 14
0.0
 24
0.0
 34
0.0
 15
0.0
 25
0.0
 35
0.0
146
0.0
 13
0.0
 23
0.0
 33
0.0
 16
1.0
 26
0.0
 36
0.0
 17
0.0
 27
1.0
 37
0.0
 76
     0
330
18
  0
LAYOUT
  5
1601
102
{ACAD_REACTORS
330
15FE
102
}
330
15FE
100
AcDbPlotSettings
  1

  2
Canon LBP3800 LIPSLX
  4

  6

 40
0.0
 41
0.0
 42
0.0
 43
0.0
 44
0.0
 45
0.0
 46
0.0
 47
0.0
 48
0.0
 49
0.0
140
0.0
141
0.0
142
1.0
143
1.0
 70
   688
 72
     0
 73
     0
 74
     5
  7

 75
    16
147
1.0
148
0.0
149
0.0
100
AcDbLayout
  1
ﾚｲｱｳﾄ1
 70
     1
 71
     1
 10
0.0
 20
0.0
 11
420.0
 21
297.0
 12
0.0
 22
0.0
 32
0.0
 14
1.000000000000000E+20
 24
1.000000000000000E+20
 34
1.000000000000000E+20
 15
-1.000000000000000E+20
 25
-1.000000000000000E+20
 35
-1.000000000000000E+20
146
0.0
 13
0.0
 23
0.0
 33
0.0
 16
1.0
 26
0.0
 36
0.0
 17
0.0
 27
1.0
 37
0.0
 76
     0
330
15
331
298
  0
MLINESTYLE
  5
1C
102
{ACAD_REACTORS
330
1B
102
}
330
1B
100
AcDbMlineStyle
  2
STANDARD
 70
     0
  3

 62
   256
 51
90.0
 52
90.0
 71
     2
 49
0.5
 62
   256
  6
BYLAYER
 49
-0.5
 62
   256
  6
BYLAYER
  0
ACDBPLACEHOLDER
  5
15FD
102
{ACAD_REACTORS
330
15FC
102
}
330
15FC
  0
DICTIONARYVAR
  5
B2B
102
{ACAD_REACTORS
330
B2A
102
}
330
B2A
100
DictionaryVariables
280
     0
  1
96
  0
ENDSEC
  0
EOF
