  0
SECTION
  2
HEADER
  9
$ACADVER
  1
AC1015
  9
$ACADMAINTVER
 70
     6
  9
$DWGCODEPAGE
  3
ANSI_932
  9
$INSBASE
 10
0.0
 20
0.0
 30
0.0
  9
$EXTMIN
 10
710.0813698183028
 20
984.8549298695507
 30
0.0
  9
$EXTMAX
 10
8942.202986998568
 20
6364.413967892873
 30
0.0
  9
$LIMMIN
 10
0.0
 20
0.0
  9
$LIMMAX
 10
4455.0
 20
3150.0
  9
$ORTHOMODE
 70
     0
  9
$REGENMODE
 70
     1
  9
$FILLMODE
 70
     1
  9
$QTEXTMODE
 70
     0
  9
$MIRRTEXT
 70
     1
  9
$LTSCALE
 40
5.0
  9
$ATTMODE
 70
     1
  9
$TEXTSIZE
 40
2.5
  9
$TRACEWID
 40
1.0
  9
$TEXTSTYLE
  7
STANDARD
  9
$CLAYER
  8
OBJECT
  9
$CELTYPE
  6
BYLAYER
  9
$CECOLOR
 62
   256
  9
$CELTSCALE
 40
1.0
  9
$DISPSILH
 70
     0
  9
$DIMSCALE
 40
15.0
  9
$DIMASZ
 40
2.5
  9
$DIMEXO
 40
0.625
  9
$DIMDLI
 40
3.75
  9
$DIMRND
 40
0.0
  9
$DIMDLE
 40
0.0
  9
$DIMEXE
 40
1.25
  9
$DIMTP
 40
0.0
  9
$DIMTM
 40
0.0
  9
$DIMTXT
 40
2.5
  9
$DIMCEN
 40
2.5
  9
$DIMTSZ
 40
0.0
  9
$DIMTOL
 70
     0
  9
$DIMLIM
 70
     0
  9
$DIMTIH
 70
     0
  9
$DIMTOH
 70
     0
  9
$DIMSE1
 70
     0
  9
$DIMSE2
 70
     0
  9
$DIMTAD
 70
     1
  9
$DIMZIN
 70
     8
  9
$DIMBLK
  1

  9
$DIMASO
 70
     1
  9
$DIMSHO
 70
     1
  9
$DIMPOST
  1

  9
$DIMAPOST
  1

  9
$DIMALT
 70
     0
  9
$DIMALTD
 70
     4
  9
$DIMALTF
 40
0.0394
  9
$DIMLFAC
 40
1.0
  9
$DIMTOFL
 70
     1
  9
$DIMTVP
 40
0.0
  9
$DIMTIX
 70
     0
  9
$DIMSOXD
 70
     0
  9
$DIMSAH
 70
     0
  9
$DIMBLK1
  1

  9
$DIMBLK2
  1

  9
$DIMSTYLE
  2
STANDARD
  9
$DIMCLRD
 70
     0
  9
$DIMCLRE
 70
     0
  9
$DIMCLRT
 70
     0
  9
$DIMTFAC
 40
1.0
  9
$DIMGAP
 40
0.625
  9
$DIMJUST
 70
     0
  9
$DIMSD1
 70
     0
  9
$DIMSD2
 70
     0
  9
$DIMTOLJ
 70
     1
  9
$DIMTZIN
 70
     0
  9
$DIMALTZ
 70
     0
  9
$DIMALTTZ
 70
     0
  9
$DIMUPT
 70
     0
  9
$DIMDEC
 70
     4
  9
$DIMTDEC
 70
     4
  9
$DIMALTU
 70
     8
  9
$DIMALTTD
 70
     4
  9
$DIMTXSTY
  7
STANDARD
  9
$DIMAUNIT
 70
     0
  9
$DIMADEC
 70
     0
  9
$DIMALTRND
 40
0.0
  9
$DIMAZIN
 70
     0
  9
$DIMDSEP
 70
    46
  9
$DIMATFIT
 70
     3
  9
$DIMFRAC
 70
     0
  9
$DIMLDRBLK
  1

  9
$DIMLUNIT
 70
     6
  9
$DIMLWD
 70
    -2
  9
$DIMLWE
 70
    -2
  9
$DIMTMOVE
 70
     0
  9
$LUNITS
 70
     2
  9
$LUPREC
 70
     4
  9
$SKETCHINC
 40
1.0
  9
$FILLETRAD
 40
10.0
  9
$AUNITS
 70
     0
  9
$AUPREC
 70
     0
  9
$MENU
  1
acad
  9
$ELEVATION
 40
0.0
  9
$PELEVATION
 40
0.0
  9
$THICKNESS
 40
0.0
  9
$LIMCHECK
 70
     0
  9
$CHAMFERA
 40
10.0
  9
$CHAMFERB
 40
10.0
  9
$CHAMFERC
 40
20.0
  9
$CHAMFERD
 40
0.0
  9
$SKPOLY
 70
     0
  9
$TDCREATE
 40
2452111.335768865
  9
$TDUCREATE
 40
2452110.960768866
  9
$TDUPDATE
 40
2454547.712268715
  9
$TDUUPDATE
 40
2454547.337268715
  9
$TDINDWG
 40
1.2605371875
  9
$TDUSRTIMER
 40
1.2605371875
  9
$USRTIMER
 70
     1
  9
$ANGBASE
 50
0.0
  9
$ANGDIR
 70
     0
  9
$PDMODE
 70
     0
  9
$PDSIZE
 40
0.0
  9
$PLINEWID
 40
0.0
  9
$SPLFRAME
 70
     0
  9
$SPLINETYPE
 70
     6
  9
$SPLINESEGS
 70
     8
  9
$HANDSEED
  5
4157
  9
$SURFTAB1
 70
     6
  9
$SURFTAB2
 70
     6
  9
$SURFTYPE
 70
     6
  9
$SURFU
 70
     6
  9
$SURFV
 70
     6
  9
$UCSBASE
  2

  9
$UCSNAME
  2

  9
$UCSORG
 10
0.0
 20
0.0
 30
0.0
  9
$UCSXDIR
 10
1.0
 20
0.0
 30
0.0
  9
$UCSYDIR
 10
0.0
 20
1.0
 30
0.0
  9
$UCSORTHOREF
  2

  9
$UCSORTHOVIEW
 70
     0
  9
$UCSORGTOP
 10
0.0
 20
0.0
 30
0.0
  9
$UCSORGBOTTOM
 10
0.0
 20
0.0
 30
0.0
  9
$UCSORGLEFT
 10
0.0
 20
0.0
 30
0.0
  9
$UCSORGRIGHT
 10
0.0
 20
0.0
 30
0.0
  9
$UCSORGFRONT
 10
0.0
 20
0.0
 30
0.0
  9
$UCSORGBACK
 10
0.0
 20
0.0
 30
0.0
  9
$PUCSBASE
  2

  9
$PUCSNAME
  2

  9
$PUCSORG
 10
0.0
 20
0.0
 30
0.0
  9
$PUCSXDIR
 10
1.0
 20
0.0
 30
0.0
  9
$PUCSYDIR
 10
0.0
 20
1.0
 30
0.0
  9
$PUCSORTHOREF
  2

  9
$PUCSORTHOVIEW
 70
     0
  9
$PUCSORGTOP
 10
0.0
 20
0.0
 30
0.0
  9
$PUCSORGBOTTOM
 10
0.0
 20
0.0
 30
0.0
  9
$PUCSORGLEFT
 10
0.0
 20
0.0
 30
0.0
  9
$PUCSORGRIGHT
 10
0.0
 20
0.0
 30
0.0
  9
$PUCSORGFRONT
 10
0.0
 20
0.0
 30
0.0
  9
$PUCSORGBACK
 10
0.0
 20
0.0
 30
0.0
  9
$USERI1
 70
     0
  9
$USERI2
 70
     0
  9
$USERI3
 70
     0
  9
$USERI4
 70
     0
  9
$USERI5
 70
     0
  9
$USERR1
 40
0.0
  9
$USERR2
 40
0.0
  9
$USERR3
 40
0.0
  9
$USERR4
 40
0.0
  9
$USERR5
 40
0.0
  9
$WORLDVIEW
 70
     1
  9
$SHADEDGE
 70
     3
  9
$SHADEDIF
 70
    70
  9
$TILEMODE
 70
     1
  9
$MAXACTVP
 70
    48
  9
$PINSBASE
 10
0.0
 20
0.0
 30
0.0
  9
$PLIMCHECK
 70
     0
  9
$PEXTMIN
 10
1.000000000000000E+20
 20
1.000000000000000E+20
 30
1.000000000000000E+20
  9
$PEXTMAX
 10
-1.000000000000000E+20
 20
-1.000000000000000E+20
 30
-1.000000000000000E+20
  9
$PLIMMIN
 10
0.0
 20
0.0
  9
$PLIMMAX
 10
420.0
 20
297.0
  9
$UNITMODE
 70
     0
  9
$VISRETAIN
 70
     1
  9
$PLINEGEN
 70
     0
  9
$PSLTSCALE
 70
     1
  9
$TREEDEPTH
 70
  3020
  9
$CMLSTYLE
  2
STANDARD
  9
$CMLJUST
 70
     0
  9
$CMLSCALE
 40
20.0
  9
$PROXYGRAPHICS
 70
     1
  9
$MEASUREMENT
 70
     1
  9
$CELWEIGHT
370
    -1
  9
$ENDCAPS
280
     0
  9
$JOINSTYLE
280
     0
  9
$LWDISPLAY
290
     0
  9
$INSUNITS
 70
     0
  9
$HYPERLINKBASE
  1

  9
$STYLESHEET
  1

  9
$XEDIT
290
     1
  9
$CEPSNTYPE
380
     0
  9
$PSTYLEMODE
290
     1
  9
$FINGERPRINTGUID
  2
{C9668057-E409-4CFD-A4F9-6C0551275C13}
  9
$VERSIONGUID
  2
{87B373A5-55FE-40E8-A651-C3EFBACA498F}
  9
$EXTNAMES
290
     1
  9
$PSVPSCALE
 40
0.0
  9
$OLESTARTUP
290
     0
  0
ENDSEC
  0
SECTION
  2
CLASSES
  0
CLASS
  1
LWPOLYLINE
  2
AcDbPolyline
  3
AutoCAD 2000
 90
    32768
280
     0
281
     1
  0
CLASS
  1
DICTIONARYVAR
  2
AcDbDictionaryVar
  3
AutoCAD 2000
 90
        0
280
     0
281
     0
  0
CLASS
  1
HATCH
  2
AcDbHatch
  3
AutoCAD 2000
 90
    32768
280
     0
281
     1
  0
CLASS
  1
ACDBDICTIONARYWDFLT
  2
AcDbDictionaryWithDefault
  3
AutoCAD 2000
 90
        0
280
     0
281
     0
  0
CLASS
  1
ACDBPLACEHOLDER
  2
AcDbPlaceHolder
  3
AutoCAD 2000
 90
        0
280
     0
281
     0
  0
CLASS
  1
LAYOUT
  2
AcDbLayout
  3
AutoCAD 2000
 90
        0
280
     0
281
     0
  0
ENDSEC
  0
SECTION
  2
TABLES
  0
TABLE
  2
VPORT
  5
8
330
0
100
AcDbSymbolTable
 70
     3
  0
VPORT
  5
4156
330
8
100
AcDbSymbolTableRecord
100
AcDbViewportTableRecord
  2
*Active
 70
     0
 10
0.0
 20
0.0
 11
1.0
 21
1.0
 12
6755.423756800752
 22
4900.857329584356
 13
0.0
 23
0.0
 14
10.0
 24
10.0
 15
10.0
 25
10.0
 16
0.0
 26
0.0
 36
1.0
 17
0.0
 27
0.0
 37
0.0
 40
3240.423837622482
 41
1.731203007518796
 42
50.0
 43
0.0
 44
0.0
 50
0.0
 51
0.0
 71
     0
 72
   100
 73
     1
 74
     1
 75
     0
 76
     0
 77
     0
 78
     0
281
     0
 65
     1
110
0.0
120
0.0
130
0.0
111
1.0
121
0.0
131
0.0
112
0.0
122
1.0
132
0.0
 79
     0
146
0.0
  0
ENDTAB
  0
TABLE
  2
LTYPE
  5
5
330
0
100
AcDbSymbolTable
 70
    46
  0
LTYPE
  5
12
330
5
100
AcDbSymbolTableRecord
100
AcDbLinetypeTableRecord
  2
BYBLOCK
 70
     0
  3

 72
    65
 73
     0
 40
0.0
  0
LTYPE
  5
13
330
5
100
AcDbSymbolTableRecord
100
AcDbLinetypeTableRecord
  2
BYLAYER
 70
     0
  3

 72
    65
 73
     0
 40
0.0
  0
LTYPE
  5
14
330
5
100
AcDbSymbolTableRecord
100
AcDbLinetypeTableRecord
  2
CONTINUOUS
 70
     0
  3
Solid line
 72
    65
 73
     0
 40
0.0
  0
LTYPE
  5
128
330
5
100
AcDbSymbolTableRecord
100
AcDbLinetypeTableRecord
  2
ACAD_ISO02W100
 70
     0
  3
ISO dash __ __ __ __ __ __ __ __ __ __ __ __ __
 72
    65
 73
     2
 40
15.0
 49
12.0
 74
     0
 49
-3.0
 74
     0
  0
LTYPE
  5
129
330
5
100
AcDbSymbolTableRecord
100
AcDbLinetypeTableRecord
  2
ACAD_ISO03W100
 70
     0
  3
ISO dash space __    __    __    __    __    __
 72
    65
 73
     2
 40
30.0
 49
12.0
 74
     0
 49
-18.0
 74
     0
  0
LTYPE
  5
12A
330
5
100
AcDbSymbolTableRecord
100
AcDbLinetypeTableRecord
  2
ACAD_ISO04W100
 70
     0
  3
ISO long-dash dot ____ . ____ . ____ . ____ . _
 72
    65
 73
     4
 40
30.5
 49
24.0
 74
     0
 49
-3.0
 74
     0
 49
0.5
 74
     0
 49
-3.0
 74
     0
  0
LTYPE
  5
12B
330
5
100
AcDbSymbolTableRecord
100
AcDbLinetypeTableRecord
  2
ACAD_ISO05W100
 70
     0
  3
ISO long-dash double-dot ____ .. ____ .. ____ .
 72
    65
 73
     8
 40
37.5
 49
24.0
 74
     0
 49
-3.0
 74
     0
 49
0.5
 74
     0
 49
-3.0
 74
     0
 49
0.5
 74
     0
 49
-3.0
 74
     0
 49
0.5
 74
     0
 49
-3.0
 74
     0
  0
LTYPE
  5
12C
330
5
100
AcDbSymbolTableRecord
100
AcDbLinetypeTableRecord
  2
ACAD_ISO06W100
 70
     0
  3
ISO long-dash triple-dot ____ ... ____ ... ____
 72
    65
 73
     8
 40
37.5
 49
24.0
 74
     0
 49
-3.0
 74
     0
 49
0.5
 74
     0
 49
-3.0
 74
     0
 49
0.5
 74
     0
 49
-3.0
 74
     0
 49
0.5
 74
     0
 49
-3.0
 74
     0
  0
LTYPE
  5
12D
330
5
100
AcDbSymbolTableRecord
100
AcDbLinetypeTableRecord
  2
ACAD_ISO07W100
 70
     0
  3
ISO dot . . . . . . . . . . . . . . . . . . . .
 72
    65
 73
     2
 40
3.5
 49
0.5
 74
     0
 49
-3.0
 74
     0
  0
LTYPE
  5
12E
330
5
100
AcDbSymbolTableRecord
100
AcDbLinetypeTableRecord
  2
ACAD_ISO08W100
 70
     0
  3
ISO long-dash short-dash ____ __ ____ __ ____ _
 72
    65
 73
     4
 40
36.0
 49
24.0
 74
     0
 49
-3.0
 74
     0
 49
6.0
 74
     0
 49
-3.0
 74
     0
  0
LTYPE
  5
12F
330
5
100
AcDbSymbolTableRecord
100
AcDbLinetypeTableRecord
  2
ACAD_ISO09W100
 70
     0
  3
ISO long-dash double-short-dash ____ __ __ ____
 72
    65
 73
     6
 40
45.0
 49
24.0
 74
     0
 49
-3.0
 74
     0
 49
6.0
 74
     0
 49
-3.0
 74
     0
 49
6.0
 74
     0
 49
-3.0
 74
     0
  0
LTYPE
  5
130
330
5
100
AcDbSymbolTableRecord
100
AcDbLinetypeTableRecord
  2
ACAD_ISO10W100
 70
     0
  3
ISO dash dot __ . __ . __ . __ . __ . __ . __ .
 72
    65
 73
     4
 40
18.5
 49
12.0
 74
     0
 49
-3.0
 74
     0
 49
0.5
 74
     0
 49
-3.0
 74
     0
  0
LTYPE
  5
131
330
5
100
AcDbSymbolTableRecord
100
AcDbLinetypeTableRecord
  2
ACAD_ISO11W100
 70
     0
  3
ISO double-dash dot __ __ . __ __ . __ __ . __ 
 72
    65
 73
     6
 40
33.5
 49
12.0
 74
     0
 49
-3.0
 74
     0
 49
12.0
 74
     0
 49
-3.0
 74
     0
 49
0.5
 74
     0
 49
-3.0
 74
     0
  0
LTYPE
  5
132
330
5
100
AcDbSymbolTableRecord
100
AcDbLinetypeTableRecord
  2
ACAD_ISO12W100
 70
     0
  3
ISO dash double-dot __ . . __ . . __ . . __ . .
 72
    65
 73
     6
 40
22.0
 49
12.0
 74
     0
 49
-3.0
 74
     0
 49
0.5
 74
     0
 49
-3.0
 74
     0
 49
0.5
 74
     0
 49
-3.0
 74
     0
  0
LTYPE
  5
133
330
5
100
AcDbSymbolTableRecord
100
AcDbLinetypeTableRecord
  2
ACAD_ISO13W100
 70
     0
  3
ISO double-dash double-dot __ __ . . __ __ . . 
 72
    65
 73
     8
 40
37.0
 49
12.0
 74
     0
 49
-3.0
 74
     0
 49
12.0
 74
     0
 49
-3.0
 74
     0
 49
0.5
 74
     0
 49
-3.0
 74
     0
 49
0.5
 74
     0
 49
-3.0
 74
     0
  0
LTYPE
  5
134
330
5
100
AcDbSymbolTableRecord
100
AcDbLinetypeTableRecord
  2
ACAD_ISO14W100
 70
     0
  3
ISO dash triple-dot __ . . . __ . . . __ . . . 
 72
    65
 73
     8
 40
25.5
 49
12.0
 74
     0
 49
-3.0
 74
     0
 49
0.5
 74
     0
 49
-3.0
 74
     0
 49
0.5
 74
     0
 49
-3.0
 74
     0
 49
0.5
 74
     0
 49
-3.0
 74
     0
  0
LTYPE
  5
135
330
5
100
AcDbSymbolTableRecord
100
AcDbLinetypeTableRecord
  2
ACAD_ISO15W100
 70
     0
  3
ISO double-dash triple-dot __ __ . . . __ __ . 
 72
    65
 73
    10
 40
40.49999999999999
 49
12.0
 74
     0
 49
-3.0
 74
     0
 49
12.0
 74
     0
 49
-3.0
 74
     0
 49
0.5
 74
     0
 49
-3.0
 74
     0
 49
0.5
 74
     0
 49
-3.0
 74
     0
 49
0.5
 74
     0
 49
-3.0
 74
     0
  0
LTYPE
  5
136
330
5
100
AcDbSymbolTableRecord
100
AcDbLinetypeTableRecord
  2
BATTING
 70
     0
  3
Batting SSSSSSSSSSSSSSSSSSSSSSSSSSSSSSSSSSSSSSS
 72
    65
 73
     4
 40
10.16253999999999
 49
0.00254
 74
     0
 49
-2.54
 74
     4
 75
   134
340
127
 46
2.54
 50
0.0
 44
-2.54
 45
0.0
 49
-5.08
 74
     4
 75
   134
340
127
 46
2.54
 50
180.0
 44
2.54
 45
0.0
 49
-2.54
 74
     0
  0
LTYPE
  5
137
330
5
100
AcDbSymbolTableRecord
100
AcDbLinetypeTableRecord
  2
BORDER
 70
     0
  3
Border __ __ . __ __ . __ __ . __ __ . __ __ .
 72
    65
 73
     6
 40
44.45
 49
12.7
 74
     0
 49
-6.349999999999999
 74
     0
 49
12.7
 74
     0
 49
-6.349999999999999
 74
     0
 49
0.0
 74
     0
 49
-6.349999999999999
 74
     0
  0
LTYPE
  5
138
330
5
100
AcDbSymbolTableRecord
100
AcDbLinetypeTableRecord
  2
BORDER2
 70
     0
  3
Border (.5x) __.__.__.__.__.__.__.__.__.__.__.
 72
    65
 73
     6
 40
22.225
 49
6.349999999999999
 74
     0
 49
-3.174999999999999
 74
     0
 49
6.349999999999999
 74
     0
 49
-3.174999999999999
 74
     0
 49
0.0
 74
     0
 49
-3.174999999999999
 74
     0
  0
LTYPE
  5
139
330
5
100
AcDbSymbolTableRecord
100
AcDbLinetypeTableRecord
  2
BORDERX2
 70
     0
  3
Border (2x) ____  ____  .  ____  ____  .  ___
 72
    65
 73
     6
 40
88.9
 49
25.4
 74
     0
 49
-12.7
 74
     0
 49
25.4
 74
     0
 49
-12.7
 74
     0
 49
0.0
 74
     0
 49
-12.7
 74
     0
  0
LTYPE
  5
13A
330
5
100
AcDbSymbolTableRecord
100
AcDbLinetypeTableRecord
  2
CENTER
 70
     0
  3
Center ____ _ ____ _ ____ _ ____ _ ____ _ ____
 72
    65
 73
     4
 40
50.8
 49
31.75
 74
     0
 49
-6.349999999999999
 74
     0
 49
6.349999999999999
 74
     0
 49
-6.349999999999999
 74
     0
  0
LTYPE
  5
13B
330
5
100
AcDbSymbolTableRecord
100
AcDbLinetypeTableRecord
  2
CENTER2
 70
     0
  3
Center (.5x) ___ _ ___ _ ___ _ ___ _ ___ _ ___
 72
    65
 73
     4
 40
28.57499999999999
 49
19.05
 74
     0
 49
-3.174999999999999
 74
     0
 49
3.174999999999999
 74
     0
 49
-3.174999999999999
 74
     0
  0
LTYPE
  5
13C
330
5
100
AcDbSymbolTableRecord
100
AcDbLinetypeTableRecord
  2
CENTERX2
 70
     0
  3
Center (2x) ________  __  ________  __  _____
 72
    65
 73
     4
 40
101.6
 49
63.5
 74
     0
 49
-12.7
 74
     0
 49
12.7
 74
     0
 49
-12.7
 74
     0
  0
LTYPE
  5
13D
330
5
100
AcDbSymbolTableRecord
100
AcDbLinetypeTableRecord
  2
DASHDOT
 70
     0
  3
Dash dot __ . __ . __ . __ . __ . __ . __ . __
 72
    65
 73
     4
 40
25.4
 49
12.7
 74
     0
 49
-6.349999999999999
 74
     0
 49
0.0
 74
     0
 49
-6.349999999999999
 74
     0
  0
LTYPE
  5
13E
330
5
100
AcDbSymbolTableRecord
100
AcDbLinetypeTableRecord
  2
DASHDOT2
 70
     0
  3
Dash dot (.5x) _._._._._._._._._._._._._._._.
 72
    65
 73
     4
 40
12.7
 49
6.349999999999999
 74
     0
 49
-3.174999999999999
 74
     0
 49
0.0
 74
     0
 49
-3.174999999999999
 74
     0
  0
LTYPE
  5
13F
330
5
100
AcDbSymbolTableRecord
100
AcDbLinetypeTableRecord
  2
DASHDOTX2
 70
     0
  3
Dash dot (2x) ____  .  ____  .  ____  .  ___
 72
    65
 73
     4
 40
50.8
 49
25.4
 74
     0
 49
-12.7
 74
     0
 49
0.0
 74
     0
 49
-12.7
 74
     0
  0
LTYPE
  5
140
330
5
100
AcDbSymbolTableRecord
100
AcDbLinetypeTableRecord
  2
DASHED
 70
     0
  3
Dashed __ __ __ __ __ __ __ __ __ __ __ __ __ _
 72
    65
 73
     2
 40
19.04999999999999
 49
12.7
 74
     0
 49
-6.349999999999999
 74
     0
  0
LTYPE
  5
141
330
5
100
AcDbSymbolTableRecord
100
AcDbLinetypeTableRecord
  2
DASHED2
 70
     0
  3
Dashed (.5x) _ _ _ _ _ _ _ _ _ _ _ _ _ _ _ _ _
 72
    65
 73
     2
 40
9.524999999999998
 49
6.349999999999999
 74
     0
 49
-3.174999999999999
 74
     0
  0
LTYPE
  5
142
330
5
100
AcDbSymbolTableRecord
100
AcDbLinetypeTableRecord
  2
DASHEDX2
 70
     0
  3
Dashed (2x) ____  ____  ____  ____  ____  ___
 72
    65
 73
     2
 40
38.09999999999999
 49
25.4
 74
     0
 49
-12.7
 74
     0
  0
LTYPE
  5
143
330
5
100
AcDbSymbolTableRecord
100
AcDbLinetypeTableRecord
  2
DIVIDE
 70
     0
  3
Divide ____ . . ____ . . ____ . . ____ . . ____
 72
    65
 73
     6
 40
31.74999999999999
 49
12.7
 74
     0
 49
-6.349999999999999
 74
     0
 49
0.0
 74
     0
 49
-6.349999999999999
 74
     0
 49
0.0
 74
     0
 49
-6.349999999999999
 74
     0
  0
LTYPE
  5
144
330
5
100
AcDbSymbolTableRecord
100
AcDbLinetypeTableRecord
  2
DIVIDE2
 70
     0
  3
Divide (.5x) __..__..__..__..__..__..__..__.._
 72
    65
 73
     6
 40
15.87499999999999
 49
6.349999999999999
 74
     0
 49
-3.174999999999999
 74
     0
 49
0.0
 74
     0
 49
-3.174999999999999
 74
     0
 49
0.0
 74
     0
 49
-3.174999999999999
 74
     0
  0
LTYPE
  5
145
330
5
100
AcDbSymbolTableRecord
100
AcDbLinetypeTableRecord
  2
DIVIDEX2
 70
     0
  3
Divide (2x) ________  .  .  ________  .  .  _
 72
    65
 73
     6
 40
63.49999999999999
 49
25.4
 74
     0
 49
-12.7
 74
     0
 49
0.0
 74
     0
 49
-12.7
 74
     0
 49
0.0
 74
     0
 49
-12.7
 74
     0
  0
LTYPE
  5
146
330
5
100
AcDbSymbolTableRecord
100
AcDbLinetypeTableRecord
  2
DOT
 70
     0
  3
Dot . . . . . . . . . . . . . . . . . . . . . .
 72
    65
 73
     2
 40
6.349999999999999
 49
0.0
 74
     0
 49
-6.349999999999999
 74
     0
  0
LTYPE
  5
147
330
5
100
AcDbSymbolTableRecord
100
AcDbLinetypeTableRecord
  2
DOT2
 70
     0
  3
Dot (.5x) .....................................
 72
    65
 73
     2
 40
3.174999999999999
 49
0.0
 74
     0
 49
-3.174999999999999
 74
     0
  0
LTYPE
  5
148
330
5
100
AcDbSymbolTableRecord
100
AcDbLinetypeTableRecord
  2
DOTX2
 70
     0
  3
Dot (2x) .  .  .  .  .  .  .  .  .  .  .  .  . 
 72
    65
 73
     2
 40
12.7
 49
0.0
 74
     0
 49
-12.7
 74
     0
  0
LTYPE
  5
149
330
5
100
AcDbSymbolTableRecord
100
AcDbLinetypeTableRecord
  2
FENCELINE1
 70
     0
  3
Fenceline circle ----0-----0----0-----0----0---
 72
    65
 73
     4
 40
36.82999999999999
 49
6.349999999999999
 74
     0
 49
-2.54
 74
     4
 75
   133
340
127
 46
2.54
 50
0.0
 44
-2.54
 45
0.0
 49
-2.54
 74
     0
 49
25.4
 74
     0
  0
LTYPE
  5
14A
330
5
100
AcDbSymbolTableRecord
100
AcDbLinetypeTableRecord
  2
FENCELINE2
 70
     0
  3
Fenceline square ----[]-----[]----[]-----[]----
 72
    65
 73
     4
 40
36.82999999999999
 49
6.349999999999999
 74
     0
 49
-2.54
 74
     4
 75
   132
340
127
 46
2.54
 50
0.0
 44
-2.54
 45
0.0
 49
-2.54
 74
     0
 49
25.4
 74
     0
  0
LTYPE
  5
14B
330
5
100
AcDbSymbolTableRecord
100
AcDbLinetypeTableRecord
  2
GAS_LINE
 70
     0
  3
Gas line ----GAS----GAS----GAS----GAS----GAS---
 72
    65
 73
     3
 40
24.13
 49
12.7
 74
     0
 49
-5.08
 74
     2
 75
     0
340
F
 46
2.54
 50
0.0
 44
-2.54
 45
-1.27
  9
GAS
 49
-6.349999999999999
 74
     0
  0
LTYPE
  5
14C
330
5
100
AcDbSymbolTableRecord
100
AcDbLinetypeTableRecord
  2
HIDDEN
 70
     0
  3
Hidden __ __ __ __ __ __ __ __ __ __ __ __ __ _
 72
    65
 73
     2
 40
9.524999999999998
 49
6.349999999999999
 74
     0
 49
-3.174999999999999
 74
     0
  0
LTYPE
  5
14D
330
5
100
AcDbSymbolTableRecord
100
AcDbLinetypeTableRecord
  2
HIDDEN2
 70
     0
  3
Hidden (.5x) _ _ _ _ _ _ _ _ _ _ _ _ _ _ _ _ _
 72
    65
 73
     2
 40
4.762499999999999
 49
3.174999999999999
 74
     0
 49
-1.587499999999999
 74
     0
  0
LTYPE
  5
14E
330
5
100
AcDbSymbolTableRecord
100
AcDbLinetypeTableRecord
  2
HIDDENX2
 70
     0
  3
Hidden (2x) ____ ____ ____ ____ ____ ____ ____
 72
    65
 73
     2
 40
19.04999999999999
 49
12.7
 74
     0
 49
-6.349999999999999
 74
     0
  0
LTYPE
  5
14F
330
5
100
AcDbSymbolTableRecord
100
AcDbLinetypeTableRecord
  2
HOT_WATER_SUPPLY
 70
     0
  3
Hot water supply ---- HW ---- HW ---- HW ----
 72
    65
 73
     3
 40
22.86
 49
12.7
 74
     0
 49
-5.08
 74
     2
 75
     0
340
F
 46
2.54
 50
0.0
 44
-2.54
 45
-1.27
  9
HW
 49
-5.08
 74
     0
  0
LTYPE
  5
150
330
5
100
AcDbSymbolTableRecord
100
AcDbLinetypeTableRecord
  2
PHANTOM
 70
     0
  3
Phantom ______  __  __  ______  __  __  ______
 72
    65
 73
     6
 40
63.5
 49
31.75
 74
     0
 49
-6.349999999999999
 74
     0
 49
6.349999999999999
 74
     0
 49
-6.349999999999999
 74
     0
 49
6.349999999999999
 74
     0
 49
-6.349999999999999
 74
     0
  0
LTYPE
  5
151
330
5
100
AcDbSymbolTableRecord
100
AcDbLinetypeTableRecord
  2
PHANTOM2
 70
     0
  3
Phantom (.5x) ___ _ _ ___ _ _ ___ _ _ ___ _ _
 72
    65
 73
     6
 40
31.75
 49
15.875
 74
     0
 49
-3.174999999999999
 74
     0
 49
3.174999999999999
 74
     0
 49
-3.174999999999999
 74
     0
 49
3.174999999999999
 74
     0
 49
-3.174999999999999
 74
     0
  0
LTYPE
  5
152
330
5
100
AcDbSymbolTableRecord
100
AcDbLinetypeTableRecord
  2
PHANTOMX2
 70
     0
  3
Phantom (2x) ____________    ____    ____   _
 72
    65
 73
     6
 40
127.0
 49
63.5
 74
     0
 49
-12.7
 74
     0
 49
12.7
 74
     0
 49
-12.7
 74
     0
 49
12.7
 74
     0
 49
-12.7
 74
     0
  0
LTYPE
  5
153
330
5
100
AcDbSymbolTableRecord
100
AcDbLinetypeTableRecord
  2
TRACKS
 70
     0
  3
Tracks -|-|-|-|-|-|-|-|-|-|-|-|-|-|-|-|-|-|-|-|
 72
    65
 73
     2
 40
7.62
 49
3.81
 74
     4
 75
   130
340
127
 46
6.349999999999999
 50
0.0
 44
0.0
 45
0.0
 49
3.81
 74
     0
  0
LTYPE
  5
154
330
5
100
AcDbSymbolTableRecord
100
AcDbLinetypeTableRecord
  2
ZIGZAG
 70
     0
  3
Zig zag /\/\/\/\/\/\/\/\/\/\/\/\/\/\/\/\/\/\/\/
 72
    65
 73
     4
 40
20.32254
 49
0.00254
 74
     0
 49
-5.08
 74
     4
 75
   131
340
127
 46
5.08
 50
0.0
 44
-5.08
 45
0.0
 49
-10.16
 74
     4
 75
   131
340
127
 46
5.08
 50
180.0
 44
5.08
 45
0.0
 49
-5.08
 74
     0
  0
ENDTAB
  0
TABLE
  2
LAYER
  5
2
330
0
100
AcDbSymbolTable
 70
    10
  0
LAYER
  5
E
330
2
100
AcDbSymbolTableRecord
100
AcDbLayerTableRecord
  2
0
 70
     0
 62
     7
  6
CONTINUOUS
370
    -3
390
15FD
  0
LAYER
  5
20
330
2
100
AcDbSymbolTableRecord
100
AcDbLayerTableRecord
  2
DEFPOINTS
 70
     0
 62
     7
  6
CONTINUOUS
290
     0
370
    -3
390
15FD
  0
LAYER
  5
21
330
2
100
AcDbSymbolTableRecord
100
AcDbLayerTableRecord
  2
OBJECT
 70
     0
 62
     7
  6
CONTINUOUS
370
    -3
390
15FD
  0
LAYER
  5
155
330
2
100
AcDbSymbolTableRecord
100
AcDbLayerTableRecord
  2
上書線
 70
     0
 62
     7
  6
CONTINUOUS
370
    -3
390
15FD
  0
LAYER
  5
156
330
2
100
AcDbSymbolTableRecord
100
AcDbLayerTableRecord
  2
基準線
 70
     0
 62
    -1
  6
CONTINUOUS
370
    -3
390
15FD
  0
LAYER
  5
157
330
2
100
AcDbSymbolTableRecord
100
AcDbLayerTableRecord
  2
点線
 70
     0
 62
     5
  6
HIDDEN
370
    -3
390
15FD
  0
LAYER
  5
158
330
2
100
AcDbSymbolTableRecord
100
AcDbLayerTableRecord
  2
寸法線
 70
     0
 62
     2
  6
CONTINUOUS
370
    -3
390
15FD
  0
LAYER
  5
19D7
330
2
100
AcDbSymbolTableRecord
100
AcDbLayerTableRecord
  2
上線
 70
     0
 62
     7
  6
CONTINUOUS
370
    -3
390
15FD
  0
LAYER
  5
2EB9
330
2
100
AcDbSymbolTableRecord
100
AcDbLayerTableRecord
  2
中心線
 70
     0
 62
     6
  6
CENTER
370
    -3
390
15FD
  0
LAYER
  5
3EC0
330
2
100
AcDbSymbolTableRecord
100
AcDbLayerTableRecord
  2
WUWAGAKI
 70
     0
 62
     7
  6
CONTINUOUS
370
    -3
390
15FD
  0
ENDTAB
  0
TABLE
  2
STYLE
  5
3
330
0
100
AcDbSymbolTable
 70
     3
  0
STYLE
  5
F
330
3
100
AcDbSymbolTableRecord
100
AcDbTextStyleTableRecord
  2
STANDARD
 70
     0
 40
0.0
 41
1.0
 50
0.0
 71
     0
 42
2.5
  3
MS PMincho.ttf
  4

1001
ACAD
1000
MS PMincho
1071
    32786
  0
STYLE
  5
22
330
3
100
AcDbSymbolTableRecord
100
AcDbTextStyleTableRecord
  2
ADESK1
 70
     0
 40
0.0
 41
1.0
 50
0.0
 71
     0
 42
5.0
  3
romans
  4
bigfont
  0
STYLE
  5
127
330
3
100
AcDbSymbolTableRecord
100
AcDbTextStyleTableRecord
  2

 70
     1
 40
0.0
 41
1.0
 50
0.0
 71
     0
 42
2.5
  3
ltypeshp.shx
  4

  0
ENDTAB
  0
TABLE
  2
VIEW
  5
6
330
0
100
AcDbSymbolTable
 70
     0
  0
ENDTAB
  0
TABLE
  2
UCS
  5
7
330
0
100
AcDbSymbolTable
 70
     0
  0
ENDTAB
  0
TABLE
  2
APPID
  5
9
330
0
100
AcDbSymbolTable
 70
     2
  0
APPID
  5
10
330
9
100
AcDbSymbolTableRecord
100
AcDbRegAppTableRecord
  2
ACAD
 70
     0
  0
APPID
  5
1213
330
9
100
AcDbSymbolTableRecord
100
AcDbRegAppTableRecord
  2
DRAWINGVARIABLESXDATA
 70
     0
  0
ENDTAB
  0
TABLE
  2
DIMSTYLE
  5
A
330
0
100
AcDbSymbolTable
 70
     2
100
AcDbDimStyleTable
 71
     1
340
1D
  0
DIMSTYLE
105
1D
330
A
100
AcDbSymbolTableRecord
100
AcDbDimStyleTableRecord
  2
STANDARD
 70
     0
340
F
  0
DIMSTYLE
105
23
330
A
100
AcDbSymbolTableRecord
100
AcDbDimStyleTableRecord
  2
JIS
 70
     0
 41
2.5
 42
1.0
 43
7.0
 44
1.0
 73
     0
 74
     0
 77
     1
 78
     8
140
2.5
141
0.0
143
0.0394
147
0.0
172
     1
174
     1
175
     1
340
F
  0
ENDTAB
  0
TABLE
  2
BLOCK_RECORD
  5
1
330
0
100
AcDbSymbolTable
 70
     3
  0
BLOCK_RECORD
  5
18
330
1
100
AcDbSymbolTableRecord
100
AcDbBlockTableRecord
  2
*MODEL_SPACE
340
1600
  0
BLOCK_RECORD
  5
15
330
1
100
AcDbSymbolTableRecord
100
AcDbBlockTableRecord
  2
*PAPER_SPACE
340
1601
  0
BLOCK_RECORD
  5
24
330
1
100
AcDbSymbolTableRecord
100
AcDbBlockTableRecord
  2
JIS_A4L
340
0
  0
BLOCK_RECORD
  5
3437
330
1
100
AcDbSymbolTableRecord
100
AcDbBlockTableRecord
  2
*D1
340
0
  0
BLOCK_RECORD
  5
3445
330
1
100
AcDbSymbolTableRecord
100
AcDbBlockTableRecord
  2
A$C23BB6A77
340
0
  0
ENDTAB
  0
ENDSEC
  0
SECTION
  2
BLOCKS
  0
BLOCK
  5
19
330
18
100
AcDbEntity
  8
0
100
AcDbBlockBegin
  2
*MODEL_SPACE
 70
     2
 10
0.0
 20
0.0
 30
0.0
  3
*MODEL_SPACE
  1

  0
ENDBLK
  5
1A
330
18
100
AcDbEntity
  8
0
100
AcDbBlockEnd
  0
BLOCK
  5
16
330
15
100
AcDbEntity
 67
     1
  8
0
100
AcDbBlockBegin
  2
*PAPER_SPACE
 70
     0
 10
0.0
 20
0.0
 30
0.0
  3
*PAPER_SPACE
  1

  0
ENDBLK
  5
17
330
15
100
AcDbEntity
 67
     1
  8
0
100
AcDbBlockEnd
  0
BLOCK
  5
A1
330
24
100
AcDbEntity
  8
0
100
AcDbBlockBegin
  2
JIS_A4L
 70
     2
 10
0.0
 20
0.0
 30
0.0
  3
JIS_A4L
  1

  0
LINE
  5
25
330
24
100
AcDbEntity
  8
0
100
AcDbLine
 10
0.0
 20
0.0
 30
0.0
 11
0.0
 21
10.0
 31
0.0
  0
LINE
  5
26
330
24
100
AcDbEntity
  8
0
100
AcDbLine
 10
0.0
 20
210.0
 30
0.0
 11
25.0
 21
210.0
 31
0.0
  0
LINE
  5
27
330
24
100
AcDbEntity
  8
0
100
AcDbLine
 10
297.0
 20
210.0
 30
0.0
 11
297.0
 21
200.0
 31
0.0
  0
LINE
  5
28
330
24
100
AcDbEntity
  8
0
100
AcDbLine
 10
297.0
 20
0.0
 30
0.0
 11
287.0
 21
0.0
 31
0.0
  0
LINE
  5
29
330
24
100
AcDbEntity
  8
0
100
AcDbLine
 10
25.0
 20
10.0
 30
0.0
 11
25.0
 21
200.0
 31
0.0
  0
LINE
  5
2A
330
24
100
AcDbEntity
  8
0
100
AcDbLine
 10
287.0
 20
10.0
 30
0.0
 11
25.0
 21
10.0
 31
0.0
  0
LINE
  5
2B
330
24
100
AcDbEntity
  8
0
100
AcDbLine
 10
287.0
 20
200.0
 30
0.0
 11
287.0
 21
10.0
 31
0.0
  0
LINE
  5
2C
330
24
100
AcDbEntity
  8
0
100
AcDbLine
 10
25.0
 20
200.0
 30
0.0
 11
287.0
 21
200.0
 31
0.0
  0
LINE
  5
2D
330
24
100
AcDbEntity
  8
0
100
AcDbLine
 10
0.0
 20
200.0
 30
0.0
 11
0.0
 21
210.0
 31
0.0
  0
LINE
  5
2E
330
24
100
AcDbEntity
  8
0
100
AcDbLine
 10
25.0
 20
0.0
 30
0.0
 11
0.0
 21
0.0
 31
0.0
  0
LINE
  5
2F
330
24
100
AcDbEntity
  8
0
100
AcDbLine
 10
297.0
 20
10.0
 30
0.0
 11
297.0
 21
0.0
 31
0.0
  0
LINE
  5
30
330
24
100
AcDbEntity
  8
0
100
AcDbLine
 10
287.0
 20
210.0
 30
0.0
 11
297.0
 21
210.0
 31
0.0
  0
ATTDEF
  5
31
330
24
100
AcDbEntity
  8
0
 62
     0
100
AcDbText
 10
19.0
 20
10.0
 30
0.0
 40
3.0
  1

 50
90.0
  7
ADESK1
100
AcDbAttributeDefinition
  3

  2
USER
 70
     8
  0
ATTDEF
  5
32
330
24
100
AcDbEntity
  8
0
 62
     0
100
AcDbText
 10
19.0
 20
70.0
 30
0.0
 40
3.0
  1

 50
90.0
  7
ADESK1
100
AcDbAttributeDefinition
  3

  2
REVDATE
 70
     8
  0
ATTDEF
  5
33
330
24
100
AcDbEntity
  8
0
 62
     0
100
AcDbText
 10
19.0
 20
118.0
 30
0.0
 40
3.0
  1

 50
90.0
  7
ADESK1
100
AcDbAttributeDefinition
  3

  2
FNAME
 70
     8
  0
LINE
  5
34
330
24
100
AcDbEntity
  8
OBJECT
100
AcDbLine
 10
130.0
 20
16.0
 30
0.0
 11
25.0
 21
16.0
 31
0.0
  0
LINE
  5
35
330
24
100
AcDbEntity
  8
OBJECT
100
AcDbLine
 10
130.0
 20
22.0
 30
0.0
 11
25.0
 21
22.0
 31
0.0
  0
LINE
  5
36
330
24
100
AcDbEntity
  8
OBJECT
100
AcDbLine
 10
130.0
 20
28.0
 30
0.0
 11
25.0
 21
28.0
 31
0.0
  0
LINE
  5
37
330
24
100
AcDbEntity
  8
OBJECT
100
AcDbLine
 10
130.0
 20
34.0
 30
0.0
 11
25.0
 21
34.0
 31
0.0
  0
LINE
  5
38
330
24
100
AcDbEntity
  8
OBJECT
100
AcDbLine
 10
130.0
 20
40.0
 30
0.0
 11
25.0
 21
40.0
 31
0.0
  0
LINE
  5
39
330
24
100
AcDbEntity
  8
OBJECT
100
AcDbLine
 10
28.0
 20
11.53589799999999
 30
0.0
 11
30.0
 21
15.0
 31
0.0
  0
LINE
  5
3A
330
24
100
AcDbEntity
  8
OBJECT
100
AcDbLine
 10
32.0
 20
11.53589799999999
 30
0.0
 11
30.0
 21
15.0
 31
0.0
  0
LINE
  5
3B
330
24
100
AcDbEntity
  8
OBJECT
100
AcDbLine
 10
35.0
 20
10.0
 30
0.0
 11
35.0
 21
40.0
 31
0.0
  0
LINE
  5
3C
330
24
100
AcDbEntity
  8
OBJECT
100
AcDbLine
 10
50.0
 20
10.0
 30
0.0
 11
50.0
 21
40.0
 31
0.0
  0
LINE
  5
3D
330
24
100
AcDbEntity
  8
OBJECT
100
AcDbLine
 10
80.0
 20
10.0
 30
0.0
 11
80.0
 21
40.0
 31
0.0
  0
LINE
  5
3E
330
24
100
AcDbEntity
  8
OBJECT
100
AcDbLine
 10
28.0
 20
11.53589799999999
 30
0.0
 11
32.0
 21
11.53589799999999
 31
0.0
  0
LINE
  5
3F
330
24
100
AcDbEntity
  8
OBJECT
100
AcDbLine
 10
39.5
 20
13.0
 30
0.0
 11
40.49999999999999
 21
13.0
 31
0.0
  0
LINE
  5
40
330
24
100
AcDbEntity
  8
OBJECT
100
AcDbLine
 10
44.5
 20
13.0
 30
0.0
 11
45.49999999999999
 21
13.0
 31
0.0
  0
LINE
  5
41
330
24
100
AcDbEntity
  8
OBJECT
100
AcDbLine
 10
32.0
 20
17.535898
 30
0.0
 11
30.0
 21
20.99999999999999
 31
0.0
  0
LINE
  5
42
330
24
100
AcDbEntity
  8
OBJECT
100
AcDbLine
 10
28.0
 20
17.535898
 30
0.0
 11
32.0
 21
17.535898
 31
0.0
  0
LINE
  5
43
330
24
100
AcDbEntity
  8
OBJECT
100
AcDbLine
 10
28.0
 20
17.535898
 30
0.0
 11
30.0
 21
20.99999999999999
 31
0.0
  0
LINE
  5
44
330
24
100
AcDbEntity
  8
OBJECT
100
AcDbLine
 10
32.0
 20
23.53589799999999
 30
0.0
 11
30.0
 21
26.99999999999999
 31
0.0
  0
LINE
  5
45
330
24
100
AcDbEntity
  8
OBJECT
100
AcDbLine
 10
28.0
 20
23.53589799999999
 30
0.0
 11
32.0
 21
23.53589799999999
 31
0.0
  0
LINE
  5
46
330
24
100
AcDbEntity
  8
OBJECT
100
AcDbLine
 10
28.0
 20
23.53589799999999
 30
0.0
 11
30.0
 21
26.99999999999999
 31
0.0
  0
LINE
  5
47
330
24
100
AcDbEntity
  8
OBJECT
100
AcDbLine
 10
28.0
 20
35.53589799999999
 30
0.0
 11
30.0
 21
39.0
 31
0.0
  0
LINE
  5
48
330
24
100
AcDbEntity
  8
OBJECT
100
AcDbLine
 10
32.0
 20
35.53589799999999
 30
0.0
 11
30.0
 21
39.0
 31
0.0
  0
LINE
  5
49
330
24
100
AcDbEntity
  8
OBJECT
100
AcDbLine
 10
28.0
 20
35.53589799999999
 30
0.0
 11
32.0
 21
35.53589799999999
 31
0.0
  0
LINE
  5
4A
330
24
100
AcDbEntity
  8
OBJECT
100
AcDbLine
 10
32.0
 20
29.53589799999999
 30
0.0
 11
30.0
 21
33.0
 31
0.0
  0
LINE
  5
4B
330
24
100
AcDbEntity
  8
OBJECT
100
AcDbLine
 10
28.0
 20
29.53589799999999
 30
0.0
 11
32.0
 21
29.53589799999999
 31
0.0
  0
LINE
  5
4C
330
24
100
AcDbEntity
  8
OBJECT
100
AcDbLine
 10
28.0
 20
29.53589799999999
 30
0.0
 11
30.0
 21
33.0
 31
0.0
  0
LINE
  5
4D
330
24
100
AcDbEntity
  8
OBJECT
100
AcDbLine
 10
39.5
 20
19.0
 30
0.0
 11
40.49999999999999
 21
19.0
 31
0.0
  0
LINE
  5
4E
330
24
100
AcDbEntity
  8
OBJECT
100
AcDbLine
 10
44.5
 20
19.0
 30
0.0
 11
45.49999999999999
 21
19.0
 31
0.0
  0
LINE
  5
4F
330
24
100
AcDbEntity
  8
OBJECT
100
AcDbLine
 10
39.5
 20
25.0
 30
0.0
 11
40.49999999999999
 21
25.0
 31
0.0
  0
LINE
  5
50
330
24
100
AcDbEntity
  8
OBJECT
100
AcDbLine
 10
44.5
 20
25.0
 30
0.0
 11
45.49999999999999
 21
25.0
 31
0.0
  0
LINE
  5
51
330
24
100
AcDbEntity
  8
OBJECT
100
AcDbLine
 10
39.5
 20
31.0
 30
0.0
 11
40.49999999999999
 21
31.0
 31
0.0
  0
LINE
  5
52
330
24
100
AcDbEntity
  8
OBJECT
100
AcDbLine
 10
39.5
 20
37.0
 30
0.0
 11
40.49999999999999
 21
37.0
 31
0.0
  0
LINE
  5
53
330
24
100
AcDbEntity
  8
OBJECT
100
AcDbLine
 10
44.5
 20
31.0
 30
0.0
 11
45.49999999999999
 21
31.0
 31
0.0
  0
LINE
  5
54
330
24
100
AcDbEntity
  8
OBJECT
100
AcDbLine
 10
44.5
 20
37.0
 30
0.0
 11
45.49999999999999
 21
37.0
 31
0.0
  0
LINE
  5
55
330
24
100
AcDbEntity
  8
OBJECT
100
AcDbLine
 10
120.0
 20
10.0
 30
0.0
 11
120.0
 21
40.0
 31
0.0
  0
LINE
  5
56
330
24
100
AcDbEntity
  8
OBJECT
100
AcDbLine
 10
130.0
 20
40.0
 30
0.0
 11
130.0
 21
10.0
 31
0.0
  0
LINE
  5
57
330
24
100
AcDbEntity
  8
0
100
AcDbLine
 10
156.0
 20
10.0
 30
0.0
 11
156.0
 21
0.0
 31
0.0
  0
LINE
  5
58
330
24
100
AcDbEntity
  8
0
100
AcDbLine
 10
156.0
 20
200.0
 30
0.0
 11
156.0
 21
210.0
 31
0.0
  0
LINE
  5
59
330
24
100
AcDbEntity
  8
0
100
AcDbLine
 10
287.0
 20
105.0
 30
0.0
 11
297.0
 21
105.0
 31
0.0
  0
LINE
  5
5A
330
24
100
AcDbEntity
  8
0
100
AcDbLine
 10
25.0
 20
105.0
 30
0.0
 11
0.0
 21
105.0
 31
0.0
  0
TEXT
  5
5B
330
24
100
AcDbEntity
  8
0
100
AcDbText
 10
1.0
 20
1.0
 30
0.0
 40
3.0
  1
この図枠はサンプルです。社内の規格やプロッタの出力範囲に合わせて適当に変更してご利用ください。
  7
ADESK1
100
AcDbText
  0
LINE
  5
5C
330
24
100
AcDbEntity
  8
0
100
AcDbLine
 10
25.0
 20
152.5
 30
0.0
 11
20.0
 21
152.5
 31
0.0
  0
LINE
  5
5D
330
24
100
AcDbEntity
  8
0
100
AcDbLine
 10
25.0
 20
105.0
 30
0.0
 11
20.0
 21
105.0
 31
0.0
  0
LINE
  5
5E
330
24
100
AcDbEntity
  8
0
100
AcDbLine
 10
25.0
 20
57.5
 30
0.0
 11
20.0
 21
57.5
 31
0.0
  0
LINE
  5
5F
330
24
100
AcDbEntity
  8
0
100
AcDbLine
 10
68.66666666666668
 20
10.0
 30
0.0
 11
68.66666666666668
 21
5.0
 31
0.0
  0
LINE
  5
60
330
24
100
AcDbEntity
  8
0
100
AcDbLine
 10
112.3333333333333
 20
10.0
 30
0.0
 11
112.3333333333333
 21
5.0
 31
0.0
  0
LINE
  5
61
330
24
100
AcDbEntity
  8
0
100
AcDbLine
 10
156.0
 20
10.0
 30
0.0
 11
156.0
 21
5.0
 31
0.0
  0
LINE
  5
62
330
24
100
AcDbEntity
  8
0
100
AcDbLine
 10
199.6666666666666
 20
10.0
 30
0.0
 11
199.6666666666666
 21
5.0
 31
0.0
  0
LINE
  5
63
330
24
100
AcDbEntity
  8
0
100
AcDbLine
 10
243.3333333333333
 20
10.0
 30
0.0
 11
243.3333333333333
 21
5.0
 31
0.0
  0
LINE
  5
64
330
24
100
AcDbEntity
  8
0
100
AcDbLine
 10
287.0
 20
57.5
 30
0.0
 11
292.0
 21
57.5
 31
0.0
  0
LINE
  5
65
330
24
100
AcDbEntity
  8
0
100
AcDbLine
 10
287.0
 20
105.0
 30
0.0
 11
292.0
 21
105.0
 31
0.0
  0
LINE
  5
66
330
24
100
AcDbEntity
  8
0
100
AcDbLine
 10
287.0
 20
152.5
 30
0.0
 11
292.0
 21
152.5
 31
0.0
  0
LINE
  5
67
330
24
100
AcDbEntity
  8
0
100
AcDbLine
 10
243.3333333333333
 20
200.0
 30
0.0
 11
243.3333333333333
 21
205.0
 31
0.0
  0
LINE
  5
68
330
24
100
AcDbEntity
  8
0
100
AcDbLine
 10
199.6666666666666
 20
200.0
 30
0.0
 11
199.6666666666666
 21
205.0
 31
0.0
  0
LINE
  5
69
330
24
100
AcDbEntity
  8
0
100
AcDbLine
 10
156.0
 20
200.0
 30
0.0
 11
156.0
 21
205.0
 31
0.0
  0
LINE
  5
6A
330
24
100
AcDbEntity
  8
0
100
AcDbLine
 10
112.3333333333333
 20
200.0
 30
0.0
 11
112.3333333333333
 21
205.0
 31
0.0
  0
LINE
  5
6B
330
24
100
AcDbEntity
  8
0
100
AcDbLine
 10
68.66666666666666
 20
200.0
 30
0.0
 11
68.66666666666666
 21
205.0
 31
0.0
  0
TEXT
  5
6C
330
24
100
AcDbEntity
  8
0
100
AcDbText
 10
45.61904761904761
 20
201.0
 30
0.0
 40
3.0
  1
1
  7
ADESK1
 72
     1
 11
46.83333333333332
 21
201.0
 31
0.0
100
AcDbText
  0
TEXT
  5
6D
330
24
100
AcDbEntity
  8
0
100
AcDbText
 10
21.66139736003921
 20
176.25
 30
0.0
 40
3.0
  1
A
  7
ADESK1
 72
     1
 11
22.94711164575349
 21
176.25
 31
0.0
100
AcDbText
  0
TEXT
  5
6E
330
24
100
AcDbEntity
  8
0
100
AcDbText
 10
89.07142857142856
 20
201.0
 30
0.0
 40
3.0
  1
2
  7
ADESK1
 72
     1
 11
90.5
 21
201.0
 31
0.0
100
AcDbText
  0
TEXT
  5
6F
330
24
100
AcDbEntity
  8
0
100
AcDbText
 10
132.7380952380952
 20
201.0
 30
0.0
 40
3.0
  1
3
  7
ADESK1
 72
     1
 11
134.1666666666666
 21
201.0
 31
0.0
100
AcDbText
  0
TEXT
  5
70
330
24
100
AcDbEntity
  8
0
100
AcDbText
 10
176.3333333333333
 20
201.0
 30
0.0
 40
3.0
  1
4
  7
ADESK1
 72
     1
 11
177.8333333333333
 21
201.0
 31
0.0
100
AcDbText
  0
TEXT
  5
71
330
24
100
AcDbEntity
  8
0
100
AcDbText
 10
220.0714285714286
 20
201.0
 30
0.0
 40
3.0
  1
5
  7
ADESK1
 72
     1
 11
221.4999999999999
 21
201.0
 31
0.0
100
AcDbText
  0
TEXT
  5
72
330
24
100
AcDbEntity
  8
0
100
AcDbText
 10
263.6666666666666
 20
201.0
 30
0.0
 40
3.0
  1
6
  7
ADESK1
 72
     1
 11
265.1666666666666
 21
201.0
 31
0.0
100
AcDbText
  0
TEXT
  5
73
330
24
100
AcDbEntity
  8
0
100
AcDbText
 10
21.37568307432492
 20
128.75
 30
0.0
 40
3.0
  1
B
  7
ADESK1
 72
     1
 11
22.94711164575349
 21
128.75
 31
0.0
100
AcDbText
  0
TEXT
  5
74
330
24
100
AcDbEntity
  8
0
100
AcDbText
 10
21.44711164575349
 20
81.25
 30
0.0
 40
3.0
  1
C
  7
ADESK1
 72
     1
 11
22.94711164575349
 21
81.25
 31
0.0
100
AcDbText
  0
TEXT
  5
75
330
24
100
AcDbEntity
  8
0
100
AcDbText
 10
21.37568307432492
 20
33.75
 30
0.0
 40
3.0
  1
D
  7
ADESK1
 72
     1
 11
22.94711164575349
 21
33.75
 31
0.0
100
AcDbText
  0
TEXT
  5
76
330
24
100
AcDbEntity
  8
0
100
AcDbText
 10
45.61904761904759
 20
6.230338100985607
 30
0.0
 40
3.0
  1
1
  7
ADESK1
 72
     1
 11
46.83333333333331
 21
6.230338100985607
 31
0.0
100
AcDbText
  0
TEXT
  5
77
330
24
100
AcDbEntity
  8
0
100
AcDbText
 10
89.07142857142856
 20
6.230338100985607
 30
0.0
 40
3.0
  1
2
  7
ADESK1
 72
     1
 11
90.5
 21
6.230338100985607
 31
0.0
100
AcDbText
  0
TEXT
  5
78
330
24
100
AcDbEntity
  8
0
100
AcDbText
 10
132.7380952380952
 20
6.230338100985607
 30
0.0
 40
3.0
  1
3
  7
ADESK1
 72
     1
 11
134.1666666666666
 21
6.230338100985607
 31
0.0
100
AcDbText
  0
TEXT
  5
79
330
24
100
AcDbEntity
  8
0
100
AcDbText
 10
176.3333333333333
 20
6.230338100985607
 30
0.0
 40
3.0
  1
4
  7
ADESK1
 72
     1
 11
177.8333333333333
 21
6.230338100985607
 31
0.0
100
AcDbText
  0
TEXT
  5
7A
330
24
100
AcDbEntity
  8
0
100
AcDbText
 10
220.0714285714286
 20
6.230338100985607
 30
0.0
 40
3.0
  1
5
  7
ADESK1
 72
     1
 11
221.4999999999999
 21
6.230338100985607
 31
0.0
100
AcDbText
  0
TEXT
  5
7B
330
24
100
AcDbEntity
  8
0
100
AcDbText
 10
263.6666666666666
 20
6.230338100985607
 30
0.0
 40
3.0
  1
6
  7
ADESK1
 72
     1
 11
265.1666666666666
 21
6.230338100985607
 31
0.0
100
AcDbText
  0
TEXT
  5
7C
330
24
100
AcDbEntity
  8
0
100
AcDbText
 10
287.9530581679809
 20
176.25
 30
0.0
 40
3.0
  1
A
  7
ADESK1
 72
     1
 11
289.2387724536952
 21
176.25
 31
0.0
100
AcDbText
  0
TEXT
  5
7D
330
24
100
AcDbEntity
  8
0
100
AcDbText
 10
287.6673438822666
 20
128.75
 30
0.0
 40
3.0
  1
B
  7
ADESK1
 72
     1
 11
289.2387724536952
 21
128.75
 31
0.0
100
AcDbText
  0
TEXT
  5
7E
330
24
100
AcDbEntity
  8
0
100
AcDbText
 10
287.7387724536952
 20
81.25
 30
0.0
 40
3.0
  1
C
  7
ADESK1
 72
     1
 11
289.2387724536952
 21
81.25
 31
0.0
100
AcDbText
  0
TEXT
  5
7F
330
24
100
AcDbEntity
  8
0
100
AcDbText
 10
287.6673438822666
 20
33.75
 30
0.0
 40
3.0
  1
D
  7
ADESK1
 72
     1
 11
289.2387724536952
 21
33.75
 31
0.0
100
AcDbText
  0
LINE
  5
80
330
24
100
AcDbEntity
  8
0
 62
     0
100
AcDbLine
 10
157.2978723404242
 20
49.00000000000036
 30
0.0
 11
287.0
 21
49.00000000000036
 31
0.0
  0
LINE
  5
81
330
24
100
AcDbEntity
  8
0
 62
     0
100
AcDbLine
 10
157.2978723404242
 20
13.00000000000004
 30
0.0
 11
287.0
 21
13.00000000000004
 31
0.0
  0
LINE
  5
82
330
24
100
AcDbEntity
  8
0
 62
     0
100
AcDbLine
 10
157.2978723404242
 20
37.00000000000024
 30
0.0
 11
287.0
 21
37.00000000000024
 31
0.0
  0
LINE
  5
83
330
24
100
AcDbEntity
  8
0
 62
     0
100
AcDbLine
 10
195.1276595744673
 20
22.00000000000012
 30
0.0
 11
287.0
 21
22.00000000000012
 31
0.0
  0
LINE
  5
84
330
24
100
AcDbEntity
  8
0
 62
     0
100
AcDbLine
 10
157.2978723404242
 20
10.0
 30
0.0
 11
287.0
 21
10.0
 31
0.0
  0
LINE
  5
85
330
24
100
AcDbEntity
  8
0
 62
     0
100
AcDbLine
 10
287.0
 20
49.00000000000036
 30
0.0
 11
157.2978723404242
 21
49.00000000000036
 31
0.0
  0
LINE
  5
86
330
24
100
AcDbEntity
  8
0
 62
     0
100
AcDbLine
 10
180.7163120567365
 20
37.00000000000024
 30
0.0
 11
180.7163120567365
 21
10.0
 31
0.0
  0
LINE
  5
87
330
24
100
AcDbEntity
  8
0
 62
     0
100
AcDbLine
 10
162.702127659573
 20
37.00000000000024
 30
0.0
 11
162.702127659573
 21
10.0
 31
0.0
  0
LINE
  5
88
330
24
100
AcDbEntity
  8
0
 62
     0
100
AcDbLine
 10
189.7234042553184
 20
37.00000000000024
 30
0.0
 11
189.7234042553184
 21
10.0
 31
0.0
  0
LINE
  5
89
330
24
100
AcDbEntity
  8
0
 62
     0
100
AcDbLine
 10
195.1276595744673
 20
25.00000000000012
 30
0.0
 11
195.1276595744673
 21
10.0
 31
0.0
  0
LINE
  5
8A
330
24
100
AcDbEntity
  8
0
 62
     0
100
AcDbLine
 10
157.2978723404242
 20
49.00000000000036
 30
0.0
 11
157.2978723404242
 21
10.0
 31
0.0
  0
LINE
  5
8B
330
24
100
AcDbEntity
  8
0
 62
     0
100
AcDbLine
 10
225.7517730496447
 20
49.00000000000036
 30
0.0
 11
225.7517730496447
 21
10.0
 31
0.0
  0
LINE
  5
8C
330
24
100
AcDbEntity
  8
0
 62
     0
100
AcDbLine
 10
205.7659574468077
 20
22.00000000000007
 30
0.0
 11
205.7659574468077
 21
10.0
 31
0.0
  0
LINE
  5
8D
330
24
100
AcDbEntity
  8
0
 62
     0
100
AcDbLine
 10
216.4042553191484
 20
22.00000000000007
 30
0.0
 11
216.4042553191484
 21
10.0
 31
0.0
  0
LINE
  5
8E
330
24
100
AcDbEntity
  8
0
 62
     0
100
AcDbLine
 10
157.2978723404242
 20
16.00000000000008
 30
0.0
 11
195.1276595744673
 21
16.00000000000008
 31
0.0
  0
LINE
  5
8F
330
24
100
AcDbEntity
  8
0
 62
     0
100
AcDbLine
 10
157.2978723404242
 20
10.0
 30
0.0
 11
157.2978723404242
 21
13.00000000000004
 31
0.0
  0
TEXT
  5
90
330
24
100
AcDbEntity
  8
0
 62
     0
100
AcDbText
 10
198.7174935280942
 20
10.48329012996929
 30
0.0
 40
1.791674070777747
  1
製図
  7
ADESK1
 72
     1
 11
200.5688900678978
 21
10.48329012996929
 31
0.0
100
AcDbText
  0
TEXT
  5
91
330
24
100
AcDbEntity
  8
0
 62
     0
100
AcDbText
 10
209.2960689314087
 20
10.48329012996929
 30
0.0
 40
1.791674070777747
  1
設計
  7
ADESK1
 72
     1
 11
211.2071879402383
 21
10.48329012996929
 31
0.0
100
AcDbText
  0
TEXT
  5
92
330
24
100
AcDbEntity
  8
0
 62
     0
100
AcDbText
 10
219.2447163844405
 20
10.55220101068186
 30
0.0
 40
1.791674070777747
  1
照査
  7
ADESK1
 72
     1
 11
221.1558353932701
 21
10.55220101068186
 31
0.0
100
AcDbText
  0
LINE
  5
93
330
24
100
AcDbEntity
  8
0
 62
     0
100
AcDbLine
 10
157.2978723404242
 20
25.00000000000012
 30
0.0
 11
195.1276595744673
 21
25.00000000000012
 31
0.0
  0
LINE
  5
94
330
24
100
AcDbEntity
  8
0
 62
     0
100
AcDbLine
 10
157.2978723404242
 20
22.00000000000007
 30
0.0
 11
195.1276595744673
 21
22.00000000000012
 31
0.0
  0
LINE
  5
95
330
24
100
AcDbEntity
  8
0
 62
     0
100
AcDbLine
 10
157.2978723404242
 20
19.00000000000007
 30
0.0
 11
195.1276595744673
 21
19.00000000000012
 31
0.0
  0
LINE
  5
96
330
24
100
AcDbEntity
  8
0
 62
     0
100
AcDbLine
 10
157.2978723404242
 20
34.00000000000024
 30
0.0
 11
225.7517730496447
 21
34.00000000000024
 31
0.0
  0
LINE
  5
97
330
24
100
AcDbEntity
  8
0
 62
     0
100
AcDbLine
 10
157.2978723404242
 20
31.0000000000002
 30
0.0
 11
225.7517730496447
 21
31.0000000000002
 31
0.0
  0
LINE
  5
98
330
24
100
AcDbEntity
  8
0
 62
     0
100
AcDbLine
 10
157.2978723404242
 20
28.00000000000015
 30
0.0
 11
225.7517730496447
 21
28.00000000000015
 31
0.0
  0
LINE
  5
99
330
24
100
AcDbEntity
  8
0
 62
     0
100
AcDbLine
 10
195.1276595744673
 20
25.00000000000012
 30
0.0
 11
225.7517730496447
 21
25.00000000000012
 31
0.0
  0
LINE
  5
9A
330
24
100
AcDbEntity
  8
0
 62
     0
100
AcDbLine
 10
195.1276595744673
 20
49.00000000000036
 30
0.0
 11
195.1276595744673
 21
25.00000000000012
 31
0.0
  0
LINE
  5
9B
330
24
100
AcDbEntity
  8
0
 62
     0
100
AcDbLine
 10
202.3333333333325
 20
37.00000000000024
 30
0.0
 11
202.3333333333325
 21
25.00000000000012
 31
0.0
  0
LINE
  5
9C
330
24
100
AcDbEntity
  8
0
 62
     0
100
AcDbLine
 10
213.1418439716305
 20
49.00000000000036
 30
0.0
 11
213.1418439716305
 21
22.00000000000012
 31
0.0
  0
LINE
  5
9D
330
24
100
AcDbEntity
  8
0
 62
     0
100
AcDbLine
 10
279.7943262411347
 20
22.00000000000012
 30
0.0
 11
279.7943262411347
 21
10.0
 31
0.0
  0
LINE
  5
9E
330
24
100
AcDbEntity
  8
0
 62
     0
100
AcDbLine
 10
287.0
 20
49.00000000000036
 30
0.0
 11
287.0
 21
10.0
 31
0.0
  0
LINE
  5
9F
330
24
100
AcDbEntity
  8
0
 62
     0
100
AcDbLine
 10
287.0
 20
10.0
 30
0.0
 11
287.0
 21
49.00000000000036
 31
0.0
  0
LINE
  5
A0
330
24
100
AcDbEntity
  8
0
 62
     0
100
AcDbLine
 10
279.7943262411347
 20
16.00000000000008
 30
0.0
 11
287.0
 21
16.00000000000008
 31
0.0
  0
ENDBLK
  5
A2
330
24
100
AcDbEntity
  8
0
100
AcDbBlockEnd
  0
BLOCK
  5
3443
330
3437
100
AcDbEntity
  8
0
100
AcDbBlockBegin
  2
*D1
 70
     1
 10
0.0
 20
0.0
 30
0.0
  3
*D1
  1

  0
LINE
  5
3438
330
3437
100
AcDbEntity
  8
OBJECT
 62
     0
370
    -2
100
AcDbLine
 10
-8068.568047744786
 20
3998.303038975791
 30
0.0
 11
-7757.422052324407
 21
3998.303038975791
 31
0.0
  0
LINE
  5
3439
330
3437
100
AcDbEntity
  8
OBJECT
 62
     0
370
    -2
100
AcDbLine
 10
-8068.568047744786
 20
4078.303038975791
 30
0.0
 11
-7757.422052324407
 21
4078.303038975791
 31
0.0
  0
LINE
  5
343A
330
3437
100
AcDbEntity
  8
OBJECT
 62
     0
370
    -2
100
AcDbLine
 10
-7776.172052324408
 20
3960.803038975791
 30
0.0
 11
-7776.172052324408
 21
3923.303038975791
 31
0.0
  0
LINE
  5
343B
330
3437
100
AcDbEntity
  8
OBJECT
 62
     0
370
    -2
100
AcDbLine
 10
-7776.172052324408
 20
4115.803038975792
 30
0.0
 11
-7776.172052324408
 21
4153.303038975791
 31
0.0
  0
LINE
  5
343C
330
3437
100
AcDbEntity
  8
OBJECT
 62
     0
370
    -2
100
AcDbLine
 10
-7776.172052324408
 20
3998.303038975791
 30
0.0
 11
-7776.172052324408
 21
4078.303038975791
 31
0.0
  0
SOLID
  5
343D
330
3437
100
AcDbEntity
  8
OBJECT
 62
     0
100
AcDbTrace
 10
-7782.422052324408
 20
3960.803038975791
 30
0.0
 11
-7769.922052324408
 21
3960.803038975791
 31
0.0
 12
-7776.172052324408
 22
3998.303038975791
 32
0.0
 13
-7776.172052324408
 23
3998.303038975791
 33
0.0
  0
SOLID
  5
343E
330
3437
100
AcDbEntity
  8
OBJECT
 62
     0
100
AcDbTrace
 10
-7782.422052324408
 20
4115.803038975792
 30
0.0
 11
-7769.922052324408
 21
4115.803038975792
 31
0.0
 12
-7776.172052324408
 22
4078.303038975791
 32
0.0
 13
-7776.172052324408
 23
4078.303038975791
 33
0.0
  0
MTEXT
  5
343F
330
3437
100
AcDbEntity
  8
OBJECT
 62
     0
100
AcDbMText
 10
-7804.297052324407
 20
4038.303038975789
 30
0.0
 40
37.5
 41
0.0
 71
     5
 72
     1
  1
\A1;80
 11
0.0000000000000001
 21
1.0
 31
0.0
 73
     1
 44
1.0
  0
POINT
  5
3440
330
3437
100
AcDbEntity
  8
DEFPOINTS
 62
     0
100
AcDbPoint
 10
-8077.943047744787
 20
3998.303038975791
 30
0.0
  0
POINT
  5
3441
330
3437
100
AcDbEntity
  8
DEFPOINTS
 62
     0
100
AcDbPoint
 10
-8077.943047744787
 20
4078.303038975791
 30
0.0
  0
POINT
  5
3442
330
3437
100
AcDbEntity
  8
DEFPOINTS
 62
     0
100
AcDbPoint
 10
-7776.172052324408
 20
4078.303038975791
 30
0.0
  0
ENDBLK
  5
3444
330
3437
100
AcDbEntity
  8
0
100
AcDbBlockEnd
  0
BLOCK
  5
3447
330
3445
100
AcDbEntity
  8
0
100
AcDbBlockBegin
  2
A$C23BB6A77
 70
     0
 10
0.0
 20
0.0
 30
0.0
  3
A$C23BB6A77
  1

  0
DIMENSION
  5
3446
330
3445
100
AcDbEntity
  8
OBJECT
100
AcDbDimension
  2
*D1
 10
301.7709854312124
 20
154.9999934708971
 30
0.0
 11
273.6459854312115
 21
114.9999934708962
 31
0.0
 12
8077.94303775562
 22
-3923.303045504894
 32
0.0
 71
     5
 42
79.99999999999954
  3
STANDARD
100
AcDbAlignedDimension
 13
-0.0000099891658465
 23
74.99999347089761
 33
0.0
 14
-0.0000099891658465
 24
154.9999934708971
 34
0.0
 50
90.0
100
AcDbRotatedDimension
1001
ACAD
1000
DSTYLE
1002
{
1070
    40
1040
15.0
1070
    41
1040
2.5
1070
    42
1040
0.625
1070
    43
1040
3.75
1070
    44
1040
1.25
1070
    73
1070
     0
1070
    74
1070
     0
1070
    77
1070
     1
1070
    78
1070
     8
1070
   140
1040
2.5
1070
   141
1040
2.5
1070
   143
1040
0.0394
1070
   147
1040
0.625
1070
   171
1070
     4
1070
   172
1070
     1
1070
   273
1070
     8
1070
   274
1070
     4
1070
   277
1070
     6
1002
}
  0
ENDBLK
  5
3448
330
3445
100
AcDbEntity
  8
0
100
AcDbBlockEnd
  0
ENDSEC
  0
SECTION
  2
ENTITIES
  0
MTEXT
  5
938
330
18
100
AcDbEntity
  8
上書線
100
AcDbMText
 10
1865.739761775792
 20
499.0283937835011
 30
0.0
 40
37.5
 41
0.0
 71
     4
 72
     1
  1
\A1;
 73
     1
 44
1.0
  0
LINE
  5
123E
330
18
100
AcDbEntity
  8
基準線
100
AcDbLine
 10
710.0813698183028
 20
2117.506972677286
 30
0.0
 11
731.0813698183028
 21
2117.506972677286
 31
0.0
  0
LINE
  5
14BB
330
18
100
AcDbEntity
  8
基準線
100
AcDbLine
 10
1281.296189060135
 20
2744.451732006984
 30
0.0
 11
1631.12377476475
 21
2744.451732006984
 31
0.0
  0
LINE
  5
14BC
330
18
100
AcDbEntity
  8
基準線
100
AcDbLine
 10
1131.296189060135
 20
2594.451732006984
 30
0.0
 11
1604.134047986604
 21
2594.451732006984
 31
0.0
  0
LINE
  5
1546
330
18
100
AcDbEntity
  8
基準線
100
AcDbLine
 10
2000.40772718317
 20
1104.126411816217
 30
0.0
 11
2000.40772718317
 21
1262.163674897728
 31
0.0
  0
LINE
  5
154B
330
18
100
AcDbEntity
  8
基準線
100
AcDbLine
 10
2550.40772718317
 20
1049.126411816217
 30
0.0
 11
2550.40772718317
 21
1211.614819254876
 31
0.0
  0
LINE
  5
154C
330
18
100
AcDbEntity
  8
基準線
100
AcDbLine
 10
2150.40772718317
 20
1049.126411816217
 30
0.0
 11
2150.40772718317
 21
1226.779475202555
 31
0.0
  0
LINE
  5
15CA
330
18
100
AcDbEntity
  8
基準線
100
AcDbLine
 10
3419.935833980378
 20
2804.85492986955
 30
0.0
 11
3776.432100616551
 21
2804.85492986955
 31
0.0
  0
LINE
  5
15CC
330
18
100
AcDbEntity
  8
基準線
100
AcDbLine
 10
3776.432100616551
 20
2804.85492986955
 30
0.0
 11
4171.357345948922
 21
2804.85492986955
 31
0.0
  0
LINE
  5
15D0
330
18
100
AcDbEntity
  8
基準線
100
AcDbLine
 10
3419.935833980378
 20
2684.85492986955
 30
0.0
 11
3776.432100616551
 21
2684.85492986955
 31
0.0
  0
LINE
  5
15D1
330
18
100
AcDbEntity
  8
基準線
100
AcDbLine
 10
3598.183967298465
 20
2684.85492986955
 30
0.0
 11
3598.183967298465
 21
984.8549298695507
 31
0.0
  0
LINE
  5
15D2
330
18
100
AcDbEntity
  8
基準線
100
AcDbLine
 10
3776.432100616551
 20
2484.854929869551
 30
0.0
 11
4171.357345948921
 21
2484.85492986955
 31
0.0
  0
LINE
  5
15D3
330
18
100
AcDbEntity
  8
基準線
100
AcDbLine
 10
3973.894723282737
 20
2684.854929869551
 30
0.0
 11
3973.894723282734
 21
984.8549298695507
 31
0.0
  0
LINE
  5
15D4
330
18
100
AcDbEntity
  8
基準線
100
AcDbLine
 10
3419.935833980378
 20
2684.85492986955
 30
0.0
 11
3419.935833980378
 21
2584.85492986955
 31
0.0
  0
LINE
  5
15D5
330
18
100
AcDbEntity
  8
基準線
100
AcDbLine
 10
3419.935833980378
 20
2634.85492986955
 30
0.0
 11
4114.659436953616
 21
2634.85492986955
 31
0.0
  0
MTEXT
  5
2600
330
18
100
AcDbEntity
  8
上書線
100
AcDbMText
 10
8230.16543544208
 20
6112.156349732118
 30
0.0
 40
60.0
 41
956.9129999999999
 71
     1
 72
     5
  1
重量表
 73
     1
 44
1.0
  0
MTEXT
  5
283E
330
18
100
AcDbEntity
  8
上線
100
AcDbMText
 10
8329.997369742972
 20
5937.314440150696
 30
0.0
 40
49.968
 41
197.7879999999999
 71
     1
 72
     5
  1
Ｈ
 73
     1
 44
1.0
  0
LINE
  5
2840
330
18
100
AcDbEntity
  8
上線
100
AcDbLine
 10
7953.942090548825
 20
5472.480161978158
 30
0.0
 11
8771.67259819507
 21
5472.480161978158
 31
0.0
  0
LINE
  5
2841
330
18
100
AcDbEntity
  8
上線
100
AcDbLine
 10
7953.942090548825
 20
5570.395519653225
 30
0.0
 11
8771.67259819507
 21
5570.395519653225
 31
0.0
  0
LINE
  5
2842
330
18
100
AcDbEntity
  8
上線
100
AcDbLine
 10
7953.942090548825
 20
5668.310877328292
 30
0.0
 11
8771.67259819507
 21
5668.310877328292
 31
0.0
  0
LINE
  5
2843
330
18
100
AcDbEntity
  8
上線
100
AcDbLine
 10
7953.942090548825
 20
5766.22623500336
 30
0.0
 11
8771.67259819507
 21
5766.22623500336
 31
0.0
  0
LINE
  5
2844
330
18
100
AcDbEntity
  8
上線
100
AcDbLine
 10
7953.942090548825
 20
5864.06159279219
 30
0.0
 11
8772.307257026543
 21
5864.06159279219
 31
0.0
  0
LINE
  5
2845
330
18
100
AcDbEntity
  8
上線
100
AcDbLine
 10
8771.67259819507
 20
5962.056950353495
 30
0.0
 11
7953.942090548825
 21
5962.056950353495
 31
0.0
  0
LINE
  5
284A
330
18
100
AcDbEntity
  8
上線
100
AcDbLine
 10
8226.518926430907
 20
5962.056950353495
 30
0.0
 11
8226.518926430907
 21
5472.480161978158
 31
0.0
  0
LINE
  5
284B
330
18
100
AcDbEntity
  8
上線
100
AcDbLine
 10
7953.942090548825
 20
5962.056950353495
 30
0.0
 11
7953.942090548825
 21
5472.480161978158
 31
0.0
  0
MTEXT
  5
285C
330
18
100
AcDbEntity
  8
上線
100
AcDbMText
 10
8048.52945557395
 20
5937.314440150696
 30
0.0
 40
49.968
 41
197.7879999999999
 71
     1
 72
     5
  1
h1
 73
     1
 44
1.0
  0
LINE
  5
285F
330
18
100
AcDbEntity
  8
上線
100
AcDbLine
 10
8499.095762312988
 20
5962.056950353495
 30
0.0
 11
8499.095762312988
 21
5472.480161978158
 31
0.0
  0
LINE
  5
2860
330
18
100
AcDbEntity
  8
上線
100
AcDbLine
 10
8771.67259819507
 20
5472.480161978158
 30
0.0
 11
8771.67259819507
 21
5962.056950353495
 31
0.0
  0
MTEXT
  5
2866
330
18
100
AcDbEntity
  8
上線
100
AcDbMText
 10
8542.219637738844
 20
5920.501029393098
 30
0.0
 40
24.984
 41
247.78800162
 71
     1
 72
     5
  1
\fＭＳ Ｐ明朝|b0|i0|c128|p18;参考重量（㎏）
 73
     1
 44
1.0
  0
MTEXT
  5
3560
330
18
100
AcDbEntity
  8
上線
100
AcDbMText
 10
8068.283806296141
 20
5836.433970943532
 30
0.0
 40
49.968
 41
247.7879999999999
 71
     1
 72
     5
  1
290
 73
     1
 44
1.0
  0
MTEXT
  5
3561
330
18
100
AcDbEntity
  8
上線
100
AcDbMText
 10
8066.409358462637
 20
5640.683255479633
 30
0.0
 40
49.968
 41
247.7879999999999
 71
     1
 72
     5
  1
390
 73
     1
 44
1.0
  0
MTEXT
  5
3575
330
18
100
AcDbEntity
  8
上線
100
AcDbMText
 10
8338.986194344718
 20
5542.68789791833
 30
0.0
 40
49.968
 41
247.7879999999999
 71
     1
 72
     5
  1
900
 73
     1
 44
1.0
  0
MTEXT
  5
3577
330
18
100
AcDbEntity
  8
上線
100
AcDbMText
 10
8338.986194344718
 20
5738.518613268464
 30
0.0
 40
49.968
 41
247.7879999999999
 71
     1
 72
     5
  1
800
 73
     1
 44
1.0
  0
MTEXT
  5
358C
330
18
100
AcDbEntity
  8
上線
100
AcDbMText
 10
8613.437478060301
 20
5836.433970943532
 30
0.0
 40
49.968
 41
247.7879999999999
 71
     1
 72
     5
  1
449
 73
     1
 44
1.0
  0
MTEXT
  5
358D
330
18
100
AcDbEntity
  8
上線
100
AcDbMText
 10
8611.563030226799
 20
5640.683255479633
 30
0.0
 40
49.968
 41
247.7879999999999
 71
     1
 72
     5
  1
514
 73
     1
 44
1.0
  0
MTEXT
  5
3908
330
18
100
AcDbEntity
  8
上線
100
AcDbMText
 10
8068.283806296141
 20
5738.5986131547
 30
0.0
 40
49.968
 41
247.7879999999999
 71
     1
 72
     5
  1
340
 73
     1
 44
1.0
  0
MTEXT
  5
3909
330
18
100
AcDbEntity
  8
上線
100
AcDbMText
 10
8066.409358462637
 20
5542.847897690801
 30
0.0
 40
49.968
 41
247.7879999999999
 71
     1
 72
     5
  1
440
 73
     1
 44
1.0
  0
MTEXT
  5
390E
330
18
100
AcDbEntity
  8
上線
100
AcDbMText
 10
8340.86064217822
 20
5836.433970943532
 30
0.0
 40
49.968
 41
247.7879999999999
 71
     1
 72
     5
  1
750
 73
     1
 44
1.0
  0
MTEXT
  5
390F
330
18
100
AcDbEntity
  8
上線
100
AcDbMText
 10
8338.986194344718
 20
5640.683255479633
 30
0.0
 40
49.968
 41
247.7879999999999
 71
     1
 72
     5
  1
850
 73
     1
 44
1.0
  0
MTEXT
  5
3914
330
18
100
AcDbEntity
  8
上線
100
AcDbMText
 10
8613.437478060301
 20
5738.5986131547
 30
0.0
 40
49.968
 41
247.7879999999999
 71
     1
 72
     5
  1
481
 73
     1
 44
1.0
  0
MTEXT
  5
3915
330
18
100
AcDbEntity
  8
上線
100
AcDbMText
 10
8611.563030226799
 20
5542.847897690801
 30
0.0
 40
49.968
 41
247.7879999999999
 71
     1
 72
     5
  1
546
 73
     1
 44
1.0
  0
LINE
  5
3C4D
330
18
100
AcDbEntity
  8
点線
100
AcDbLine
 10
6808.772167669289
 20
4728.848517831199
 30
0.0
 11
7148.77216766929
 21
4728.848517831199
 31
0.0
  0
LINE
  5
3C4E
330
18
100
AcDbEntity
  8
OBJECT
100
AcDbLine
 10
7218.057881955004
 20
3878.848517831199
 30
0.0
 11
6738.057881955004
 21
3878.848517831199
 31
0.0
  0
LINE
  5
3C4F
330
18
100
AcDbEntity
  8
上線
100
AcDbLine
 10
7218.057881955004
 20
4778.848517831199
 30
0.0
 11
6738.057881955004
 21
4778.848517831199
 31
0.0
  0
LINE
  5
3C55
330
18
100
AcDbEntity
  8
OBJECT
100
AcDbLine
 10
6738.057881955004
 20
3878.848517831199
 30
0.0
 11
6738.057881955004
 21
4778.848517831199
 31
0.0
  0
LINE
  5
3C66
330
18
100
AcDbEntity
  8
点線
100
AcDbLine
 10
6808.772167669289
 20
4728.848517831199
 30
0.0
 11
6808.772167669289
 21
4778.848517831199
 31
0.0
  0
LINE
  5
3C6E
330
18
100
AcDbEntity
  8
点線
100
AcDbLine
 10
6318.057881955003
 20
4728.848517831199
 30
0.0
 11
6318.057881955003
 21
3878.848517831199
 31
0.0
  0
LINE
  5
3C6F
330
18
100
AcDbEntity
  8
点線
100
AcDbLine
 10
5718.057881955004
 20
4728.848517831199
 30
0.0
 11
5718.057881955004
 21
3878.848517831199
 31
0.0
  0
LINE
  5
3C70
330
18
100
AcDbEntity
  8
OBJECT
100
AcDbLine
 10
6438.057881955003
 20
3878.848517831199
 30
0.0
 11
6438.057881955003
 21
4778.848517831199
 31
0.0
  0
LINE
  5
3C71
330
18
100
AcDbEntity
  8
OBJECT
100
AcDbLine
 10
5598.057881955003
 20
4778.848517831199
 30
0.0
 11
5598.057881955003
 21
3878.848517831199
 31
0.0
  0
LINE
  5
3C72
330
18
100
AcDbEntity
  8
点線
100
AcDbLine
 10
7097.343596240718
 20
4728.848517831199
 30
0.0
 11
7097.343596240718
 21
3878.848517831199
 31
0.0
  0
LINE
  5
3C73
330
18
100
AcDbEntity
  8
点線
100
AcDbLine
 10
6858.77216766929
 20
4728.848517831199
 30
0.0
 11
6858.77216766929
 21
3878.848517831199
 31
0.0
  0
LINE
  5
3C74
330
18
100
AcDbEntity
  8
OBJECT
100
AcDbLine
 10
7218.057881955004
 20
4778.848517831199
 30
0.0
 11
7218.057881955004
 21
3878.848517831199
 31
0.0
  0
LINE
  5
3C75
330
18
100
AcDbEntity
  8
OBJECT
100
AcDbLine
 10
5598.057881955003
 20
3878.848517831199
 30
0.0
 11
6438.057881955003
 21
3878.848517831199
 31
0.0
  0
LINE
  5
3C78
330
18
100
AcDbEntity
  8
点線
100
AcDbLine
 10
5718.057881955004
 20
4728.848517831199
 30
0.0
 11
6318.057881955003
 21
4728.848517831199
 31
0.0
  0
LINE
  5
3C79
330
18
100
AcDbEntity
  8
OBJECT
100
AcDbLine
 10
5598.057881955003
 20
4778.848517831199
 30
0.0
 11
6438.057881955003
 21
4778.848517831199
 31
0.0
  0
LINE
  5
3C7C
330
18
100
AcDbEntity
  8
上線
 48
10.0
100
AcDbLine
 10
7097.343596240718
 20
4678.848517831199
 30
0.0
 11
7093.761964628732
 21
4368.134304992051
 31
0.0
  0
LINE
  5
3C7D
330
18
100
AcDbEntity
  8
上線
 48
10.0
100
AcDbLine
 10
6858.77216766929
 20
4678.848517831199
 30
0.0
 11
6862.353799281276
 21
4368.134304992051
 31
0.0
  0
LINE
  5
3C81
330
18
100
AcDbEntity
  8
上線
100
AcDbLine
 10
7043.767065888755
 20
4318.848517831199
 30
0.0
 11
6912.348698021252
 21
4318.848517831199
 31
0.0
  0
ARC
  5
3C82
330
18
100
AcDbEntity
  8
上線
100
AcDbCircle
 10
6912.348698021252
 20
4368.848517831199
 30
0.0
 40
50.0
100
AcDbArc
 50
180.8184554616949
 51
270.0
  0
ARC
  5
3C83
330
18
100
AcDbEntity
  8
上線
100
AcDbCircle
 10
7043.767065888755
 20
4368.848517831199
 30
0.0
 40
50.0
100
AcDbArc
 50
270.0
 51
359.181544538305
  0
LINE
  5
3C84
330
18
100
AcDbEntity
  8
上線
 48
10.0
100
AcDbLine
 10
6858.77216766929
 20
4678.848517831199
 30
0.0
 11
7097.343596240718
 21
4678.848517831199
 31
0.0
  0
LINE
  5
3C85
330
18
100
AcDbEntity
  8
点線
100
AcDbLine
 10
7148.77216766929
 20
4728.848517831199
 30
0.0
 11
7148.77216766929
 21
4778.848517831199
 31
0.0
  0
LINE
  5
3C86
330
18
100
AcDbEntity
  8
点線
100
AcDbLine
 10
5718.057881955004
 20
4318.848517831198
 30
0.0
 11
5598.057881955003
 21
4318.848517831198
 31
0.0
  0
LINE
  5
3C87
330
18
100
AcDbEntity
  8
点線
100
AcDbLine
 10
5718.057881955004
 20
4778.848517831199
 30
0.0
 11
5718.057881955004
 21
4728.848517831199
 31
0.0
  0
LINE
  5
3C88
330
18
100
AcDbEntity
  8
点線
100
AcDbLine
 10
5718.057881955004
 20
4678.848517831198
 30
0.0
 11
5598.057881955003
 21
4678.848517831198
 31
0.0
  0
LINE
  5
3C96
330
18
100
AcDbEntity
  8
点線
100
AcDbLine
 10
6318.057881955003
 20
4318.848517831198
 30
0.0
 11
6438.057881955003
 21
4318.848517831198
 31
0.0
  0
LINE
  5
3C97
330
18
100
AcDbEntity
  8
点線
100
AcDbLine
 10
6318.057881955003
 20
4678.848517831198
 30
0.0
 11
6438.057881955003
 21
4678.848517831198
 31
0.0
  0
LINE
  5
3C98
330
18
100
AcDbEntity
  8
点線
100
AcDbLine
 10
6318.057881955003
 20
4728.848517831199
 30
0.0
 11
6318.057881955003
 21
4778.848517831199
 31
0.0
  0
TEXT
  5
4006
330
18
100
AcDbEntity
  8
WUWAGAKI
100
AcDbText
 10
8069.356274021528
 20
3855.92052224444
 30
0.0
 40
45.0
  1
集水桝
100
AcDbText
  0
TEXT
  5
4007
330
18
100
AcDbEntity
  8
WUWAGAKI
100
AcDbText
 10
7830.437054738888
 20
3858.499682440499
 30
0.0
 40
45.0
  1
種　別
100
AcDbText
  0
SOLID
  5
4008
330
18
100
AcDbEntity
  8
0
  6
ByBlock
 62
     0
 48
10.0
100
AcDbTrace
 10
5424.307892694951
 20
3916.348529690353
 30
0.0
 11
5411.807892694952
 21
3916.348529690353
 31
0.0
 12
5418.057892694951
 22
3878.848529690353
 32
0.0
 13
5418.057892694951
 23
3878.848529690353
 33
0.0
  0
SOLID
  5
4009
330
18
100
AcDbEntity
  8
0
  6
ByBlock
 62
     0
 48
10.0
100
AcDbTrace
 10
5274.307881955003
 20
3916.34851783122
 30
0.0
 11
5261.807881955001
 21
3916.34851783122
 31
0.0
 12
5268.057881955002
 22
3878.848517831221
 32
0.0
 13
5268.057881955002
 23
3878.848517831221
 33
0.0
  0
LINE
  5
400A
330
18
100
AcDbEntity
  8
OBJECT
 48
10.0
100
AcDbLine
 10
5418.057892694953
 20
3878.848517831198
 30
0.0
 11
5418.057892694953
 21
4778.848517831199
 31
0.0
  0
LINE
  5
400B
330
18
100
AcDbEntity
  8
OBJECT
 48
10.0
100
AcDbLine
 10
5268.057890718425
 20
4778.848517831199
 30
0.0
 11
5268.057890718422
 21
3878.848517831198
 31
0.0
  0
LINE
  5
400C
330
18
100
AcDbEntity
  8
WUWAGAKI
100
AcDbLine
 10
4671.48406837165
 20
6364.413967892873
 30
0.0
 11
4671.48406837165
 21
3438.264116096749
 31
0.0
  0
LINE
  5
400D
330
18
100
AcDbEntity
  8
WUWAGAKI
100
AcDbLine
 10
8942.202986998568
 20
3438.264116096749
 30
0.0
 11
8942.202986998568
 21
6364.413967892873
 31
0.0
  0
LINE
  5
400E
330
18
100
AcDbEntity
  8
WUWAGAKI
100
AcDbLine
 10
8035.019870658695
 20
3926.744083168121
 30
0.0
 11
8035.019870658695
 21
3637.792346093764
 31
0.0
  0
LINE
  5
400F
330
18
100
AcDbEntity
  8
WUWAGAKI
100
AcDbLine
 10
7782.903399090187
 20
3926.744083168121
 30
0.0
 11
7782.903399090187
 21
3506.763650538552
 31
0.0
  0
LINE
  5
4010
330
18
100
AcDbEntity
  8
WUWAGAKI
100
AcDbLine
 10
8875.699974190611
 20
3506.763650538552
 30
0.0
 11
8875.699974190611
 21
3926.744083168121
 31
0.0
  0
LINE
  5
4019
330
18
100
AcDbEntity
  8
WUWAGAKI
100
AcDbLine
 10
4671.48406837165
 20
3438.264116096749
 30
0.0
 11
8942.202986998568
 21
3438.264116096749
 31
0.0
  0
LINE
  5
401B
330
18
100
AcDbEntity
  8
0
 48
10.0
100
AcDbLine
 10
5568.057881955003
 20
3878.848517831198
 30
0.0
 11
5238.057881955004
 21
3878.848517831198
 31
0.0
  0
TEXT
  5
401D
330
18
100
AcDbEntity
  8
WUWAGAKI
100
AcDbText
 10
8069.356274021528
 20
3760.731171810054
 30
0.0
 40
38.2725
  1
240×U360×840×120/120×H
100
AcDbText
  0
LINE
  5
401E
330
18
100
AcDbEntity
  8
WUWAGAKI
100
AcDbLine
 10
7782.903399090187
 20
3637.792346093764
 30
0.0
 11
8875.699974190609
 21
3637.792346093764
 31
0.0
  0
LINE
  5
401F
330
18
100
AcDbEntity
  8
WUWAGAKI
100
AcDbLine
 10
7782.903399090187
 20
3736.307410258369
 30
0.0
 11
8875.699974190609
 21
3736.307410258369
 31
0.0
  0
LINE
  5
4020
330
18
100
AcDbEntity
  8
WUWAGAKI
100
AcDbLine
 10
7782.903399090187
 20
3506.763650538552
 30
0.0
 11
8875.699974190611
 21
3506.763650538552
 31
0.0
  0
LINE
  5
4021
330
18
100
AcDbEntity
  8
WUWAGAKI
100
AcDbLine
 10
7782.903399090187
 20
3832.213795222984
 30
0.0
 11
8873.068151854848
 21
3832.213795222984
 31
0.0
  0
LINE
  5
4022
330
18
100
AcDbEntity
  8
WUWAGAKI
100
AcDbLine
 10
7782.903399090187
 20
3832.213795222984
 30
0.0
 11
8873.068151854848
 21
3832.213795222984
 31
0.0
  0
TEXT
  5
4023
330
18
100
AcDbEntity
  8
WUWAGAKI
100
AcDbText
 10
7827.78184285247
 20
3757.360842403518
 30
0.0
 40
45.0
  1
寸　法
100
AcDbText
  0
TEXT
  5
4024
330
18
100
AcDbEntity
  8
WUWAGAKI
100
AcDbText
 10
7855.42960061355
 20
3660.862889412037
 30
0.0
 40
45.0
  1
縮尺
100
AcDbText
  0
TEXT
  5
4025
330
18
100
AcDbEntity
  8
WUWAGAKI
100
AcDbText
 10
8021.608831989663
 20
3538.371217344939
 30
0.0
 40
60.0
  1
㈱　ウ　チ　コ　ン
100
AcDbText
  0
TEXT
  5
4026
330
18
100
AcDbEntity
  8
WUWAGAKI
100
AcDbText
 10
8069.356274021528
 20
3662.164804841494
 30
0.0
 40
45.0
  1
S＝　1：15
100
AcDbText
  0
TEXT
  5
4027
330
18
100
AcDbEntity
  8
WUWAGAKI
100
AcDbText
 10
8456.117132594751
 20
3662.214242353035
 30
0.0
 40
45.0
  1
重量
100
AcDbText
  0
LINE
  5
4028
330
18
100
AcDbEntity
  8
WUWAGAKI
100
AcDbLine
 10
8429.189356842606
 20
3736.307410258369
 30
0.0
 11
8429.189356842606
 21
3637.792346093764
 31
0.0
  0
LINE
  5
4029
330
18
100
AcDbEntity
  8
WUWAGAKI
100
AcDbLine
 10
8613.417783604925
 20
3736.307410258369
 30
0.0
 11
8613.417783604925
 21
3637.792346093764
 31
0.0
  0
LINE
  5
402A
330
18
100
AcDbEntity
  8
OBJECT
 48
10.0
100
AcDbLine
 10
7218.057907777498
 20
4958.848509067781
 30
0.0
 11
7330.557907777498
 21
4958.848509067781
 31
0.0
  0
LINE
  5
402B
330
18
100
AcDbEntity
  8
WUWAGAKI
100
AcDbLine
 10
8942.202986998568
 20
6364.413967892873
 30
0.0
 11
4671.48406837165
 21
6364.413967892873
 31
0.0
  0
LINE
  5
402C
330
18
100
AcDbEntity
  8
OBJECT
 48
10.0
100
AcDbLine
 10
6438.057881955003
 20
5888.848509067777
 30
0.0
 11
5598.057881955003
 21
5888.84850906778
 31
0.0
  0
LINE
  5
402D
330
18
100
AcDbEntity
  8
OBJECT
 48
10.0
100
AcDbLine
 10
5598.057881955003
 20
5738.848507091249
 30
0.0
 11
6438.057881955003
 21
5738.848507091249
 31
0.0
  0
LINE
  5
402E
330
18
100
AcDbEntity
  8
OBJECT
100
AcDbLine
 10
5987.90493500353
 20
5370.108521194978
 30
0.0
 11
5725.271176846693
 21
5370.108521194978
 31
0.0
  0
LINE
  5
402F
330
18
100
AcDbEntity
  8
OBJECT
100
AcDbLine
 10
5984.61552014765
 20
5375.700526449974
 30
0.0
 11
5725.271176846693
 21
5375.700526449974
 31
0.0
  0
LINE
  5
4030
330
18
100
AcDbEntity
  8
OBJECT
100
AcDbLine
 10
6051.500228577116
 20
5261.996522119881
 30
0.0
 11
5725.271176846693
 21
5261.996522119881
 31
0.0
  0
LINE
  5
4031
330
18
100
AcDbEntity
  8
OBJECT
100
AcDbLine
 10
6048.21081681241
 20
5267.588522119879
 30
0.0
 11
5725.271176846693
 21
5267.588522119879
 31
0.0
  0
LINE
  5
4032
330
18
100
AcDbEntity
  8
OBJECT
100
AcDbLine
 10
5920.999052366378
 20
5483.848521678137
 30
0.0
 11
5723.057878158693
 21
5483.848521678137
 31
0.0
  0
LINE
  5
4033
330
18
100
AcDbEntity
  8
OBJECT
100
AcDbLine
 10
5924.468268542621
 20
5477.950854178523
 30
0.0
 11
5725.271176846693
 21
5478.220521678135
 31
0.0
  0
LINE
  5
4034
330
18
100
AcDbEntity
  8
点線
100
AcDbLine
 10
5947.469639068266
 20
5438.848524284926
 30
0.0
 11
5598.057881955003
 21
5438.848524284926
 31
0.0
  0
LINE
  5
4035
330
18
100
AcDbEntity
  8
点線
100
AcDbLine
 10
6088.646113452811
 20
5198.8485178312
 30
0.0
 11
5598.057881955003
 21
5198.848524284926
 31
0.0
  0
LINE
  5
4036
330
18
100
AcDbEntity
  8
OBJECT
100
AcDbLine
 10
6115.116696358388
 20
5153.848526891721
 30
0.0
 11
5723.057878158693
 21
5153.848526891721
 31
0.0
  0
LINE
  5
4037
330
18
100
AcDbEntity
  8
OBJECT
100
AcDbLine
 10
6111.806108123093
 20
5159.476526891721
 30
0.0
 11
5725.271176846693
 21
5159.476526891721
 31
0.0
  0
LINE
  5
403A
330
18
100
AcDbEntity
  8
OBJECT
100
AcDbLine
 10
5598.057881955003
 20
5078.848517831199
 30
0.0
 11
6438.057881955003
 21
5078.848517831199
 31
0.0
  0
LINE
  5
403B
330
18
100
AcDbEntity
  8
OBJECT
100
AcDbLine
 10
6438.057881955003
 20
5558.8485178312
 30
0.0
 11
5598.057881955003
 21
5558.8485178312
 31
0.0
  0
LINE
  5
403C
102
{ACAD_REACTORS
330
4040
102
}
330
18
100
AcDbEntity
  8
OBJECT
100
AcDbLine
 10
5718.057881955004
 20
5488.8485178312
 30
0.0
 11
6318.057881955003
 21
5488.8485178312
 31
0.0
  0
LINE
  5
403D
102
{ACAD_REACTORS
330
4040
102
}
330
18
100
AcDbEntity
  8
OBJECT
100
AcDbLine
 10
6318.057881955003
 20
5148.8485178312
 30
0.0
 11
5718.057881955004
 21
5148.8485178312
 31
0.0
  0
LINE
  5
403E
102
{ACAD_REACTORS
330
4040
102
}
330
18
100
AcDbEntity
  8
OBJECT
100
AcDbLine
 10
6324.057881955003
 20
5142.8485178312
 30
0.0
 11
5712.057881955004
 21
5142.8485178312
 31
0.0
  0
LINE
  5
403F
102
{ACAD_REACTORS
330
4040
102
}
330
18
100
AcDbEntity
  8
OBJECT
100
AcDbLine
 10
6324.057881955003
 20
5494.8485178312
 30
0.0
 11
5712.057881955004
 21
5494.8485178312
 31
0.0
  0
HATCH
  5
4040
330
18
100
AcDbEntity
  8
OBJECT
100
AcDbHatch
 10
0.0
 20
0.0
 30
0.0
210
0.0
220
0.0
230
1.0
  2
AR-SAND
 70
     0
 71
     1
 91
        2
 92
        1
 93
        4
 72
     1
 10
6324.057881955003
 20
5494.8485178312
 11
5712.057881955004
 21
5494.8485178312
 72
     1
 10
5712.057881955004
 20
5494.8485178312
 11
5712.057881955004
 21
5142.8485178312
 72
     1
 10
5712.057881955004
 20
5142.8485178312
 11
6324.057881955003
 21
5142.8485178312
 72
     1
 10
6324.057881955003
 20
5142.8485178312
 11
6324.057881955003
 21
5494.8485178312
 97
        4
330
403F
330
4082
330
403E
330
411A
 92
       16
 93
        4
 72
     1
 10
5718.057881955004
 20
5488.8485178312
 11
6318.057881955003
 21
5488.8485178312
 72
     1
 10
6318.057881955003
 20
5488.8485178312
 11
6318.057881955003
 21
5148.8485178312
 72
     1
 10
6318.057881955003
 20
5148.8485178312
 11
5718.057881955004
 21
5148.8485178312
 72
     1
 10
5718.057881955004
 20
5148.8485178312
 11
5718.057881955004
 21
5488.8485178312
 97
        4
330
403C
330
4119
330
403D
330
407F
 75
     0
 76
     1
 52
90.0
 41
1.0
 77
     0
 78
     4
 53
127.5
 43
7824.139085579234
 44
7960.693025748103
 45
-48.94132373293423
 46
-1.600031295984042
 79
     6
 49
0.0
 49
-38.608
 49
0.0
 49
-43.18
 49
0.0
 49
-41.275
 53
97.49999999999992
 43
7824.139085579234
 44
7960.693025748103
 45
-71.68251005683543
 46
44.95232831380027
 79
     6
 49
0.0
 49
-20.828
 49
0.0
 49
-34.79799999999999
 49
0.0
 49
-13.33499999999999
 53
57.49999999999997
 43
7824.139085579234
 44
7929.451025748102
 45
-0.1437184678545643
 46
79.09923702414579
 79
     6
 49
0.0
 49
-12.69999999999998
 49
0.0
 49
-45.71999999999995
 49
0.0
 49
-59.68999999999995
 53
47.49999999999999
 43
7824.139085579234
 44
7929.451025748102
 45
-22.29293232572162
 46
76.35564524722972
 79
     6
 49
0.0
 49
-6.349999999999999
 49
0.0
 49
-29.97199999999999
 49
0.0
 49
-34.29
 98
        1
 10
7824.139085579234
 20
7960.693025748103
  0
SOLID
  5
4041
330
18
100
AcDbEntity
  8
0
  6
ByBlock
 62
     0
 48
10.0
100
AcDbTrace
 10
5411.807890718423
 20
5116.348555512825
 30
0.0
 11
5424.307890718425
 21
5116.348555512825
 31
0.0
 12
5418.057890718426
 22
5078.848555512825
 32
0.0
 13
5418.057890718426
 23
5078.848555512825
 33
0.0
  0
SOLID
  5
4042
330
18
100
AcDbEntity
  8
0
  6
ByBlock
 62
     0
 48
10.0
100
AcDbTrace
 10
5274.307881954999
 20
5116.348543653693
 30
0.0
 11
5261.807881955
 21
5116.348543653693
 31
0.0
 12
5268.057881954998
 22
5078.848543653693
 32
0.0
 13
5268.057881954998
 23
5078.848543653693
 33
0.0
  0
LINE
  5
4043
330
18
100
AcDbEntity
  8
OBJECT
 48
10.0
100
AcDbLine
 10
5268.057881954998
 20
5078.848543653671
 30
0.0
 11
5268.057881954998
 21
5558.848543653692
 31
0.0
  0
LINE
  5
4044
330
18
100
AcDbEntity
  8
OBJECT
 48
10.0
100
AcDbLine
 10
5418.057890718422
 20
5078.848543653671
 30
0.0
 11
5418.05789071842
 21
5558.848543653715
 31
0.0
  0
LINE
  5
4045
330
18
100
AcDbEntity
  8
OBJECT
100
AcDbLine
 10
5598.057881955003
 20
5558.8485178312
 30
0.0
 11
5598.057881955003
 21
5078.848517831199
 31
0.0
  0
MTEXT
  5
4046
330
18
100
AcDbEntity
  8
0
  6
ByBlock
 62
     0
 48
10.0
100
AcDbMText
 10
5238.057881955003
 20
4358.848517831198
 30
0.0
 40
37.5
 41
0.0
 71
     5
 72
     1
  1
H
 11
0.0000000000000001
 21
1.0
 31
0.0
 73
     1
 44
1.0
  0
MTEXT
  5
4047
330
18
100
AcDbEntity
  8
0
  6
ByBlock
 62
     0
 48
10.0
100
AcDbMText
 10
5388.057890718424
 20
4098.848517831199
 30
0.0
 40
37.5
 41
0.0
 71
     5
 72
     1
  1
h1
 11
0.0000000000000001
 21
1.0
 31
0.0
 73
     1
 44
1.0
  0
LINE
  5
4048
330
18
100
AcDbEntity
  8
0
 48
10.0
100
AcDbLine
 10
5568.057881955003
 20
4318.848517831199
 30
0.0
 11
5388.057881955004
 21
4318.848517831199
 31
0.0
  0
SOLID
  5
4049
330
18
100
AcDbEntity
  8
0
  6
ByBlock
 62
     0
 48
10.0
100
AcDbTrace
 10
5424.307881955006
 20
4281.348517831199
 30
0.0
 11
5411.807881955006
 21
4281.348517831199
 31
0.0
 12
5418.057881955005
 22
4318.848517831199
 32
0.0
 13
5418.057881955005
 23
4318.848517831199
 33
0.0
  0
SOLID
  5
404A
330
18
100
AcDbEntity
  8
0
  6
ByBlock
 62
     0
 48
10.0
100
AcDbTrace
 10
5424.307881955006
 20
4356.348517831199
 30
0.0
 11
5411.807881955006
 21
4356.348517831199
 31
0.0
 12
5418.057881955005
 22
4318.848517831199
 32
0.0
 13
5418.057881955005
 23
4318.848517831199
 33
0.0
  0
LINE
  5
404C
330
18
100
AcDbEntity
  8
0
 48
10.0
100
AcDbLine
 10
5568.057881955003
 20
4778.848517831199
 30
0.0
 11
5238.057881955004
 21
4778.848517831199
 31
0.0
  0
LINE
  5
404D
330
18
100
AcDbEntity
  8
0
 48
10.0
100
AcDbLine
 10
5568.057881955003
 20
4678.848517831199
 30
0.0
 11
5388.057881955004
 21
4678.848517831199
 31
0.0
  0
MTEXT
  5
404E
330
18
100
AcDbEntity
  8
0
  6
ByBlock
 62
     0
 48
10.0
100
AcDbMText
 10
5388.057881955003
 20
4498.848517831199
 30
0.0
 40
37.5
 41
0.0
 71
     5
 72
     1
  1
360
 11
0.0000000000000001
 21
1.0
 31
0.0
 73
     1
 44
1.0
  0
MTEXT
  5
404F
330
18
100
AcDbEntity
  8
0
  6
ByBlock
 62
     0
 48
10.0
100
AcDbMText
 10
5388.057890718424
 20
4728.848517831199
 30
0.0
 40
37.5
 41
0.0
 71
     5
 72
     1
  1
100
 11
0.0000000000000001
 21
1.0
 31
0.0
 73
     1
 44
1.0
  0
SOLID
  5
4050
330
18
100
AcDbEntity
  8
0
  6
ByBlock
 62
     0
 48
10.0
100
AcDbTrace
 10
5274.307881955003
 20
4741.348517831177
 30
0.0
 11
5261.807881955001
 21
4741.348517831177
 31
0.0
 12
5268.057881955002
 22
4778.848517831177
 32
0.0
 13
5268.057881955002
 23
4778.848517831177
 33
0.0
  0
SOLID
  5
4051
330
18
100
AcDbEntity
  8
0
  6
ByBlock
 62
     0
 48
10.0
100
AcDbTrace
 10
5424.307881955006
 20
4716.348517831202
 30
0.0
 11
5411.807881955006
 21
4716.348517831202
 31
0.0
 12
5418.057881955005
 22
4678.848517831202
 32
0.0
 13
5418.057881955005
 23
4678.848517831202
 33
0.0
  0
SOLID
  5
4052
330
18
100
AcDbEntity
  8
0
  6
ByBlock
 62
     0
 48
10.0
100
AcDbTrace
 10
5424.307881955006
 20
4641.348582270894
 30
0.0
 11
5411.807881955006
 21
4641.348582270894
 31
0.0
 12
5418.057881955005
 22
4678.848582270894
 32
0.0
 13
5418.057881955005
 23
4678.848582270894
 33
0.0
  0
SOLID
  5
4053
330
18
100
AcDbEntity
  8
0
  6
ByBlock
 62
     0
 48
10.0
100
AcDbTrace
 10
5424.307892694951
 20
4741.348505972045
 30
0.0
 11
5411.807892694952
 21
4741.348505972045
 31
0.0
 12
5418.057892694951
 22
4778.848505972045
 32
0.0
 13
5418.057892694951
 23
4778.848505972045
 33
0.0
  0
LINE
  5
4054
330
18
100
AcDbEntity
  8
0
 48
10.0
100
AcDbLine
 10
5568.057881955003
 20
5078.848543653671
 30
0.0
 11
5238.057881955004
 21
5078.848543653671
 31
0.0
  0
MTEXT
  5
4057
330
18
100
AcDbEntity
  8
0
  6
ByBlock
 62
     0
 48
10.0
100
AcDbMText
 10
5238.057881955
 20
5318.848543653714
 30
0.0
 40
37.5
 41
0.0
 71
     5
 72
     1
  1
480
 11
0.0000000000000001
 21
1.0
 31
0.0
 73
     1
 44
1.0
  0
LINE
  5
4058
330
18
100
AcDbEntity
  8
0
 48
10.0
100
AcDbLine
 10
5598.057881955003
 20
5588.848517831199
 30
0.0
 11
5598.057881955003
 21
5918.848517831199
 31
0.0
  0
LINE
  5
4059
330
18
100
AcDbEntity
  8
0
 48
10.0
100
AcDbLine
 10
5718.057881955004
 20
5588.848517831199
 30
0.0
 11
5718.057881955004
 21
5768.848517831199
 31
0.0
  0
LINE
  5
405A
330
18
100
AcDbEntity
  8
0
 48
10.0
100
AcDbLine
 10
5568.057892050195
 20
5198.848543653671
 30
0.0
 11
5388.057892050195
 21
5198.848543653671
 31
0.0
  0
MTEXT
  5
405B
330
18
100
AcDbEntity
  8
0
  6
ByBlock
 62
     0
 48
10.0
100
AcDbMText
 10
5388.057888741887
 20
5138.848543653671
 30
0.0
 40
37.5
 41
0.0
 71
     5
 72
     1
  1
120
 11
0.0000000000000001
 21
1.0
 31
0.0
 73
     1
 44
1.0
  0
MTEXT
  5
405C
330
18
100
AcDbEntity
  8
0
  6
ByBlock
 62
     0
 48
10.0
100
AcDbMText
 10
5388.057881955002
 20
5318.848543653714
 30
0.0
 40
37.5
 41
0.0
 71
     5
 72
     1
  1
240
 11
0.0000000000000001
 21
1.0
 31
0.0
 73
     1
 44
1.0
  0
SOLID
  5
405D
330
18
100
AcDbEntity
  8
0
  6
ByBlock
 62
     0
 48
10.0
100
AcDbTrace
 10
5424.30787319158
 20
5236.348543653678
 30
0.0
 11
5411.807873191581
 21
5236.348543653678
 31
0.0
 12
5418.057873191577
 22
5198.848543653678
 32
0.0
 13
5418.057873191577
 23
5198.848543653678
 33
0.0
  0
SOLID
  5
405E
330
18
100
AcDbEntity
  8
0
  6
ByBlock
 62
     0
 48
10.0
100
AcDbTrace
 10
5424.30787319158
 20
5161.348543653665
 30
0.0
 11
5411.807873191581
 21
5161.348543653665
 31
0.0
 12
5418.057873191577
 22
5198.848543653665
 32
0.0
 13
5418.057873191577
 23
5198.848543653665
 33
0.0
  0
LINE
  5
405F
330
18
100
AcDbEntity
  8
0
 48
10.0
100
AcDbLine
 10
5568.057881955003
 20
5488.848543653715
 30
0.0
 11
5388.057881955004
 21
5488.848543653715
 31
0.0
  0
LINE
  5
4060
330
18
100
AcDbEntity
  8
0
 48
10.0
100
AcDbLine
 10
5568.057892050195
 20
5438.848543653715
 30
0.0
 11
5388.057892050195
 21
5438.848543653715
 31
0.0
  0
LINE
  5
4061
330
18
100
AcDbEntity
  8
0
 48
10.0
100
AcDbLine
 10
5568.057881955
 20
5558.848543653715
 30
0.0
 11
5238.057881955
 21
5558.848543653715
 31
0.0
  0
MTEXT
  5
4062
330
18
100
AcDbEntity
  8
0
  6
ByBlock
 62
     0
 48
10.0
100
AcDbMText
 10
5388.05789071842
 20
5523.848543653715
 30
0.0
 40
37.5
 41
0.0
 71
     5
 72
     1
  1
70
 11
0.0000000000000001
 21
1.0
 31
0.0
 73
     1
 44
1.0
  0
SOLID
  5
4063
330
18
100
AcDbEntity
  8
0
  6
ByBlock
 62
     0
 48
10.0
100
AcDbTrace
 10
5274.307881954999
 20
5521.348543653693
 30
0.0
 11
5261.807881955
 21
5521.348543653693
 31
0.0
 12
5268.057881954998
 22
5558.848543653692
 32
0.0
 13
5268.057881954998
 23
5558.848543653692
 33
0.0
  0
MTEXT
  5
4064
330
18
100
AcDbEntity
  8
0
  6
ByBlock
 62
     0
 48
10.0
100
AcDbMText
 10
5358.05789071842
 20
5463.848543653715
 30
0.0
 40
37.5
 41
0.0
 71
     5
 72
     1
  1
50
 11
0.0000000000000001
 21
1.0
 31
0.0
 73
     1
 44
1.0
  0
SOLID
  5
4065
330
18
100
AcDbEntity
  8
0
  6
ByBlock
 62
     0
 48
10.0
100
AcDbTrace
 10
5424.307881955
 20
5401.34864881476
 30
0.0
 11
5411.807881955002
 21
5401.34864881476
 31
0.0
 12
5418.057881954998
 22
5438.84864881476
 32
0.0
 13
5418.057881954998
 23
5438.84864881476
 33
0.0
  0
LWPOLYLINE
  5
4066
330
18
100
AcDbEntity
  8
上線
 48
10.0
100
AcDbPolyline
 90
        2
 70
     1
 43
5.0
 10
5418.079828326227
 20
5486.348543653715
 42
1.0
 10
5418.079828326227
 20
5491.348543653715
 42
1.0
  0
SOLID
  5
4067
330
18
100
AcDbEntity
  8
0
  6
ByBlock
 62
     0
 48
10.0
100
AcDbTrace
 10
5411.807890718423
 20
5596.348555512847
 30
0.0
 11
5424.307890718425
 21
5596.348555512847
 31
0.0
 12
5418.057890718426
 22
5558.848555512847
 32
0.0
 13
5418.057890718426
 23
5558.848555512847
 33
0.0
  0
LINE
  5
4068
330
18
100
AcDbEntity
  8
OBJECT
 48
10.0
100
AcDbLine
 10
5418.057890718422
 20
5558.848543653692
 30
0.0
 11
5418.057890718422
 21
5671.348543653692
 31
0.0
  0
LINE
  5
4069
330
18
100
AcDbEntity
  8
OBJECT
100
AcDbLine
 10
5775.070442707963
 20
5375.700530296911
 30
0.0
 11
5775.070442707963
 21
5478.220525525073
 31
0.0
  0
LINE
  5
406A
330
18
100
AcDbEntity
  8
OBJECT
100
AcDbLine
 10
5772.857144019962
 20
5375.700530296911
 30
0.0
 11
5772.857144019962
 21
5478.220525525073
 31
0.0
  0
LINE
  5
406B
330
18
100
AcDbEntity
  8
OBJECT
100
AcDbLine
 10
5758.470684281889
 20
5375.700530296911
 30
0.0
 11
5758.470684281889
 21
5478.220525525073
 31
0.0
  0
LINE
  5
406C
330
18
100
AcDbEntity
  8
OBJECT
100
AcDbLine
 10
5872.455694576402
 20
5375.700513409064
 30
0.0
 11
5872.455694576402
 21
5478.220508637225
 31
0.0
  0
LINE
  5
406D
330
18
100
AcDbEntity
  8
OBJECT
100
AcDbLine
 10
5808.269959560109
 20
5375.700520891255
 30
0.0
 11
5808.269959560109
 21
5478.220516119414
 31
0.0
  0
LINE
  5
406E
330
18
100
AcDbEntity
  8
OBJECT
100
AcDbLine
 10
5806.056660872108
 20
5375.700520891255
 30
0.0
 11
5806.056660872108
 21
5478.220516119414
 31
0.0
  0
LINE
  5
406F
330
18
100
AcDbEntity
  8
OBJECT
100
AcDbLine
 10
5822.656419298181
 20
5375.700528373442
 30
0.0
 11
5822.656419298181
 21
5478.220523601601
 31
0.0
  0
LINE
  5
4070
330
18
100
AcDbEntity
  8
OBJECT
100
AcDbLine
 10
5824.869717986182
 20
5375.700528373442
 30
0.0
 11
5824.869717986182
 21
5478.220523601601
 31
0.0
  0
LINE
  5
4071
330
18
100
AcDbEntity
  8
OBJECT
100
AcDbLine
 10
5858.069234838328
 20
5375.70053585563
 30
0.0
 11
5858.069234838328
 21
5478.220531083792
 31
0.0
  0
LINE
  5
4072
330
18
100
AcDbEntity
  8
OBJECT
100
AcDbLine
 10
5855.855936150328
 20
5375.70053585563
 30
0.0
 11
5855.855936150328
 21
5478.220531083792
 31
0.0
  0
LINE
  5
4073
330
18
100
AcDbEntity
  8
OBJECT
100
AcDbLine
 10
5839.256177724255
 20
5375.700528373442
 30
0.0
 11
5839.256177724255
 21
5478.220523601601
 31
0.0
  0
LINE
  5
4074
330
18
100
AcDbEntity
  8
OBJECT
100
AcDbLine
 10
5841.469476412255
 20
5375.700528373442
 30
0.0
 11
5841.469476412255
 21
5478.220523601601
 31
0.0
  0
LINE
  5
4075
330
18
100
AcDbEntity
  8
OBJECT
100
AcDbLine
 10
5789.456902446035
 20
5375.700537779098
 30
0.0
 11
5789.456902446035
 21
5478.220533007259
 31
0.0
  0
LINE
  5
4076
330
18
100
AcDbEntity
  8
OBJECT
100
AcDbLine
 10
5791.670201134035
 20
5375.700537779098
 30
0.0
 11
5791.670201134035
 21
5478.220533007259
 31
0.0
  0
LINE
  5
4077
330
18
100
AcDbEntity
  8
OBJECT
100
AcDbLine
 10
5756.257385593889
 20
5375.700530296911
 30
0.0
 11
5756.257385593889
 21
5478.220525525073
 31
0.0
  0
LINE
  5
4078
330
18
100
AcDbEntity
  8
OBJECT
100
AcDbLine
 10
5739.657627167815
 20
5375.700522814722
 30
0.0
 11
5739.657627167815
 21
5478.220518042881
 31
0.0
  0
LINE
  5
4079
330
18
100
AcDbEntity
  8
OBJECT
100
AcDbLine
 10
5741.870925855814
 20
5375.700522814722
 30
0.0
 11
5741.870925855814
 21
5478.220518042881
 31
0.0
  0
LINE
  5
407A
330
18
100
AcDbEntity
  8
OBJECT
100
AcDbLine
 10
5874.668993264402
 20
5375.700513409064
 30
0.0
 11
5874.668993264402
 21
5478.220508637225
 31
0.0
  0
LINE
  5
407B
330
18
100
AcDbEntity
  8
OBJECT
100
AcDbLine
 10
5889.055453002475
 20
5375.700520891255
 30
0.0
 11
5889.055453002475
 21
5478.220516119414
 31
0.0
  0
LINE
  5
407C
330
18
100
AcDbEntity
  8
OBJECT
100
AcDbLine
 10
5891.268751690475
 20
5375.700520891255
 30
0.0
 11
5891.268751690475
 21
5478.220516119414
 31
0.0
  0
LINE
  5
407D
330
18
100
AcDbEntity
  8
OBJECT
100
AcDbLine
 10
5905.655211428548
 20
5375.700520891255
 30
0.0
 11
5905.655211428548
 21
5478.220516119414
 31
0.0
  0
LINE
  5
407E
330
18
100
AcDbEntity
  8
OBJECT
100
AcDbLine
 10
5907.868510116548
 20
5375.700520891255
 30
0.0
 11
5907.868510116548
 21
5478.220516119414
 31
0.0
  0
LINE
  5
407F
102
{ACAD_REACTORS
330
4040
102
}
330
18
100
AcDbEntity
  8
OBJECT
100
AcDbLine
 10
5718.057881955004
 20
5148.8485178312
 30
0.0
 11
5718.057881955004
 21
5488.8485178312
 31
0.0
  0
LINE
  5
4080
330
18
100
AcDbEntity
  8
OBJECT
100
AcDbLine
 10
5725.271176846693
 20
5478.220521678135
 30
0.0
 11
5725.271176846693
 21
5159.476523044784
 31
0.0
  0
LINE
  5
4081
330
18
100
AcDbEntity
  8
OBJECT
100
AcDbLine
 10
5723.057878158693
 20
5483.848521678137
 30
0.0
 11
5723.057878158693
 21
5153.848526891721
 31
0.0
  0
LINE
  5
4082
102
{ACAD_REACTORS
330
4040
102
}
330
18
100
AcDbEntity
  8
OBJECT
100
AcDbLine
 10
5712.057881955004
 20
5142.8485178312
 30
0.0
 11
5712.057881955004
 21
5494.8485178312
 31
0.0
  0
LINE
  5
4083
330
18
100
AcDbEntity
  8
OBJECT
100
AcDbLine
 10
5739.657627167815
 20
5261.996525755133
 30
0.0
 11
5739.657627167815
 21
5159.476530526974
 31
0.0
  0
LINE
  5
4084
330
18
100
AcDbEntity
  8
OBJECT
100
AcDbLine
 10
5739.657627167815
 20
5267.588518484629
 30
0.0
 11
5739.657627167815
 21
5370.108513712787
 31
0.0
  0
LINE
  5
4085
330
18
100
AcDbEntity
  8
OBJECT
100
AcDbLine
 10
5855.855936150328
 20
5261.996512714225
 30
0.0
 11
5855.855936150328
 21
5159.476517486065
 31
0.0
  0
LINE
  5
4086
330
18
100
AcDbEntity
  8
OBJECT
100
AcDbLine
 10
5858.069234838328
 20
5261.996512714225
 30
0.0
 11
5858.069234838328
 21
5159.476517486065
 31
0.0
  0
LINE
  5
4087
330
18
100
AcDbEntity
  8
OBJECT
100
AcDbLine
 10
5872.455694576402
 20
5261.996535160791
 30
0.0
 11
5872.455694576402
 21
5159.47653993263
 31
0.0
  0
LINE
  5
4088
330
18
100
AcDbEntity
  8
OBJECT
100
AcDbLine
 10
5907.868510116548
 20
5261.996527678602
 30
0.0
 11
5907.868510116548
 21
5159.476532450444
 31
0.0
  0
LINE
  5
4089
330
18
100
AcDbEntity
  8
OBJECT
100
AcDbLine
 10
5905.655211428548
 20
5261.996527678602
 30
0.0
 11
5905.655211428548
 21
5159.476532450444
 31
0.0
  0
LINE
  5
408A
330
18
100
AcDbEntity
  8
OBJECT
100
AcDbLine
 10
5891.268751690475
 20
5261.996527678602
 30
0.0
 11
5891.268751690475
 21
5159.476532450444
 31
0.0
  0
LINE
  5
408B
330
18
100
AcDbEntity
  8
OBJECT
100
AcDbLine
 10
5889.055453002475
 20
5261.996527678602
 30
0.0
 11
5889.055453002475
 21
5159.476532450444
 31
0.0
  0
LINE
  5
408C
330
18
100
AcDbEntity
  8
OBJECT
100
AcDbLine
 10
5874.668993264402
 20
5261.996535160791
 30
0.0
 11
5874.668993264402
 21
5159.47653993263
 31
0.0
  0
LINE
  5
408D
330
18
100
AcDbEntity
  8
OBJECT
100
AcDbLine
 10
5741.870925855814
 20
5261.996525755133
 30
0.0
 11
5741.870925855814
 21
5159.476530526974
 31
0.0
  0
LINE
  5
408E
330
18
100
AcDbEntity
  8
OBJECT
100
AcDbLine
 10
5756.257385593889
 20
5261.996518272946
 30
0.0
 11
5756.257385593889
 21
5159.476523044784
 31
0.0
  0
LINE
  5
408F
330
18
100
AcDbEntity
  8
OBJECT
100
AcDbLine
 10
5791.670201134035
 20
5261.996510790757
 30
0.0
 11
5791.670201134035
 21
5159.476515562596
 31
0.0
  0
LINE
  5
4090
330
18
100
AcDbEntity
  8
OBJECT
100
AcDbLine
 10
5789.456902446035
 20
5261.996510790757
 30
0.0
 11
5789.456902446035
 21
5159.476515562596
 31
0.0
  0
LINE
  5
4091
330
18
100
AcDbEntity
  8
OBJECT
100
AcDbLine
 10
5841.469476412255
 20
5261.996520196414
 30
0.0
 11
5841.469476412255
 21
5159.476524968255
 31
0.0
  0
LINE
  5
4092
330
18
100
AcDbEntity
  8
OBJECT
100
AcDbLine
 10
5839.256177724255
 20
5261.996520196414
 30
0.0
 11
5839.256177724255
 21
5159.476524968255
 31
0.0
  0
LINE
  5
4093
330
18
100
AcDbEntity
  8
OBJECT
100
AcDbLine
 10
5824.869717986182
 20
5261.996520196414
 30
0.0
 11
5824.869717986182
 21
5159.476524968255
 31
0.0
  0
LINE
  5
4094
330
18
100
AcDbEntity
  8
OBJECT
100
AcDbLine
 10
5822.656419298181
 20
5261.996520196414
 30
0.0
 11
5822.656419298181
 21
5159.476524968255
 31
0.0
  0
LINE
  5
4095
330
18
100
AcDbEntity
  8
OBJECT
100
AcDbLine
 10
5806.056660872108
 20
5261.996527678602
 30
0.0
 11
5806.056660872108
 21
5159.476532450444
 31
0.0
  0
LINE
  5
4096
330
18
100
AcDbEntity
  8
OBJECT
100
AcDbLine
 10
5808.269959560109
 20
5261.996527678602
 30
0.0
 11
5808.269959560109
 21
5159.476532450444
 31
0.0
  0
LINE
  5
4097
330
18
100
AcDbEntity
  8
OBJECT
100
AcDbLine
 10
5758.470684281889
 20
5261.996518272946
 30
0.0
 11
5758.470684281889
 21
5159.476523044784
 31
0.0
  0
LINE
  5
4098
330
18
100
AcDbEntity
  8
OBJECT
100
AcDbLine
 10
5772.857144019962
 20
5261.996518272946
 30
0.0
 11
5772.857144019962
 21
5159.476523044784
 31
0.0
  0
LINE
  5
4099
330
18
100
AcDbEntity
  8
OBJECT
100
AcDbLine
 10
5775.070442707963
 20
5261.996518272946
 30
0.0
 11
5775.070442707963
 21
5159.476523044784
 31
0.0
  0
LINE
  5
409A
330
18
100
AcDbEntity
  8
OBJECT
100
AcDbLine
 10
5741.870925855814
 20
5267.588518484629
 30
0.0
 11
5741.870925855814
 21
5370.108513712787
 31
0.0
  0
LINE
  5
409B
330
18
100
AcDbEntity
  8
OBJECT
100
AcDbLine
 10
5756.257385593889
 20
5267.588525966817
 30
0.0
 11
5756.257385593889
 21
5370.108521194978
 31
0.0
  0
LINE
  5
409C
330
18
100
AcDbEntity
  8
OBJECT
100
AcDbLine
 10
5758.470684281889
 20
5267.588525966817
 30
0.0
 11
5758.470684281889
 21
5370.108521194978
 31
0.0
  0
LINE
  5
409D
330
18
100
AcDbEntity
  8
OBJECT
100
AcDbLine
 10
5772.857144019962
 20
5267.588525966817
 30
0.0
 11
5772.857144019962
 21
5370.108521194978
 31
0.0
  0
LINE
  5
409E
330
18
100
AcDbEntity
  8
OBJECT
100
AcDbLine
 10
5775.070442707963
 20
5267.588525966817
 30
0.0
 11
5775.070442707963
 21
5370.108521194978
 31
0.0
  0
LINE
  5
409F
330
18
100
AcDbEntity
  8
OBJECT
100
AcDbLine
 10
5791.670201134035
 20
5267.588533449006
 30
0.0
 11
5791.670201134035
 21
5370.108528677166
 31
0.0
  0
LINE
  5
40A0
330
18
100
AcDbEntity
  8
OBJECT
100
AcDbLine
 10
5789.456902446035
 20
5267.588533449006
 30
0.0
 11
5789.456902446035
 21
5370.108528677166
 31
0.0
  0
LINE
  5
40A1
330
18
100
AcDbEntity
  8
OBJECT
100
AcDbLine
 10
5824.869717986182
 20
5267.588524043348
 30
0.0
 11
5824.869717986182
 21
5370.10851927151
 31
0.0
  0
LINE
  5
40A2
330
18
100
AcDbEntity
  8
OBJECT
100
AcDbLine
 10
5822.656419298181
 20
5267.588524043348
 30
0.0
 11
5822.656419298181
 21
5370.10851927151
 31
0.0
  0
LINE
  5
40A3
330
18
100
AcDbEntity
  8
OBJECT
100
AcDbLine
 10
5806.056660872108
 20
5267.588516561161
 30
0.0
 11
5806.056660872108
 21
5370.108511789319
 31
0.0
  0
LINE
  5
40A4
330
18
100
AcDbEntity
  8
OBJECT
100
AcDbLine
 10
5808.269959560109
 20
5267.588516561161
 30
0.0
 11
5808.269959560109
 21
5370.108511789319
 31
0.0
  0
LINE
  5
40A5
330
18
100
AcDbEntity
  8
OBJECT
100
AcDbLine
 10
5855.855936150328
 20
5267.588531525537
 30
0.0
 11
5855.855936150328
 21
5370.108526753697
 31
0.0
  0
LINE
  5
40A6
330
18
100
AcDbEntity
  8
OBJECT
100
AcDbLine
 10
5858.069234838328
 20
5267.588531525537
 30
0.0
 11
5858.069234838328
 21
5370.108526753697
 31
0.0
  0
LINE
  5
40A7
330
18
100
AcDbEntity
  8
OBJECT
100
AcDbLine
 10
5891.268751690475
 20
5267.588516561161
 30
0.0
 11
5891.268751690475
 21
5370.108511789319
 31
0.0
  0
LINE
  5
40A8
330
18
100
AcDbEntity
  8
OBJECT
100
AcDbLine
 10
5889.055453002475
 20
5267.588516561161
 30
0.0
 11
5889.055453002475
 21
5370.108511789319
 31
0.0
  0
LINE
  5
40A9
330
18
100
AcDbEntity
  8
OBJECT
100
AcDbLine
 10
5872.455694576402
 20
5267.588509078972
 30
0.0
 11
5872.455694576402
 21
5370.108504307132
 31
0.0
  0
LINE
  5
40AA
330
18
100
AcDbEntity
  8
OBJECT
100
AcDbLine
 10
5874.668993264402
 20
5267.588509078972
 30
0.0
 11
5874.668993264402
 21
5370.108504307132
 31
0.0
  0
LINE
  5
40AB
330
18
100
AcDbEntity
  8
OBJECT
100
AcDbLine
 10
5841.469476412255
 20
5267.588524043348
 30
0.0
 11
5841.469476412255
 21
5370.10851927151
 31
0.0
  0
LINE
  5
40AC
330
18
100
AcDbEntity
  8
OBJECT
100
AcDbLine
 10
5839.256177724255
 20
5267.588524043348
 30
0.0
 11
5839.256177724255
 21
5370.10851927151
 31
0.0
  0
LINE
  5
40AD
330
18
100
AcDbEntity
  8
OBJECT
100
AcDbLine
 10
5907.868510116548
 20
5267.588516561161
 30
0.0
 11
5907.868510116548
 21
5370.108511789319
 31
0.0
  0
LINE
  5
40AE
330
18
100
AcDbEntity
  8
OBJECT
100
AcDbLine
 10
5905.655211428548
 20
5267.588516561161
 30
0.0
 11
5905.655211428548
 21
5370.108511789319
 31
0.0
  0
SOLID
  5
40AF
330
18
100
AcDbEntity
  8
0
  6
ByBlock
 62
     0
 48
10.0
100
AcDbTrace
 10
5755.557817515309
 20
5732.598517831197
 30
0.0
 11
5755.557817515309
 21
5745.098517831197
 31
0.0
 12
5718.057817515308
 22
5738.8485178312
 32
0.0
 13
5718.057817515308
 23
5738.8485178312
 33
0.0
  0
MTEXT
  5
40B0
330
18
100
AcDbEntity
  8
0
  6
ByBlock
 62
     0
 48
10.0
100
AcDbMText
 10
5658.057881955004
 20
5768.84850906778
 30
0.0
 40
37.5
 41
0.0
 71
     5
 72
     1
  1
120
 73
     1
 44
1.0
  0
SOLID
  5
40B1
330
18
100
AcDbEntity
  8
0
  6
ByBlock
 62
     0
 48
10.0
100
AcDbTrace
 10
5635.557893814159
 20
5732.598507091252
 30
0.0
 11
5635.557893814159
 21
5745.098507091253
 31
0.0
 12
5598.057893814158
 22
5738.848507091253
 32
0.0
 13
5598.057893814158
 23
5738.848507091253
 33
0.0
  0
SOLID
  5
40B2
330
18
100
AcDbEntity
  8
0
  6
ByBlock
 62
     0
 48
10.0
100
AcDbTrace
 10
5680.557881955001
 20
5732.598517831197
 30
0.0
 11
5680.557881955001
 21
5745.098517831197
 31
0.0
 12
5718.057881955001
 22
5738.8485178312
 32
0.0
 13
5718.057881955001
 23
5738.8485178312
 33
0.0
  0
SOLID
  5
40B3
330
18
100
AcDbEntity
  8
0
  6
ByBlock
 62
     0
 48
10.0
100
AcDbTrace
 10
5635.557881955026
 20
5882.598517831201
 30
0.0
 11
5635.557881955026
 21
5895.098517831202
 31
0.0
 12
5598.057881955026
 22
5888.848517831203
 32
0.0
 13
5598.057881955026
 23
5888.848517831203
 33
0.0
  0
LINE
  5
40B4
330
18
100
AcDbEntity
  8
0
 48
10.0
100
AcDbLine
 10
7218.057907777519
 20
4808.848517831203
 30
0.0
 11
7218.057907777519
 21
5138.848517831203
 31
0.0
  0
LINE
  5
40B5
330
18
100
AcDbEntity
  8
0
 48
10.0
100
AcDbLine
 10
6738.057907777475
 20
4808.8485178312
 30
0.0
 11
6738.057907777475
 21
5138.848517831199
 31
0.0
  0
LINE
  5
40B6
330
18
100
AcDbEntity
  8
OBJECT
100
AcDbLine
 10
6438.057881955003
 20
5078.848517831199
 30
0.0
 11
6438.057881955003
 21
5558.8485178312
 31
0.0
  0
MTEXT
  5
40BA
330
18
100
AcDbEntity
  8
0
  6
ByBlock
 62
     0
 48
10.0
100
AcDbMText
 10
6990.963246012348
 20
4408.603790944702
 30
0.0
 40
30.0
 41
0.0
 71
     5
 72
     1
  1
50R
 73
     1
 44
1.0
  0
LINE
  5
40BD
330
18
100
AcDbEntity
  8
OBJECT
 48
10.0
100
AcDbLine
 10
6938.463246012348
 20
4378.603790944702
 30
0.0
 11
7043.463246012348
 21
4378.603790944702
 31
0.0
  0
SOLID
  5
40C0
330
18
100
AcDbEntity
  8
0
  6
ByBlock
 62
     0
 48
10.0
100
AcDbTrace
 10
6903.792768560879
 20
4360.455950751897
 30
0.0
 11
6911.184138560161
 21
4350.375392754758
 31
0.0
 12
6877.246779569103
 22
4333.241561755474
 32
0.0
 13
6877.246779569103
 23
4333.241561755474
 33
0.0
  0
LINE
  5
40C1
330
18
100
AcDbEntity
  8
WUWAGAKI
 48
10.0
100
AcDbLine
 10
6892.311511223669
 20
4344.40473156409
 30
0.0
 11
6938.463246012348
 21
4378.603790944702
 31
0.0
210
0.0
220
0.0
230
-1.0
1001
ACAD
1000
DSTYLE
1002
{
1070
    78
1070
     8
1070
   270
1070
     8
1070
   140
1040
2.5
1070
    74
1070
     0
1070
   172
1070
     1
1070
    73
1070
     0
1070
    77
1070
     1
1070
    40
1040
10.0
1070
   147
1040
0.625
1070
    42
1040
0.625
1070
    44
1040
1.25
1070
    43
1040
3.75
1070
   141
1040
2.5
1070
    41
1040
2.5
1070
   273
1070
     8
1070
   274
1070
     4
1070
   143
1040
0.0394
1070
   171
1070
     4
1002
}
  0
MTEXT
  5
40C3
330
18
100
AcDbEntity
  8
0
  6
ByBlock
 62
     0
 48
10.0
100
AcDbMText
 10
6978.057907777518
 20
4988.8485178312
 30
0.0
 40
37.5
 41
0.0
 71
     5
 72
     1
  1
240
 73
     1
 44
1.0
  0
MTEXT
  5
40C4
330
18
100
AcDbEntity
  8
0
  6
ByBlock
 62
     0
 48
10.0
100
AcDbMText
 10
6978.057907777518
 20
4638.848517831201
 30
0.0
 40
37.5
 41
0.0
 71
     5
 72
     1
  1
230
 73
     1
 44
1.0
  0
LINE
  5
40C5
330
18
100
AcDbEntity
  8
OBJECT
 48
10.0
100
AcDbLine
 10
6863.057907777475
 20
4608.848509067781
 30
0.0
 11
7093.057907777519
 21
4608.848509067783
 31
0.0
  0
LINE
  5
40C6
330
18
100
AcDbEntity
  8
OBJECT
 48
10.0
100
AcDbLine
 10
6738.057907777475
 20
4958.848509067781
 30
0.0
 11
7218.057907777519
 21
4958.848509067784
 31
0.0
  0
LINE
  5
40CA
330
18
100
AcDbEntity
  8
0
 48
10.0
100
AcDbLine
 10
6863.057907777475
 20
4518.848507736008
 30
0.0
 11
6863.057907777475
 21
4638.848507736008
 31
0.0
  0
SOLID
  5
40CB
330
18
100
AcDbEntity
  8
0
  6
ByBlock
 62
     0
 48
10.0
100
AcDbTrace
 10
6900.557907777482
 20
4602.598526594624
 30
0.0
 11
6900.557907777482
 21
4615.098526594621
 31
0.0
 12
6863.057907777482
 22
4608.848526594625
 32
0.0
 13
6863.057907777482
 23
4608.848526594625
 33
0.0
  0
SOLID
  5
40CD
330
18
100
AcDbEntity
  8
0
  6
ByBlock
 62
     0
 48
10.0
100
AcDbTrace
 10
6775.557919636631
 20
4965.09850906778
 30
0.0
 11
6775.557919636631
 21
4952.598509067778
 31
0.0
 12
6738.057919636631
 22
4958.848509067777
 32
0.0
 13
6738.057919636631
 23
4958.848509067777
 33
0.0
  0
MTEXT
  5
40CE
330
18
100
AcDbEntity
  8
0
  6
ByBlock
 62
     0
 48
10.0
100
AcDbMText
 10
6798.057907777476
 20
4988.848511044316
 30
0.0
 40
37.5
 41
0.0
 71
     5
 72
     1
  1
120
 73
     1
 44
1.0
  0
LINE
  5
40CF
330
18
100
AcDbEntity
  8
0
 48
10.0
100
AcDbLine
 10
6858.057907777475
 20
4808.848507736009
 30
0.0
 11
6858.057907777475
 21
4988.848507736008
 31
0.0
  0
SOLID
  5
40D0
330
18
100
AcDbEntity
  8
0
  6
ByBlock
 62
     0
 48
10.0
100
AcDbTrace
 10
6895.557907777481
 20
4952.598526594623
 30
0.0
 11
6895.557907777481
 21
4965.098526594622
 31
0.0
 12
6858.057907777482
 22
4958.848526594625
 32
0.0
 13
6858.057907777482
 23
4958.848526594625
 33
0.0
  0
SOLID
  5
40D1
330
18
100
AcDbEntity
  8
0
  6
ByBlock
 62
     0
 48
10.0
100
AcDbTrace
 10
6820.557907777469
 20
4952.598526594623
 30
0.0
 11
6820.557907777469
 21
4965.098526594622
 31
0.0
 12
6858.057907777468
 22
4958.848526594625
 32
0.0
 13
6858.057907777468
 23
4958.848526594625
 33
0.0
  0
LINE
  5
40D2
330
18
100
AcDbEntity
  8
0
 48
10.0
100
AcDbLine
 10
7093.057907777519
 20
4518.848507736008
 30
0.0
 11
7093.057907777519
 21
4638.848507736008
 31
0.0
  0
SOLID
  5
40D3
330
18
100
AcDbEntity
  8
0
  6
ByBlock
 62
     0
 48
10.0
100
AcDbTrace
 10
7055.558012938565
 20
4602.598517831203
 30
0.0
 11
7055.558012938565
 21
4615.098517831201
 31
0.0
 12
7093.058012938564
 22
4608.848517831204
 32
0.0
 13
7093.058012938564
 23
4608.848517831204
 33
0.0
  0
MTEXT
  5
40D5
330
18
100
AcDbEntity
  8
0
  6
ByBlock
 62
     0
 48
10.0
100
AcDbMText
 10
7123.057907777519
 20
5018.848509067783
 30
0.0
 40
37.5
 41
0.0
 71
     5
 72
     1
  1
50
 73
     1
 44
1.0
  0
LINE
  5
40D6
330
18
100
AcDbEntity
  8
0
 48
10.0
100
AcDbLine
 10
7098.057907777519
 20
4808.848507736009
 30
0.0
 11
7098.057907777519
 21
4988.848507736008
 31
0.0
  0
SOLID
  5
40D7
330
18
100
AcDbEntity
  8
0
  6
ByBlock
 62
     0
 48
10.0
100
AcDbTrace
 10
7060.558012938566
 20
4952.598517831203
 30
0.0
 11
7060.558012938566
 21
4965.098517831201
 31
0.0
 12
7098.058012938565
 22
4958.848517831205
 32
0.0
 13
7098.058012938565
 23
4958.848517831205
 33
0.0
  0
LINE
  5
40D8
330
18
100
AcDbEntity
  8
0
 48
10.0
100
AcDbLine
 10
7148.057907777519
 20
4808.8485178312
 30
0.0
 11
7148.057907777519
 21
4988.8485178312
 31
0.0
  0
MTEXT
  5
40D9
330
18
100
AcDbEntity
  8
0
  6
ByBlock
 62
     0
 48
10.0
100
AcDbMText
 10
7183.05790777752
 20
4988.848509067783
 30
0.0
 40
37.5
 41
0.0
 71
     5
 72
     1
  1
70
 73
     1
 44
1.0
  0
LWPOLYLINE
  5
40DA
330
18
100
AcDbEntity
  8
上線
 48
10.0
100
AcDbPolyline
 90
        2
 70
     1
 43
5.0
 10
7145.557907777519
 20
4958.826571459976
 42
1.0
 10
7150.557907777519
 20
4958.826571459976
 42
1.0
  0
SOLID
  5
40DB
330
18
100
AcDbEntity
  8
0
  6
ByBlock
 62
     0
 48
10.0
100
AcDbTrace
 10
7255.557919636652
 20
4965.09850906778
 30
0.0
 11
7255.557919636652
 21
4952.598509067778
 31
0.0
 12
7218.057919636652
 22
4958.848509067777
 32
0.0
 13
7218.057919636652
 23
4958.848509067777
 33
0.0
  0
MTEXT
  5
40DC
330
18
100
AcDbEntity
  8
0
  6
ByBlock
 62
     0
 48
10.0
100
AcDbMText
 10
6595.972523411266
 20
5374.766183324532
 30
0.0
 40
30.0
 41
0.0
 71
     5
 72
     1
  1
受枠
 73
     1
 44
1.0
  0
LINE
  5
40DD
330
18
100
AcDbEntity
  8
OBJECT
 48
10.0
100
AcDbLine
 10
6543.472523411266
 20
5344.766183324532
 30
0.0
 11
6648.472523411268
 21
5344.766183324532
 31
0.0
  0
MTEXT
  5
40DE
330
18
100
AcDbEntity
  8
0
  6
ByBlock
 62
     0
 48
10.0
100
AcDbMText
 10
6660.972523411267
 20
5282.194139583922
 30
0.0
 40
30.0
 41
0.0
 71
     5
 72
     1
  1
グレーチング
 73
     1
 44
1.0
  0
LINE
  5
40DF
330
18
100
AcDbEntity
  8
OBJECT
 48
10.0
100
AcDbLine
 10
6057.266335951208
 20
5252.194139583922
 30
0.0
 11
6788.472523411266
 21
5252.194139583922
 31
0.0
  0
LINE
  5
40E0
330
18
100
AcDbEntity
  8
0
 48
10.0
100
AcDbLine
 10
6438.057881955003
 20
5588.848517831199
 30
0.0
 11
6438.057881955003
 21
5918.848517831199
 31
0.0
  0
LINE
  5
40E1
330
18
100
AcDbEntity
  8
0
 48
10.0
100
AcDbLine
 10
6318.057881955003
 20
5588.848517831199
 30
0.0
 11
6318.057881955003
 21
5768.848517831199
 31
0.0
  0
LINE
  5
40E2
330
18
100
AcDbEntity
  8
WUWAGAKI
 48
10.0
100
AcDbLine
 10
6172.844728402266
 20
5434.439198383951
 30
0.0
 11
6543.472523411266
 21
5344.766183324532
 31
0.0
210
0.0
220
0.0
230
-1.0
1001
ACAD
1000
DSTYLE
1002
{
1070
    78
1070
     8
1070
   270
1070
     8
1070
   140
1040
2.5
1070
    74
1070
     0
1070
   172
1070
     1
1070
    73
1070
     0
1070
    77
1070
     1
1070
    40
1040
10.0
1070
   147
1040
0.625
1070
    42
1040
0.625
1070
    44
1040
1.25
1070
    43
1040
3.75
1070
   141
1040
2.5
1070
    41
1040
2.5
1070
   273
1070
     8
1070
   274
1070
     4
1070
   143
1040
0.0394
1070
   171
1070
     4
1002
}
  0
LINE
  5
40E3
330
18
100
AcDbEntity
  8
OBJECT
100
AcDbLine
 10
6088.646113452811
 20
5198.8485178312
 30
0.0
 11
6318.057881955003
 21
5198.8485178312
 31
0.0
  0
LINE
  5
40E4
330
18
100
AcDbEntity
  8
OBJECT
100
AcDbLine
 10
5947.469642864575
 20
5438.8485178312
 30
0.0
 11
6318.057881955003
 21
5438.8485178312
 31
0.0
  0
HATCH
  5
40E5
330
18
100
AcDbEntity
  8
OBJECT
100
AcDbHatch
 10
0.0
 20
0.0
 30
0.0
210
0.0
220
0.0
230
1.0
  2
AR-SAND
 70
     0
 71
     0
 91
        2
 92
        1
 93
        4
 72
     1
 10
6318.057881955003
 20
5488.8485178312
 11
5918.057878158694
 21
5488.8485178312
 72
     1
 10
5918.057878158694
 20
5488.8485178312
 11
5947.469642864575
 21
5438.8485178312
 72
     1
 10
5947.469642864575
 20
5438.8485178312
 11
6318.057881955003
 21
5438.8485178312
 72
     1
 10
6318.057881955003
 20
5438.8485178312
 11
6318.057881955003
 21
5488.8485178312
 97
        0
 92
       33
 93
        4
 72
     1
 10
6318.057881955003
 20
5148.8485178312
 11
6318.057881955003
 21
5198.8485178312
 72
     1
 10
6118.057878158693
 20
5148.8485178312
 11
6318.057881955002
 21
5148.8485178312
 72
     1
 10
6088.646113452811
 20
5198.8485178312
 11
6118.057867486403
 21
5148.848535974093
 72
     1
 10
6088.646113452811
 20
5198.8485178312
 11
6318.057881955003
 21
5198.8485178312
 97
        0
 75
     0
 76
     1
 52
90.0
 41
1.0
 77
     0
 78
     4
 53
127.5
 43
7824.139085579234
 44
7960.693025748103
 45
-48.94132373293423
 46
-1.600031295984042
 79
     6
 49
0.0
 49
-38.608
 49
0.0
 49
-43.18
 49
0.0
 49
-41.275
 53
97.49999999999992
 43
7824.139085579234
 44
7960.693025748103
 45
-71.68251005683543
 46
44.95232831380027
 79
     6
 49
0.0
 49
-20.828
 49
0.0
 49
-34.79799999999999
 49
0.0
 49
-13.33499999999999
 53
57.49999999999997
 43
7824.139085579234
 44
7929.451025748102
 45
-0.1437184678545643
 46
79.09923702414579
 79
     6
 49
0.0
 49
-12.69999999999998
 49
0.0
 49
-45.71999999999995
 49
0.0
 49
-59.68999999999995
 53
47.49999999999999
 43
7824.139085579234
 44
7929.451025748102
 45
-22.29293232572162
 46
76.35564524722972
 79
     6
 49
0.0
 49
-6.349999999999999
 49
0.0
 49
-29.97199999999999
 49
0.0
 49
-34.29
 98
        1
 10
7824.139085579234
 20
7960.693025748103
  0
LINE
  5
40E6
330
18
100
AcDbEntity
  8
OBJECT
100
AcDbLine
 10
5938.854728280696
 20
5375.700511485596
 30
0.0
 11
5938.854728280696
 21
5453.493872623797
 31
0.0
  0
LINE
  5
40E7
330
18
100
AcDbEntity
  8
OBJECT
100
AcDbLine
 10
5941.068026968696
 20
5375.700511485596
 30
0.0
 11
5941.068026968696
 21
5449.731264854197
 31
0.0
  0
LINE
  5
40E8
330
18
100
AcDbEntity
  8
OBJECT
100
AcDbLine
 10
5974.267543820843
 20
5375.700518967787
 30
0.0
 11
5974.267543820843
 21
5393.292086205546
 31
0.0
  0
LINE
  5
40E9
330
18
100
AcDbEntity
  8
OBJECT
100
AcDbLine
 10
5972.054245132841
 20
5375.700518967787
 30
0.0
 11
5972.054245132841
 21
5397.054693975146
 31
0.0
  0
LINE
  5
40EA
330
18
100
AcDbEntity
  8
OBJECT
100
AcDbLine
 10
5957.667785394768
 20
5375.700518967787
 30
0.0
 11
5957.667785394768
 21
5421.511675529872
 31
0.0
  0
LINE
  5
40EB
330
18
100
AcDbEntity
  8
OBJECT
100
AcDbLine
 10
5955.454486706769
 20
5375.700518967787
 30
0.0
 11
5955.454486706769
 21
5425.274283299472
 31
0.0
  0
LINE
  5
40EC
330
18
100
AcDbEntity
  8
OBJECT
100
AcDbLine
 10
5924.468268542621
 20
5375.700528373442
 30
0.0
 11
5924.468268542621
 21
5478.220523601601
 31
0.0
  0
LINE
  5
40ED
330
18
100
AcDbEntity
  8
OBJECT
100
AcDbLine
 10
5922.254969854622
 20
5375.700528373442
 30
0.0
 11
5922.254969854622
 21
5478.220523601601
 31
0.0
  0
LINE
  5
40EE
330
18
100
AcDbEntity
  8
OBJECT
100
AcDbLine
 10
5918.057878158694
 20
5488.8485178312
 30
0.0
 11
6118.057878158693
 21
5148.8485178312
 31
0.0
  0
SOLID
  5
40EF
330
18
100
AcDbEntity
  8
0
  6
ByBlock
 62
     0
 48
10.0
100
AcDbTrace
 10
6094.189884007692
 20
5258.166130815759
 30
0.0
 11
6094.129910140276
 21
5245.666274691178
 31
0.0
 12
6056.66032870024
 22
5252.096124355709
 32
0.0
 13
6056.66032870024
 23
5252.096124355709
 33
0.0
  0
LINE
  5
40F0
330
18
100
AcDbEntity
  8
OBJECT
100
AcDbLine
 10
5988.654003558917
 20
5261.996522119883
 30
0.0
 11
5988.654003558917
 21
5159.476526891721
 31
0.0
  0
LINE
  5
40F1
330
18
100
AcDbEntity
  8
OBJECT
100
AcDbLine
 10
6040.666577525136
 20
5261.996527678602
 30
0.0
 11
6040.666577525136
 21
5159.476532450444
 31
0.0
  0
LINE
  5
40F2
330
18
100
AcDbEntity
  8
OBJECT
100
AcDbLine
 10
6038.453278837135
 20
5261.996527678602
 30
0.0
 11
6038.453278837135
 21
5159.476532450444
 31
0.0
  0
LINE
  5
40F3
330
18
100
AcDbEntity
  8
OBJECT
100
AcDbLine
 10
6055.053037263208
 20
5255.956747353524
 30
0.0
 11
6055.053037263208
 21
5159.476524968255
 31
0.0
  0
LINE
  5
40F4
330
18
100
AcDbEntity
  8
OBJECT
100
AcDbLine
 10
6057.266335951209
 20
5252.194139583924
 30
0.0
 11
6057.266335951209
 21
5159.476524968255
 31
0.0
  0
LINE
  5
40F5
330
18
100
AcDbEntity
  8
OBJECT
100
AcDbLine
 10
6024.066819099061
 20
5261.996527678602
 30
0.0
 11
6024.066819099061
 21
5159.476532450444
 31
0.0
  0
LINE
  5
40F6
330
18
100
AcDbEntity
  8
OBJECT
100
AcDbLine
 10
6021.853520411062
 20
5261.996527678602
 30
0.0
 11
6021.853520411062
 21
5159.476532450444
 31
0.0
  0
LINE
  5
40F7
330
18
100
AcDbEntity
  8
OBJECT
100
AcDbLine
 10
6007.467060672989
 20
5261.996535160791
 30
0.0
 11
6007.467060672989
 21
5159.47653993263
 31
0.0
  0
LINE
  5
40F8
330
18
100
AcDbEntity
  8
OBJECT
100
AcDbLine
 10
5990.867302246916
 20
5261.996522119883
 30
0.0
 11
5990.867302246916
 21
5159.476526891721
 31
0.0
  0
LINE
  5
40F9
330
18
100
AcDbEntity
  8
OBJECT
100
AcDbLine
 10
6005.253761984989
 20
5261.996535160791
 30
0.0
 11
6005.253761984989
 21
5159.47653993263
 31
0.0
  0
LINE
  5
40FA
330
18
100
AcDbEntity
  8
OBJECT
100
AcDbLine
 10
5922.254969854622
 20
5261.996520196414
 30
0.0
 11
5922.254969854622
 21
5159.476524968255
 31
0.0
  0
LINE
  5
40FB
330
18
100
AcDbEntity
  8
OBJECT
100
AcDbLine
 10
5924.468268542621
 20
5261.996520196414
 30
0.0
 11
5924.468268542621
 21
5159.476524968255
 31
0.0
  0
LINE
  5
40FC
330
18
100
AcDbEntity
  8
OBJECT
100
AcDbLine
 10
5955.454486706769
 20
5261.99652960207
 30
0.0
 11
5955.454486706769
 21
5159.476534373911
 31
0.0
  0
LINE
  5
40FD
330
18
100
AcDbEntity
  8
OBJECT
100
AcDbLine
 10
5957.667785394768
 20
5261.99652960207
 30
0.0
 11
5957.667785394768
 21
5159.476534373911
 31
0.0
  0
LINE
  5
40FE
330
18
100
AcDbEntity
  8
OBJECT
100
AcDbLine
 10
5972.054245132841
 20
5261.99652960207
 30
0.0
 11
5972.054245132841
 21
5159.476534373911
 31
0.0
  0
LINE
  5
40FF
330
18
100
AcDbEntity
  8
OBJECT
100
AcDbLine
 10
5974.267543820843
 20
5261.99652960207
 30
0.0
 11
5974.267543820843
 21
5159.476534373911
 31
0.0
  0
LINE
  5
4100
330
18
100
AcDbEntity
  8
OBJECT
100
AcDbLine
 10
5941.068026968696
 20
5261.996537084259
 30
0.0
 11
5941.068026968696
 21
5159.4765418561
 31
0.0
  0
LINE
  5
4101
330
18
100
AcDbEntity
  8
OBJECT
100
AcDbLine
 10
5938.854728280696
 20
5261.996537084259
 30
0.0
 11
5938.854728280696
 21
5159.4765418561
 31
0.0
  0
LINE
  5
4102
330
18
100
AcDbEntity
  8
OBJECT
100
AcDbLine
 10
6073.866094377282
 20
5223.974550259598
 30
0.0
 11
6073.866094377282
 21
5159.4765418561
 31
0.0
  0
LINE
  5
4103
330
18
100
AcDbEntity
  8
OBJECT
100
AcDbLine
 10
6071.652795689282
 20
5227.737158029198
 30
0.0
 11
6071.652795689282
 21
5159.4765418561
 31
0.0
  0
LINE
  5
4104
330
18
100
AcDbEntity
  8
OBJECT
100
AcDbLine
 10
5990.867302246916
 20
5267.588522119879
 30
0.0
 11
5990.867302246916
 21
5365.072496881224
 31
0.0
  0
LINE
  5
4105
330
18
100
AcDbEntity
  8
OBJECT
100
AcDbLine
 10
5988.654003558917
 20
5267.588522119879
 30
0.0
 11
5988.654003558917
 21
5370.108517348041
 31
0.0
  0
LINE
  5
4106
330
18
100
AcDbEntity
  8
OBJECT
100
AcDbLine
 10
5922.254969854622
 20
5267.588524043348
 30
0.0
 11
5922.254969854622
 21
5370.10851927151
 31
0.0
  0
LINE
  5
4107
330
18
100
AcDbEntity
  8
OBJECT
100
AcDbLine
 10
5924.468268542621
 20
5267.588524043348
 30
0.0
 11
5924.468268542621
 21
5370.10851927151
 31
0.0
  0
LINE
  5
4108
330
18
100
AcDbEntity
  8
OBJECT
100
AcDbLine
 10
5955.454486706769
 20
5267.588514637692
 30
0.0
 11
5955.454486706769
 21
5370.108509865852
 31
0.0
  0
LINE
  5
4109
330
18
100
AcDbEntity
  8
OBJECT
100
AcDbLine
 10
5957.667785394768
 20
5267.588514637692
 30
0.0
 11
5957.667785394768
 21
5370.108509865852
 31
0.0
  0
LINE
  5
410A
330
18
100
AcDbEntity
  8
OBJECT
100
AcDbLine
 10
5972.054245132841
 20
5267.588514637692
 30
0.0
 11
5972.054245132841
 21
5370.108509865852
 31
0.0
  0
LINE
  5
410B
330
18
100
AcDbEntity
  8
OBJECT
100
AcDbLine
 10
5974.267543820843
 20
5267.588514637692
 30
0.0
 11
5974.267543820843
 21
5370.108509865852
 31
0.0
  0
LINE
  5
410C
330
18
100
AcDbEntity
  8
OBJECT
100
AcDbLine
 10
5941.068026968696
 20
5267.588507155501
 30
0.0
 11
5941.068026968696
 21
5370.108502383663
 31
0.0
  0
LINE
  5
410D
330
18
100
AcDbEntity
  8
OBJECT
100
AcDbLine
 10
5938.854728280696
 20
5267.588507155501
 30
0.0
 11
5938.854728280696
 21
5370.108502383663
 31
0.0
  0
LINE
  5
410E
330
18
100
AcDbEntity
  8
OBJECT
100
AcDbLine
 10
6024.066819099061
 20
5267.588516561161
 30
0.0
 11
6024.066819099061
 21
5308.633318232574
 31
0.0
  0
LINE
  5
410F
330
18
100
AcDbEntity
  8
OBJECT
100
AcDbLine
 10
6021.853520411062
 20
5267.588516561161
 30
0.0
 11
6021.853520411062
 21
5312.395926002172
 31
0.0
  0
LINE
  5
4110
330
18
100
AcDbEntity
  8
OBJECT
100
AcDbLine
 10
6005.253761984989
 20
5267.588509078972
 30
0.0
 11
6005.253761984989
 21
5340.615515326498
 31
0.0
  0
LINE
  5
4111
330
18
100
AcDbEntity
  8
OBJECT
100
AcDbLine
 10
6007.467060672989
 20
5267.588509078972
 30
0.0
 11
6007.467060672989
 21
5336.852907556898
 31
0.0
  0
LINE
  5
4112
330
18
100
AcDbEntity
  8
OBJECT
100
AcDbLine
 10
6040.666577525136
 20
5267.588516561161
 30
0.0
 11
6040.666577525136
 21
5280.413728908249
 31
0.0
  0
LINE
  5
4113
330
18
100
AcDbEntity
  8
OBJECT
100
AcDbLine
 10
6038.453278837135
 20
5267.588516561161
 30
0.0
 11
6038.453278837135
 21
5284.176336677848
 31
0.0
  0
LINE
  5
4114
330
18
100
AcDbEntity
  8
OBJECT
100
AcDbLine
 10
6104.852312541428
 20
5171.297979380549
 30
0.0
 11
6104.852312541428
 21
5159.476534373911
 31
0.0
  0
LINE
  5
4115
330
18
100
AcDbEntity
  8
OBJECT
100
AcDbLine
 10
6107.06561122943
 20
5167.535371610949
 30
0.0
 11
6107.06561122943
 21
5159.476534373911
 31
0.0
  0
LINE
  5
4116
330
18
100
AcDbEntity
  8
OBJECT
100
AcDbLine
 10
6088.252554115356
 20
5199.517568704873
 30
0.0
 11
6088.252554115356
 21
5159.476534373911
 31
0.0
  0
LINE
  5
4117
330
18
100
AcDbEntity
  8
OBJECT
100
AcDbLine
 10
6090.465852803355
 20
5195.754960935275
 30
0.0
 11
6090.465852803355
 21
5159.476534373911
 31
0.0
  0
SOLID
  5
4118
330
18
100
AcDbEntity
  8
0
  6
ByBlock
 62
     0
 48
10.0
100
AcDbTrace
 10
6192.524352362775
 20
5435.913412829459
 30
0.0
 11
6189.523572644439
 21
5423.778944522936
 31
0.0
 12
6154.620557584034
 22
5438.8485178312
 32
0.0
 13
6154.620557584034
 23
5438.8485178312
 33
0.0
  0
LINE
  5
4119
102
{ACAD_REACTORS
330
4040
102
}
330
18
100
AcDbEntity
  8
OBJECT
100
AcDbLine
 10
6318.057881955003
 20
5488.8485178312
 30
0.0
 11
6318.057881955003
 21
5148.8485178312
 31
0.0
  0
LINE
  5
411A
102
{ACAD_REACTORS
330
4040
102
}
330
18
100
AcDbEntity
  8
OBJECT
100
AcDbLine
 10
6324.057881955003
 20
5142.8485178312
 30
0.0
 11
6324.057881955003
 21
5494.8485178312
 31
0.0
  0
LINE
  5
411B
330
18
100
AcDbEntity
  8
点線
100
AcDbLine
 10
6318.057881955003
 20
5198.8485178312
 30
0.0
 11
6438.057881955003
 21
5198.8485178312
 31
0.0
  0
LINE
  5
411C
330
18
100
AcDbEntity
  8
点線
100
AcDbLine
 10
6318.057881955003
 20
5438.8485178312
 30
0.0
 11
6438.057881955003
 21
5438.8485178312
 31
0.0
  0
MTEXT
  5
411D
330
18
100
AcDbEntity
  8
0
  6
ByBlock
 62
     0
 48
10.0
100
AcDbMText
 10
6018.057881955003
 20
5768.848517831201
 30
0.0
 40
37.5
 41
0.0
 71
     5
 72
     1
  1
600
 73
     1
 44
1.0
  0
MTEXT
  5
411E
330
18
100
AcDbEntity
  8
0
  6
ByBlock
 62
     0
 48
10.0
100
AcDbMText
 10
6018.057881955003
 20
5918.8485178312
 30
0.0
 40
37.5
 41
0.0
 71
     5
 72
     1
  1
840
 73
     1
 44
1.0
  0
SOLID
  5
411F
330
18
100
AcDbEntity
  8
0
  6
ByBlock
 62
     0
 48
10.0
100
AcDbTrace
 10
6400.557881954982
 20
5882.598517831201
 30
0.0
 11
6400.557881954982
 21
5895.098517831202
 31
0.0
 12
6438.057881954982
 22
5888.848517831203
 32
0.0
 13
6438.057881954982
 23
5888.848517831203
 33
0.0
  0
SOLID
  5
4120
330
18
100
AcDbEntity
  8
0
  6
ByBlock
 62
     0
 48
10.0
100
AcDbTrace
 10
6400.557870095849
 20
5732.598507091252
 30
0.0
 11
6400.557870095849
 21
5745.098507091253
 31
0.0
 12
6438.05787009585
 22
5738.848507091253
 32
0.0
 13
6438.05787009585
 23
5738.848507091253
 33
0.0
  0
SOLID
  5
4121
330
18
100
AcDbEntity
  8
0
  6
ByBlock
 62
     0
 48
10.0
100
AcDbTrace
 10
6355.557881955006
 20
5732.598517831197
 30
0.0
 11
6355.557881955006
 21
5745.098517831197
 31
0.0
 12
6318.057881955006
 22
5738.8485178312
 32
0.0
 13
6318.057881955006
 23
5738.8485178312
 33
0.0
  0
MTEXT
  5
4122
330
18
100
AcDbEntity
  8
0
  6
ByBlock
 62
     0
 48
10.0
100
AcDbMText
 10
6378.057881955004
 20
5768.84850906778
 30
0.0
 40
37.5
 41
0.0
 71
     5
 72
     1
  1
120
 73
     1
 44
1.0
  0
SOLID
  5
4123
330
18
100
AcDbEntity
  8
0
  6
ByBlock
 62
     0
 48
10.0
100
AcDbTrace
 10
6280.557946394699
 20
5732.598517831197
 30
0.0
 11
6280.557946394699
 21
5745.098517831197
 31
0.0
 12
6318.057946394699
 22
5738.8485178312
 32
0.0
 13
6318.057946394699
 23
5738.8485178312
 33
0.0
  0
MTEXT
  5
4124
330
18
100
AcDbEntity
  8
0
  6
ByBlock
 62
     0
 48
10.0
100
AcDbMText
 10
6978.057907777518
 20
5138.848517831203
 30
0.0
 40
37.5
 41
0.0
 71
     5
 72
     1
  1
480
 73
     1
 44
1.0
  0
LINE
  5
4125
330
18
100
AcDbEntity
  8
OBJECT
 48
10.0
100
AcDbLine
 10
6738.057907777475
 20
5108.848517831205
 30
0.0
 11
7218.057907777498
 21
5108.848517831205
 31
0.0
  0
SOLID
  5
4126
330
18
100
AcDbEntity
  8
0
  6
ByBlock
 62
     0
 48
10.0
100
AcDbTrace
 10
6775.557907777498
 20
5102.598517831204
 30
0.0
 11
6775.557907777498
 21
5115.098517831203
 31
0.0
 12
6738.057907777498
 22
5108.848517831205
 32
0.0
 13
6738.057907777498
 23
5108.848517831205
 33
0.0
  0
SOLID
  5
4127
330
18
100
AcDbEntity
  8
0
  6
ByBlock
 62
     0
 48
10.0
100
AcDbTrace
 10
7180.557907777497
 20
5102.598517831204
 30
0.0
 11
7180.557907777497
 21
5115.098517831203
 31
0.0
 12
7218.057907777498
 22
5108.848517831205
 32
0.0
 13
7218.057907777498
 23
5108.848517831205
 33
0.0
  0
LINE
  5
4128
330
18
100
AcDbEntity
  8
WUWAGAKI
100
AcDbLine
 10
7782.903399090187
 20
3926.744083168121
 30
0.0
 11
8875.699974190611
 21
3926.744083168121
 31
0.0
  0
VIEWPORT
  5
298
330
15
100
AcDbEntity
 67
     1
  8
0
100
AcDbViewport
 10
291.7632241813602
 20
148.5
 30
0.0
 40
583.5264483627204
 41
297.0
 68
     1
 69
     1
 12
291.7632241813602
 22
148.5
 13
0.0
 23
0.0
 14
10.0
 24
10.0
 15
10.0
 25
10.0
 16
0.0
 26
0.0
 36
1.0
 17
0.0
 27
0.0
 37
0.0
 42
50.0
 43
0.0
 44
0.0
 45
297.0
 50
0.0
 51
0.0
 72
   100
 90
    32800
  1

281
     0
 71
     1
 74
     0
110
0.0
120
0.0
130
0.0
111
1.0
121
0.0
131
0.0
112
0.0
122
1.0
132
0.0
 79
     0
146
0.0
  0
ENDSEC
  0
SECTION
  2
OBJECTS
  0
DICTIONARY
  5
C
330
0
100
AcDbDictionary
281
     1
  3
ACAD_GROUP
350
D
  3
ACAD_LAYOUT
350
15FE
  3
ACAD_MLINESTYLE
350
1B
  3
ACAD_PLOTSETTINGS
350
15FF
  3
ACAD_PLOTSTYLENAME
350
15FC
  3
ACDBVARIABLEDICTIONARY
350
B2A
  3
DRAWINGVARIABLESDICT
350
1212
  0
DICTIONARY
  5
D
102
{ACAD_REACTORS
330
C
102
}
330
C
100
AcDbDictionary
281
     1
  3
*A1
350
1DE1
  3
*A2
350
2483
  3
*A3
350
2486
  3
*A4
350
2971
  3
*A5
350
3003
  3
*A6
350
34F4
  0
DICTIONARY
  5
15FE
102
{ACAD_REACTORS
330
C
102
}
330
C
100
AcDbDictionary
281
     1
  3
Model
350
1600
  3
ﾚｲｱｳﾄ1
350
1601
  0
DICTIONARY
  5
1B
102
{ACAD_REACTORS
330
C
102
}
330
C
100
AcDbDictionary
281
     1
  3
STANDARD
350
1C
  0
DICTIONARY
  5
15FF
102
{ACAD_REACTORS
330
C
102
}
330
C
100
AcDbDictionary
281
     1
  0
ACDBDICTIONARYWDFLT
  5
15FC
102
{ACAD_REACTORS
330
C
102
}
330
C
100
AcDbDictionary
281
     1
  3
Normal
350
15FD
100
AcDbDictionaryWithDefault
340
15FD
  0
DICTIONARY
  5
B2A
102
{ACAD_REACTORS
330
C
102
}
330
C
100
AcDbDictionary
281
     1
  3
SORTENTS
350
B2B
  0
DICTIONARY
  5
1212
102
{ACAD_REACTORS
330
C
102
}
330
C
100
AcDbDictionary
281
     1
1001
DRAWINGVARIABLESXDATA
1000
POLARANG
1000
0.785398
1000
POLARMODE
1000
0
  0
GROUP
  5
1DE1
102
{ACAD_REACTORS
330
D
102
}
330
D
100
AcDbGroup
300

 70
     1
 71
     1
  0
GROUP
  5
2483
102
{ACAD_REACTORS
330
D
102
}
330
D
100
AcDbGroup
300

 70
     1
 71
     1
  0
GROUP
  5
2486
102
{ACAD_REACTORS
330
D
102
}
330
D
100
AcDbGroup
300

 70
     1
 71
     1
  0
GROUP
  5
2971
102
{ACAD_REACTORS
330
D
102
}
330
D
100
AcDbGroup
300

 70
     1
 71
     1
  0
GROUP
  5
3003
102
{ACAD_REACTORS
330
D
102
}
330
D
100
AcDbGroup
300

 70
     1
 71
     1
  0
GROUP
  5
34F4
102
{ACAD_REACTORS
330
D
102
}
330
D
100
AcDbGroup
300

 70
     1
 71
     1
  0
LAYOUT
  5
1600
102
{ACAD_REACTORS
330
15FE
102
}
330
15FE
100
AcDbPlotSettings
  1

  2
Canon LBP3800 LIPSLX
  4
A4
  6

 40
5.873749732971191
 41
5.873747825622558
 42
5.873748779296875
 43
5.873748779296875
 44
209.9733276367187
 45
296.9259948730469
 46
0.0
 47
0.0
 48
0.0
 49
0.0
140
0.0
141
0.0
142
1.0
143
1.0
 70
 11952
 72
     1
 73
     1
 74
     0
  7

 75
     0
147
1.0
148
-1119.838883806218
149
-2764.341960111367
100
AcDbLayout
  1
Model
 70
     1
 71
     0
 10
0.0
 20
0.0
 11
12.0
 21
9.0
 12
0.0
 22
0.0
 32
0.0
 14
0.0
 24
0.0
 34
0.0
 15
0.0
 25
0.0
 35
0.0
146
0.0
 13
0.0
 23
0.0
 33
0.0
 16
1.0
 26
0.0
 36
0.0
 17
0.0
 27
1.0
 37
0.0
 76
     0
330
18
  0
LAYOUT
  5
1601
102
{ACAD_REACTORS
330
15FE
102
}
330
15FE
100
AcDbPlotSettings
  1

  2
Canon LBP3800 LIPSLX
  4

  6

 40
0.0
 41
0.0
 42
0.0
 43
0.0
 44
0.0
 45
0.0
 46
0.0
 47
0.0
 48
0.0
 49
0.0
140
0.0
141
0.0
142
1.0
143
1.0
 70
   688
 72
     0
 73
     0
 74
     5
  7

 75
    16
147
1.0
148
0.0
149
0.0
100
AcDbLayout
  1
ﾚｲｱｳﾄ1
 70
     1
 71
     1
 10
0.0
 20
0.0
 11
420.0
 21
297.0
 12
0.0
 22
0.0
 32
0.0
 14
1.000000000000000E+20
 24
1.000000000000000E+20
 34
1.000000000000000E+20
 15
-1.000000000000000E+20
 25
-1.000000000000000E+20
 35
-1.000000000000000E+20
146
0.0
 13
0.0
 23
0.0
 33
0.0
 16
1.0
 26
0.0
 36
0.0
 17
0.0
 27
1.0
 37
0.0
 76
     0
330
15
331
298
  0
MLINESTYLE
  5
1C
102
{ACAD_REACTORS
330
1B
102
}
330
1B
100
AcDbMlineStyle
  2
STANDARD
 70
     0
  3

 62
   256
 51
90.0
 52
90.0
 71
     2
 49
0.5
 62
   256
  6
BYLAYER
 49
-0.5
 62
   256
  6
BYLAYER
  0
ACDBPLACEHOLDER
  5
15FD
102
{ACAD_REACTORS
330
15FC
102
}
330
15FC
  0
DICTIONARYVAR
  5
B2B
102
{ACAD_REACTORS
330
B2A
102
}
330
B2A
100
DictionaryVariables
280
     0
  1
96
  0
ENDSEC
  0
EOF
