  0
SECTION
  2
HEADER
  9
$ACADVER
  1
AC1015
  9
$ACADMAINTVER
 70
     6
  9
$DWGCODEPAGE
  3
ANSI_932
  9
$INSBASE
 10
0.0
 20
0.0
 30
0.0
  9
$EXTMIN
 10
710.0813698183028
 20
984.8549298695507
 30
0.0
  9
$EXTMAX
 10
8978.027313540119
 20
6958.593503512732
 30
0.0
  9
$LIMMIN
 10
0.0
 20
0.0
  9
$LIMMAX
 10
4455.0
 20
3150.0
  9
$ORTHOMODE
 70
     0
  9
$REGENMODE
 70
     1
  9
$FILLMODE
 70
     1
  9
$QTEXTMODE
 70
     0
  9
$MIRRTEXT
 70
     1
  9
$LTSCALE
 40
5.0
  9
$ATTMODE
 70
     1
  9
$TEXTSIZE
 40
2.5
  9
$TRACEWID
 40
1.0
  9
$TEXTSTYLE
  7
STANDARD
  9
$CLAYER
  8
OBJECT
  9
$CELTYPE
  6
BYLAYER
  9
$CECOLOR
 62
   256
  9
$CELTSCALE
 40
1.0
  9
$DISPSILH
 70
     0
  9
$DIMSCALE
 40
15.0
  9
$DIMASZ
 40
2.5
  9
$DIMEXO
 40
0.625
  9
$DIMDLI
 40
3.75
  9
$DIMRND
 40
0.0
  9
$DIMDLE
 40
0.0
  9
$DIMEXE
 40
1.25
  9
$DIMTP
 40
0.0
  9
$DIMTM
 40
0.0
  9
$DIMTXT
 40
2.5
  9
$DIMCEN
 40
2.5
  9
$DIMTSZ
 40
0.0
  9
$DIMTOL
 70
     0
  9
$DIMLIM
 70
     0
  9
$DIMTIH
 70
     0
  9
$DIMTOH
 70
     0
  9
$DIMSE1
 70
     0
  9
$DIMSE2
 70
     0
  9
$DIMTAD
 70
     1
  9
$DIMZIN
 70
     8
  9
$DIMBLK
  1

  9
$DIMASO
 70
     1
  9
$DIMSHO
 70
     1
  9
$DIMPOST
  1

  9
$DIMAPOST
  1

  9
$DIMALT
 70
     0
  9
$DIMALTD
 70
     4
  9
$DIMALTF
 40
0.0394
  9
$DIMLFAC
 40
1.0
  9
$DIMTOFL
 70
     1
  9
$DIMTVP
 40
0.0
  9
$DIMTIX
 70
     0
  9
$DIMSOXD
 70
     0
  9
$DIMSAH
 70
     0
  9
$DIMBLK1
  1

  9
$DIMBLK2
  1

  9
$DIMSTYLE
  2
STANDARD
  9
$DIMCLRD
 70
     0
  9
$DIMCLRE
 70
     0
  9
$DIMCLRT
 70
     0
  9
$DIMTFAC
 40
1.0
  9
$DIMGAP
 40
0.625
  9
$DIMJUST
 70
     0
  9
$DIMSD1
 70
     0
  9
$DIMSD2
 70
     0
  9
$DIMTOLJ
 70
     1
  9
$DIMTZIN
 70
     0
  9
$DIMALTZ
 70
     0
  9
$DIMALTTZ
 70
     0
  9
$DIMUPT
 70
     0
  9
$DIMDEC
 70
     4
  9
$DIMTDEC
 70
     4
  9
$DIMALTU
 70
     8
  9
$DIMALTTD
 70
     4
  9
$DIMTXSTY
  7
STANDARD
  9
$DIMAUNIT
 70
     0
  9
$DIMADEC
 70
     0
  9
$DIMALTRND
 40
0.0
  9
$DIMAZIN
 70
     0
  9
$DIMDSEP
 70
    46
  9
$DIMATFIT
 70
     3
  9
$DIMFRAC
 70
     0
  9
$DIMLDRBLK
  1

  9
$DIMLUNIT
 70
     6
  9
$DIMLWD
 70
    -2
  9
$DIMLWE
 70
    -2
  9
$DIMTMOVE
 70
     0
  9
$LUNITS
 70
     2
  9
$LUPREC
 70
     4
  9
$SKETCHINC
 40
1.0
  9
$FILLETRAD
 40
10.0
  9
$AUNITS
 70
     0
  9
$AUPREC
 70
     0
  9
$MENU
  1
acad
  9
$ELEVATION
 40
0.0
  9
$PELEVATION
 40
0.0
  9
$THICKNESS
 40
0.0
  9
$LIMCHECK
 70
     0
  9
$CHAMFERA
 40
10.0
  9
$CHAMFERB
 40
10.0
  9
$CHAMFERC
 40
20.0
  9
$CHAMFERD
 40
0.0
  9
$SKPOLY
 70
     0
  9
$TDCREATE
 40
2452111.335768865
  9
$TDUCREATE
 40
2452110.960768866
  9
$TDUPDATE
 40
2454547.704973055
  9
$TDUUPDATE
 40
2454547.329973055
  9
$TDINDWG
 40
1.3014631829
  9
$TDUSRTIMER
 40
1.3014631829
  9
$USRTIMER
 70
     1
  9
$ANGBASE
 50
0.0
  9
$ANGDIR
 70
     0
  9
$PDMODE
 70
     0
  9
$PDSIZE
 40
0.0
  9
$PLINEWID
 40
0.0
  9
$SPLFRAME
 70
     0
  9
$SPLINETYPE
 70
     6
  9
$SPLINESEGS
 70
     8
  9
$HANDSEED
  5
42E5
  9
$SURFTAB1
 70
     6
  9
$SURFTAB2
 70
     6
  9
$SURFTYPE
 70
     6
  9
$SURFU
 70
     6
  9
$SURFV
 70
     6
  9
$UCSBASE
  2

  9
$UCSNAME
  2

  9
$UCSORG
 10
0.0
 20
0.0
 30
0.0
  9
$UCSXDIR
 10
1.0
 20
0.0
 30
0.0
  9
$UCSYDIR
 10
0.0
 20
1.0
 30
0.0
  9
$UCSORTHOREF
  2

  9
$UCSORTHOVIEW
 70
     0
  9
$UCSORGTOP
 10
0.0
 20
0.0
 30
0.0
  9
$UCSORGBOTTOM
 10
0.0
 20
0.0
 30
0.0
  9
$UCSORGLEFT
 10
0.0
 20
0.0
 30
0.0
  9
$UCSORGRIGHT
 10
0.0
 20
0.0
 30
0.0
  9
$UCSORGFRONT
 10
0.0
 20
0.0
 30
0.0
  9
$UCSORGBACK
 10
0.0
 20
0.0
 30
0.0
  9
$PUCSBASE
  2

  9
$PUCSNAME
  2

  9
$PUCSORG
 10
0.0
 20
0.0
 30
0.0
  9
$PUCSXDIR
 10
1.0
 20
0.0
 30
0.0
  9
$PUCSYDIR
 10
0.0
 20
1.0
 30
0.0
  9
$PUCSORTHOREF
  2

  9
$PUCSORTHOVIEW
 70
     0
  9
$PUCSORGTOP
 10
0.0
 20
0.0
 30
0.0
  9
$PUCSORGBOTTOM
 10
0.0
 20
0.0
 30
0.0
  9
$PUCSORGLEFT
 10
0.0
 20
0.0
 30
0.0
  9
$PUCSORGRIGHT
 10
0.0
 20
0.0
 30
0.0
  9
$PUCSORGFRONT
 10
0.0
 20
0.0
 30
0.0
  9
$PUCSORGBACK
 10
0.0
 20
0.0
 30
0.0
  9
$USERI1
 70
     0
  9
$USERI2
 70
     0
  9
$USERI3
 70
     0
  9
$USERI4
 70
     0
  9
$USERI5
 70
     0
  9
$USERR1
 40
0.0
  9
$USERR2
 40
0.0
  9
$USERR3
 40
0.0
  9
$USERR4
 40
0.0
  9
$USERR5
 40
0.0
  9
$WORLDVIEW
 70
     1
  9
$SHADEDGE
 70
     3
  9
$SHADEDIF
 70
    70
  9
$TILEMODE
 70
     1
  9
$MAXACTVP
 70
    48
  9
$PINSBASE
 10
0.0
 20
0.0
 30
0.0
  9
$PLIMCHECK
 70
     0
  9
$PEXTMIN
 10
1.000000000000000E+20
 20
1.000000000000000E+20
 30
1.000000000000000E+20
  9
$PEXTMAX
 10
-1.000000000000000E+20
 20
-1.000000000000000E+20
 30
-1.000000000000000E+20
  9
$PLIMMIN
 10
0.0
 20
0.0
  9
$PLIMMAX
 10
420.0
 20
297.0
  9
$UNITMODE
 70
     0
  9
$VISRETAIN
 70
     1
  9
$PLINEGEN
 70
     0
  9
$PSLTSCALE
 70
     1
  9
$TREEDEPTH
 70
  3020
  9
$CMLSTYLE
  2
STANDARD
  9
$CMLJUST
 70
     0
  9
$CMLSCALE
 40
20.0
  9
$PROXYGRAPHICS
 70
     1
  9
$MEASUREMENT
 70
     1
  9
$CELWEIGHT
370
    -1
  9
$ENDCAPS
280
     0
  9
$JOINSTYLE
280
     0
  9
$LWDISPLAY
290
     0
  9
$INSUNITS
 70
     0
  9
$HYPERLINKBASE
  1

  9
$STYLESHEET
  1

  9
$XEDIT
290
     1
  9
$CEPSNTYPE
380
     0
  9
$PSTYLEMODE
290
     1
  9
$FINGERPRINTGUID
  2
{C9668057-E409-4CFD-A4F9-6C0551275C13}
  9
$VERSIONGUID
  2
{2C43D43E-17F7-4CBD-A681-55C054801329}
  9
$EXTNAMES
290
     1
  9
$PSVPSCALE
 40
0.0
  9
$OLESTARTUP
290
     0
  0
ENDSEC
  0
SECTION
  2
CLASSES
  0
CLASS
  1
LWPOLYLINE
  2
AcDbPolyline
  3
AutoCAD 2000
 90
    32768
280
     0
281
     1
  0
CLASS
  1
DICTIONARYVAR
  2
AcDbDictionaryVar
  3
AutoCAD 2000
 90
        0
280
     0
281
     0
  0
CLASS
  1
HATCH
  2
AcDbHatch
  3
AutoCAD 2000
 90
    32768
280
     0
281
     1
  0
CLASS
  1
ACDBDICTIONARYWDFLT
  2
AcDbDictionaryWithDefault
  3
AutoCAD 2000
 90
        0
280
     0
281
     0
  0
CLASS
  1
ACDBPLACEHOLDER
  2
AcDbPlaceHolder
  3
AutoCAD 2000
 90
        0
280
     0
281
     0
  0
CLASS
  1
LAYOUT
  2
AcDbLayout
  3
AutoCAD 2000
 90
        0
280
     0
281
     0
  0
ENDSEC
  0
SECTION
  2
TABLES
  0
TABLE
  2
VPORT
  5
8
330
0
100
AcDbSymbolTable
 70
     2
  0
VPORT
  5
42E4
330
8
100
AcDbSymbolTableRecord
100
AcDbViewportTableRecord
  2
*Active
 70
     0
 10
0.0
 20
0.0
 11
1.0
 21
1.0
 12
7073.122088847028
 22
5553.883457198327
 13
0.0
 23
0.0
 14
10.0
 24
10.0
 15
10.0
 25
10.0
 16
0.0
 26
0.0
 36
1.0
 17
0.0
 27
0.0
 37
0.0
 40
3467.437199050592
 41
1.731203007518796
 42
50.0
 43
0.0
 44
0.0
 50
0.0
 51
0.0
 71
     0
 72
   100
 73
     1
 74
     1
 75
     0
 76
     0
 77
     0
 78
     0
281
     0
 65
     1
110
0.0
120
0.0
130
0.0
111
1.0
121
0.0
131
0.0
112
0.0
122
1.0
132
0.0
 79
     0
146
0.0
  0
ENDTAB
  0
TABLE
  2
LTYPE
  5
5
330
0
100
AcDbSymbolTable
 70
    46
  0
LTYPE
  5
12
330
5
100
AcDbSymbolTableRecord
100
AcDbLinetypeTableRecord
  2
BYBLOCK
 70
     0
  3

 72
    65
 73
     0
 40
0.0
  0
LTYPE
  5
13
330
5
100
AcDbSymbolTableRecord
100
AcDbLinetypeTableRecord
  2
BYLAYER
 70
     0
  3

 72
    65
 73
     0
 40
0.0
  0
LTYPE
  5
14
330
5
100
AcDbSymbolTableRecord
100
AcDbLinetypeTableRecord
  2
CONTINUOUS
 70
     0
  3
Solid line
 72
    65
 73
     0
 40
0.0
  0
LTYPE
  5
128
330
5
100
AcDbSymbolTableRecord
100
AcDbLinetypeTableRecord
  2
ACAD_ISO02W100
 70
     0
  3
ISO dash __ __ __ __ __ __ __ __ __ __ __ __ __
 72
    65
 73
     2
 40
15.0
 49
12.0
 74
     0
 49
-3.0
 74
     0
  0
LTYPE
  5
129
330
5
100
AcDbSymbolTableRecord
100
AcDbLinetypeTableRecord
  2
ACAD_ISO03W100
 70
     0
  3
ISO dash space __    __    __    __    __    __
 72
    65
 73
     2
 40
30.0
 49
12.0
 74
     0
 49
-18.0
 74
     0
  0
LTYPE
  5
12A
330
5
100
AcDbSymbolTableRecord
100
AcDbLinetypeTableRecord
  2
ACAD_ISO04W100
 70
     0
  3
ISO long-dash dot ____ . ____ . ____ . ____ . _
 72
    65
 73
     4
 40
30.5
 49
24.0
 74
     0
 49
-3.0
 74
     0
 49
0.5
 74
     0
 49
-3.0
 74
     0
  0
LTYPE
  5
12B
330
5
100
AcDbSymbolTableRecord
100
AcDbLinetypeTableRecord
  2
ACAD_ISO05W100
 70
     0
  3
ISO long-dash double-dot ____ .. ____ .. ____ .
 72
    65
 73
     8
 40
37.5
 49
24.0
 74
     0
 49
-3.0
 74
     0
 49
0.5
 74
     0
 49
-3.0
 74
     0
 49
0.5
 74
     0
 49
-3.0
 74
     0
 49
0.5
 74
     0
 49
-3.0
 74
     0
  0
LTYPE
  5
12C
330
5
100
AcDbSymbolTableRecord
100
AcDbLinetypeTableRecord
  2
ACAD_ISO06W100
 70
     0
  3
ISO long-dash triple-dot ____ ... ____ ... ____
 72
    65
 73
     8
 40
37.5
 49
24.0
 74
     0
 49
-3.0
 74
     0
 49
0.5
 74
     0
 49
-3.0
 74
     0
 49
0.5
 74
     0
 49
-3.0
 74
     0
 49
0.5
 74
     0
 49
-3.0
 74
     0
  0
LTYPE
  5
12D
330
5
100
AcDbSymbolTableRecord
100
AcDbLinetypeTableRecord
  2
ACAD_ISO07W100
 70
     0
  3
ISO dot . . . . . . . . . . . . . . . . . . . .
 72
    65
 73
     2
 40
3.5
 49
0.5
 74
     0
 49
-3.0
 74
     0
  0
LTYPE
  5
12E
330
5
100
AcDbSymbolTableRecord
100
AcDbLinetypeTableRecord
  2
ACAD_ISO08W100
 70
     0
  3
ISO long-dash short-dash ____ __ ____ __ ____ _
 72
    65
 73
     4
 40
36.0
 49
24.0
 74
     0
 49
-3.0
 74
     0
 49
6.0
 74
     0
 49
-3.0
 74
     0
  0
LTYPE
  5
12F
330
5
100
AcDbSymbolTableRecord
100
AcDbLinetypeTableRecord
  2
ACAD_ISO09W100
 70
     0
  3
ISO long-dash double-short-dash ____ __ __ ____
 72
    65
 73
     6
 40
45.0
 49
24.0
 74
     0
 49
-3.0
 74
     0
 49
6.0
 74
     0
 49
-3.0
 74
     0
 49
6.0
 74
     0
 49
-3.0
 74
     0
  0
LTYPE
  5
130
330
5
100
AcDbSymbolTableRecord
100
AcDbLinetypeTableRecord
  2
ACAD_ISO10W100
 70
     0
  3
ISO dash dot __ . __ . __ . __ . __ . __ . __ .
 72
    65
 73
     4
 40
18.5
 49
12.0
 74
     0
 49
-3.0
 74
     0
 49
0.5
 74
     0
 49
-3.0
 74
     0
  0
LTYPE
  5
131
330
5
100
AcDbSymbolTableRecord
100
AcDbLinetypeTableRecord
  2
ACAD_ISO11W100
 70
     0
  3
ISO double-dash dot __ __ . __ __ . __ __ . __ 
 72
    65
 73
     6
 40
33.5
 49
12.0
 74
     0
 49
-3.0
 74
     0
 49
12.0
 74
     0
 49
-3.0
 74
     0
 49
0.5
 74
     0
 49
-3.0
 74
     0
  0
LTYPE
  5
132
330
5
100
AcDbSymbolTableRecord
100
AcDbLinetypeTableRecord
  2
ACAD_ISO12W100
 70
     0
  3
ISO dash double-dot __ . . __ . . __ . . __ . .
 72
    65
 73
     6
 40
22.0
 49
12.0
 74
     0
 49
-3.0
 74
     0
 49
0.5
 74
     0
 49
-3.0
 74
     0
 49
0.5
 74
     0
 49
-3.0
 74
     0
  0
LTYPE
  5
133
330
5
100
AcDbSymbolTableRecord
100
AcDbLinetypeTableRecord
  2
ACAD_ISO13W100
 70
     0
  3
ISO double-dash double-dot __ __ . . __ __ . . 
 72
    65
 73
     8
 40
37.0
 49
12.0
 74
     0
 49
-3.0
 74
     0
 49
12.0
 74
     0
 49
-3.0
 74
     0
 49
0.5
 74
     0
 49
-3.0
 74
     0
 49
0.5
 74
     0
 49
-3.0
 74
     0
  0
LTYPE
  5
134
330
5
100
AcDbSymbolTableRecord
100
AcDbLinetypeTableRecord
  2
ACAD_ISO14W100
 70
     0
  3
ISO dash triple-dot __ . . . __ . . . __ . . . 
 72
    65
 73
     8
 40
25.5
 49
12.0
 74
     0
 49
-3.0
 74
     0
 49
0.5
 74
     0
 49
-3.0
 74
     0
 49
0.5
 74
     0
 49
-3.0
 74
     0
 49
0.5
 74
     0
 49
-3.0
 74
     0
  0
LTYPE
  5
135
330
5
100
AcDbSymbolTableRecord
100
AcDbLinetypeTableRecord
  2
ACAD_ISO15W100
 70
     0
  3
ISO double-dash triple-dot __ __ . . . __ __ . 
 72
    65
 73
    10
 40
40.49999999999999
 49
12.0
 74
     0
 49
-3.0
 74
     0
 49
12.0
 74
     0
 49
-3.0
 74
     0
 49
0.5
 74
     0
 49
-3.0
 74
     0
 49
0.5
 74
     0
 49
-3.0
 74
     0
 49
0.5
 74
     0
 49
-3.0
 74
     0
  0
LTYPE
  5
136
330
5
100
AcDbSymbolTableRecord
100
AcDbLinetypeTableRecord
  2
BATTING
 70
     0
  3
Batting SSSSSSSSSSSSSSSSSSSSSSSSSSSSSSSSSSSSSSS
 72
    65
 73
     4
 40
10.16253999999999
 49
0.00254
 74
     0
 49
-2.54
 74
     4
 75
   134
340
127
 46
2.54
 50
0.0
 44
-2.54
 45
0.0
 49
-5.08
 74
     4
 75
   134
340
127
 46
2.54
 50
180.0
 44
2.54
 45
0.0
 49
-2.54
 74
     0
  0
LTYPE
  5
137
330
5
100
AcDbSymbolTableRecord
100
AcDbLinetypeTableRecord
  2
BORDER
 70
     0
  3
Border __ __ . __ __ . __ __ . __ __ . __ __ .
 72
    65
 73
     6
 40
44.45
 49
12.7
 74
     0
 49
-6.349999999999999
 74
     0
 49
12.7
 74
     0
 49
-6.349999999999999
 74
     0
 49
0.0
 74
     0
 49
-6.349999999999999
 74
     0
  0
LTYPE
  5
138
330
5
100
AcDbSymbolTableRecord
100
AcDbLinetypeTableRecord
  2
BORDER2
 70
     0
  3
Border (.5x) __.__.__.__.__.__.__.__.__.__.__.
 72
    65
 73
     6
 40
22.225
 49
6.349999999999999
 74
     0
 49
-3.174999999999999
 74
     0
 49
6.349999999999999
 74
     0
 49
-3.174999999999999
 74
     0
 49
0.0
 74
     0
 49
-3.174999999999999
 74
     0
  0
LTYPE
  5
139
330
5
100
AcDbSymbolTableRecord
100
AcDbLinetypeTableRecord
  2
BORDERX2
 70
     0
  3
Border (2x) ____  ____  .  ____  ____  .  ___
 72
    65
 73
     6
 40
88.9
 49
25.4
 74
     0
 49
-12.7
 74
     0
 49
25.4
 74
     0
 49
-12.7
 74
     0
 49
0.0
 74
     0
 49
-12.7
 74
     0
  0
LTYPE
  5
13A
330
5
100
AcDbSymbolTableRecord
100
AcDbLinetypeTableRecord
  2
CENTER
 70
     0
  3
Center ____ _ ____ _ ____ _ ____ _ ____ _ ____
 72
    65
 73
     4
 40
50.8
 49
31.75
 74
     0
 49
-6.349999999999999
 74
     0
 49
6.349999999999999
 74
     0
 49
-6.349999999999999
 74
     0
  0
LTYPE
  5
13B
330
5
100
AcDbSymbolTableRecord
100
AcDbLinetypeTableRecord
  2
CENTER2
 70
     0
  3
Center (.5x) ___ _ ___ _ ___ _ ___ _ ___ _ ___
 72
    65
 73
     4
 40
28.57499999999999
 49
19.05
 74
     0
 49
-3.174999999999999
 74
     0
 49
3.174999999999999
 74
     0
 49
-3.174999999999999
 74
     0
  0
LTYPE
  5
13C
330
5
100
AcDbSymbolTableRecord
100
AcDbLinetypeTableRecord
  2
CENTERX2
 70
     0
  3
Center (2x) ________  __  ________  __  _____
 72
    65
 73
     4
 40
101.6
 49
63.5
 74
     0
 49
-12.7
 74
     0
 49
12.7
 74
     0
 49
-12.7
 74
     0
  0
LTYPE
  5
13D
330
5
100
AcDbSymbolTableRecord
100
AcDbLinetypeTableRecord
  2
DASHDOT
 70
     0
  3
Dash dot __ . __ . __ . __ . __ . __ . __ . __
 72
    65
 73
     4
 40
25.4
 49
12.7
 74
     0
 49
-6.349999999999999
 74
     0
 49
0.0
 74
     0
 49
-6.349999999999999
 74
     0
  0
LTYPE
  5
13E
330
5
100
AcDbSymbolTableRecord
100
AcDbLinetypeTableRecord
  2
DASHDOT2
 70
     0
  3
Dash dot (.5x) _._._._._._._._._._._._._._._.
 72
    65
 73
     4
 40
12.7
 49
6.349999999999999
 74
     0
 49
-3.174999999999999
 74
     0
 49
0.0
 74
     0
 49
-3.174999999999999
 74
     0
  0
LTYPE
  5
13F
330
5
100
AcDbSymbolTableRecord
100
AcDbLinetypeTableRecord
  2
DASHDOTX2
 70
     0
  3
Dash dot (2x) ____  .  ____  .  ____  .  ___
 72
    65
 73
     4
 40
50.8
 49
25.4
 74
     0
 49
-12.7
 74
     0
 49
0.0
 74
     0
 49
-12.7
 74
     0
  0
LTYPE
  5
140
330
5
100
AcDbSymbolTableRecord
100
AcDbLinetypeTableRecord
  2
DASHED
 70
     0
  3
Dashed __ __ __ __ __ __ __ __ __ __ __ __ __ _
 72
    65
 73
     2
 40
19.04999999999999
 49
12.7
 74
     0
 49
-6.349999999999999
 74
     0
  0
LTYPE
  5
141
330
5
100
AcDbSymbolTableRecord
100
AcDbLinetypeTableRecord
  2
DASHED2
 70
     0
  3
Dashed (.5x) _ _ _ _ _ _ _ _ _ _ _ _ _ _ _ _ _
 72
    65
 73
     2
 40
9.524999999999998
 49
6.349999999999999
 74
     0
 49
-3.174999999999999
 74
     0
  0
LTYPE
  5
142
330
5
100
AcDbSymbolTableRecord
100
AcDbLinetypeTableRecord
  2
DASHEDX2
 70
     0
  3
Dashed (2x) ____  ____  ____  ____  ____  ___
 72
    65
 73
     2
 40
38.09999999999999
 49
25.4
 74
     0
 49
-12.7
 74
     0
  0
LTYPE
  5
143
330
5
100
AcDbSymbolTableRecord
100
AcDbLinetypeTableRecord
  2
DIVIDE
 70
     0
  3
Divide ____ . . ____ . . ____ . . ____ . . ____
 72
    65
 73
     6
 40
31.74999999999999
 49
12.7
 74
     0
 49
-6.349999999999999
 74
     0
 49
0.0
 74
     0
 49
-6.349999999999999
 74
     0
 49
0.0
 74
     0
 49
-6.349999999999999
 74
     0
  0
LTYPE
  5
144
330
5
100
AcDbSymbolTableRecord
100
AcDbLinetypeTableRecord
  2
DIVIDE2
 70
     0
  3
Divide (.5x) __..__..__..__..__..__..__..__.._
 72
    65
 73
     6
 40
15.87499999999999
 49
6.349999999999999
 74
     0
 49
-3.174999999999999
 74
     0
 49
0.0
 74
     0
 49
-3.174999999999999
 74
     0
 49
0.0
 74
     0
 49
-3.174999999999999
 74
     0
  0
LTYPE
  5
145
330
5
100
AcDbSymbolTableRecord
100
AcDbLinetypeTableRecord
  2
DIVIDEX2
 70
     0
  3
Divide (2x) ________  .  .  ________  .  .  _
 72
    65
 73
     6
 40
63.49999999999999
 49
25.4
 74
     0
 49
-12.7
 74
     0
 49
0.0
 74
     0
 49
-12.7
 74
     0
 49
0.0
 74
     0
 49
-12.7
 74
     0
  0
LTYPE
  5
146
330
5
100
AcDbSymbolTableRecord
100
AcDbLinetypeTableRecord
  2
DOT
 70
     0
  3
Dot . . . . . . . . . . . . . . . . . . . . . .
 72
    65
 73
     2
 40
6.349999999999999
 49
0.0
 74
     0
 49
-6.349999999999999
 74
     0
  0
LTYPE
  5
147
330
5
100
AcDbSymbolTableRecord
100
AcDbLinetypeTableRecord
  2
DOT2
 70
     0
  3
Dot (.5x) .....................................
 72
    65
 73
     2
 40
3.174999999999999
 49
0.0
 74
     0
 49
-3.174999999999999
 74
     0
  0
LTYPE
  5
148
330
5
100
AcDbSymbolTableRecord
100
AcDbLinetypeTableRecord
  2
DOTX2
 70
     0
  3
Dot (2x) .  .  .  .  .  .  .  .  .  .  .  .  . 
 72
    65
 73
     2
 40
12.7
 49
0.0
 74
     0
 49
-12.7
 74
     0
  0
LTYPE
  5
149
330
5
100
AcDbSymbolTableRecord
100
AcDbLinetypeTableRecord
  2
FENCELINE1
 70
     0
  3
Fenceline circle ----0-----0----0-----0----0---
 72
    65
 73
     4
 40
36.82999999999999
 49
6.349999999999999
 74
     0
 49
-2.54
 74
     4
 75
   133
340
127
 46
2.54
 50
0.0
 44
-2.54
 45
0.0
 49
-2.54
 74
     0
 49
25.4
 74
     0
  0
LTYPE
  5
14A
330
5
100
AcDbSymbolTableRecord
100
AcDbLinetypeTableRecord
  2
FENCELINE2
 70
     0
  3
Fenceline square ----[]-----[]----[]-----[]----
 72
    65
 73
     4
 40
36.82999999999999
 49
6.349999999999999
 74
     0
 49
-2.54
 74
     4
 75
   132
340
127
 46
2.54
 50
0.0
 44
-2.54
 45
0.0
 49
-2.54
 74
     0
 49
25.4
 74
     0
  0
LTYPE
  5
14B
330
5
100
AcDbSymbolTableRecord
100
AcDbLinetypeTableRecord
  2
GAS_LINE
 70
     0
  3
Gas line ----GAS----GAS----GAS----GAS----GAS---
 72
    65
 73
     3
 40
24.13
 49
12.7
 74
     0
 49
-5.08
 74
     2
 75
     0
340
F
 46
2.54
 50
0.0
 44
-2.54
 45
-1.27
  9
GAS
 49
-6.349999999999999
 74
     0
  0
LTYPE
  5
14C
330
5
100
AcDbSymbolTableRecord
100
AcDbLinetypeTableRecord
  2
HIDDEN
 70
     0
  3
Hidden __ __ __ __ __ __ __ __ __ __ __ __ __ _
 72
    65
 73
     2
 40
9.524999999999998
 49
6.349999999999999
 74
     0
 49
-3.174999999999999
 74
     0
  0
LTYPE
  5
14D
330
5
100
AcDbSymbolTableRecord
100
AcDbLinetypeTableRecord
  2
HIDDEN2
 70
     0
  3
Hidden (.5x) _ _ _ _ _ _ _ _ _ _ _ _ _ _ _ _ _
 72
    65
 73
     2
 40
4.762499999999999
 49
3.174999999999999
 74
     0
 49
-1.587499999999999
 74
     0
  0
LTYPE
  5
14E
330
5
100
AcDbSymbolTableRecord
100
AcDbLinetypeTableRecord
  2
HIDDENX2
 70
     0
  3
Hidden (2x) ____ ____ ____ ____ ____ ____ ____
 72
    65
 73
     2
 40
19.04999999999999
 49
12.7
 74
     0
 49
-6.349999999999999
 74
     0
  0
LTYPE
  5
14F
330
5
100
AcDbSymbolTableRecord
100
AcDbLinetypeTableRecord
  2
HOT_WATER_SUPPLY
 70
     0
  3
Hot water supply ---- HW ---- HW ---- HW ----
 72
    65
 73
     3
 40
22.86
 49
12.7
 74
     0
 49
-5.08
 74
     2
 75
     0
340
F
 46
2.54
 50
0.0
 44
-2.54
 45
-1.27
  9
HW
 49
-5.08
 74
     0
  0
LTYPE
  5
150
330
5
100
AcDbSymbolTableRecord
100
AcDbLinetypeTableRecord
  2
PHANTOM
 70
     0
  3
Phantom ______  __  __  ______  __  __  ______
 72
    65
 73
     6
 40
63.5
 49
31.75
 74
     0
 49
-6.349999999999999
 74
     0
 49
6.349999999999999
 74
     0
 49
-6.349999999999999
 74
     0
 49
6.349999999999999
 74
     0
 49
-6.349999999999999
 74
     0
  0
LTYPE
  5
151
330
5
100
AcDbSymbolTableRecord
100
AcDbLinetypeTableRecord
  2
PHANTOM2
 70
     0
  3
Phantom (.5x) ___ _ _ ___ _ _ ___ _ _ ___ _ _
 72
    65
 73
     6
 40
31.75
 49
15.875
 74
     0
 49
-3.174999999999999
 74
     0
 49
3.174999999999999
 74
     0
 49
-3.174999999999999
 74
     0
 49
3.174999999999999
 74
     0
 49
-3.174999999999999
 74
     0
  0
LTYPE
  5
152
330
5
100
AcDbSymbolTableRecord
100
AcDbLinetypeTableRecord
  2
PHANTOMX2
 70
     0
  3
Phantom (2x) ____________    ____    ____   _
 72
    65
 73
     6
 40
127.0
 49
63.5
 74
     0
 49
-12.7
 74
     0
 49
12.7
 74
     0
 49
-12.7
 74
     0
 49
12.7
 74
     0
 49
-12.7
 74
     0
  0
LTYPE
  5
153
330
5
100
AcDbSymbolTableRecord
100
AcDbLinetypeTableRecord
  2
TRACKS
 70
     0
  3
Tracks -|-|-|-|-|-|-|-|-|-|-|-|-|-|-|-|-|-|-|-|
 72
    65
 73
     2
 40
7.62
 49
3.81
 74
     4
 75
   130
340
127
 46
6.349999999999999
 50
0.0
 44
0.0
 45
0.0
 49
3.81
 74
     0
  0
LTYPE
  5
154
330
5
100
AcDbSymbolTableRecord
100
AcDbLinetypeTableRecord
  2
ZIGZAG
 70
     0
  3
Zig zag /\/\/\/\/\/\/\/\/\/\/\/\/\/\/\/\/\/\/\/
 72
    65
 73
     4
 40
20.32254
 49
0.00254
 74
     0
 49
-5.08
 74
     4
 75
   131
340
127
 46
5.08
 50
0.0
 44
-5.08
 45
0.0
 49
-10.16
 74
     4
 75
   131
340
127
 46
5.08
 50
180.0
 44
5.08
 45
0.0
 49
-5.08
 74
     0
  0
ENDTAB
  0
TABLE
  2
LAYER
  5
2
330
0
100
AcDbSymbolTable
 70
    10
  0
LAYER
  5
E
330
2
100
AcDbSymbolTableRecord
100
AcDbLayerTableRecord
  2
0
 70
     0
 62
     7
  6
CONTINUOUS
370
    -3
390
15FD
  0
LAYER
  5
20
330
2
100
AcDbSymbolTableRecord
100
AcDbLayerTableRecord
  2
DEFPOINTS
 70
     0
 62
     7
  6
CONTINUOUS
290
     0
370
    -3
390
15FD
  0
LAYER
  5
21
330
2
100
AcDbSymbolTableRecord
100
AcDbLayerTableRecord
  2
OBJECT
 70
     0
 62
     7
  6
CONTINUOUS
370
    -3
390
15FD
  0
LAYER
  5
155
330
2
100
AcDbSymbolTableRecord
100
AcDbLayerTableRecord
  2
上書線
 70
     0
 62
     7
  6
CONTINUOUS
370
    -3
390
15FD
  0
LAYER
  5
156
330
2
100
AcDbSymbolTableRecord
100
AcDbLayerTableRecord
  2
基準線
 70
     0
 62
    -1
  6
CONTINUOUS
370
    -3
390
15FD
  0
LAYER
  5
157
330
2
100
AcDbSymbolTableRecord
100
AcDbLayerTableRecord
  2
点線
 70
     0
 62
     5
  6
HIDDEN
370
    -3
390
15FD
  0
LAYER
  5
158
330
2
100
AcDbSymbolTableRecord
100
AcDbLayerTableRecord
  2
寸法線
 70
     0
 62
     2
  6
CONTINUOUS
370
    -3
390
15FD
  0
LAYER
  5
19D7
330
2
100
AcDbSymbolTableRecord
100
AcDbLayerTableRecord
  2
上線
 70
     0
 62
     7
  6
CONTINUOUS
370
    -3
390
15FD
  0
LAYER
  5
2EB9
330
2
100
AcDbSymbolTableRecord
100
AcDbLayerTableRecord
  2
中心線
 70
     0
 62
     6
  6
CENTER
370
    -3
390
15FD
  0
LAYER
  5
4161
330
2
100
AcDbSymbolTableRecord
100
AcDbLayerTableRecord
  2
WUWAGAKI
 70
     0
 62
     7
  6
CONTINUOUS
370
    -3
390
15FD
  0
ENDTAB
  0
TABLE
  2
STYLE
  5
3
330
0
100
AcDbSymbolTable
 70
     3
  0
STYLE
  5
F
330
3
100
AcDbSymbolTableRecord
100
AcDbTextStyleTableRecord
  2
STANDARD
 70
     0
 40
0.0
 41
1.0
 50
0.0
 71
     0
 42
2.5
  3
MS PMincho.ttf
  4

1001
ACAD
1000
MS PMincho
1071
    32786
  0
STYLE
  5
22
330
3
100
AcDbSymbolTableRecord
100
AcDbTextStyleTableRecord
  2
ADESK1
 70
     0
 40
0.0
 41
1.0
 50
0.0
 71
     0
 42
5.0
  3
romans
  4
bigfont
  0
STYLE
  5
127
330
3
100
AcDbSymbolTableRecord
100
AcDbTextStyleTableRecord
  2

 70
     1
 40
0.0
 41
1.0
 50
0.0
 71
     0
 42
2.5
  3
ltypeshp.shx
  4

  0
ENDTAB
  0
TABLE
  2
VIEW
  5
6
330
0
100
AcDbSymbolTable
 70
     0
  0
ENDTAB
  0
TABLE
  2
UCS
  5
7
330
0
100
AcDbSymbolTable
 70
     0
  0
ENDTAB
  0
TABLE
  2
APPID
  5
9
330
0
100
AcDbSymbolTable
 70
     2
  0
APPID
  5
10
330
9
100
AcDbSymbolTableRecord
100
AcDbRegAppTableRecord
  2
ACAD
 70
     0
  0
APPID
  5
1213
330
9
100
AcDbSymbolTableRecord
100
AcDbRegAppTableRecord
  2
DRAWINGVARIABLESXDATA
 70
     0
  0
ENDTAB
  0
TABLE
  2
DIMSTYLE
  5
A
330
0
100
AcDbSymbolTable
 70
     2
100
AcDbDimStyleTable
 71
     1
340
1D
  0
DIMSTYLE
105
1D
330
A
100
AcDbSymbolTableRecord
100
AcDbDimStyleTableRecord
  2
STANDARD
 70
     0
340
F
  0
DIMSTYLE
105
23
330
A
100
AcDbSymbolTableRecord
100
AcDbDimStyleTableRecord
  2
JIS
 70
     0
 41
2.5
 42
1.0
 43
7.0
 44
1.0
 73
     0
 74
     0
 77
     1
 78
     8
140
2.5
141
0.0
143
0.0394
147
0.0
172
     1
174
     1
175
     1
340
F
  0
ENDTAB
  0
TABLE
  2
BLOCK_RECORD
  5
1
330
0
100
AcDbSymbolTable
 70
     3
  0
BLOCK_RECORD
  5
18
330
1
100
AcDbSymbolTableRecord
100
AcDbBlockTableRecord
  2
*MODEL_SPACE
340
1600
  0
BLOCK_RECORD
  5
15
330
1
100
AcDbSymbolTableRecord
100
AcDbBlockTableRecord
  2
*PAPER_SPACE
340
1601
  0
BLOCK_RECORD
  5
24
330
1
100
AcDbSymbolTableRecord
100
AcDbBlockTableRecord
  2
JIS_A4L
340
0
  0
BLOCK_RECORD
  5
3437
330
1
100
AcDbSymbolTableRecord
100
AcDbBlockTableRecord
  2
*D1
340
0
  0
BLOCK_RECORD
  5
3445
330
1
100
AcDbSymbolTableRecord
100
AcDbBlockTableRecord
  2
A$C23BB6A77
340
0
  0
ENDTAB
  0
ENDSEC
  0
SECTION
  2
BLOCKS
  0
BLOCK
  5
19
330
18
100
AcDbEntity
  8
0
100
AcDbBlockBegin
  2
*MODEL_SPACE
 70
     2
 10
0.0
 20
0.0
 30
0.0
  3
*MODEL_SPACE
  1

  0
ENDBLK
  5
1A
330
18
100
AcDbEntity
  8
0
100
AcDbBlockEnd
  0
BLOCK
  5
16
330
15
100
AcDbEntity
 67
     1
  8
0
100
AcDbBlockBegin
  2
*PAPER_SPACE
 70
     0
 10
0.0
 20
0.0
 30
0.0
  3
*PAPER_SPACE
  1

  0
ENDBLK
  5
17
330
15
100
AcDbEntity
 67
     1
  8
0
100
AcDbBlockEnd
  0
BLOCK
  5
A1
330
24
100
AcDbEntity
  8
0
100
AcDbBlockBegin
  2
JIS_A4L
 70
     2
 10
0.0
 20
0.0
 30
0.0
  3
JIS_A4L
  1

  0
LINE
  5
25
330
24
100
AcDbEntity
  8
0
100
AcDbLine
 10
0.0
 20
0.0
 30
0.0
 11
0.0
 21
10.0
 31
0.0
  0
LINE
  5
26
330
24
100
AcDbEntity
  8
0
100
AcDbLine
 10
0.0
 20
210.0
 30
0.0
 11
25.0
 21
210.0
 31
0.0
  0
LINE
  5
27
330
24
100
AcDbEntity
  8
0
100
AcDbLine
 10
297.0
 20
210.0
 30
0.0
 11
297.0
 21
200.0
 31
0.0
  0
LINE
  5
28
330
24
100
AcDbEntity
  8
0
100
AcDbLine
 10
297.0
 20
0.0
 30
0.0
 11
287.0
 21
0.0
 31
0.0
  0
LINE
  5
29
330
24
100
AcDbEntity
  8
0
100
AcDbLine
 10
25.0
 20
10.0
 30
0.0
 11
25.0
 21
200.0
 31
0.0
  0
LINE
  5
2A
330
24
100
AcDbEntity
  8
0
100
AcDbLine
 10
287.0
 20
10.0
 30
0.0
 11
25.0
 21
10.0
 31
0.0
  0
LINE
  5
2B
330
24
100
AcDbEntity
  8
0
100
AcDbLine
 10
287.0
 20
200.0
 30
0.0
 11
287.0
 21
10.0
 31
0.0
  0
LINE
  5
2C
330
24
100
AcDbEntity
  8
0
100
AcDbLine
 10
25.0
 20
200.0
 30
0.0
 11
287.0
 21
200.0
 31
0.0
  0
LINE
  5
2D
330
24
100
AcDbEntity
  8
0
100
AcDbLine
 10
0.0
 20
200.0
 30
0.0
 11
0.0
 21
210.0
 31
0.0
  0
LINE
  5
2E
330
24
100
AcDbEntity
  8
0
100
AcDbLine
 10
25.0
 20
0.0
 30
0.0
 11
0.0
 21
0.0
 31
0.0
  0
LINE
  5
2F
330
24
100
AcDbEntity
  8
0
100
AcDbLine
 10
297.0
 20
10.0
 30
0.0
 11
297.0
 21
0.0
 31
0.0
  0
LINE
  5
30
330
24
100
AcDbEntity
  8
0
100
AcDbLine
 10
287.0
 20
210.0
 30
0.0
 11
297.0
 21
210.0
 31
0.0
  0
ATTDEF
  5
31
330
24
100
AcDbEntity
  8
0
 62
     0
100
AcDbText
 10
19.0
 20
10.0
 30
0.0
 40
3.0
  1

 50
90.0
  7
ADESK1
100
AcDbAttributeDefinition
  3

  2
USER
 70
     8
  0
ATTDEF
  5
32
330
24
100
AcDbEntity
  8
0
 62
     0
100
AcDbText
 10
19.0
 20
70.0
 30
0.0
 40
3.0
  1

 50
90.0
  7
ADESK1
100
AcDbAttributeDefinition
  3

  2
REVDATE
 70
     8
  0
ATTDEF
  5
33
330
24
100
AcDbEntity
  8
0
 62
     0
100
AcDbText
 10
19.0
 20
118.0
 30
0.0
 40
3.0
  1

 50
90.0
  7
ADESK1
100
AcDbAttributeDefinition
  3

  2
FNAME
 70
     8
  0
LINE
  5
34
330
24
100
AcDbEntity
  8
OBJECT
100
AcDbLine
 10
130.0
 20
16.0
 30
0.0
 11
25.0
 21
16.0
 31
0.0
  0
LINE
  5
35
330
24
100
AcDbEntity
  8
OBJECT
100
AcDbLine
 10
130.0
 20
22.0
 30
0.0
 11
25.0
 21
22.0
 31
0.0
  0
LINE
  5
36
330
24
100
AcDbEntity
  8
OBJECT
100
AcDbLine
 10
130.0
 20
28.0
 30
0.0
 11
25.0
 21
28.0
 31
0.0
  0
LINE
  5
37
330
24
100
AcDbEntity
  8
OBJECT
100
AcDbLine
 10
130.0
 20
34.0
 30
0.0
 11
25.0
 21
34.0
 31
0.0
  0
LINE
  5
38
330
24
100
AcDbEntity
  8
OBJECT
100
AcDbLine
 10
130.0
 20
40.0
 30
0.0
 11
25.0
 21
40.0
 31
0.0
  0
LINE
  5
39
330
24
100
AcDbEntity
  8
OBJECT
100
AcDbLine
 10
28.0
 20
11.53589799999999
 30
0.0
 11
30.0
 21
15.0
 31
0.0
  0
LINE
  5
3A
330
24
100
AcDbEntity
  8
OBJECT
100
AcDbLine
 10
32.0
 20
11.53589799999999
 30
0.0
 11
30.0
 21
15.0
 31
0.0
  0
LINE
  5
3B
330
24
100
AcDbEntity
  8
OBJECT
100
AcDbLine
 10
35.0
 20
10.0
 30
0.0
 11
35.0
 21
40.0
 31
0.0
  0
LINE
  5
3C
330
24
100
AcDbEntity
  8
OBJECT
100
AcDbLine
 10
50.0
 20
10.0
 30
0.0
 11
50.0
 21
40.0
 31
0.0
  0
LINE
  5
3D
330
24
100
AcDbEntity
  8
OBJECT
100
AcDbLine
 10
80.0
 20
10.0
 30
0.0
 11
80.0
 21
40.0
 31
0.0
  0
LINE
  5
3E
330
24
100
AcDbEntity
  8
OBJECT
100
AcDbLine
 10
28.0
 20
11.53589799999999
 30
0.0
 11
32.0
 21
11.53589799999999
 31
0.0
  0
LINE
  5
3F
330
24
100
AcDbEntity
  8
OBJECT
100
AcDbLine
 10
39.5
 20
13.0
 30
0.0
 11
40.49999999999999
 21
13.0
 31
0.0
  0
LINE
  5
40
330
24
100
AcDbEntity
  8
OBJECT
100
AcDbLine
 10
44.5
 20
13.0
 30
0.0
 11
45.49999999999999
 21
13.0
 31
0.0
  0
LINE
  5
41
330
24
100
AcDbEntity
  8
OBJECT
100
AcDbLine
 10
32.0
 20
17.535898
 30
0.0
 11
30.0
 21
20.99999999999999
 31
0.0
  0
LINE
  5
42
330
24
100
AcDbEntity
  8
OBJECT
100
AcDbLine
 10
28.0
 20
17.535898
 30
0.0
 11
32.0
 21
17.535898
 31
0.0
  0
LINE
  5
43
330
24
100
AcDbEntity
  8
OBJECT
100
AcDbLine
 10
28.0
 20
17.535898
 30
0.0
 11
30.0
 21
20.99999999999999
 31
0.0
  0
LINE
  5
44
330
24
100
AcDbEntity
  8
OBJECT
100
AcDbLine
 10
32.0
 20
23.53589799999999
 30
0.0
 11
30.0
 21
26.99999999999999
 31
0.0
  0
LINE
  5
45
330
24
100
AcDbEntity
  8
OBJECT
100
AcDbLine
 10
28.0
 20
23.53589799999999
 30
0.0
 11
32.0
 21
23.53589799999999
 31
0.0
  0
LINE
  5
46
330
24
100
AcDbEntity
  8
OBJECT
100
AcDbLine
 10
28.0
 20
23.53589799999999
 30
0.0
 11
30.0
 21
26.99999999999999
 31
0.0
  0
LINE
  5
47
330
24
100
AcDbEntity
  8
OBJECT
100
AcDbLine
 10
28.0
 20
35.53589799999999
 30
0.0
 11
30.0
 21
39.0
 31
0.0
  0
LINE
  5
48
330
24
100
AcDbEntity
  8
OBJECT
100
AcDbLine
 10
32.0
 20
35.53589799999999
 30
0.0
 11
30.0
 21
39.0
 31
0.0
  0
LINE
  5
49
330
24
100
AcDbEntity
  8
OBJECT
100
AcDbLine
 10
28.0
 20
35.53589799999999
 30
0.0
 11
32.0
 21
35.53589799999999
 31
0.0
  0
LINE
  5
4A
330
24
100
AcDbEntity
  8
OBJECT
100
AcDbLine
 10
32.0
 20
29.53589799999999
 30
0.0
 11
30.0
 21
33.0
 31
0.0
  0
LINE
  5
4B
330
24
100
AcDbEntity
  8
OBJECT
100
AcDbLine
 10
28.0
 20
29.53589799999999
 30
0.0
 11
32.0
 21
29.53589799999999
 31
0.0
  0
LINE
  5
4C
330
24
100
AcDbEntity
  8
OBJECT
100
AcDbLine
 10
28.0
 20
29.53589799999999
 30
0.0
 11
30.0
 21
33.0
 31
0.0
  0
LINE
  5
4D
330
24
100
AcDbEntity
  8
OBJECT
100
AcDbLine
 10
39.5
 20
19.0
 30
0.0
 11
40.49999999999999
 21
19.0
 31
0.0
  0
LINE
  5
4E
330
24
100
AcDbEntity
  8
OBJECT
100
AcDbLine
 10
44.5
 20
19.0
 30
0.0
 11
45.49999999999999
 21
19.0
 31
0.0
  0
LINE
  5
4F
330
24
100
AcDbEntity
  8
OBJECT
100
AcDbLine
 10
39.5
 20
25.0
 30
0.0
 11
40.49999999999999
 21
25.0
 31
0.0
  0
LINE
  5
50
330
24
100
AcDbEntity
  8
OBJECT
100
AcDbLine
 10
44.5
 20
25.0
 30
0.0
 11
45.49999999999999
 21
25.0
 31
0.0
  0
LINE
  5
51
330
24
100
AcDbEntity
  8
OBJECT
100
AcDbLine
 10
39.5
 20
31.0
 30
0.0
 11
40.49999999999999
 21
31.0
 31
0.0
  0
LINE
  5
52
330
24
100
AcDbEntity
  8
OBJECT
100
AcDbLine
 10
39.5
 20
37.0
 30
0.0
 11
40.49999999999999
 21
37.0
 31
0.0
  0
LINE
  5
53
330
24
100
AcDbEntity
  8
OBJECT
100
AcDbLine
 10
44.5
 20
31.0
 30
0.0
 11
45.49999999999999
 21
31.0
 31
0.0
  0
LINE
  5
54
330
24
100
AcDbEntity
  8
OBJECT
100
AcDbLine
 10
44.5
 20
37.0
 30
0.0
 11
45.49999999999999
 21
37.0
 31
0.0
  0
LINE
  5
55
330
24
100
AcDbEntity
  8
OBJECT
100
AcDbLine
 10
120.0
 20
10.0
 30
0.0
 11
120.0
 21
40.0
 31
0.0
  0
LINE
  5
56
330
24
100
AcDbEntity
  8
OBJECT
100
AcDbLine
 10
130.0
 20
40.0
 30
0.0
 11
130.0
 21
10.0
 31
0.0
  0
LINE
  5
57
330
24
100
AcDbEntity
  8
0
100
AcDbLine
 10
156.0
 20
10.0
 30
0.0
 11
156.0
 21
0.0
 31
0.0
  0
LINE
  5
58
330
24
100
AcDbEntity
  8
0
100
AcDbLine
 10
156.0
 20
200.0
 30
0.0
 11
156.0
 21
210.0
 31
0.0
  0
LINE
  5
59
330
24
100
AcDbEntity
  8
0
100
AcDbLine
 10
287.0
 20
105.0
 30
0.0
 11
297.0
 21
105.0
 31
0.0
  0
LINE
  5
5A
330
24
100
AcDbEntity
  8
0
100
AcDbLine
 10
25.0
 20
105.0
 30
0.0
 11
0.0
 21
105.0
 31
0.0
  0
TEXT
  5
5B
330
24
100
AcDbEntity
  8
0
100
AcDbText
 10
1.0
 20
1.0
 30
0.0
 40
3.0
  1
この図枠はサンプルです。社内の規格やプロッタの出力範囲に合わせて適当に変更してご利用ください。
  7
ADESK1
100
AcDbText
  0
LINE
  5
5C
330
24
100
AcDbEntity
  8
0
100
AcDbLine
 10
25.0
 20
152.5
 30
0.0
 11
20.0
 21
152.5
 31
0.0
  0
LINE
  5
5D
330
24
100
AcDbEntity
  8
0
100
AcDbLine
 10
25.0
 20
105.0
 30
0.0
 11
20.0
 21
105.0
 31
0.0
  0
LINE
  5
5E
330
24
100
AcDbEntity
  8
0
100
AcDbLine
 10
25.0
 20
57.5
 30
0.0
 11
20.0
 21
57.5
 31
0.0
  0
LINE
  5
5F
330
24
100
AcDbEntity
  8
0
100
AcDbLine
 10
68.66666666666668
 20
10.0
 30
0.0
 11
68.66666666666668
 21
5.0
 31
0.0
  0
LINE
  5
60
330
24
100
AcDbEntity
  8
0
100
AcDbLine
 10
112.3333333333333
 20
10.0
 30
0.0
 11
112.3333333333333
 21
5.0
 31
0.0
  0
LINE
  5
61
330
24
100
AcDbEntity
  8
0
100
AcDbLine
 10
156.0
 20
10.0
 30
0.0
 11
156.0
 21
5.0
 31
0.0
  0
LINE
  5
62
330
24
100
AcDbEntity
  8
0
100
AcDbLine
 10
199.6666666666666
 20
10.0
 30
0.0
 11
199.6666666666666
 21
5.0
 31
0.0
  0
LINE
  5
63
330
24
100
AcDbEntity
  8
0
100
AcDbLine
 10
243.3333333333333
 20
10.0
 30
0.0
 11
243.3333333333333
 21
5.0
 31
0.0
  0
LINE
  5
64
330
24
100
AcDbEntity
  8
0
100
AcDbLine
 10
287.0
 20
57.5
 30
0.0
 11
292.0
 21
57.5
 31
0.0
  0
LINE
  5
65
330
24
100
AcDbEntity
  8
0
100
AcDbLine
 10
287.0
 20
105.0
 30
0.0
 11
292.0
 21
105.0
 31
0.0
  0
LINE
  5
66
330
24
100
AcDbEntity
  8
0
100
AcDbLine
 10
287.0
 20
152.5
 30
0.0
 11
292.0
 21
152.5
 31
0.0
  0
LINE
  5
67
330
24
100
AcDbEntity
  8
0
100
AcDbLine
 10
243.3333333333333
 20
200.0
 30
0.0
 11
243.3333333333333
 21
205.0
 31
0.0
  0
LINE
  5
68
330
24
100
AcDbEntity
  8
0
100
AcDbLine
 10
199.6666666666666
 20
200.0
 30
0.0
 11
199.6666666666666
 21
205.0
 31
0.0
  0
LINE
  5
69
330
24
100
AcDbEntity
  8
0
100
AcDbLine
 10
156.0
 20
200.0
 30
0.0
 11
156.0
 21
205.0
 31
0.0
  0
LINE
  5
6A
330
24
100
AcDbEntity
  8
0
100
AcDbLine
 10
112.3333333333333
 20
200.0
 30
0.0
 11
112.3333333333333
 21
205.0
 31
0.0
  0
LINE
  5
6B
330
24
100
AcDbEntity
  8
0
100
AcDbLine
 10
68.66666666666666
 20
200.0
 30
0.0
 11
68.66666666666666
 21
205.0
 31
0.0
  0
TEXT
  5
6C
330
24
100
AcDbEntity
  8
0
100
AcDbText
 10
45.61904761904761
 20
201.0
 30
0.0
 40
3.0
  1
1
  7
ADESK1
 72
     1
 11
46.83333333333332
 21
201.0
 31
0.0
100
AcDbText
  0
TEXT
  5
6D
330
24
100
AcDbEntity
  8
0
100
AcDbText
 10
21.66139736003921
 20
176.25
 30
0.0
 40
3.0
  1
A
  7
ADESK1
 72
     1
 11
22.94711164575349
 21
176.25
 31
0.0
100
AcDbText
  0
TEXT
  5
6E
330
24
100
AcDbEntity
  8
0
100
AcDbText
 10
89.07142857142856
 20
201.0
 30
0.0
 40
3.0
  1
2
  7
ADESK1
 72
     1
 11
90.5
 21
201.0
 31
0.0
100
AcDbText
  0
TEXT
  5
6F
330
24
100
AcDbEntity
  8
0
100
AcDbText
 10
132.7380952380952
 20
201.0
 30
0.0
 40
3.0
  1
3
  7
ADESK1
 72
     1
 11
134.1666666666666
 21
201.0
 31
0.0
100
AcDbText
  0
TEXT
  5
70
330
24
100
AcDbEntity
  8
0
100
AcDbText
 10
176.3333333333333
 20
201.0
 30
0.0
 40
3.0
  1
4
  7
ADESK1
 72
     1
 11
177.8333333333333
 21
201.0
 31
0.0
100
AcDbText
  0
TEXT
  5
71
330
24
100
AcDbEntity
  8
0
100
AcDbText
 10
220.0714285714286
 20
201.0
 30
0.0
 40
3.0
  1
5
  7
ADESK1
 72
     1
 11
221.4999999999999
 21
201.0
 31
0.0
100
AcDbText
  0
TEXT
  5
72
330
24
100
AcDbEntity
  8
0
100
AcDbText
 10
263.6666666666666
 20
201.0
 30
0.0
 40
3.0
  1
6
  7
ADESK1
 72
     1
 11
265.1666666666666
 21
201.0
 31
0.0
100
AcDbText
  0
TEXT
  5
73
330
24
100
AcDbEntity
  8
0
100
AcDbText
 10
21.37568307432492
 20
128.75
 30
0.0
 40
3.0
  1
B
  7
ADESK1
 72
     1
 11
22.94711164575349
 21
128.75
 31
0.0
100
AcDbText
  0
TEXT
  5
74
330
24
100
AcDbEntity
  8
0
100
AcDbText
 10
21.44711164575349
 20
81.25
 30
0.0
 40
3.0
  1
C
  7
ADESK1
 72
     1
 11
22.94711164575349
 21
81.25
 31
0.0
100
AcDbText
  0
TEXT
  5
75
330
24
100
AcDbEntity
  8
0
100
AcDbText
 10
21.37568307432492
 20
33.75
 30
0.0
 40
3.0
  1
D
  7
ADESK1
 72
     1
 11
22.94711164575349
 21
33.75
 31
0.0
100
AcDbText
  0
TEXT
  5
76
330
24
100
AcDbEntity
  8
0
100
AcDbText
 10
45.61904761904759
 20
6.230338100985607
 30
0.0
 40
3.0
  1
1
  7
ADESK1
 72
     1
 11
46.83333333333331
 21
6.230338100985607
 31
0.0
100
AcDbText
  0
TEXT
  5
77
330
24
100
AcDbEntity
  8
0
100
AcDbText
 10
89.07142857142856
 20
6.230338100985607
 30
0.0
 40
3.0
  1
2
  7
ADESK1
 72
     1
 11
90.5
 21
6.230338100985607
 31
0.0
100
AcDbText
  0
TEXT
  5
78
330
24
100
AcDbEntity
  8
0
100
AcDbText
 10
132.7380952380952
 20
6.230338100985607
 30
0.0
 40
3.0
  1
3
  7
ADESK1
 72
     1
 11
134.1666666666666
 21
6.230338100985607
 31
0.0
100
AcDbText
  0
TEXT
  5
79
330
24
100
AcDbEntity
  8
0
100
AcDbText
 10
176.3333333333333
 20
6.230338100985607
 30
0.0
 40
3.0
  1
4
  7
ADESK1
 72
     1
 11
177.8333333333333
 21
6.230338100985607
 31
0.0
100
AcDbText
  0
TEXT
  5
7A
330
24
100
AcDbEntity
  8
0
100
AcDbText
 10
220.0714285714286
 20
6.230338100985607
 30
0.0
 40
3.0
  1
5
  7
ADESK1
 72
     1
 11
221.4999999999999
 21
6.230338100985607
 31
0.0
100
AcDbText
  0
TEXT
  5
7B
330
24
100
AcDbEntity
  8
0
100
AcDbText
 10
263.6666666666666
 20
6.230338100985607
 30
0.0
 40
3.0
  1
6
  7
ADESK1
 72
     1
 11
265.1666666666666
 21
6.230338100985607
 31
0.0
100
AcDbText
  0
TEXT
  5
7C
330
24
100
AcDbEntity
  8
0
100
AcDbText
 10
287.9530581679809
 20
176.25
 30
0.0
 40
3.0
  1
A
  7
ADESK1
 72
     1
 11
289.2387724536952
 21
176.25
 31
0.0
100
AcDbText
  0
TEXT
  5
7D
330
24
100
AcDbEntity
  8
0
100
AcDbText
 10
287.6673438822666
 20
128.75
 30
0.0
 40
3.0
  1
B
  7
ADESK1
 72
     1
 11
289.2387724536952
 21
128.75
 31
0.0
100
AcDbText
  0
TEXT
  5
7E
330
24
100
AcDbEntity
  8
0
100
AcDbText
 10
287.7387724536952
 20
81.25
 30
0.0
 40
3.0
  1
C
  7
ADESK1
 72
     1
 11
289.2387724536952
 21
81.25
 31
0.0
100
AcDbText
  0
TEXT
  5
7F
330
24
100
AcDbEntity
  8
0
100
AcDbText
 10
287.6673438822666
 20
33.75
 30
0.0
 40
3.0
  1
D
  7
ADESK1
 72
     1
 11
289.2387724536952
 21
33.75
 31
0.0
100
AcDbText
  0
LINE
  5
80
330
24
100
AcDbEntity
  8
0
 62
     0
100
AcDbLine
 10
157.2978723404242
 20
49.00000000000036
 30
0.0
 11
287.0
 21
49.00000000000036
 31
0.0
  0
LINE
  5
81
330
24
100
AcDbEntity
  8
0
 62
     0
100
AcDbLine
 10
157.2978723404242
 20
13.00000000000004
 30
0.0
 11
287.0
 21
13.00000000000004
 31
0.0
  0
LINE
  5
82
330
24
100
AcDbEntity
  8
0
 62
     0
100
AcDbLine
 10
157.2978723404242
 20
37.00000000000024
 30
0.0
 11
287.0
 21
37.00000000000024
 31
0.0
  0
LINE
  5
83
330
24
100
AcDbEntity
  8
0
 62
     0
100
AcDbLine
 10
195.1276595744673
 20
22.00000000000012
 30
0.0
 11
287.0
 21
22.00000000000012
 31
0.0
  0
LINE
  5
84
330
24
100
AcDbEntity
  8
0
 62
     0
100
AcDbLine
 10
157.2978723404242
 20
10.0
 30
0.0
 11
287.0
 21
10.0
 31
0.0
  0
LINE
  5
85
330
24
100
AcDbEntity
  8
0
 62
     0
100
AcDbLine
 10
287.0
 20
49.00000000000036
 30
0.0
 11
157.2978723404242
 21
49.00000000000036
 31
0.0
  0
LINE
  5
86
330
24
100
AcDbEntity
  8
0
 62
     0
100
AcDbLine
 10
180.7163120567365
 20
37.00000000000024
 30
0.0
 11
180.7163120567365
 21
10.0
 31
0.0
  0
LINE
  5
87
330
24
100
AcDbEntity
  8
0
 62
     0
100
AcDbLine
 10
162.702127659573
 20
37.00000000000024
 30
0.0
 11
162.702127659573
 21
10.0
 31
0.0
  0
LINE
  5
88
330
24
100
AcDbEntity
  8
0
 62
     0
100
AcDbLine
 10
189.7234042553184
 20
37.00000000000024
 30
0.0
 11
189.7234042553184
 21
10.0
 31
0.0
  0
LINE
  5
89
330
24
100
AcDbEntity
  8
0
 62
     0
100
AcDbLine
 10
195.1276595744673
 20
25.00000000000012
 30
0.0
 11
195.1276595744673
 21
10.0
 31
0.0
  0
LINE
  5
8A
330
24
100
AcDbEntity
  8
0
 62
     0
100
AcDbLine
 10
157.2978723404242
 20
49.00000000000036
 30
0.0
 11
157.2978723404242
 21
10.0
 31
0.0
  0
LINE
  5
8B
330
24
100
AcDbEntity
  8
0
 62
     0
100
AcDbLine
 10
225.7517730496447
 20
49.00000000000036
 30
0.0
 11
225.7517730496447
 21
10.0
 31
0.0
  0
LINE
  5
8C
330
24
100
AcDbEntity
  8
0
 62
     0
100
AcDbLine
 10
205.7659574468077
 20
22.00000000000007
 30
0.0
 11
205.7659574468077
 21
10.0
 31
0.0
  0
LINE
  5
8D
330
24
100
AcDbEntity
  8
0
 62
     0
100
AcDbLine
 10
216.4042553191484
 20
22.00000000000007
 30
0.0
 11
216.4042553191484
 21
10.0
 31
0.0
  0
LINE
  5
8E
330
24
100
AcDbEntity
  8
0
 62
     0
100
AcDbLine
 10
157.2978723404242
 20
16.00000000000008
 30
0.0
 11
195.1276595744673
 21
16.00000000000008
 31
0.0
  0
LINE
  5
8F
330
24
100
AcDbEntity
  8
0
 62
     0
100
AcDbLine
 10
157.2978723404242
 20
10.0
 30
0.0
 11
157.2978723404242
 21
13.00000000000004
 31
0.0
  0
TEXT
  5
90
330
24
100
AcDbEntity
  8
0
 62
     0
100
AcDbText
 10
198.7174935280942
 20
10.48329012996929
 30
0.0
 40
1.791674070777747
  1
製図
  7
ADESK1
 72
     1
 11
200.5688900678978
 21
10.48329012996929
 31
0.0
100
AcDbText
  0
TEXT
  5
91
330
24
100
AcDbEntity
  8
0
 62
     0
100
AcDbText
 10
209.2960689314087
 20
10.48329012996929
 30
0.0
 40
1.791674070777747
  1
設計
  7
ADESK1
 72
     1
 11
211.2071879402383
 21
10.48329012996929
 31
0.0
100
AcDbText
  0
TEXT
  5
92
330
24
100
AcDbEntity
  8
0
 62
     0
100
AcDbText
 10
219.2447163844405
 20
10.55220101068186
 30
0.0
 40
1.791674070777747
  1
照査
  7
ADESK1
 72
     1
 11
221.1558353932701
 21
10.55220101068186
 31
0.0
100
AcDbText
  0
LINE
  5
93
330
24
100
AcDbEntity
  8
0
 62
     0
100
AcDbLine
 10
157.2978723404242
 20
25.00000000000012
 30
0.0
 11
195.1276595744673
 21
25.00000000000012
 31
0.0
  0
LINE
  5
94
330
24
100
AcDbEntity
  8
0
 62
     0
100
AcDbLine
 10
157.2978723404242
 20
22.00000000000007
 30
0.0
 11
195.1276595744673
 21
22.00000000000012
 31
0.0
  0
LINE
  5
95
330
24
100
AcDbEntity
  8
0
 62
     0
100
AcDbLine
 10
157.2978723404242
 20
19.00000000000007
 30
0.0
 11
195.1276595744673
 21
19.00000000000012
 31
0.0
  0
LINE
  5
96
330
24
100
AcDbEntity
  8
0
 62
     0
100
AcDbLine
 10
157.2978723404242
 20
34.00000000000024
 30
0.0
 11
225.7517730496447
 21
34.00000000000024
 31
0.0
  0
LINE
  5
97
330
24
100
AcDbEntity
  8
0
 62
     0
100
AcDbLine
 10
157.2978723404242
 20
31.0000000000002
 30
0.0
 11
225.7517730496447
 21
31.0000000000002
 31
0.0
  0
LINE
  5
98
330
24
100
AcDbEntity
  8
0
 62
     0
100
AcDbLine
 10
157.2978723404242
 20
28.00000000000015
 30
0.0
 11
225.7517730496447
 21
28.00000000000015
 31
0.0
  0
LINE
  5
99
330
24
100
AcDbEntity
  8
0
 62
     0
100
AcDbLine
 10
195.1276595744673
 20
25.00000000000012
 30
0.0
 11
225.7517730496447
 21
25.00000000000012
 31
0.0
  0
LINE
  5
9A
330
24
100
AcDbEntity
  8
0
 62
     0
100
AcDbLine
 10
195.1276595744673
 20
49.00000000000036
 30
0.0
 11
195.1276595744673
 21
25.00000000000012
 31
0.0
  0
LINE
  5
9B
330
24
100
AcDbEntity
  8
0
 62
     0
100
AcDbLine
 10
202.3333333333325
 20
37.00000000000024
 30
0.0
 11
202.3333333333325
 21
25.00000000000012
 31
0.0
  0
LINE
  5
9C
330
24
100
AcDbEntity
  8
0
 62
     0
100
AcDbLine
 10
213.1418439716305
 20
49.00000000000036
 30
0.0
 11
213.1418439716305
 21
22.00000000000012
 31
0.0
  0
LINE
  5
9D
330
24
100
AcDbEntity
  8
0
 62
     0
100
AcDbLine
 10
279.7943262411347
 20
22.00000000000012
 30
0.0
 11
279.7943262411347
 21
10.0
 31
0.0
  0
LINE
  5
9E
330
24
100
AcDbEntity
  8
0
 62
     0
100
AcDbLine
 10
287.0
 20
49.00000000000036
 30
0.0
 11
287.0
 21
10.0
 31
0.0
  0
LINE
  5
9F
330
24
100
AcDbEntity
  8
0
 62
     0
100
AcDbLine
 10
287.0
 20
10.0
 30
0.0
 11
287.0
 21
49.00000000000036
 31
0.0
  0
LINE
  5
A0
330
24
100
AcDbEntity
  8
0
 62
     0
100
AcDbLine
 10
279.7943262411347
 20
16.00000000000008
 30
0.0
 11
287.0
 21
16.00000000000008
 31
0.0
  0
ENDBLK
  5
A2
330
24
100
AcDbEntity
  8
0
100
AcDbBlockEnd
  0
BLOCK
  5
3443
330
3437
100
AcDbEntity
  8
0
100
AcDbBlockBegin
  2
*D1
 70
     1
 10
0.0
 20
0.0
 30
0.0
  3
*D1
  1

  0
LINE
  5
3438
330
3437
100
AcDbEntity
  8
OBJECT
 62
     0
370
    -2
100
AcDbLine
 10
-8068.568047744786
 20
3998.303038975791
 30
0.0
 11
-7757.422052324407
 21
3998.303038975791
 31
0.0
  0
LINE
  5
3439
330
3437
100
AcDbEntity
  8
OBJECT
 62
     0
370
    -2
100
AcDbLine
 10
-8068.568047744786
 20
4078.303038975791
 30
0.0
 11
-7757.422052324407
 21
4078.303038975791
 31
0.0
  0
LINE
  5
343A
330
3437
100
AcDbEntity
  8
OBJECT
 62
     0
370
    -2
100
AcDbLine
 10
-7776.172052324408
 20
3960.803038975791
 30
0.0
 11
-7776.172052324408
 21
3923.303038975791
 31
0.0
  0
LINE
  5
343B
330
3437
100
AcDbEntity
  8
OBJECT
 62
     0
370
    -2
100
AcDbLine
 10
-7776.172052324408
 20
4115.803038975792
 30
0.0
 11
-7776.172052324408
 21
4153.303038975791
 31
0.0
  0
LINE
  5
343C
330
3437
100
AcDbEntity
  8
OBJECT
 62
     0
370
    -2
100
AcDbLine
 10
-7776.172052324408
 20
3998.303038975791
 30
0.0
 11
-7776.172052324408
 21
4078.303038975791
 31
0.0
  0
SOLID
  5
343D
330
3437
100
AcDbEntity
  8
OBJECT
 62
     0
100
AcDbTrace
 10
-7782.422052324408
 20
3960.803038975791
 30
0.0
 11
-7769.922052324408
 21
3960.803038975791
 31
0.0
 12
-7776.172052324408
 22
3998.303038975791
 32
0.0
 13
-7776.172052324408
 23
3998.303038975791
 33
0.0
  0
SOLID
  5
343E
330
3437
100
AcDbEntity
  8
OBJECT
 62
     0
100
AcDbTrace
 10
-7782.422052324408
 20
4115.803038975792
 30
0.0
 11
-7769.922052324408
 21
4115.803038975792
 31
0.0
 12
-7776.172052324408
 22
4078.303038975791
 32
0.0
 13
-7776.172052324408
 23
4078.303038975791
 33
0.0
  0
MTEXT
  5
343F
330
3437
100
AcDbEntity
  8
OBJECT
 62
     0
100
AcDbMText
 10
-7804.297052324407
 20
4038.303038975789
 30
0.0
 40
37.5
 41
0.0
 71
     5
 72
     1
  1
\A1;80
 11
0.0000000000000001
 21
1.0
 31
0.0
 73
     1
 44
1.0
  0
POINT
  5
3440
330
3437
100
AcDbEntity
  8
DEFPOINTS
 62
     0
100
AcDbPoint
 10
-8077.943047744787
 20
3998.303038975791
 30
0.0
  0
POINT
  5
3441
330
3437
100
AcDbEntity
  8
DEFPOINTS
 62
     0
100
AcDbPoint
 10
-8077.943047744787
 20
4078.303038975791
 30
0.0
  0
POINT
  5
3442
330
3437
100
AcDbEntity
  8
DEFPOINTS
 62
     0
100
AcDbPoint
 10
-7776.172052324408
 20
4078.303038975791
 30
0.0
  0
ENDBLK
  5
3444
330
3437
100
AcDbEntity
  8
0
100
AcDbBlockEnd
  0
BLOCK
  5
3447
330
3445
100
AcDbEntity
  8
0
100
AcDbBlockBegin
  2
A$C23BB6A77
 70
     0
 10
0.0
 20
0.0
 30
0.0
  3
A$C23BB6A77
  1

  0
DIMENSION
  5
3446
330
3445
100
AcDbEntity
  8
OBJECT
100
AcDbDimension
  2
*D1
 10
301.7709854312124
 20
154.9999934708971
 30
0.0
 11
273.6459854312115
 21
114.9999934708962
 31
0.0
 12
8077.94303775562
 22
-3923.303045504894
 32
0.0
 71
     5
 42
79.99999999999954
  3
STANDARD
100
AcDbAlignedDimension
 13
-0.0000099891658465
 23
74.99999347089761
 33
0.0
 14
-0.0000099891658465
 24
154.9999934708971
 34
0.0
 50
90.0
100
AcDbRotatedDimension
1001
ACAD
1000
DSTYLE
1002
{
1070
    40
1040
15.0
1070
    41
1040
2.5
1070
    42
1040
0.625
1070
    43
1040
3.75
1070
    44
1040
1.25
1070
    73
1070
     0
1070
    74
1070
     0
1070
    77
1070
     1
1070
    78
1070
     8
1070
   140
1040
2.5
1070
   141
1040
2.5
1070
   143
1040
0.0394
1070
   147
1040
0.625
1070
   171
1070
     4
1070
   172
1070
     1
1070
   273
1070
     8
1070
   274
1070
     4
1070
   277
1070
     6
1002
}
  0
ENDBLK
  5
3448
330
3445
100
AcDbEntity
  8
0
100
AcDbBlockEnd
  0
ENDSEC
  0
SECTION
  2
ENTITIES
  0
MTEXT
  5
938
330
18
100
AcDbEntity
  8
上書線
100
AcDbMText
 10
1865.739761775792
 20
499.0283937835011
 30
0.0
 40
37.5
 41
0.0
 71
     4
 72
     1
  1
\A1;
 73
     1
 44
1.0
  0
LINE
  5
123E
330
18
100
AcDbEntity
  8
基準線
100
AcDbLine
 10
710.0813698183028
 20
2117.506972677286
 30
0.0
 11
731.0813698183028
 21
2117.506972677286
 31
0.0
  0
LINE
  5
14BB
330
18
100
AcDbEntity
  8
基準線
100
AcDbLine
 10
1281.296189060135
 20
2744.451732006984
 30
0.0
 11
1631.12377476475
 21
2744.451732006984
 31
0.0
  0
LINE
  5
14BC
330
18
100
AcDbEntity
  8
基準線
100
AcDbLine
 10
1131.296189060135
 20
2594.451732006984
 30
0.0
 11
1604.134047986604
 21
2594.451732006984
 31
0.0
  0
LINE
  5
1546
330
18
100
AcDbEntity
  8
基準線
100
AcDbLine
 10
2000.40772718317
 20
1104.126411816217
 30
0.0
 11
2000.40772718317
 21
1262.163674897728
 31
0.0
  0
LINE
  5
154B
330
18
100
AcDbEntity
  8
基準線
100
AcDbLine
 10
2550.40772718317
 20
1049.126411816217
 30
0.0
 11
2550.40772718317
 21
1211.614819254876
 31
0.0
  0
LINE
  5
154C
330
18
100
AcDbEntity
  8
基準線
100
AcDbLine
 10
2150.40772718317
 20
1049.126411816217
 30
0.0
 11
2150.40772718317
 21
1226.779475202555
 31
0.0
  0
LINE
  5
15CA
330
18
100
AcDbEntity
  8
基準線
100
AcDbLine
 10
3419.935833980378
 20
2804.85492986955
 30
0.0
 11
3776.432100616551
 21
2804.85492986955
 31
0.0
  0
LINE
  5
15CC
330
18
100
AcDbEntity
  8
基準線
100
AcDbLine
 10
3776.432100616551
 20
2804.85492986955
 30
0.0
 11
4171.357345948922
 21
2804.85492986955
 31
0.0
  0
LINE
  5
15D0
330
18
100
AcDbEntity
  8
基準線
100
AcDbLine
 10
3419.935833980378
 20
2684.85492986955
 30
0.0
 11
3776.432100616551
 21
2684.85492986955
 31
0.0
  0
LINE
  5
15D1
330
18
100
AcDbEntity
  8
基準線
100
AcDbLine
 10
3598.183967298465
 20
2684.85492986955
 30
0.0
 11
3598.183967298465
 21
984.8549298695507
 31
0.0
  0
LINE
  5
15D2
330
18
100
AcDbEntity
  8
基準線
100
AcDbLine
 10
3776.432100616551
 20
2484.854929869551
 30
0.0
 11
4171.357345948921
 21
2484.85492986955
 31
0.0
  0
LINE
  5
15D3
330
18
100
AcDbEntity
  8
基準線
100
AcDbLine
 10
3973.894723282737
 20
2684.854929869551
 30
0.0
 11
3973.894723282734
 21
984.8549298695507
 31
0.0
  0
LINE
  5
15D4
330
18
100
AcDbEntity
  8
基準線
100
AcDbLine
 10
3419.935833980378
 20
2684.85492986955
 30
0.0
 11
3419.935833980378
 21
2584.85492986955
 31
0.0
  0
LINE
  5
15D5
330
18
100
AcDbEntity
  8
基準線
100
AcDbLine
 10
3419.935833980378
 20
2634.85492986955
 30
0.0
 11
4114.659436953616
 21
2634.85492986955
 31
0.0
  0
MTEXT
  5
2600
330
18
100
AcDbEntity
  8
上書線
100
AcDbMText
 10
8265.989761983631
 20
6703.528554963909
 30
0.0
 40
60.0
 41
956.9129999999999
 71
     1
 72
     5
  1
重量表
 73
     1
 44
1.0
  0
MTEXT
  5
283E
330
18
100
AcDbEntity
  8
上線
100
AcDbMText
 10
8365.821696284523
 20
6528.686645382489
 30
0.0
 40
49.968
 41
197.7879999999999
 71
     1
 72
     5
  1
Ｈ
 73
     1
 44
1.0
  0
LINE
  5
2842
330
18
100
AcDbEntity
  8
上線
100
AcDbLine
 10
7989.766417090378
 20
6259.683082560083
 30
0.0
 11
8807.496924736621
 21
6259.683082560083
 31
0.0
  0
LINE
  5
2843
330
18
100
AcDbEntity
  8
上線
100
AcDbLine
 10
7989.766417090378
 20
6357.59844023515
 30
0.0
 11
8807.496924736621
 21
6357.59844023515
 31
0.0
  0
LINE
  5
2844
330
18
100
AcDbEntity
  8
上線
100
AcDbLine
 10
7989.766417090378
 20
6455.433798023982
 30
0.0
 11
8808.131583568094
 21
6455.433798023982
 31
0.0
  0
LINE
  5
2845
330
18
100
AcDbEntity
  8
上線
100
AcDbLine
 10
8807.496924736621
 20
6553.429155585286
 30
0.0
 11
7989.766417090378
 21
6553.429155585286
 31
0.0
  0
LINE
  5
284A
330
18
100
AcDbEntity
  8
上線
100
AcDbLine
 10
8262.343252972458
 20
6553.429155585286
 30
0.0
 11
8262.343252972458
 21
6259.683082560083
 31
0.0
  0
LINE
  5
284B
330
18
100
AcDbEntity
  8
上線
100
AcDbLine
 10
7989.766417090378
 20
6553.429155585286
 30
0.0
 11
7989.766417090378
 21
6259.683082560083
 31
0.0
  0
MTEXT
  5
285C
330
18
100
AcDbEntity
  8
上線
100
AcDbMText
 10
8084.353782115501
 20
6528.686645382489
 30
0.0
 40
49.968
 41
197.7879999999999
 71
     1
 72
     5
  1
h1
 73
     1
 44
1.0
  0
LINE
  5
285F
330
18
100
AcDbEntity
  8
上線
100
AcDbLine
 10
8534.920088854539
 20
6553.429155585286
 30
0.0
 11
8534.920088854539
 21
6259.683082560083
 31
0.0
  0
LINE
  5
2860
330
18
100
AcDbEntity
  8
上線
100
AcDbLine
 10
8807.496924736621
 20
6259.683082560083
 30
0.0
 11
8807.496924736621
 21
6553.429155585286
 31
0.0
  0
MTEXT
  5
2866
330
18
100
AcDbEntity
  8
上線
100
AcDbMText
 10
8578.043964280395
 20
6511.873234624889
 30
0.0
 40
24.984
 41
247.78800162
 71
     1
 72
     5
  1
\fＭＳ Ｐ明朝|b0|i0|c128|p18;参考重量（㎏）
 73
     1
 44
1.0
  0
MTEXT
  5
3560
330
18
100
AcDbEntity
  8
上線
100
AcDbMText
 10
8104.108132837692
 20
6427.806176175322
 30
0.0
 40
49.968
 41
247.7879999999999
 71
     1
 72
     5
  1
250
 73
     1
 44
1.0
  0
MTEXT
  5
358C
330
18
100
AcDbEntity
  8
上線
100
AcDbMText
 10
8649.261804601852
 20
6427.806176175322
 30
0.0
 40
49.968
 41
247.7879999999999
 71
     1
 72
     5
  1
470
 73
     1
 44
1.0
  0
MTEXT
  5
3908
330
18
100
AcDbEntity
  8
上線
100
AcDbMText
 10
8104.108132837692
 20
6329.970818386492
 30
0.0
 40
49.968
 41
247.7879999999999
 71
     1
 72
     5
  1
300
 73
     1
 44
1.0
  0
MTEXT
  5
3914
330
18
100
AcDbEntity
  8
上線
100
AcDbMText
 10
8649.261804601852
 20
6329.970818386492
 30
0.0
 40
49.968
 41
247.7879999999999
 71
     1
 72
     5
  1
495
 73
     1
 44
1.0
  0
LINE
  5
4006
330
18
100
AcDbEntity
  8
点線
100
AcDbLine
 10
6210.626788993495
 20
5351.615691281438
 30
0.0
 11
6210.626788993495
 21
4201.615691281437
 31
0.0
  0
LINE
  5
4007
330
18
100
AcDbEntity
  8
点線
100
AcDbLine
 10
5810.626788993495
 20
5351.615691281438
 30
0.0
 11
5810.626788993495
 21
4201.615691281437
 31
0.0
  0
LINE
  5
4008
330
18
100
AcDbEntity
  8
OBJECT
100
AcDbLine
 10
5710.626788993495
 20
5401.615691281438
 30
0.0
 11
5710.626788993495
 21
4201.615691281437
 31
0.0
  0
LINE
  5
4009
330
18
100
AcDbEntity
  8
OBJECT
100
AcDbLine
 10
6310.626788993495
 20
4201.615691281437
 30
0.0
 11
6310.626788993495
 21
5401.615691281438
 31
0.0
  0
LINE
  5
400A
330
18
100
AcDbEntity
  8
点線
100
AcDbLine
 10
7130.626788993495
 20
5351.615691281438
 30
0.0
 11
7130.626788993495
 21
4201.615691281437
 31
0.0
  0
LINE
  5
400B
330
18
100
AcDbEntity
  8
点線
100
AcDbLine
 10
6830.626788993495
 20
5351.615691281438
 30
0.0
 11
6830.626788993495
 21
4201.615691281437
 31
0.0
  0
LINE
  5
400C
330
18
100
AcDbEntity
  8
OBJECT
100
AcDbLine
 10
6710.626788993495
 20
4201.615691281437
 30
0.0
 11
6710.626788993495
 21
5401.615691281438
 31
0.0
  0
LINE
  5
400D
330
18
100
AcDbEntity
  8
OBJECT
100
AcDbLine
 10
7250.626788993496
 20
5401.615691281438
 30
0.0
 11
7250.626788993496
 21
4201.615691281437
 31
0.0
  0
LINE
  5
400E
330
18
100
AcDbEntity
  8
OBJECT
100
AcDbLine
 10
5710.626788993495
 20
4201.615691281437
 30
0.0
 11
6310.626788993495
 21
4201.615691281437
 31
0.0
  0
LINE
  5
4013
330
18
100
AcDbEntity
  8
OBJECT
100
AcDbLine
 10
7250.626788993496
 20
4201.615691281437
 30
0.0
 11
6710.626788993495
 21
4201.615691281437
 31
0.0
  0
LINE
  5
4017
330
18
100
AcDbEntity
  8
OBJECT
100
AcDbLine
 10
6310.626779559503
 20
6271.615683842673
 30
0.0
 11
5710.626779559503
 21
6271.615683842673
 31
0.0
  0
LINE
  5
4018
330
18
100
AcDbEntity
  8
OBJECT
100
AcDbLine
 10
6310.626779559503
 20
6221.615676403909
 30
0.0
 11
5710.626779559503
 21
6221.615676403909
 31
0.0
  0
LINE
  5
4019
330
18
100
AcDbEntity
  8
OBJECT
100
AcDbLine
 10
6310.626779559503
 20
5921.615706158966
 30
0.0
 11
5710.626779559503
 21
5921.615706158966
 31
0.0
  0
LINE
  5
401A
330
18
100
AcDbEntity
  8
OBJECT
100
AcDbLine
 10
6310.626779559503
 20
5871.615698720201
 30
0.0
 11
5710.626779559503
 21
5871.615698720201
 31
0.0
  0
LINE
  5
401B
330
18
100
AcDbEntity
  8
OBJECT
100
AcDbLine
 10
5710.626788993495
 20
6341.615691281438
 30
0.0
 11
6310.626788993495
 21
6341.615691281438
 31
0.0
  0
LINE
  5
401C
330
18
100
AcDbEntity
  8
OBJECT
100
AcDbLine
 10
6310.626788993495
 20
5801.615691281438
 30
0.0
 11
5710.626788993495
 21
5801.615691281438
 31
0.0
  0
LINE
  5
401D
330
18
100
AcDbEntity
  8
点線
100
AcDbLine
 10
5810.626788993495
 20
4501.615691281437
 30
0.0
 11
5710.626788993495
 21
4501.615691281437
 31
0.0
  0
LINE
  5
401E
330
18
100
AcDbEntity
  8
点線
100
AcDbLine
 10
6310.626788993495
 20
5351.615691281438
 30
0.0
 11
5710.626788993495
 21
5351.615691281438
 31
0.0
  0
LINE
  5
401F
330
18
100
AcDbEntity
  8
OBJECT
100
AcDbLine
 10
6310.626788993495
 20
5401.615691281438
 30
0.0
 11
5710.626788993495
 21
5401.615691281438
 31
0.0
  0
LINE
  5
4032
330
18
100
AcDbEntity
  8
OBJECT
100
AcDbLine
 10
5710.626788993495
 20
5801.615691281438
 30
0.0
 11
5710.626788993495
 21
6341.615691281438
 31
0.0
  0
LINE
  5
4042
330
18
100
AcDbEntity
  8
点線
100
AcDbLine
 10
6210.626788993495
 20
4501.615691281437
 30
0.0
 11
6310.626788993495
 21
4501.615691281437
 31
0.0
  0
LINE
  5
4043
330
18
100
AcDbEntity
  8
OBJECT
100
AcDbLine
 10
5810.626779559503
 20
6221.615676403909
 30
0.0
 11
5810.626788993495
 21
5921.615706158966
 31
0.0
  0
LINE
  5
4044
330
18
100
AcDbEntity
  8
OBJECT
100
AcDbLine
 10
6210.626779559503
 20
6221.615676403909
 30
0.0
 11
6210.626770125511
 21
5921.615706158966
 31
0.0
  0
LINE
  5
4045
330
18
100
AcDbEntity
  8
OBJECT
100
AcDbLine
 10
6310.626788993495
 20
6341.615691281438
 30
0.0
 11
6310.626788993495
 21
5801.615691281438
 31
0.0
  0
LINE
  5
404B
330
18
100
AcDbEntity
  8
OBJECT
100
AcDbLine
 10
6885.626788993495
 20
4501.615691281437
 30
0.0
 11
7075.626788993496
 21
4501.615691281437
 31
0.0
  0
LINE
  5
404C
330
18
100
AcDbEntity
  8
OBJECT
100
AcDbLine
 10
6835.626788993495
 20
4551.615691281437
 30
0.0
 11
6830.626788993495
 21
5351.615691281438
 31
0.0
  0
ARC
  5
404D
330
18
100
AcDbEntity
  8
OBJECT
100
AcDbCircle
 10
6885.626788993495
 20
4551.615691281437
 30
0.0
 40
50.0
100
AcDbArc
 50
180.0
 51
270.0
  0
LINE
  5
404E
330
18
100
AcDbEntity
  8
OBJECT
100
AcDbLine
 10
6780.626788993496
 20
5401.615691281438
 30
0.0
 11
6780.626788993496
 21
5351.615691281438
 31
0.0
  0
LINE
  5
404F
330
18
100
AcDbEntity
  8
OBJECT
100
AcDbLine
 10
6780.626788993496
 20
5351.615691281438
 30
0.0
 11
6830.626788993495
 21
5351.615691281438
 31
0.0
  0
LINE
  5
4050
330
18
100
AcDbEntity
  8
OBJECT
100
AcDbLine
 10
6710.626788993495
 20
5401.615691281438
 30
0.0
 11
6780.626788993496
 21
5401.615691281438
 31
0.0
  0
LINE
  5
4051
330
18
100
AcDbEntity
  8
OBJECT
100
AcDbLine
 10
7125.626788993496
 20
4551.615691281437
 30
0.0
 11
7130.626788993495
 21
5351.615691281438
 31
0.0
  0
ARC
  5
4052
330
18
100
AcDbEntity
  8
OBJECT
100
AcDbCircle
 10
7075.626788993496
 20
4551.615691281437
 30
0.0
 40
50.0
100
AcDbArc
 50
270.0
 51
0.0
  0
LINE
  5
4053
330
18
100
AcDbEntity
  8
OBJECT
100
AcDbLine
 10
7180.626788993496
 20
5351.615691281438
 30
0.0
 11
7180.626788993496
 21
5401.615691281438
 31
0.0
  0
LINE
  5
4054
330
18
100
AcDbEntity
  8
OBJECT
100
AcDbLine
 10
7130.626788993495
 20
5351.615691281438
 30
0.0
 11
7180.626788993496
 21
5351.615691281438
 31
0.0
  0
LINE
  5
4055
330
18
100
AcDbEntity
  8
OBJECT
100
AcDbLine
 10
7180.626788993496
 20
5401.615691281438
 30
0.0
 11
7250.626788993496
 21
5401.615691281438
 31
0.0
  0
MTEXT
  5
4138
330
18
100
AcDbEntity
  8
上線
100
AcDbMText
 10
8342.842520886268
 20
6427.646176402854
 30
0.0
 40
49.968
 41
279.7559999999999
 71
     1
 72
     5
  1
1150
 73
     1
 44
1.0
  0
MTEXT
  5
4139
330
18
100
AcDbEntity
  8
上線
100
AcDbMText
 10
8342.842520886268
 20
6329.65081884155
 30
0.0
 40
49.968
 41
279.7559999999999
 71
     1
 72
     5
  1
1200
 73
     1
 44
1.0
  0
LINE
  5
4212
330
18
100
AcDbEntity
  8
WUWAGAKI
100
AcDbLine
 10
4707.308394913201
 20
4032.443651716607
 30
0.0
 11
8978.027313540119
 21
4032.443651716607
 31
0.0
  0
LINE
  5
4213
330
18
100
AcDbEntity
  8
OBJECT
 48
10.0
100
AcDbLine
 10
7250.626814815989
 20
5581.61568251802
 30
0.0
 11
7363.126814815989
 21
5581.615682518019
 31
0.0
  0
LINE
  5
4214
330
18
100
AcDbEntity
  8
WUWAGAKI
100
AcDbLine
 10
8978.027313540119
 20
6958.593503512732
 30
0.0
 11
4707.308394913201
 21
6958.593503512732
 31
0.0
  0
LINE
  5
4215
330
18
100
AcDbEntity
  8
WUWAGAKI
100
AcDbLine
 10
4707.308394913201
 20
6958.593503512732
 30
0.0
 11
4707.308394913201
 21
4032.443651716607
 31
0.0
  0
LINE
  5
4216
330
18
100
AcDbEntity
  8
0
 48
10.0
100
AcDbLine
 10
6710.626814815967
 20
5431.615691281438
 30
0.0
 11
6710.626814815967
 21
5761.615691281438
 31
0.0
  0
LINE
  5
4217
330
18
100
AcDbEntity
  8
0
 48
10.0
100
AcDbLine
 10
7250.62681481601
 20
5431.615691281441
 30
0.0
 11
7250.62681481601
 21
5761.615691281441
 31
0.0
  0
SOLID
  5
421B
330
18
100
AcDbEntity
  8
0
  6
ByBlock
 62
     0
 48
10.0
100
AcDbTrace
 10
5536.876788993498
 20
4539.115691281437
 30
0.0
 11
5524.376788993498
 21
4539.115691281437
 31
0.0
 12
5530.626788993497
 22
4501.615691281437
 32
0.0
 13
5530.626788993497
 23
4501.615691281437
 33
0.0
  0
LINE
  5
421C
330
18
100
AcDbEntity
  8
OBJECT
 48
10.0
100
AcDbLine
 10
5380.626797756917
 20
5401.615691281438
 30
0.0
 11
5380.626797756914
 21
4201.615691281436
 31
0.0
  0
LINE
  5
421D
330
18
100
AcDbEntity
  8
OBJECT
 48
10.0
100
AcDbLine
 10
5530.626799733445
 20
4201.615691281436
 30
0.0
 11
5530.626799733445
 21
5401.615691281438
 31
0.0
  0
LINE
  5
4220
330
18
100
AcDbEntity
  8
0
 48
10.0
100
AcDbLine
 10
5680.626788993495
 20
4501.615691281437
 30
0.0
 11
5500.626788993495
 21
4501.615691281437
 31
0.0
  0
LINE
  5
4221
330
18
100
AcDbEntity
  8
0
 48
10.0
100
AcDbLine
 10
5680.626788993495
 20
4201.615691281436
 30
0.0
 11
5350.626788993495
 21
4201.615691281436
 31
0.0
  0
SOLID
  5
4222
330
18
100
AcDbEntity
  8
0
  6
ByBlock
 62
     0
 48
10.0
100
AcDbTrace
 10
5386.876788993494
 20
4239.115691281458
 30
0.0
 11
5374.376788993493
 21
4239.115691281458
 31
0.0
 12
5380.626788993493
 22
4201.615691281459
 32
0.0
 13
5380.626788993493
 23
4201.615691281459
 33
0.0
  0
SOLID
  5
4223
330
18
100
AcDbEntity
  8
0
  6
ByBlock
 62
     0
 48
10.0
100
AcDbTrace
 10
5536.876799733443
 20
4239.115703140591
 30
0.0
 11
5524.376799733443
 21
4239.115703140591
 31
0.0
 12
5530.626799733443
 22
4201.615703140591
 32
0.0
 13
5530.626799733443
 23
4201.615703140591
 33
0.0
  0
MTEXT
  5
4224
330
18
100
AcDbEntity
  8
0
  6
ByBlock
 62
     0
 48
10.0
100
AcDbMText
 10
5500.626797756915
 20
4351.615691281437
 30
0.0
 40
37.5
 41
0.0
 71
     5
 72
     1
  1
h1
 11
0.0000000000000001
 21
1.0
 31
0.0
 73
     1
 44
1.0
  0
SOLID
  5
4225
330
18
100
AcDbEntity
  8
0
  6
ByBlock
 62
     0
 48
10.0
100
AcDbTrace
 10
5536.876788993498
 20
4464.115691281437
 30
0.0
 11
5524.376788993498
 21
4464.115691281437
 31
0.0
 12
5530.626788993497
 22
4501.615691281437
 32
0.0
 13
5530.626788993497
 23
4501.615691281437
 33
0.0
  0
MTEXT
  5
4227
330
18
100
AcDbEntity
  8
0
  6
ByBlock
 62
     0
 48
10.0
100
AcDbMText
 10
5350.626788993494
 20
4801.615691281437
 30
0.0
 40
37.5
 41
0.0
 71
     5
 72
     1
  1
H
 11
0.0000000000000001
 21
1.0
 31
0.0
 73
     1
 44
1.0
  0
MTEXT
  5
4228
330
18
100
AcDbEntity
  8
0
  6
ByBlock
 62
     0
 48
10.0
100
AcDbMText
 10
5500.626788993494
 20
4926.615691281438
 30
0.0
 40
37.5
 41
0.0
 71
     5
 72
     1
  1
850
 11
0.0000000000000001
 21
1.0
 31
0.0
 73
     1
 44
1.0
  0
LINE
  5
4229
330
18
100
AcDbEntity
  8
0
 48
10.0
100
AcDbLine
 10
5680.626788993495
 20
5351.615691281438
 30
0.0
 11
5500.626788993495
 21
5351.615691281438
 31
0.0
  0
LINE
  5
422A
330
18
100
AcDbEntity
  8
0
 48
10.0
100
AcDbLine
 10
5680.626788993495
 20
5401.615691281438
 30
0.0
 11
5350.626788993495
 21
5401.615691281438
 31
0.0
  0
SOLID
  5
422B
330
18
100
AcDbEntity
  8
0
  6
ByBlock
 62
     0
 48
10.0
100
AcDbTrace
 10
5386.876788993494
 20
5364.115691281416
 30
0.0
 11
5374.376788993493
 21
5364.115691281416
 31
0.0
 12
5380.626788993493
 22
5401.615691281416
 32
0.0
 13
5380.626788993493
 23
5401.615691281416
 33
0.0
  0
SOLID
  5
422C
330
18
100
AcDbEntity
  8
0
  6
ByBlock
 62
     0
 48
10.0
100
AcDbTrace
 10
5536.876788993498
 20
5314.115755721132
 30
0.0
 11
5524.376788993498
 21
5314.115755721132
 31
0.0
 12
5530.626788993497
 22
5351.615755721133
 32
0.0
 13
5530.626788993497
 23
5351.615755721133
 33
0.0
  0
MTEXT
  5
422F
330
18
100
AcDbEntity
  8
0
  6
ByBlock
 62
     0
 48
10.0
100
AcDbMText
 10
5500.626797756916
 20
5476.615691281438
 30
0.0
 40
37.5
 41
0.0
 71
     5
 72
     1
  1
50
 11
0.0000000000000001
 21
1.0
 31
0.0
 73
     1
 44
1.0
  0
SOLID
  5
4230
330
18
100
AcDbEntity
  8
0
  6
ByBlock
 62
     0
 48
10.0
100
AcDbTrace
 10
6876.817438925944
 20
4543.474741218535
 30
0.0
 11
6884.208808925224
 21
4533.394183221395
 31
0.0
 12
6850.271449934168
 22
4516.26035222211
 32
0.0
 13
6850.271449934168
 23
4516.26035222211
 33
0.0
  0
LINE
  5
4231
330
18
100
AcDbEntity
  8
WUWAGAKI
 48
10.0
100
AcDbLine
 10
6865.336181588734
 20
4527.423522030727
 30
0.0
 11
6941.487916377413
 21
4583.852986966323
 31
0.0
210
0.0
220
0.0
230
-1.0
1001
ACAD
1000
DSTYLE
1002
{
1070
    78
1070
     8
1070
   270
1070
     8
1070
   140
1040
2.5
1070
    74
1070
     0
1070
   172
1070
     1
1070
    73
1070
     0
1070
    77
1070
     1
1070
    40
1040
10.0
1070
   147
1040
0.625
1070
    42
1040
0.625
1070
    44
1040
1.25
1070
    43
1040
3.75
1070
   141
1040
2.5
1070
    41
1040
2.5
1070
   273
1070
     8
1070
   274
1070
     4
1070
   143
1040
0.0394
1070
   171
1070
     4
1002
}
  0
LINE
  5
423D
330
18
100
AcDbEntity
  8
0
 48
10.0
100
AcDbLine
 10
6835.626814815967
 20
5081.615681186247
 30
0.0
 11
6835.626814815967
 21
5261.615681186246
 31
0.0
  0
LINE
  5
423E
330
18
100
AcDbEntity
  8
0
 48
10.0
100
AcDbLine
 10
7125.62681481601
 20
5081.615681186247
 30
0.0
 11
7125.62681481601
 21
5261.615681186246
 31
0.0
  0
LINE
  5
4241
330
18
100
AcDbEntity
  8
OBJECT
 48
10.0
100
AcDbLine
 10
6941.487916377413
 20
4583.852986966323
 30
0.0
 11
7046.487916377413
 21
4583.852986966323
 31
0.0
  0
MTEXT
  5
4242
330
18
100
AcDbEntity
  8
0
  6
ByBlock
 62
     0
 48
10.0
100
AcDbMText
 10
6993.987916377413
 20
4613.852986966324
 30
0.0
 40
30.0
 41
0.0
 71
     5
 72
     1
  1
50R
 73
     1
 44
1.0
  0
MTEXT
  5
4243
330
18
100
AcDbEntity
  8
0
  6
ByBlock
 62
     0
 48
10.0
100
AcDbMText
 10
6980.626814816011
 20
5611.615691281439
 30
0.0
 40
37.5
 41
0.0
 71
     5
 72
     1
  1
300
 73
     1
 44
1.0
  0
MTEXT
  5
4244
330
18
100
AcDbEntity
  8
0
  6
ByBlock
 62
     0
 48
10.0
100
AcDbMText
 10
6980.626814816011
 20
5261.61569128144
 30
0.0
 40
37.5
 41
0.0
 71
     5
 72
     1
  1
290
 73
     1
 44
1.0
  0
LINE
  5
4245
330
18
100
AcDbEntity
  8
OBJECT
 48
10.0
100
AcDbLine
 10
6835.626814815967
 20
5231.61568251802
 30
0.0
 11
7125.62681481601
 21
5231.615682518022
 31
0.0
  0
LINE
  5
4246
330
18
100
AcDbEntity
  8
OBJECT
 48
10.0
100
AcDbLine
 10
6755.626814815967
 20
5581.61568251802
 30
0.0
 11
7250.62681481601
 21
5581.615682518021
 31
0.0
  0
SOLID
  5
4248
330
18
100
AcDbEntity
  8
0
  6
ByBlock
 62
     0
 48
10.0
100
AcDbTrace
 10
6873.126814815974
 20
5225.365700044862
 30
0.0
 11
6873.126814815974
 21
5237.86570004486
 31
0.0
 12
6835.626814815974
 22
5231.615700044864
 32
0.0
 13
6835.626814815974
 23
5231.615700044864
 33
0.0
  0
MTEXT
  5
424B
330
18
100
AcDbEntity
  8
0
  6
ByBlock
 62
     0
 48
10.0
100
AcDbMText
 10
6770.626814815966
 20
5611.615684494553
 30
0.0
 40
37.5
 41
0.0
 71
     5
 72
     1
  1
120
 73
     1
 44
1.0
  0
SOLID
  5
424C
330
18
100
AcDbEntity
  8
0
  6
ByBlock
 62
     0
 48
10.0
100
AcDbTrace
 10
6748.126826675122
 20
5587.865682518017
 30
0.0
 11
6748.126826675122
 21
5575.365682518016
 31
0.0
 12
6710.626826675121
 22
5581.615682518016
 32
0.0
 13
6710.626826675121
 23
5581.615682518016
 33
0.0
  0
LINE
  5
424D
330
18
100
AcDbEntity
  8
0
 48
10.0
100
AcDbLine
 10
6830.626814815968
 20
5431.615681186247
 30
0.0
 11
6830.626814815968
 21
5611.615681186247
 31
0.0
  0
SOLID
  5
424E
330
18
100
AcDbEntity
  8
0
  6
ByBlock
 62
     0
 48
10.0
100
AcDbTrace
 10
6868.126814815973
 20
5575.365700044862
 30
0.0
 11
6868.126814815973
 21
5587.865700044861
 31
0.0
 12
6830.626814815973
 22
5581.615700044864
 32
0.0
 13
6830.626814815973
 23
5581.615700044864
 33
0.0
  0
SOLID
  5
424F
330
18
100
AcDbEntity
  8
0
  6
ByBlock
 62
     0
 48
10.0
100
AcDbTrace
 10
6793.12681481596
 20
5575.365700044862
 30
0.0
 11
6793.12681481596
 21
5587.865700044861
 31
0.0
 12
6830.626814815961
 22
5581.615700044864
 32
0.0
 13
6830.626814815961
 23
5581.615700044864
 33
0.0
  0
SOLID
  5
4250
330
18
100
AcDbEntity
  8
0
  6
ByBlock
 62
     0
 48
10.0
100
AcDbTrace
 10
7088.126919977056
 20
5225.365691281441
 30
0.0
 11
7088.126919977056
 21
5237.865691281439
 31
0.0
 12
7125.626919977055
 22
5231.615691281444
 32
0.0
 13
7125.626919977055
 23
5231.615691281444
 33
0.0
  0
SOLID
  5
4254
330
18
100
AcDbEntity
  8
0
  6
ByBlock
 62
     0
 48
10.0
100
AcDbTrace
 10
7093.126919977056
 20
5575.365691281441
 30
0.0
 11
7093.126919977056
 21
5587.865691281439
 31
0.0
 12
7130.626919977055
 22
5581.615691281443
 32
0.0
 13
7130.626919977055
 23
5581.615691281443
 33
0.0
  0
MTEXT
  5
4255
330
18
100
AcDbEntity
  8
0
  6
ByBlock
 62
     0
 48
10.0
100
AcDbMText
 10
7155.626814816011
 20
5641.615682518021
 30
0.0
 40
37.5
 41
0.0
 71
     5
 72
     1
  1
50
 73
     1
 44
1.0
  0
LINE
  5
4256
330
18
100
AcDbEntity
  8
0
 48
10.0
100
AcDbLine
 10
7130.626814816011
 20
5431.615681186247
 30
0.0
 11
7130.626814816011
 21
5611.615681186247
 31
0.0
  0
LINE
  5
4257
330
18
100
AcDbEntity
  8
0
 48
10.0
100
AcDbLine
 10
7180.626814816012
 20
5431.615691281438
 30
0.0
 11
7180.626814816012
 21
5611.615691281437
 31
0.0
  0
MTEXT
  5
4258
330
18
100
AcDbEntity
  8
0
  6
ByBlock
 62
     0
 48
10.0
100
AcDbMText
 10
7215.626814816011
 20
5611.615682518021
 30
0.0
 40
37.5
 41
0.0
 71
     5
 72
     1
  1
70
 73
     1
 44
1.0
  0
LWPOLYLINE
  5
4259
330
18
100
AcDbEntity
  8
上線
 48
10.0
100
AcDbPolyline
 90
        2
 70
     1
 43
5.0
 10
7178.12681481601
 20
5581.593744910213
 42
1.0
 10
7183.12681481601
 20
5581.593744910213
 42
1.0
  0
SOLID
  5
425A
330
18
100
AcDbEntity
  8
0
  6
ByBlock
 62
     0
 48
10.0
100
AcDbTrace
 10
7288.126826675143
 20
5587.865682518017
 30
0.0
 11
7288.126826675143
 21
5575.365682518016
 31
0.0
 12
7250.626826675143
 22
5581.615682518016
 32
0.0
 13
7250.626826675143
 23
5581.615682518016
 33
0.0
  0
LINE
  5
425B
330
18
100
AcDbEntity
  8
OBJECT
 48
10.0
100
AcDbLine
 10
5710.626788993495
 20
6521.615680541488
 30
0.0
 11
6310.626788993495
 21
6521.615680541488
 31
0.0
  0
LINE
  5
425C
330
18
100
AcDbEntity
  8
OBJECT
 48
10.0
100
AcDbLine
 10
6310.626788993495
 20
6671.615682518016
 30
0.0
 11
5710.626788993495
 21
6671.615682518018
 31
0.0
  0
LINE
  5
4263
330
18
100
AcDbEntity
  8
OBJECT
 48
10.0
100
AcDbLine
 10
5530.626797756913
 20
5846.615717103909
 30
0.0
 11
5530.626797756911
 21
6341.615717103953
 31
0.0
  0
LINE
  5
4264
330
18
100
AcDbEntity
  8
OBJECT
 48
10.0
100
AcDbLine
 10
5380.62678899349
 20
5846.615717103909
 30
0.0
 11
5380.62678899349
 21
6341.615717103931
 31
0.0
  0
SOLID
  5
4265
330
18
100
AcDbEntity
  8
0
  6
ByBlock
 62
     0
 48
10.0
100
AcDbTrace
 10
5536.876788993492
 20
6184.115822264999
 30
0.0
 11
5524.376788993493
 21
6184.115822264999
 31
0.0
 12
5530.62678899349
 22
6221.615822264999
 32
0.0
 13
5530.62678899349
 23
6221.615822264999
 33
0.0
  0
LINE
  5
4268
330
18
100
AcDbEntity
  8
0
 48
10.0
100
AcDbLine
 10
5680.626799088686
 20
5921.615717103909
 30
0.0
 11
5500.626799088686
 21
5921.615717103909
 31
0.0
  0
LINE
  5
4269
330
18
100
AcDbEntity
  8
0
 48
10.0
100
AcDbLine
 10
5680.626788993495
 20
5801.61571710391
 30
0.0
 11
5350.626788993495
 21
5801.61571710391
 31
0.0
  0
SOLID
  5
426A
330
18
100
AcDbEntity
  8
0
  6
ByBlock
 62
     0
 48
10.0
100
AcDbTrace
 10
5536.876780230071
 20
5959.115717103916
 30
0.0
 11
5524.376780230073
 21
5959.115717103916
 31
0.0
 12
5530.626780230068
 22
5921.615717103915
 32
0.0
 13
5530.626780230068
 23
5921.615717103915
 33
0.0
  0
SOLID
  5
426B
330
18
100
AcDbEntity
  8
0
  6
ByBlock
 62
     0
 48
10.0
100
AcDbTrace
 10
5386.876788993491
 20
5839.115717103931
 30
0.0
 11
5374.376788993491
 21
5839.115717103931
 31
0.0
 12
5380.62678899349
 22
5801.615717103931
 32
0.0
 13
5380.62678899349
 23
5801.615717103931
 33
0.0
  0
SOLID
  5
426C
330
18
100
AcDbEntity
  8
0
  6
ByBlock
 62
     0
 48
10.0
100
AcDbTrace
 10
5524.376797756914
 20
5839.115728963064
 30
0.0
 11
5536.876797756917
 21
5839.115728963064
 31
0.0
 12
5530.626797756917
 22
5801.615728963064
 32
0.0
 13
5530.626797756917
 23
5801.615728963064
 33
0.0
  0
MTEXT
  5
426D
330
18
100
AcDbEntity
  8
0
  6
ByBlock
 62
     0
 48
10.0
100
AcDbMText
 10
5500.626795780379
 20
5861.61571710391
 30
0.0
 40
37.5
 41
0.0
 71
     5
 72
     1
  1
120
 11
0.0000000000000001
 21
1.0
 31
0.0
 73
     1
 44
1.0
  0
SOLID
  5
426E
330
18
100
AcDbEntity
  8
0
  6
ByBlock
 62
     0
 48
10.0
100
AcDbTrace
 10
5536.876780230071
 20
5884.115717103902
 30
0.0
 11
5524.376780230073
 21
5884.115717103902
 31
0.0
 12
5530.626780230068
 22
5921.615717103903
 32
0.0
 13
5530.626780230068
 23
5921.615717103903
 33
0.0
  0
MTEXT
  5
426F
330
18
100
AcDbEntity
  8
0
  6
ByBlock
 62
     0
 48
10.0
100
AcDbMText
 10
5350.626788993491
 20
6071.615717103953
 30
0.0
 40
37.5
 41
0.0
 71
     5
 72
     1
  1
540
 11
0.0000000000000001
 21
1.0
 31
0.0
 73
     1
 44
1.0
  0
MTEXT
  5
4270
330
18
100
AcDbEntity
  8
0
  6
ByBlock
 62
     0
 48
10.0
100
AcDbMText
 10
5500.626788993493
 20
6071.615717103953
 30
0.0
 40
37.5
 41
0.0
 71
     5
 72
     1
  1
300
 11
0.0000000000000001
 21
1.0
 31
0.0
 73
     1
 44
1.0
  0
LINE
  5
4271
330
18
100
AcDbEntity
  8
0
 48
10.0
100
AcDbLine
 10
5680.626799088686
 20
6221.615717103953
 30
0.0
 11
5500.626799088686
 21
6221.615717103953
 31
0.0
  0
LINE
  5
4272
330
18
100
AcDbEntity
  8
0
 48
10.0
100
AcDbLine
 10
5680.626788993495
 20
6271.615717103953
 30
0.0
 11
5500.626788993495
 21
6271.615717103953
 31
0.0
  0
LINE
  5
4273
330
18
100
AcDbEntity
  8
0
 48
10.0
100
AcDbLine
 10
5680.626788993492
 20
6341.615717103953
 30
0.0
 11
5350.626788993491
 21
6341.615717103953
 31
0.0
  0
SOLID
  5
4274
330
18
100
AcDbEntity
  8
0
  6
ByBlock
 62
     0
 48
10.0
100
AcDbTrace
 10
5386.876788993491
 20
6304.115717103932
 30
0.0
 11
5374.376788993491
 21
6304.115717103932
 31
0.0
 12
5380.62678899349
 22
6341.615717103931
 32
0.0
 13
5380.62678899349
 23
6341.615717103931
 33
0.0
  0
LINE
  5
4275
330
18
100
AcDbEntity
  8
OBJECT
 48
10.0
100
AcDbLine
 10
5530.626797756913
 20
6341.615717103931
 30
0.0
 11
5530.626797756913
 21
6454.115717103931
 31
0.0
  0
SOLID
  5
4276
330
18
100
AcDbEntity
  8
0
  6
ByBlock
 62
     0
 48
10.0
100
AcDbTrace
 10
5524.376797756914
 20
6379.115728963085
 30
0.0
 11
5536.876797756917
 21
6379.115728963085
 31
0.0
 12
5530.626797756917
 22
6341.615728963086
 32
0.0
 13
5530.626797756917
 23
6341.615728963086
 33
0.0
  0
MTEXT
  5
4277
330
18
100
AcDbEntity
  8
0
  6
ByBlock
 62
     0
 48
10.0
100
AcDbMText
 10
5470.626797756911
 20
6246.615717103953
 30
0.0
 40
37.5
 41
0.0
 71
     5
 72
     1
  1
50
 11
0.0000000000000001
 21
1.0
 31
0.0
 73
     1
 44
1.0
  0
LWPOLYLINE
  5
4278
330
18
100
AcDbEntity
  8
上線
 48
10.0
100
AcDbPolyline
 90
        2
 70
     1
 43
5.0
 10
5530.648735364719
 20
6269.115717103954
 42
1.0
 10
5530.648735364719
 20
6274.115717103953
 42
1.0
  0
MTEXT
  5
4279
330
18
100
AcDbEntity
  8
0
  6
ByBlock
 62
     0
 48
10.0
100
AcDbMText
 10
5500.626797756911
 20
6306.615717103953
 30
0.0
 40
37.5
 41
0.0
 71
     5
 72
     1
  1
70
 11
0.0000000000000001
 21
1.0
 31
0.0
 73
     1
 44
1.0
  0
LINE
  5
427A
330
18
100
AcDbEntity
  8
0
 48
10.0
100
AcDbLine
 10
5810.626788993495
 20
6371.615691281437
 30
0.0
 11
5810.626788993495
 21
6551.615691281438
 31
0.0
  0
LINE
  5
427B
330
18
100
AcDbEntity
  8
0
 48
10.0
100
AcDbLine
 10
5710.626788993495
 20
6371.615691281437
 30
0.0
 11
5710.626788993495
 21
6701.615691281438
 31
0.0
  0
SOLID
  5
427C
330
18
100
AcDbEntity
  8
0
  6
ByBlock
 62
     0
 48
10.0
100
AcDbTrace
 10
5748.126788993516
 20
6665.36569128144
 30
0.0
 11
5748.126788993516
 21
6677.865691281439
 31
0.0
 12
5710.626788993517
 22
6671.615691281441
 32
0.0
 13
5710.626788993517
 23
6671.615691281441
 33
0.0
  0
SOLID
  5
427D
330
18
100
AcDbEntity
  8
0
  6
ByBlock
 62
     0
 48
10.0
100
AcDbTrace
 10
5748.12680085265
 20
6515.365680541489
 30
0.0
 11
5748.12680085265
 21
6527.865680541491
 31
0.0
 12
5710.62680085265
 22
6521.615680541491
 32
0.0
 13
5710.62680085265
 23
6521.615680541491
 33
0.0
  0
MTEXT
  5
427E
330
18
100
AcDbEntity
  8
0
  6
ByBlock
 62
     0
 48
10.0
100
AcDbMText
 10
5760.626788993495
 20
6551.615682518018
 30
0.0
 40
37.5
 41
0.0
 71
     5
 72
     1
  1
100
 73
     1
 44
1.0
  0
SOLID
  5
427F
330
18
100
AcDbEntity
  8
0
  6
ByBlock
 62
     0
 48
10.0
100
AcDbTrace
 10
5848.1267245538
 20
6515.365691281435
 30
0.0
 11
5848.1267245538
 21
6527.865691281435
 31
0.0
 12
5810.6267245538
 22
6521.615691281438
 32
0.0
 13
5810.6267245538
 23
6521.615691281438
 33
0.0
  0
SOLID
  5
4280
330
18
100
AcDbEntity
  8
0
  6
ByBlock
 62
     0
 48
10.0
100
AcDbTrace
 10
5773.126788993493
 20
6515.365691281435
 30
0.0
 11
5773.126788993493
 21
6527.865691281435
 31
0.0
 12
5810.626788993492
 22
6521.615691281438
 32
0.0
 13
5810.626788993492
 23
6521.615691281438
 33
0.0
  0
MTEXT
  5
4283
330
18
100
AcDbEntity
  8
0
  6
ByBlock
 62
     0
 48
10.0
100
AcDbMText
 10
6260.626788993495
 20
6551.615682518018
 30
0.0
 40
37.5
 41
0.0
 71
     5
 72
     1
  1
100
 73
     1
 44
1.0
  0
LINE
  5
4284
330
18
100
AcDbEntity
  8
0
 48
10.0
100
AcDbLine
 10
6210.626788993495
 20
6371.615691281437
 30
0.0
 11
6210.626788993495
 21
6551.615691281438
 31
0.0
  0
MTEXT
  5
4285
330
18
100
AcDbEntity
  8
0
  6
ByBlock
 62
     0
 48
10.0
100
AcDbMText
 10
6010.626788993495
 20
6551.615691281438
 30
0.0
 40
37.5
 41
0.0
 71
     5
 72
     1
  1
400
 73
     1
 44
1.0
  0
MTEXT
  5
4286
330
18
100
AcDbEntity
  8
0
  6
ByBlock
 62
     0
 48
10.0
100
AcDbMText
 10
6010.626788993495
 20
6701.615691281438
 30
0.0
 40
37.5
 41
0.0
 71
     5
 72
     1
  1
600
 73
     1
 44
1.0
  0
SOLID
  5
4287
330
18
100
AcDbEntity
  8
0
  6
ByBlock
 62
     0
 48
10.0
100
AcDbTrace
 10
6248.126788993499
 20
6515.365691281435
 30
0.0
 11
6248.126788993499
 21
6527.865691281435
 31
0.0
 12
6210.626788993498
 22
6521.615691281438
 32
0.0
 13
6210.626788993498
 23
6521.615691281438
 33
0.0
  0
SOLID
  5
4288
330
18
100
AcDbEntity
  8
0
  6
ByBlock
 62
     0
 48
10.0
100
AcDbTrace
 10
6173.12685343319
 20
6515.365691281435
 30
0.0
 11
6173.12685343319
 21
6527.865691281435
 31
0.0
 12
6210.62685343319
 22
6521.615691281438
 32
0.0
 13
6210.62685343319
 23
6521.615691281438
 33
0.0
  0
LINE
  5
4289
330
18
100
AcDbEntity
  8
0
 48
10.0
100
AcDbLine
 10
6310.626788993495
 20
6371.615691281437
 30
0.0
 11
6310.626788993495
 21
6701.615691281438
 31
0.0
  0
SOLID
  5
428A
330
18
100
AcDbEntity
  8
0
  6
ByBlock
 62
     0
 48
10.0
100
AcDbTrace
 10
6273.126777134341
 20
6515.365680541489
 30
0.0
 11
6273.126777134341
 21
6527.865680541491
 31
0.0
 12
6310.626777134341
 22
6521.615680541491
 32
0.0
 13
6310.626777134341
 23
6521.615680541491
 33
0.0
  0
SOLID
  5
428B
330
18
100
AcDbEntity
  8
0
  6
ByBlock
 62
     0
 48
10.0
100
AcDbTrace
 10
6273.126788993473
 20
6665.36569128144
 30
0.0
 11
6273.126788993473
 21
6677.865691281439
 31
0.0
 12
6310.626788993474
 22
6671.615691281441
 32
0.0
 13
6310.626788993474
 23
6671.615691281441
 33
0.0
  0
MTEXT
  5
428C
330
18
100
AcDbEntity
  8
0
  6
ByBlock
 62
     0
 48
10.0
100
AcDbMText
 10
6980.626814816011
 20
5761.615691281441
 30
0.0
 40
37.5
 41
0.0
 71
     5
 72
     1
  1
540
 73
     1
 44
1.0
  0
LINE
  5
428D
330
18
100
AcDbEntity
  8
OBJECT
 48
10.0
100
AcDbLine
 10
6755.626814815967
 20
5731.615691281444
 30
0.0
 11
7250.626814815989
 21
5731.615691281444
 31
0.0
  0
SOLID
  5
428E
330
18
100
AcDbEntity
  8
0
  6
ByBlock
 62
     0
 48
10.0
100
AcDbTrace
 10
6748.126814815988
 20
5725.365691281441
 30
0.0
 11
6748.126814815988
 21
5737.865691281442
 31
0.0
 12
6710.626814815988
 22
5731.615691281444
 32
0.0
 13
6710.626814815988
 23
5731.615691281444
 33
0.0
  0
SOLID
  5
428F
330
18
100
AcDbEntity
  8
0
  6
ByBlock
 62
     0
 48
10.0
100
AcDbTrace
 10
7213.126814815989
 20
5725.365691281441
 30
0.0
 11
7213.126814815989
 21
5737.865691281442
 31
0.0
 12
7250.626814815989
 22
5731.615691281444
 32
0.0
 13
7250.626814815989
 23
5731.615691281444
 33
0.0
  0
LINE
  5
4290
330
18
100
AcDbEntity
  8
WUWAGAKI
100
AcDbLine
 10
8978.027313540119
 20
4032.443651716607
 30
0.0
 11
8978.027313540119
 21
6958.593503512732
 31
0.0
  0
LINE
  5
4291
330
18
100
AcDbEntity
  8
WUWAGAKI
100
AcDbLine
 10
7818.72772563174
 20
4100.943186158411
 30
0.0
 11
8911.524300732162
 21
4100.943186158411
 31
0.0
  0
LINE
  5
4292
330
18
100
AcDbEntity
  8
WUWAGAKI
100
AcDbLine
 10
7818.72772563174
 20
4520.923618787979
 30
0.0
 11
8911.524300732162
 21
4520.923618787979
 31
0.0
  0
LINE
  5
4293
330
18
100
AcDbEntity
  8
WUWAGAKI
100
AcDbLine
 10
7818.72772563174
 20
4426.393330842842
 30
0.0
 11
8908.892478396399
 21
4426.393330842842
 31
0.0
  0
LINE
  5
4294
330
18
100
AcDbEntity
  8
WUWAGAKI
100
AcDbLine
 10
7818.72772563174
 20
4426.393330842842
 30
0.0
 11
8908.892478396399
 21
4426.393330842842
 31
0.0
  0
LINE
  5
4295
330
18
100
AcDbEntity
  8
WUWAGAKI
100
AcDbLine
 10
7818.72772563174
 20
4330.486945878227
 30
0.0
 11
8911.52430073216
 21
4330.486945878227
 31
0.0
  0
LINE
  5
4296
330
18
100
AcDbEntity
  8
WUWAGAKI
100
AcDbLine
 10
7818.72772563174
 20
4231.971881713621
 30
0.0
 11
8911.52430073216
 21
4231.971881713621
 31
0.0
  0
TEXT
  5
4297
330
18
100
AcDbEntity
  8
WUWAGAKI
100
AcDbText
 10
8105.180600563079
 20
4354.910707429913
 30
0.0
 40
38.2725
  1
300×U850×600×120/120×H
100
AcDbText
  0
TEXT
  5
4298
330
18
100
AcDbEntity
  8
WUWAGAKI
100
AcDbText
 10
7891.253927155101
 20
4255.042425031895
 30
0.0
 40
45.0
  1
縮尺
100
AcDbText
  0
TEXT
  5
4299
330
18
100
AcDbEntity
  8
WUWAGAKI
100
AcDbText
 10
7863.606169394021
 20
4351.540378023377
 30
0.0
 40
45.0
  1
寸　法
100
AcDbText
  0
TEXT
  5
429A
330
18
100
AcDbEntity
  8
WUWAGAKI
100
AcDbText
 10
7866.261381280441
 20
4452.679218060358
 30
0.0
 40
45.0
  1
種　別
100
AcDbText
  0
LINE
  5
429B
330
18
100
AcDbEntity
  8
WUWAGAKI
100
AcDbLine
 10
7818.72772563174
 20
4520.923618787979
 30
0.0
 11
7818.72772563174
 21
4100.943186158411
 31
0.0
  0
TEXT
  5
429C
330
18
100
AcDbEntity
  8
WUWAGAKI
100
AcDbText
 10
8057.433158531214
 20
4132.550752964796
 30
0.0
 40
60.0
  1
㈱　ウ　チ　コ　ン
100
AcDbText
  0
TEXT
  5
429D
330
18
100
AcDbEntity
  8
WUWAGAKI
100
AcDbText
 10
8105.180600563079
 20
4256.344340461352
 30
0.0
 40
45.0
  1
S＝　1：15
100
AcDbText
  0
LINE
  5
429E
330
18
100
AcDbEntity
  8
WUWAGAKI
100
AcDbLine
 10
8070.844197200248
 20
4520.923618787979
 30
0.0
 11
8070.844197200248
 21
4231.971881713621
 31
0.0
  0
TEXT
  5
429F
330
18
100
AcDbEntity
  8
WUWAGAKI
100
AcDbText
 10
8105.180600563079
 20
4450.100057864298
 30
0.0
 40
45.0
  1
集水桝
100
AcDbText
  0
TEXT
  5
42A0
330
18
100
AcDbEntity
  8
WUWAGAKI
100
AcDbText
 10
8491.941459136302
 20
4256.393777972893
 30
0.0
 40
45.0
  1
重量
100
AcDbText
  0
LINE
  5
42A1
330
18
100
AcDbEntity
  8
WUWAGAKI
100
AcDbLine
 10
8465.013683384157
 20
4330.486945878227
 30
0.0
 11
8465.013683384157
 21
4231.971881713621
 31
0.0
  0
LINE
  5
42A2
330
18
100
AcDbEntity
  8
WUWAGAKI
100
AcDbLine
 10
8649.242110146476
 20
4330.486945878227
 30
0.0
 11
8649.242110146476
 21
4231.971881713621
 31
0.0
  0
LINE
  5
42A3
330
18
100
AcDbEntity
  8
WUWAGAKI
100
AcDbLine
 10
8911.524300732162
 20
4100.943186158411
 30
0.0
 11
8911.524300732162
 21
4520.923618787979
 31
0.0
  0
SOLID
  5
42D4
330
18
100
AcDbEntity
  8
0
  6
ByBlock
 62
     0
 48
10.0
100
AcDbTrace
 10
5524.376799733447
 20
5439.115703140592
 30
0.0
 11
5536.876799733448
 21
5439.115703140592
 31
0.0
 12
5530.626799733449
 22
5401.615703140592
 32
0.0
 13
5530.626799733449
 23
5401.615703140592
 33
0.0
  0
LINE
  5
42D5
330
18
100
AcDbEntity
  8
OBJECT
 48
10.0
100
AcDbLine
 10
5530.626799733445
 20
5401.615691281438
 30
0.0
 11
5530.626799733445
 21
5514.115691281438
 31
0.0
  0
VIEWPORT
  5
298
330
15
100
AcDbEntity
 67
     1
  8
0
100
AcDbViewport
 10
291.7632241813602
 20
148.5
 30
0.0
 40
583.5264483627204
 41
297.0
 68
     1
 69
     1
 12
291.7632241813602
 22
148.5
 13
0.0
 23
0.0
 14
10.0
 24
10.0
 15
10.0
 25
10.0
 16
0.0
 26
0.0
 36
1.0
 17
0.0
 27
0.0
 37
0.0
 42
50.0
 43
0.0
 44
0.0
 45
297.0
 50
0.0
 51
0.0
 72
   100
 90
    32800
  1

281
     0
 71
     1
 74
     0
110
0.0
120
0.0
130
0.0
111
1.0
121
0.0
131
0.0
112
0.0
122
1.0
132
0.0
 79
     0
146
0.0
  0
ENDSEC
  0
SECTION
  2
OBJECTS
  0
DICTIONARY
  5
C
330
0
100
AcDbDictionary
281
     1
  3
ACAD_GROUP
350
D
  3
ACAD_LAYOUT
350
15FE
  3
ACAD_MLINESTYLE
350
1B
  3
ACAD_PLOTSETTINGS
350
15FF
  3
ACAD_PLOTSTYLENAME
350
15FC
  3
ACDBVARIABLEDICTIONARY
350
B2A
  3
DRAWINGVARIABLESDICT
350
1212
  0
DICTIONARY
  5
D
102
{ACAD_REACTORS
330
C
102
}
330
C
100
AcDbDictionary
281
     1
  3
*A1
350
1DE1
  3
*A2
350
2483
  3
*A3
350
2486
  3
*A4
350
2971
  3
*A5
350
3003
  3
*A6
350
34F4
  0
DICTIONARY
  5
15FE
102
{ACAD_REACTORS
330
C
102
}
330
C
100
AcDbDictionary
281
     1
  3
Model
350
1600
  3
ﾚｲｱｳﾄ1
350
1601
  0
DICTIONARY
  5
1B
102
{ACAD_REACTORS
330
C
102
}
330
C
100
AcDbDictionary
281
     1
  3
STANDARD
350
1C
  0
DICTIONARY
  5
15FF
102
{ACAD_REACTORS
330
C
102
}
330
C
100
AcDbDictionary
281
     1
  0
ACDBDICTIONARYWDFLT
  5
15FC
102
{ACAD_REACTORS
330
C
102
}
330
C
100
AcDbDictionary
281
     1
  3
Normal
350
15FD
100
AcDbDictionaryWithDefault
340
15FD
  0
DICTIONARY
  5
B2A
102
{ACAD_REACTORS
330
C
102
}
330
C
100
AcDbDictionary
281
     1
  3
SORTENTS
350
B2B
  0
DICTIONARY
  5
1212
102
{ACAD_REACTORS
330
C
102
}
330
C
100
AcDbDictionary
281
     1
1001
DRAWINGVARIABLESXDATA
1000
POLARANG
1000
0.785398
1000
POLARMODE
1000
0
  0
GROUP
  5
1DE1
102
{ACAD_REACTORS
330
D
102
}
330
D
100
AcDbGroup
300

 70
     1
 71
     1
  0
GROUP
  5
2483
102
{ACAD_REACTORS
330
D
102
}
330
D
100
AcDbGroup
300

 70
     1
 71
     1
  0
GROUP
  5
2486
102
{ACAD_REACTORS
330
D
102
}
330
D
100
AcDbGroup
300

 70
     1
 71
     1
  0
GROUP
  5
2971
102
{ACAD_REACTORS
330
D
102
}
330
D
100
AcDbGroup
300

 70
     1
 71
     1
  0
GROUP
  5
3003
102
{ACAD_REACTORS
330
D
102
}
330
D
100
AcDbGroup
300

 70
     1
 71
     1
  0
GROUP
  5
34F4
102
{ACAD_REACTORS
330
D
102
}
330
D
100
AcDbGroup
300

 70
     1
 71
     1
  0
LAYOUT
  5
1600
102
{ACAD_REACTORS
330
15FE
102
}
330
15FE
100
AcDbPlotSettings
  1

  2
Canon LBP3800 LIPSLX
  4
A4
  6

 40
5.873749732971191
 41
5.873747825622558
 42
5.873748779296875
 43
5.873748779296875
 44
209.9733276367187
 45
296.9259948730469
 46
0.0
 47
0.0
 48
0.0
 49
0.0
140
0.0
141
0.0
142
1.0
143
1.0
 70
 11952
 72
     1
 73
     1
 74
     0
  7

 75
     0
147
1.0
148
-1119.838883806218
149
-2764.341960111367
100
AcDbLayout
  1
Model
 70
     1
 71
     0
 10
0.0
 20
0.0
 11
12.0
 21
9.0
 12
0.0
 22
0.0
 32
0.0
 14
0.0
 24
0.0
 34
0.0
 15
0.0
 25
0.0
 35
0.0
146
0.0
 13
0.0
 23
0.0
 33
0.0
 16
1.0
 26
0.0
 36
0.0
 17
0.0
 27
1.0
 37
0.0
 76
     0
330
18
  0
LAYOUT
  5
1601
102
{ACAD_REACTORS
330
15FE
102
}
330
15FE
100
AcDbPlotSettings
  1

  2
Canon LBP3800 LIPSLX
  4

  6

 40
0.0
 41
0.0
 42
0.0
 43
0.0
 44
0.0
 45
0.0
 46
0.0
 47
0.0
 48
0.0
 49
0.0
140
0.0
141
0.0
142
1.0
143
1.0
 70
   688
 72
     0
 73
     0
 74
     5
  7

 75
    16
147
1.0
148
0.0
149
0.0
100
AcDbLayout
  1
ﾚｲｱｳﾄ1
 70
     1
 71
     1
 10
0.0
 20
0.0
 11
420.0
 21
297.0
 12
0.0
 22
0.0
 32
0.0
 14
1.000000000000000E+20
 24
1.000000000000000E+20
 34
1.000000000000000E+20
 15
-1.000000000000000E+20
 25
-1.000000000000000E+20
 35
-1.000000000000000E+20
146
0.0
 13
0.0
 23
0.0
 33
0.0
 16
1.0
 26
0.0
 36
0.0
 17
0.0
 27
1.0
 37
0.0
 76
     0
330
15
331
298
  0
MLINESTYLE
  5
1C
102
{ACAD_REACTORS
330
1B
102
}
330
1B
100
AcDbMlineStyle
  2
STANDARD
 70
     0
  3

 62
   256
 51
90.0
 52
90.0
 71
     2
 49
0.5
 62
   256
  6
BYLAYER
 49
-0.5
 62
   256
  6
BYLAYER
  0
ACDBPLACEHOLDER
  5
15FD
102
{ACAD_REACTORS
330
15FC
102
}
330
15FC
  0
DICTIONARYVAR
  5
B2B
102
{ACAD_REACTORS
330
B2A
102
}
330
B2A
100
DictionaryVariables
280
     0
  1
96
  0
ENDSEC
  0
EOF
