  0
SECTION
  2
HEADER
  9
$ACADVER
  1
AC1015
  9
$ACADMAINTVER
 70
     6
  9
$DWGCODEPAGE
  3
ANSI_932
  9
$INSBASE
 10
0.0
 20
0.0
 30
0.0
  9
$EXTMIN
 10
710.0813698183028
 20
984.8549298695507
 30
0.0
  9
$EXTMAX
 10
8893.411115746447
 20
6745.763888986864
 30
0.0
  9
$LIMMIN
 10
0.0
 20
0.0
  9
$LIMMAX
 10
4455.0
 20
3150.0
  9
$ORTHOMODE
 70
     0
  9
$REGENMODE
 70
     1
  9
$FILLMODE
 70
     1
  9
$QTEXTMODE
 70
     0
  9
$MIRRTEXT
 70
     1
  9
$LTSCALE
 40
5.0
  9
$ATTMODE
 70
     1
  9
$TEXTSIZE
 40
2.5
  9
$TRACEWID
 40
1.0
  9
$TEXTSTYLE
  7
STANDARD
  9
$CLAYER
  8
OBJECT
  9
$CELTYPE
  6
BYLAYER
  9
$CECOLOR
 62
   256
  9
$CELTSCALE
 40
1.0
  9
$DISPSILH
 70
     0
  9
$DIMSCALE
 40
15.0
  9
$DIMASZ
 40
2.5
  9
$DIMEXO
 40
0.625
  9
$DIMDLI
 40
3.75
  9
$DIMRND
 40
0.0
  9
$DIMDLE
 40
0.0
  9
$DIMEXE
 40
1.25
  9
$DIMTP
 40
0.0
  9
$DIMTM
 40
0.0
  9
$DIMTXT
 40
2.5
  9
$DIMCEN
 40
2.5
  9
$DIMTSZ
 40
0.0
  9
$DIMTOL
 70
     0
  9
$DIMLIM
 70
     0
  9
$DIMTIH
 70
     0
  9
$DIMTOH
 70
     0
  9
$DIMSE1
 70
     0
  9
$DIMSE2
 70
     0
  9
$DIMTAD
 70
     1
  9
$DIMZIN
 70
     8
  9
$DIMBLK
  1

  9
$DIMASO
 70
     1
  9
$DIMSHO
 70
     1
  9
$DIMPOST
  1

  9
$DIMAPOST
  1

  9
$DIMALT
 70
     0
  9
$DIMALTD
 70
     4
  9
$DIMALTF
 40
0.0394
  9
$DIMLFAC
 40
1.0
  9
$DIMTOFL
 70
     1
  9
$DIMTVP
 40
0.0
  9
$DIMTIX
 70
     0
  9
$DIMSOXD
 70
     0
  9
$DIMSAH
 70
     0
  9
$DIMBLK1
  1

  9
$DIMBLK2
  1

  9
$DIMSTYLE
  2
STANDARD
  9
$DIMCLRD
 70
     0
  9
$DIMCLRE
 70
     0
  9
$DIMCLRT
 70
     0
  9
$DIMTFAC
 40
1.0
  9
$DIMGAP
 40
0.625
  9
$DIMJUST
 70
     0
  9
$DIMSD1
 70
     0
  9
$DIMSD2
 70
     0
  9
$DIMTOLJ
 70
     1
  9
$DIMTZIN
 70
     0
  9
$DIMALTZ
 70
     0
  9
$DIMALTTZ
 70
     0
  9
$DIMUPT
 70
     0
  9
$DIMDEC
 70
     4
  9
$DIMTDEC
 70
     4
  9
$DIMALTU
 70
     8
  9
$DIMALTTD
 70
     4
  9
$DIMTXSTY
  7
STANDARD
  9
$DIMAUNIT
 70
     0
  9
$DIMADEC
 70
     0
  9
$DIMALTRND
 40
0.0
  9
$DIMAZIN
 70
     0
  9
$DIMDSEP
 70
    46
  9
$DIMATFIT
 70
     3
  9
$DIMFRAC
 70
     0
  9
$DIMLDRBLK
  1

  9
$DIMLUNIT
 70
     6
  9
$DIMLWD
 70
    -2
  9
$DIMLWE
 70
    -2
  9
$DIMTMOVE
 70
     0
  9
$LUNITS
 70
     2
  9
$LUPREC
 70
     4
  9
$SKETCHINC
 40
1.0
  9
$FILLETRAD
 40
10.0
  9
$AUNITS
 70
     0
  9
$AUPREC
 70
     0
  9
$MENU
  1
acad
  9
$ELEVATION
 40
0.0
  9
$PELEVATION
 40
0.0
  9
$THICKNESS
 40
0.0
  9
$LIMCHECK
 70
     0
  9
$CHAMFERA
 40
10.0
  9
$CHAMFERB
 40
10.0
  9
$CHAMFERC
 40
20.0
  9
$CHAMFERD
 40
0.0
  9
$SKPOLY
 70
     0
  9
$TDCREATE
 40
2452111.335768865
  9
$TDUCREATE
 40
2452110.960768866
  9
$TDUPDATE
 40
2454547.710206446
  9
$TDUUPDATE
 40
2454547.335206446
  9
$TDINDWG
 40
1.2614678704
  9
$TDUSRTIMER
 40
1.2614678704
  9
$USRTIMER
 70
     1
  9
$ANGBASE
 50
0.0
  9
$ANGDIR
 70
     0
  9
$PDMODE
 70
     0
  9
$PDSIZE
 40
0.0
  9
$PLINEWID
 40
0.0
  9
$SPLFRAME
 70
     0
  9
$SPLINETYPE
 70
     6
  9
$SPLINESEGS
 70
     8
  9
$HANDSEED
  5
3C8E
  9
$SURFTAB1
 70
     6
  9
$SURFTAB2
 70
     6
  9
$SURFTYPE
 70
     6
  9
$SURFU
 70
     6
  9
$SURFV
 70
     6
  9
$UCSBASE
  2

  9
$UCSNAME
  2

  9
$UCSORG
 10
0.0
 20
0.0
 30
0.0
  9
$UCSXDIR
 10
1.0
 20
0.0
 30
0.0
  9
$UCSYDIR
 10
0.0
 20
1.0
 30
0.0
  9
$UCSORTHOREF
  2

  9
$UCSORTHOVIEW
 70
     0
  9
$UCSORGTOP
 10
0.0
 20
0.0
 30
0.0
  9
$UCSORGBOTTOM
 10
0.0
 20
0.0
 30
0.0
  9
$UCSORGLEFT
 10
0.0
 20
0.0
 30
0.0
  9
$UCSORGRIGHT
 10
0.0
 20
0.0
 30
0.0
  9
$UCSORGFRONT
 10
0.0
 20
0.0
 30
0.0
  9
$UCSORGBACK
 10
0.0
 20
0.0
 30
0.0
  9
$PUCSBASE
  2

  9
$PUCSNAME
  2

  9
$PUCSORG
 10
0.0
 20
0.0
 30
0.0
  9
$PUCSXDIR
 10
1.0
 20
0.0
 30
0.0
  9
$PUCSYDIR
 10
0.0
 20
1.0
 30
0.0
  9
$PUCSORTHOREF
  2

  9
$PUCSORTHOVIEW
 70
     0
  9
$PUCSORGTOP
 10
0.0
 20
0.0
 30
0.0
  9
$PUCSORGBOTTOM
 10
0.0
 20
0.0
 30
0.0
  9
$PUCSORGLEFT
 10
0.0
 20
0.0
 30
0.0
  9
$PUCSORGRIGHT
 10
0.0
 20
0.0
 30
0.0
  9
$PUCSORGFRONT
 10
0.0
 20
0.0
 30
0.0
  9
$PUCSORGBACK
 10
0.0
 20
0.0
 30
0.0
  9
$USERI1
 70
     0
  9
$USERI2
 70
     0
  9
$USERI3
 70
     0
  9
$USERI4
 70
     0
  9
$USERI5
 70
     0
  9
$USERR1
 40
0.0
  9
$USERR2
 40
0.0
  9
$USERR3
 40
0.0
  9
$USERR4
 40
0.0
  9
$USERR5
 40
0.0
  9
$WORLDVIEW
 70
     1
  9
$SHADEDGE
 70
     3
  9
$SHADEDIF
 70
    70
  9
$TILEMODE
 70
     1
  9
$MAXACTVP
 70
    48
  9
$PINSBASE
 10
0.0
 20
0.0
 30
0.0
  9
$PLIMCHECK
 70
     0
  9
$PEXTMIN
 10
1.000000000000000E+20
 20
1.000000000000000E+20
 30
1.000000000000000E+20
  9
$PEXTMAX
 10
-1.000000000000000E+20
 20
-1.000000000000000E+20
 30
-1.000000000000000E+20
  9
$PLIMMIN
 10
0.0
 20
0.0
  9
$PLIMMAX
 10
420.0
 20
297.0
  9
$UNITMODE
 70
     0
  9
$VISRETAIN
 70
     1
  9
$PLINEGEN
 70
     0
  9
$PSLTSCALE
 70
     1
  9
$TREEDEPTH
 70
  3020
  9
$CMLSTYLE
  2
STANDARD
  9
$CMLJUST
 70
     0
  9
$CMLSCALE
 40
20.0
  9
$PROXYGRAPHICS
 70
     1
  9
$MEASUREMENT
 70
     1
  9
$CELWEIGHT
370
    -1
  9
$ENDCAPS
280
     0
  9
$JOINSTYLE
280
     0
  9
$LWDISPLAY
290
     0
  9
$INSUNITS
 70
     0
  9
$HYPERLINKBASE
  1

  9
$STYLESHEET
  1

  9
$XEDIT
290
     1
  9
$CEPSNTYPE
380
     0
  9
$PSTYLEMODE
290
     1
  9
$FINGERPRINTGUID
  2
{C9668057-E409-4CFD-A4F9-6C0551275C13}
  9
$VERSIONGUID
  2
{7C9AEE2A-9320-4AB4-B070-75835FAA1081}
  9
$EXTNAMES
290
     1
  9
$PSVPSCALE
 40
0.0
  9
$OLESTARTUP
290
     0
  0
ENDSEC
  0
SECTION
  2
CLASSES
  0
CLASS
  1
LWPOLYLINE
  2
AcDbPolyline
  3
AutoCAD 2000
 90
    32768
280
     0
281
     1
  0
CLASS
  1
DICTIONARYVAR
  2
AcDbDictionaryVar
  3
AutoCAD 2000
 90
        0
280
     0
281
     0
  0
CLASS
  1
HATCH
  2
AcDbHatch
  3
AutoCAD 2000
 90
    32768
280
     0
281
     1
  0
CLASS
  1
ACDBDICTIONARYWDFLT
  2
AcDbDictionaryWithDefault
  3
AutoCAD 2000
 90
        0
280
     0
281
     0
  0
CLASS
  1
ACDBPLACEHOLDER
  2
AcDbPlaceHolder
  3
AutoCAD 2000
 90
        0
280
     0
281
     0
  0
CLASS
  1
LAYOUT
  2
AcDbLayout
  3
AutoCAD 2000
 90
        0
280
     0
281
     0
  0
ENDSEC
  0
SECTION
  2
TABLES
  0
TABLE
  2
VPORT
  5
8
330
0
100
AcDbSymbolTable
 70
     2
  0
VPORT
  5
3C8D
330
8
100
AcDbSymbolTableRecord
100
AcDbViewportTableRecord
  2
*Active
 70
     0
 10
0.0
 20
0.0
 11
1.0
 21
1.0
 12
7012.470832826913
 22
5408.787739250572
 13
0.0
 23
0.0
 14
10.0
 24
10.0
 15
10.0
 25
10.0
 16
0.0
 26
0.0
 36
1.0
 17
0.0
 27
0.0
 37
0.0
 40
3283.042515199924
 41
1.731203007518796
 42
50.0
 43
0.0
 44
0.0
 50
0.0
 51
0.0
 71
     0
 72
   100
 73
     1
 74
     1
 75
     0
 76
     0
 77
     0
 78
     0
281
     0
 65
     1
110
0.0
120
0.0
130
0.0
111
1.0
121
0.0
131
0.0
112
0.0
122
1.0
132
0.0
 79
     0
146
0.0
  0
ENDTAB
  0
TABLE
  2
LTYPE
  5
5
330
0
100
AcDbSymbolTable
 70
    46
  0
LTYPE
  5
12
330
5
100
AcDbSymbolTableRecord
100
AcDbLinetypeTableRecord
  2
BYBLOCK
 70
     0
  3

 72
    65
 73
     0
 40
0.0
  0
LTYPE
  5
13
330
5
100
AcDbSymbolTableRecord
100
AcDbLinetypeTableRecord
  2
BYLAYER
 70
     0
  3

 72
    65
 73
     0
 40
0.0
  0
LTYPE
  5
14
330
5
100
AcDbSymbolTableRecord
100
AcDbLinetypeTableRecord
  2
CONTINUOUS
 70
     0
  3
Solid line
 72
    65
 73
     0
 40
0.0
  0
LTYPE
  5
128
330
5
100
AcDbSymbolTableRecord
100
AcDbLinetypeTableRecord
  2
ACAD_ISO02W100
 70
     0
  3
ISO dash __ __ __ __ __ __ __ __ __ __ __ __ __
 72
    65
 73
     2
 40
15.0
 49
12.0
 74
     0
 49
-3.0
 74
     0
  0
LTYPE
  5
129
330
5
100
AcDbSymbolTableRecord
100
AcDbLinetypeTableRecord
  2
ACAD_ISO03W100
 70
     0
  3
ISO dash space __    __    __    __    __    __
 72
    65
 73
     2
 40
30.0
 49
12.0
 74
     0
 49
-18.0
 74
     0
  0
LTYPE
  5
12A
330
5
100
AcDbSymbolTableRecord
100
AcDbLinetypeTableRecord
  2
ACAD_ISO04W100
 70
     0
  3
ISO long-dash dot ____ . ____ . ____ . ____ . _
 72
    65
 73
     4
 40
30.5
 49
24.0
 74
     0
 49
-3.0
 74
     0
 49
0.5
 74
     0
 49
-3.0
 74
     0
  0
LTYPE
  5
12B
330
5
100
AcDbSymbolTableRecord
100
AcDbLinetypeTableRecord
  2
ACAD_ISO05W100
 70
     0
  3
ISO long-dash double-dot ____ .. ____ .. ____ .
 72
    65
 73
     8
 40
37.5
 49
24.0
 74
     0
 49
-3.0
 74
     0
 49
0.5
 74
     0
 49
-3.0
 74
     0
 49
0.5
 74
     0
 49
-3.0
 74
     0
 49
0.5
 74
     0
 49
-3.0
 74
     0
  0
LTYPE
  5
12C
330
5
100
AcDbSymbolTableRecord
100
AcDbLinetypeTableRecord
  2
ACAD_ISO06W100
 70
     0
  3
ISO long-dash triple-dot ____ ... ____ ... ____
 72
    65
 73
     8
 40
37.5
 49
24.0
 74
     0
 49
-3.0
 74
     0
 49
0.5
 74
     0
 49
-3.0
 74
     0
 49
0.5
 74
     0
 49
-3.0
 74
     0
 49
0.5
 74
     0
 49
-3.0
 74
     0
  0
LTYPE
  5
12D
330
5
100
AcDbSymbolTableRecord
100
AcDbLinetypeTableRecord
  2
ACAD_ISO07W100
 70
     0
  3
ISO dot . . . . . . . . . . . . . . . . . . . .
 72
    65
 73
     2
 40
3.5
 49
0.5
 74
     0
 49
-3.0
 74
     0
  0
LTYPE
  5
12E
330
5
100
AcDbSymbolTableRecord
100
AcDbLinetypeTableRecord
  2
ACAD_ISO08W100
 70
     0
  3
ISO long-dash short-dash ____ __ ____ __ ____ _
 72
    65
 73
     4
 40
36.0
 49
24.0
 74
     0
 49
-3.0
 74
     0
 49
6.0
 74
     0
 49
-3.0
 74
     0
  0
LTYPE
  5
12F
330
5
100
AcDbSymbolTableRecord
100
AcDbLinetypeTableRecord
  2
ACAD_ISO09W100
 70
     0
  3
ISO long-dash double-short-dash ____ __ __ ____
 72
    65
 73
     6
 40
45.0
 49
24.0
 74
     0
 49
-3.0
 74
     0
 49
6.0
 74
     0
 49
-3.0
 74
     0
 49
6.0
 74
     0
 49
-3.0
 74
     0
  0
LTYPE
  5
130
330
5
100
AcDbSymbolTableRecord
100
AcDbLinetypeTableRecord
  2
ACAD_ISO10W100
 70
     0
  3
ISO dash dot __ . __ . __ . __ . __ . __ . __ .
 72
    65
 73
     4
 40
18.5
 49
12.0
 74
     0
 49
-3.0
 74
     0
 49
0.5
 74
     0
 49
-3.0
 74
     0
  0
LTYPE
  5
131
330
5
100
AcDbSymbolTableRecord
100
AcDbLinetypeTableRecord
  2
ACAD_ISO11W100
 70
     0
  3
ISO double-dash dot __ __ . __ __ . __ __ . __ 
 72
    65
 73
     6
 40
33.5
 49
12.0
 74
     0
 49
-3.0
 74
     0
 49
12.0
 74
     0
 49
-3.0
 74
     0
 49
0.5
 74
     0
 49
-3.0
 74
     0
  0
LTYPE
  5
132
330
5
100
AcDbSymbolTableRecord
100
AcDbLinetypeTableRecord
  2
ACAD_ISO12W100
 70
     0
  3
ISO dash double-dot __ . . __ . . __ . . __ . .
 72
    65
 73
     6
 40
22.0
 49
12.0
 74
     0
 49
-3.0
 74
     0
 49
0.5
 74
     0
 49
-3.0
 74
     0
 49
0.5
 74
     0
 49
-3.0
 74
     0
  0
LTYPE
  5
133
330
5
100
AcDbSymbolTableRecord
100
AcDbLinetypeTableRecord
  2
ACAD_ISO13W100
 70
     0
  3
ISO double-dash double-dot __ __ . . __ __ . . 
 72
    65
 73
     8
 40
37.0
 49
12.0
 74
     0
 49
-3.0
 74
     0
 49
12.0
 74
     0
 49
-3.0
 74
     0
 49
0.5
 74
     0
 49
-3.0
 74
     0
 49
0.5
 74
     0
 49
-3.0
 74
     0
  0
LTYPE
  5
134
330
5
100
AcDbSymbolTableRecord
100
AcDbLinetypeTableRecord
  2
ACAD_ISO14W100
 70
     0
  3
ISO dash triple-dot __ . . . __ . . . __ . . . 
 72
    65
 73
     8
 40
25.5
 49
12.0
 74
     0
 49
-3.0
 74
     0
 49
0.5
 74
     0
 49
-3.0
 74
     0
 49
0.5
 74
     0
 49
-3.0
 74
     0
 49
0.5
 74
     0
 49
-3.0
 74
     0
  0
LTYPE
  5
135
330
5
100
AcDbSymbolTableRecord
100
AcDbLinetypeTableRecord
  2
ACAD_ISO15W100
 70
     0
  3
ISO double-dash triple-dot __ __ . . . __ __ . 
 72
    65
 73
    10
 40
40.49999999999999
 49
12.0
 74
     0
 49
-3.0
 74
     0
 49
12.0
 74
     0
 49
-3.0
 74
     0
 49
0.5
 74
     0
 49
-3.0
 74
     0
 49
0.5
 74
     0
 49
-3.0
 74
     0
 49
0.5
 74
     0
 49
-3.0
 74
     0
  0
LTYPE
  5
136
330
5
100
AcDbSymbolTableRecord
100
AcDbLinetypeTableRecord
  2
BATTING
 70
     0
  3
Batting SSSSSSSSSSSSSSSSSSSSSSSSSSSSSSSSSSSSSSS
 72
    65
 73
     4
 40
10.16253999999999
 49
0.00254
 74
     0
 49
-2.54
 74
     4
 75
   134
340
127
 46
2.54
 50
0.0
 44
-2.54
 45
0.0
 49
-5.08
 74
     4
 75
   134
340
127
 46
2.54
 50
180.0
 44
2.54
 45
0.0
 49
-2.54
 74
     0
  0
LTYPE
  5
137
330
5
100
AcDbSymbolTableRecord
100
AcDbLinetypeTableRecord
  2
BORDER
 70
     0
  3
Border __ __ . __ __ . __ __ . __ __ . __ __ .
 72
    65
 73
     6
 40
44.45
 49
12.7
 74
     0
 49
-6.349999999999999
 74
     0
 49
12.7
 74
     0
 49
-6.349999999999999
 74
     0
 49
0.0
 74
     0
 49
-6.349999999999999
 74
     0
  0
LTYPE
  5
138
330
5
100
AcDbSymbolTableRecord
100
AcDbLinetypeTableRecord
  2
BORDER2
 70
     0
  3
Border (.5x) __.__.__.__.__.__.__.__.__.__.__.
 72
    65
 73
     6
 40
22.225
 49
6.349999999999999
 74
     0
 49
-3.174999999999999
 74
     0
 49
6.349999999999999
 74
     0
 49
-3.174999999999999
 74
     0
 49
0.0
 74
     0
 49
-3.174999999999999
 74
     0
  0
LTYPE
  5
139
330
5
100
AcDbSymbolTableRecord
100
AcDbLinetypeTableRecord
  2
BORDERX2
 70
     0
  3
Border (2x) ____  ____  .  ____  ____  .  ___
 72
    65
 73
     6
 40
88.9
 49
25.4
 74
     0
 49
-12.7
 74
     0
 49
25.4
 74
     0
 49
-12.7
 74
     0
 49
0.0
 74
     0
 49
-12.7
 74
     0
  0
LTYPE
  5
13A
330
5
100
AcDbSymbolTableRecord
100
AcDbLinetypeTableRecord
  2
CENTER
 70
     0
  3
Center ____ _ ____ _ ____ _ ____ _ ____ _ ____
 72
    65
 73
     4
 40
50.8
 49
31.75
 74
     0
 49
-6.349999999999999
 74
     0
 49
6.349999999999999
 74
     0
 49
-6.349999999999999
 74
     0
  0
LTYPE
  5
13B
330
5
100
AcDbSymbolTableRecord
100
AcDbLinetypeTableRecord
  2
CENTER2
 70
     0
  3
Center (.5x) ___ _ ___ _ ___ _ ___ _ ___ _ ___
 72
    65
 73
     4
 40
28.57499999999999
 49
19.05
 74
     0
 49
-3.174999999999999
 74
     0
 49
3.174999999999999
 74
     0
 49
-3.174999999999999
 74
     0
  0
LTYPE
  5
13C
330
5
100
AcDbSymbolTableRecord
100
AcDbLinetypeTableRecord
  2
CENTERX2
 70
     0
  3
Center (2x) ________  __  ________  __  _____
 72
    65
 73
     4
 40
101.6
 49
63.5
 74
     0
 49
-12.7
 74
     0
 49
12.7
 74
     0
 49
-12.7
 74
     0
  0
LTYPE
  5
13D
330
5
100
AcDbSymbolTableRecord
100
AcDbLinetypeTableRecord
  2
DASHDOT
 70
     0
  3
Dash dot __ . __ . __ . __ . __ . __ . __ . __
 72
    65
 73
     4
 40
25.4
 49
12.7
 74
     0
 49
-6.349999999999999
 74
     0
 49
0.0
 74
     0
 49
-6.349999999999999
 74
     0
  0
LTYPE
  5
13E
330
5
100
AcDbSymbolTableRecord
100
AcDbLinetypeTableRecord
  2
DASHDOT2
 70
     0
  3
Dash dot (.5x) _._._._._._._._._._._._._._._.
 72
    65
 73
     4
 40
12.7
 49
6.349999999999999
 74
     0
 49
-3.174999999999999
 74
     0
 49
0.0
 74
     0
 49
-3.174999999999999
 74
     0
  0
LTYPE
  5
13F
330
5
100
AcDbSymbolTableRecord
100
AcDbLinetypeTableRecord
  2
DASHDOTX2
 70
     0
  3
Dash dot (2x) ____  .  ____  .  ____  .  ___
 72
    65
 73
     4
 40
50.8
 49
25.4
 74
     0
 49
-12.7
 74
     0
 49
0.0
 74
     0
 49
-12.7
 74
     0
  0
LTYPE
  5
140
330
5
100
AcDbSymbolTableRecord
100
AcDbLinetypeTableRecord
  2
DASHED
 70
     0
  3
Dashed __ __ __ __ __ __ __ __ __ __ __ __ __ _
 72
    65
 73
     2
 40
19.04999999999999
 49
12.7
 74
     0
 49
-6.349999999999999
 74
     0
  0
LTYPE
  5
141
330
5
100
AcDbSymbolTableRecord
100
AcDbLinetypeTableRecord
  2
DASHED2
 70
     0
  3
Dashed (.5x) _ _ _ _ _ _ _ _ _ _ _ _ _ _ _ _ _
 72
    65
 73
     2
 40
9.524999999999998
 49
6.349999999999999
 74
     0
 49
-3.174999999999999
 74
     0
  0
LTYPE
  5
142
330
5
100
AcDbSymbolTableRecord
100
AcDbLinetypeTableRecord
  2
DASHEDX2
 70
     0
  3
Dashed (2x) ____  ____  ____  ____  ____  ___
 72
    65
 73
     2
 40
38.09999999999999
 49
25.4
 74
     0
 49
-12.7
 74
     0
  0
LTYPE
  5
143
330
5
100
AcDbSymbolTableRecord
100
AcDbLinetypeTableRecord
  2
DIVIDE
 70
     0
  3
Divide ____ . . ____ . . ____ . . ____ . . ____
 72
    65
 73
     6
 40
31.74999999999999
 49
12.7
 74
     0
 49
-6.349999999999999
 74
     0
 49
0.0
 74
     0
 49
-6.349999999999999
 74
     0
 49
0.0
 74
     0
 49
-6.349999999999999
 74
     0
  0
LTYPE
  5
144
330
5
100
AcDbSymbolTableRecord
100
AcDbLinetypeTableRecord
  2
DIVIDE2
 70
     0
  3
Divide (.5x) __..__..__..__..__..__..__..__.._
 72
    65
 73
     6
 40
15.87499999999999
 49
6.349999999999999
 74
     0
 49
-3.174999999999999
 74
     0
 49
0.0
 74
     0
 49
-3.174999999999999
 74
     0
 49
0.0
 74
     0
 49
-3.174999999999999
 74
     0
  0
LTYPE
  5
145
330
5
100
AcDbSymbolTableRecord
100
AcDbLinetypeTableRecord
  2
DIVIDEX2
 70
     0
  3
Divide (2x) ________  .  .  ________  .  .  _
 72
    65
 73
     6
 40
63.49999999999999
 49
25.4
 74
     0
 49
-12.7
 74
     0
 49
0.0
 74
     0
 49
-12.7
 74
     0
 49
0.0
 74
     0
 49
-12.7
 74
     0
  0
LTYPE
  5
146
330
5
100
AcDbSymbolTableRecord
100
AcDbLinetypeTableRecord
  2
DOT
 70
     0
  3
Dot . . . . . . . . . . . . . . . . . . . . . .
 72
    65
 73
     2
 40
6.349999999999999
 49
0.0
 74
     0
 49
-6.349999999999999
 74
     0
  0
LTYPE
  5
147
330
5
100
AcDbSymbolTableRecord
100
AcDbLinetypeTableRecord
  2
DOT2
 70
     0
  3
Dot (.5x) .....................................
 72
    65
 73
     2
 40
3.174999999999999
 49
0.0
 74
     0
 49
-3.174999999999999
 74
     0
  0
LTYPE
  5
148
330
5
100
AcDbSymbolTableRecord
100
AcDbLinetypeTableRecord
  2
DOTX2
 70
     0
  3
Dot (2x) .  .  .  .  .  .  .  .  .  .  .  .  . 
 72
    65
 73
     2
 40
12.7
 49
0.0
 74
     0
 49
-12.7
 74
     0
  0
LTYPE
  5
149
330
5
100
AcDbSymbolTableRecord
100
AcDbLinetypeTableRecord
  2
FENCELINE1
 70
     0
  3
Fenceline circle ----0-----0----0-----0----0---
 72
    65
 73
     4
 40
36.82999999999999
 49
6.349999999999999
 74
     0
 49
-2.54
 74
     4
 75
   133
340
127
 46
2.54
 50
0.0
 44
-2.54
 45
0.0
 49
-2.54
 74
     0
 49
25.4
 74
     0
  0
LTYPE
  5
14A
330
5
100
AcDbSymbolTableRecord
100
AcDbLinetypeTableRecord
  2
FENCELINE2
 70
     0
  3
Fenceline square ----[]-----[]----[]-----[]----
 72
    65
 73
     4
 40
36.82999999999999
 49
6.349999999999999
 74
     0
 49
-2.54
 74
     4
 75
   132
340
127
 46
2.54
 50
0.0
 44
-2.54
 45
0.0
 49
-2.54
 74
     0
 49
25.4
 74
     0
  0
LTYPE
  5
14B
330
5
100
AcDbSymbolTableRecord
100
AcDbLinetypeTableRecord
  2
GAS_LINE
 70
     0
  3
Gas line ----GAS----GAS----GAS----GAS----GAS---
 72
    65
 73
     3
 40
24.13
 49
12.7
 74
     0
 49
-5.08
 74
     2
 75
     0
340
F
 46
2.54
 50
0.0
 44
-2.54
 45
-1.27
  9
GAS
 49
-6.349999999999999
 74
     0
  0
LTYPE
  5
14C
330
5
100
AcDbSymbolTableRecord
100
AcDbLinetypeTableRecord
  2
HIDDEN
 70
     0
  3
Hidden __ __ __ __ __ __ __ __ __ __ __ __ __ _
 72
    65
 73
     2
 40
9.524999999999998
 49
6.349999999999999
 74
     0
 49
-3.174999999999999
 74
     0
  0
LTYPE
  5
14D
330
5
100
AcDbSymbolTableRecord
100
AcDbLinetypeTableRecord
  2
HIDDEN2
 70
     0
  3
Hidden (.5x) _ _ _ _ _ _ _ _ _ _ _ _ _ _ _ _ _
 72
    65
 73
     2
 40
4.762499999999999
 49
3.174999999999999
 74
     0
 49
-1.587499999999999
 74
     0
  0
LTYPE
  5
14E
330
5
100
AcDbSymbolTableRecord
100
AcDbLinetypeTableRecord
  2
HIDDENX2
 70
     0
  3
Hidden (2x) ____ ____ ____ ____ ____ ____ ____
 72
    65
 73
     2
 40
19.04999999999999
 49
12.7
 74
     0
 49
-6.349999999999999
 74
     0
  0
LTYPE
  5
14F
330
5
100
AcDbSymbolTableRecord
100
AcDbLinetypeTableRecord
  2
HOT_WATER_SUPPLY
 70
     0
  3
Hot water supply ---- HW ---- HW ---- HW ----
 72
    65
 73
     3
 40
22.86
 49
12.7
 74
     0
 49
-5.08
 74
     2
 75
     0
340
F
 46
2.54
 50
0.0
 44
-2.54
 45
-1.27
  9
HW
 49
-5.08
 74
     0
  0
LTYPE
  5
150
330
5
100
AcDbSymbolTableRecord
100
AcDbLinetypeTableRecord
  2
PHANTOM
 70
     0
  3
Phantom ______  __  __  ______  __  __  ______
 72
    65
 73
     6
 40
63.5
 49
31.75
 74
     0
 49
-6.349999999999999
 74
     0
 49
6.349999999999999
 74
     0
 49
-6.349999999999999
 74
     0
 49
6.349999999999999
 74
     0
 49
-6.349999999999999
 74
     0
  0
LTYPE
  5
151
330
5
100
AcDbSymbolTableRecord
100
AcDbLinetypeTableRecord
  2
PHANTOM2
 70
     0
  3
Phantom (.5x) ___ _ _ ___ _ _ ___ _ _ ___ _ _
 72
    65
 73
     6
 40
31.75
 49
15.875
 74
     0
 49
-3.174999999999999
 74
     0
 49
3.174999999999999
 74
     0
 49
-3.174999999999999
 74
     0
 49
3.174999999999999
 74
     0
 49
-3.174999999999999
 74
     0
  0
LTYPE
  5
152
330
5
100
AcDbSymbolTableRecord
100
AcDbLinetypeTableRecord
  2
PHANTOMX2
 70
     0
  3
Phantom (2x) ____________    ____    ____   _
 72
    65
 73
     6
 40
127.0
 49
63.5
 74
     0
 49
-12.7
 74
     0
 49
12.7
 74
     0
 49
-12.7
 74
     0
 49
12.7
 74
     0
 49
-12.7
 74
     0
  0
LTYPE
  5
153
330
5
100
AcDbSymbolTableRecord
100
AcDbLinetypeTableRecord
  2
TRACKS
 70
     0
  3
Tracks -|-|-|-|-|-|-|-|-|-|-|-|-|-|-|-|-|-|-|-|
 72
    65
 73
     2
 40
7.62
 49
3.81
 74
     4
 75
   130
340
127
 46
6.349999999999999
 50
0.0
 44
0.0
 45
0.0
 49
3.81
 74
     0
  0
LTYPE
  5
154
330
5
100
AcDbSymbolTableRecord
100
AcDbLinetypeTableRecord
  2
ZIGZAG
 70
     0
  3
Zig zag /\/\/\/\/\/\/\/\/\/\/\/\/\/\/\/\/\/\/\/
 72
    65
 73
     4
 40
20.32254
 49
0.00254
 74
     0
 49
-5.08
 74
     4
 75
   131
340
127
 46
5.08
 50
0.0
 44
-5.08
 45
0.0
 49
-10.16
 74
     4
 75
   131
340
127
 46
5.08
 50
180.0
 44
5.08
 45
0.0
 49
-5.08
 74
     0
  0
ENDTAB
  0
TABLE
  2
LAYER
  5
2
330
0
100
AcDbSymbolTable
 70
    10
  0
LAYER
  5
E
330
2
100
AcDbSymbolTableRecord
100
AcDbLayerTableRecord
  2
0
 70
     0
 62
     7
  6
CONTINUOUS
370
    -3
390
15FD
  0
LAYER
  5
20
330
2
100
AcDbSymbolTableRecord
100
AcDbLayerTableRecord
  2
DEFPOINTS
 70
     0
 62
     7
  6
CONTINUOUS
290
     0
370
    -3
390
15FD
  0
LAYER
  5
21
330
2
100
AcDbSymbolTableRecord
100
AcDbLayerTableRecord
  2
OBJECT
 70
     0
 62
     7
  6
CONTINUOUS
370
    -3
390
15FD
  0
LAYER
  5
155
330
2
100
AcDbSymbolTableRecord
100
AcDbLayerTableRecord
  2
上書線
 70
     0
 62
     7
  6
CONTINUOUS
370
    -3
390
15FD
  0
LAYER
  5
156
330
2
100
AcDbSymbolTableRecord
100
AcDbLayerTableRecord
  2
基準線
 70
     0
 62
    -1
  6
CONTINUOUS
370
    -3
390
15FD
  0
LAYER
  5
157
330
2
100
AcDbSymbolTableRecord
100
AcDbLayerTableRecord
  2
点線
 70
     0
 62
     5
  6
HIDDEN
370
    -3
390
15FD
  0
LAYER
  5
158
330
2
100
AcDbSymbolTableRecord
100
AcDbLayerTableRecord
  2
寸法線
 70
     0
 62
     2
  6
CONTINUOUS
370
    -3
390
15FD
  0
LAYER
  5
19D7
330
2
100
AcDbSymbolTableRecord
100
AcDbLayerTableRecord
  2
上線
 70
     0
 62
     7
  6
CONTINUOUS
370
    -3
390
15FD
  0
LAYER
  5
2EB9
330
2
100
AcDbSymbolTableRecord
100
AcDbLayerTableRecord
  2
中心線
 70
     0
 62
     6
  6
CENTER
370
    -3
390
15FD
  0
LAYER
  5
3A05
330
2
100
AcDbSymbolTableRecord
100
AcDbLayerTableRecord
  2
WUWAGAKI
 70
     0
 62
     7
  6
CONTINUOUS
370
    -3
390
15FD
  0
ENDTAB
  0
TABLE
  2
STYLE
  5
3
330
0
100
AcDbSymbolTable
 70
     3
  0
STYLE
  5
F
330
3
100
AcDbSymbolTableRecord
100
AcDbTextStyleTableRecord
  2
STANDARD
 70
     0
 40
0.0
 41
1.0
 50
0.0
 71
     0
 42
2.5
  3
MS PMincho.ttf
  4

1001
ACAD
1000
MS PMincho
1071
    32786
  0
STYLE
  5
22
330
3
100
AcDbSymbolTableRecord
100
AcDbTextStyleTableRecord
  2
ADESK1
 70
     0
 40
0.0
 41
1.0
 50
0.0
 71
     0
 42
5.0
  3
romans
  4
bigfont
  0
STYLE
  5
127
330
3
100
AcDbSymbolTableRecord
100
AcDbTextStyleTableRecord
  2

 70
     1
 40
0.0
 41
1.0
 50
0.0
 71
     0
 42
2.5
  3
ltypeshp.shx
  4

  0
ENDTAB
  0
TABLE
  2
VIEW
  5
6
330
0
100
AcDbSymbolTable
 70
     0
  0
ENDTAB
  0
TABLE
  2
UCS
  5
7
330
0
100
AcDbSymbolTable
 70
     0
  0
ENDTAB
  0
TABLE
  2
APPID
  5
9
330
0
100
AcDbSymbolTable
 70
     2
  0
APPID
  5
10
330
9
100
AcDbSymbolTableRecord
100
AcDbRegAppTableRecord
  2
ACAD
 70
     0
  0
APPID
  5
1213
330
9
100
AcDbSymbolTableRecord
100
AcDbRegAppTableRecord
  2
DRAWINGVARIABLESXDATA
 70
     0
  0
ENDTAB
  0
TABLE
  2
DIMSTYLE
  5
A
330
0
100
AcDbSymbolTable
 70
     2
100
AcDbDimStyleTable
 71
     1
340
1D
  0
DIMSTYLE
105
1D
330
A
100
AcDbSymbolTableRecord
100
AcDbDimStyleTableRecord
  2
STANDARD
 70
     0
340
F
  0
DIMSTYLE
105
23
330
A
100
AcDbSymbolTableRecord
100
AcDbDimStyleTableRecord
  2
JIS
 70
     0
 41
2.5
 42
1.0
 43
7.0
 44
1.0
 73
     0
 74
     0
 77
     1
 78
     8
140
2.5
141
0.0
143
0.0394
147
0.0
172
     1
174
     1
175
     1
340
F
  0
ENDTAB
  0
TABLE
  2
BLOCK_RECORD
  5
1
330
0
100
AcDbSymbolTable
 70
     3
  0
BLOCK_RECORD
  5
18
330
1
100
AcDbSymbolTableRecord
100
AcDbBlockTableRecord
  2
*MODEL_SPACE
340
1600
  0
BLOCK_RECORD
  5
15
330
1
100
AcDbSymbolTableRecord
100
AcDbBlockTableRecord
  2
*PAPER_SPACE
340
1601
  0
BLOCK_RECORD
  5
24
330
1
100
AcDbSymbolTableRecord
100
AcDbBlockTableRecord
  2
JIS_A4L
340
0
  0
BLOCK_RECORD
  5
3437
330
1
100
AcDbSymbolTableRecord
100
AcDbBlockTableRecord
  2
*D1
340
0
  0
BLOCK_RECORD
  5
3445
330
1
100
AcDbSymbolTableRecord
100
AcDbBlockTableRecord
  2
A$C23BB6A77
340
0
  0
ENDTAB
  0
ENDSEC
  0
SECTION
  2
BLOCKS
  0
BLOCK
  5
19
330
18
100
AcDbEntity
  8
0
100
AcDbBlockBegin
  2
*MODEL_SPACE
 70
     2
 10
0.0
 20
0.0
 30
0.0
  3
*MODEL_SPACE
  1

  0
ENDBLK
  5
1A
330
18
100
AcDbEntity
  8
0
100
AcDbBlockEnd
  0
BLOCK
  5
16
330
15
100
AcDbEntity
 67
     1
  8
0
100
AcDbBlockBegin
  2
*PAPER_SPACE
 70
     0
 10
0.0
 20
0.0
 30
0.0
  3
*PAPER_SPACE
  1

  0
ENDBLK
  5
17
330
15
100
AcDbEntity
 67
     1
  8
0
100
AcDbBlockEnd
  0
BLOCK
  5
A1
330
24
100
AcDbEntity
  8
0
100
AcDbBlockBegin
  2
JIS_A4L
 70
     2
 10
0.0
 20
0.0
 30
0.0
  3
JIS_A4L
  1

  0
LINE
  5
25
330
24
100
AcDbEntity
  8
0
100
AcDbLine
 10
0.0
 20
0.0
 30
0.0
 11
0.0
 21
10.0
 31
0.0
  0
LINE
  5
26
330
24
100
AcDbEntity
  8
0
100
AcDbLine
 10
0.0
 20
210.0
 30
0.0
 11
25.0
 21
210.0
 31
0.0
  0
LINE
  5
27
330
24
100
AcDbEntity
  8
0
100
AcDbLine
 10
297.0
 20
210.0
 30
0.0
 11
297.0
 21
200.0
 31
0.0
  0
LINE
  5
28
330
24
100
AcDbEntity
  8
0
100
AcDbLine
 10
297.0
 20
0.0
 30
0.0
 11
287.0
 21
0.0
 31
0.0
  0
LINE
  5
29
330
24
100
AcDbEntity
  8
0
100
AcDbLine
 10
25.0
 20
10.0
 30
0.0
 11
25.0
 21
200.0
 31
0.0
  0
LINE
  5
2A
330
24
100
AcDbEntity
  8
0
100
AcDbLine
 10
287.0
 20
10.0
 30
0.0
 11
25.0
 21
10.0
 31
0.0
  0
LINE
  5
2B
330
24
100
AcDbEntity
  8
0
100
AcDbLine
 10
287.0
 20
200.0
 30
0.0
 11
287.0
 21
10.0
 31
0.0
  0
LINE
  5
2C
330
24
100
AcDbEntity
  8
0
100
AcDbLine
 10
25.0
 20
200.0
 30
0.0
 11
287.0
 21
200.0
 31
0.0
  0
LINE
  5
2D
330
24
100
AcDbEntity
  8
0
100
AcDbLine
 10
0.0
 20
200.0
 30
0.0
 11
0.0
 21
210.0
 31
0.0
  0
LINE
  5
2E
330
24
100
AcDbEntity
  8
0
100
AcDbLine
 10
25.0
 20
0.0
 30
0.0
 11
0.0
 21
0.0
 31
0.0
  0
LINE
  5
2F
330
24
100
AcDbEntity
  8
0
100
AcDbLine
 10
297.0
 20
10.0
 30
0.0
 11
297.0
 21
0.0
 31
0.0
  0
LINE
  5
30
330
24
100
AcDbEntity
  8
0
100
AcDbLine
 10
287.0
 20
210.0
 30
0.0
 11
297.0
 21
210.0
 31
0.0
  0
ATTDEF
  5
31
330
24
100
AcDbEntity
  8
0
 62
     0
100
AcDbText
 10
19.0
 20
10.0
 30
0.0
 40
3.0
  1

 50
90.0
  7
ADESK1
100
AcDbAttributeDefinition
  3

  2
USER
 70
     8
  0
ATTDEF
  5
32
330
24
100
AcDbEntity
  8
0
 62
     0
100
AcDbText
 10
19.0
 20
70.0
 30
0.0
 40
3.0
  1

 50
90.0
  7
ADESK1
100
AcDbAttributeDefinition
  3

  2
REVDATE
 70
     8
  0
ATTDEF
  5
33
330
24
100
AcDbEntity
  8
0
 62
     0
100
AcDbText
 10
19.0
 20
118.0
 30
0.0
 40
3.0
  1

 50
90.0
  7
ADESK1
100
AcDbAttributeDefinition
  3

  2
FNAME
 70
     8
  0
LINE
  5
34
330
24
100
AcDbEntity
  8
OBJECT
100
AcDbLine
 10
130.0
 20
16.0
 30
0.0
 11
25.0
 21
16.0
 31
0.0
  0
LINE
  5
35
330
24
100
AcDbEntity
  8
OBJECT
100
AcDbLine
 10
130.0
 20
22.0
 30
0.0
 11
25.0
 21
22.0
 31
0.0
  0
LINE
  5
36
330
24
100
AcDbEntity
  8
OBJECT
100
AcDbLine
 10
130.0
 20
28.0
 30
0.0
 11
25.0
 21
28.0
 31
0.0
  0
LINE
  5
37
330
24
100
AcDbEntity
  8
OBJECT
100
AcDbLine
 10
130.0
 20
34.0
 30
0.0
 11
25.0
 21
34.0
 31
0.0
  0
LINE
  5
38
330
24
100
AcDbEntity
  8
OBJECT
100
AcDbLine
 10
130.0
 20
40.0
 30
0.0
 11
25.0
 21
40.0
 31
0.0
  0
LINE
  5
39
330
24
100
AcDbEntity
  8
OBJECT
100
AcDbLine
 10
28.0
 20
11.53589799999999
 30
0.0
 11
30.0
 21
15.0
 31
0.0
  0
LINE
  5
3A
330
24
100
AcDbEntity
  8
OBJECT
100
AcDbLine
 10
32.0
 20
11.53589799999999
 30
0.0
 11
30.0
 21
15.0
 31
0.0
  0
LINE
  5
3B
330
24
100
AcDbEntity
  8
OBJECT
100
AcDbLine
 10
35.0
 20
10.0
 30
0.0
 11
35.0
 21
40.0
 31
0.0
  0
LINE
  5
3C
330
24
100
AcDbEntity
  8
OBJECT
100
AcDbLine
 10
50.0
 20
10.0
 30
0.0
 11
50.0
 21
40.0
 31
0.0
  0
LINE
  5
3D
330
24
100
AcDbEntity
  8
OBJECT
100
AcDbLine
 10
80.0
 20
10.0
 30
0.0
 11
80.0
 21
40.0
 31
0.0
  0
LINE
  5
3E
330
24
100
AcDbEntity
  8
OBJECT
100
AcDbLine
 10
28.0
 20
11.53589799999999
 30
0.0
 11
32.0
 21
11.53589799999999
 31
0.0
  0
LINE
  5
3F
330
24
100
AcDbEntity
  8
OBJECT
100
AcDbLine
 10
39.5
 20
13.0
 30
0.0
 11
40.49999999999999
 21
13.0
 31
0.0
  0
LINE
  5
40
330
24
100
AcDbEntity
  8
OBJECT
100
AcDbLine
 10
44.5
 20
13.0
 30
0.0
 11
45.49999999999999
 21
13.0
 31
0.0
  0
LINE
  5
41
330
24
100
AcDbEntity
  8
OBJECT
100
AcDbLine
 10
32.0
 20
17.535898
 30
0.0
 11
30.0
 21
20.99999999999999
 31
0.0
  0
LINE
  5
42
330
24
100
AcDbEntity
  8
OBJECT
100
AcDbLine
 10
28.0
 20
17.535898
 30
0.0
 11
32.0
 21
17.535898
 31
0.0
  0
LINE
  5
43
330
24
100
AcDbEntity
  8
OBJECT
100
AcDbLine
 10
28.0
 20
17.535898
 30
0.0
 11
30.0
 21
20.99999999999999
 31
0.0
  0
LINE
  5
44
330
24
100
AcDbEntity
  8
OBJECT
100
AcDbLine
 10
32.0
 20
23.53589799999999
 30
0.0
 11
30.0
 21
26.99999999999999
 31
0.0
  0
LINE
  5
45
330
24
100
AcDbEntity
  8
OBJECT
100
AcDbLine
 10
28.0
 20
23.53589799999999
 30
0.0
 11
32.0
 21
23.53589799999999
 31
0.0
  0
LINE
  5
46
330
24
100
AcDbEntity
  8
OBJECT
100
AcDbLine
 10
28.0
 20
23.53589799999999
 30
0.0
 11
30.0
 21
26.99999999999999
 31
0.0
  0
LINE
  5
47
330
24
100
AcDbEntity
  8
OBJECT
100
AcDbLine
 10
28.0
 20
35.53589799999999
 30
0.0
 11
30.0
 21
39.0
 31
0.0
  0
LINE
  5
48
330
24
100
AcDbEntity
  8
OBJECT
100
AcDbLine
 10
32.0
 20
35.53589799999999
 30
0.0
 11
30.0
 21
39.0
 31
0.0
  0
LINE
  5
49
330
24
100
AcDbEntity
  8
OBJECT
100
AcDbLine
 10
28.0
 20
35.53589799999999
 30
0.0
 11
32.0
 21
35.53589799999999
 31
0.0
  0
LINE
  5
4A
330
24
100
AcDbEntity
  8
OBJECT
100
AcDbLine
 10
32.0
 20
29.53589799999999
 30
0.0
 11
30.0
 21
33.0
 31
0.0
  0
LINE
  5
4B
330
24
100
AcDbEntity
  8
OBJECT
100
AcDbLine
 10
28.0
 20
29.53589799999999
 30
0.0
 11
32.0
 21
29.53589799999999
 31
0.0
  0
LINE
  5
4C
330
24
100
AcDbEntity
  8
OBJECT
100
AcDbLine
 10
28.0
 20
29.53589799999999
 30
0.0
 11
30.0
 21
33.0
 31
0.0
  0
LINE
  5
4D
330
24
100
AcDbEntity
  8
OBJECT
100
AcDbLine
 10
39.5
 20
19.0
 30
0.0
 11
40.49999999999999
 21
19.0
 31
0.0
  0
LINE
  5
4E
330
24
100
AcDbEntity
  8
OBJECT
100
AcDbLine
 10
44.5
 20
19.0
 30
0.0
 11
45.49999999999999
 21
19.0
 31
0.0
  0
LINE
  5
4F
330
24
100
AcDbEntity
  8
OBJECT
100
AcDbLine
 10
39.5
 20
25.0
 30
0.0
 11
40.49999999999999
 21
25.0
 31
0.0
  0
LINE
  5
50
330
24
100
AcDbEntity
  8
OBJECT
100
AcDbLine
 10
44.5
 20
25.0
 30
0.0
 11
45.49999999999999
 21
25.0
 31
0.0
  0
LINE
  5
51
330
24
100
AcDbEntity
  8
OBJECT
100
AcDbLine
 10
39.5
 20
31.0
 30
0.0
 11
40.49999999999999
 21
31.0
 31
0.0
  0
LINE
  5
52
330
24
100
AcDbEntity
  8
OBJECT
100
AcDbLine
 10
39.5
 20
37.0
 30
0.0
 11
40.49999999999999
 21
37.0
 31
0.0
  0
LINE
  5
53
330
24
100
AcDbEntity
  8
OBJECT
100
AcDbLine
 10
44.5
 20
31.0
 30
0.0
 11
45.49999999999999
 21
31.0
 31
0.0
  0
LINE
  5
54
330
24
100
AcDbEntity
  8
OBJECT
100
AcDbLine
 10
44.5
 20
37.0
 30
0.0
 11
45.49999999999999
 21
37.0
 31
0.0
  0
LINE
  5
55
330
24
100
AcDbEntity
  8
OBJECT
100
AcDbLine
 10
120.0
 20
10.0
 30
0.0
 11
120.0
 21
40.0
 31
0.0
  0
LINE
  5
56
330
24
100
AcDbEntity
  8
OBJECT
100
AcDbLine
 10
130.0
 20
40.0
 30
0.0
 11
130.0
 21
10.0
 31
0.0
  0
LINE
  5
57
330
24
100
AcDbEntity
  8
0
100
AcDbLine
 10
156.0
 20
10.0
 30
0.0
 11
156.0
 21
0.0
 31
0.0
  0
LINE
  5
58
330
24
100
AcDbEntity
  8
0
100
AcDbLine
 10
156.0
 20
200.0
 30
0.0
 11
156.0
 21
210.0
 31
0.0
  0
LINE
  5
59
330
24
100
AcDbEntity
  8
0
100
AcDbLine
 10
287.0
 20
105.0
 30
0.0
 11
297.0
 21
105.0
 31
0.0
  0
LINE
  5
5A
330
24
100
AcDbEntity
  8
0
100
AcDbLine
 10
25.0
 20
105.0
 30
0.0
 11
0.0
 21
105.0
 31
0.0
  0
TEXT
  5
5B
330
24
100
AcDbEntity
  8
0
100
AcDbText
 10
1.0
 20
1.0
 30
0.0
 40
3.0
  1
この図枠はサンプルです。社内の規格やプロッタの出力範囲に合わせて適当に変更してご利用ください。
  7
ADESK1
100
AcDbText
  0
LINE
  5
5C
330
24
100
AcDbEntity
  8
0
100
AcDbLine
 10
25.0
 20
152.5
 30
0.0
 11
20.0
 21
152.5
 31
0.0
  0
LINE
  5
5D
330
24
100
AcDbEntity
  8
0
100
AcDbLine
 10
25.0
 20
105.0
 30
0.0
 11
20.0
 21
105.0
 31
0.0
  0
LINE
  5
5E
330
24
100
AcDbEntity
  8
0
100
AcDbLine
 10
25.0
 20
57.5
 30
0.0
 11
20.0
 21
57.5
 31
0.0
  0
LINE
  5
5F
330
24
100
AcDbEntity
  8
0
100
AcDbLine
 10
68.66666666666668
 20
10.0
 30
0.0
 11
68.66666666666668
 21
5.0
 31
0.0
  0
LINE
  5
60
330
24
100
AcDbEntity
  8
0
100
AcDbLine
 10
112.3333333333333
 20
10.0
 30
0.0
 11
112.3333333333333
 21
5.0
 31
0.0
  0
LINE
  5
61
330
24
100
AcDbEntity
  8
0
100
AcDbLine
 10
156.0
 20
10.0
 30
0.0
 11
156.0
 21
5.0
 31
0.0
  0
LINE
  5
62
330
24
100
AcDbEntity
  8
0
100
AcDbLine
 10
199.6666666666666
 20
10.0
 30
0.0
 11
199.6666666666666
 21
5.0
 31
0.0
  0
LINE
  5
63
330
24
100
AcDbEntity
  8
0
100
AcDbLine
 10
243.3333333333333
 20
10.0
 30
0.0
 11
243.3333333333333
 21
5.0
 31
0.0
  0
LINE
  5
64
330
24
100
AcDbEntity
  8
0
100
AcDbLine
 10
287.0
 20
57.5
 30
0.0
 11
292.0
 21
57.5
 31
0.0
  0
LINE
  5
65
330
24
100
AcDbEntity
  8
0
100
AcDbLine
 10
287.0
 20
105.0
 30
0.0
 11
292.0
 21
105.0
 31
0.0
  0
LINE
  5
66
330
24
100
AcDbEntity
  8
0
100
AcDbLine
 10
287.0
 20
152.5
 30
0.0
 11
292.0
 21
152.5
 31
0.0
  0
LINE
  5
67
330
24
100
AcDbEntity
  8
0
100
AcDbLine
 10
243.3333333333333
 20
200.0
 30
0.0
 11
243.3333333333333
 21
205.0
 31
0.0
  0
LINE
  5
68
330
24
100
AcDbEntity
  8
0
100
AcDbLine
 10
199.6666666666666
 20
200.0
 30
0.0
 11
199.6666666666666
 21
205.0
 31
0.0
  0
LINE
  5
69
330
24
100
AcDbEntity
  8
0
100
AcDbLine
 10
156.0
 20
200.0
 30
0.0
 11
156.0
 21
205.0
 31
0.0
  0
LINE
  5
6A
330
24
100
AcDbEntity
  8
0
100
AcDbLine
 10
112.3333333333333
 20
200.0
 30
0.0
 11
112.3333333333333
 21
205.0
 31
0.0
  0
LINE
  5
6B
330
24
100
AcDbEntity
  8
0
100
AcDbLine
 10
68.66666666666666
 20
200.0
 30
0.0
 11
68.66666666666666
 21
205.0
 31
0.0
  0
TEXT
  5
6C
330
24
100
AcDbEntity
  8
0
100
AcDbText
 10
45.61904761904761
 20
201.0
 30
0.0
 40
3.0
  1
1
  7
ADESK1
 72
     1
 11
46.83333333333332
 21
201.0
 31
0.0
100
AcDbText
  0
TEXT
  5
6D
330
24
100
AcDbEntity
  8
0
100
AcDbText
 10
21.66139736003921
 20
176.25
 30
0.0
 40
3.0
  1
A
  7
ADESK1
 72
     1
 11
22.94711164575349
 21
176.25
 31
0.0
100
AcDbText
  0
TEXT
  5
6E
330
24
100
AcDbEntity
  8
0
100
AcDbText
 10
89.07142857142856
 20
201.0
 30
0.0
 40
3.0
  1
2
  7
ADESK1
 72
     1
 11
90.5
 21
201.0
 31
0.0
100
AcDbText
  0
TEXT
  5
6F
330
24
100
AcDbEntity
  8
0
100
AcDbText
 10
132.7380952380952
 20
201.0
 30
0.0
 40
3.0
  1
3
  7
ADESK1
 72
     1
 11
134.1666666666666
 21
201.0
 31
0.0
100
AcDbText
  0
TEXT
  5
70
330
24
100
AcDbEntity
  8
0
100
AcDbText
 10
176.3333333333333
 20
201.0
 30
0.0
 40
3.0
  1
4
  7
ADESK1
 72
     1
 11
177.8333333333333
 21
201.0
 31
0.0
100
AcDbText
  0
TEXT
  5
71
330
24
100
AcDbEntity
  8
0
100
AcDbText
 10
220.0714285714286
 20
201.0
 30
0.0
 40
3.0
  1
5
  7
ADESK1
 72
     1
 11
221.4999999999999
 21
201.0
 31
0.0
100
AcDbText
  0
TEXT
  5
72
330
24
100
AcDbEntity
  8
0
100
AcDbText
 10
263.6666666666666
 20
201.0
 30
0.0
 40
3.0
  1
6
  7
ADESK1
 72
     1
 11
265.1666666666666
 21
201.0
 31
0.0
100
AcDbText
  0
TEXT
  5
73
330
24
100
AcDbEntity
  8
0
100
AcDbText
 10
21.37568307432492
 20
128.75
 30
0.0
 40
3.0
  1
B
  7
ADESK1
 72
     1
 11
22.94711164575349
 21
128.75
 31
0.0
100
AcDbText
  0
TEXT
  5
74
330
24
100
AcDbEntity
  8
0
100
AcDbText
 10
21.44711164575349
 20
81.25
 30
0.0
 40
3.0
  1
C
  7
ADESK1
 72
     1
 11
22.94711164575349
 21
81.25
 31
0.0
100
AcDbText
  0
TEXT
  5
75
330
24
100
AcDbEntity
  8
0
100
AcDbText
 10
21.37568307432492
 20
33.75
 30
0.0
 40
3.0
  1
D
  7
ADESK1
 72
     1
 11
22.94711164575349
 21
33.75
 31
0.0
100
AcDbText
  0
TEXT
  5
76
330
24
100
AcDbEntity
  8
0
100
AcDbText
 10
45.61904761904759
 20
6.230338100985607
 30
0.0
 40
3.0
  1
1
  7
ADESK1
 72
     1
 11
46.83333333333331
 21
6.230338100985607
 31
0.0
100
AcDbText
  0
TEXT
  5
77
330
24
100
AcDbEntity
  8
0
100
AcDbText
 10
89.07142857142856
 20
6.230338100985607
 30
0.0
 40
3.0
  1
2
  7
ADESK1
 72
     1
 11
90.5
 21
6.230338100985607
 31
0.0
100
AcDbText
  0
TEXT
  5
78
330
24
100
AcDbEntity
  8
0
100
AcDbText
 10
132.7380952380952
 20
6.230338100985607
 30
0.0
 40
3.0
  1
3
  7
ADESK1
 72
     1
 11
134.1666666666666
 21
6.230338100985607
 31
0.0
100
AcDbText
  0
TEXT
  5
79
330
24
100
AcDbEntity
  8
0
100
AcDbText
 10
176.3333333333333
 20
6.230338100985607
 30
0.0
 40
3.0
  1
4
  7
ADESK1
 72
     1
 11
177.8333333333333
 21
6.230338100985607
 31
0.0
100
AcDbText
  0
TEXT
  5
7A
330
24
100
AcDbEntity
  8
0
100
AcDbText
 10
220.0714285714286
 20
6.230338100985607
 30
0.0
 40
3.0
  1
5
  7
ADESK1
 72
     1
 11
221.4999999999999
 21
6.230338100985607
 31
0.0
100
AcDbText
  0
TEXT
  5
7B
330
24
100
AcDbEntity
  8
0
100
AcDbText
 10
263.6666666666666
 20
6.230338100985607
 30
0.0
 40
3.0
  1
6
  7
ADESK1
 72
     1
 11
265.1666666666666
 21
6.230338100985607
 31
0.0
100
AcDbText
  0
TEXT
  5
7C
330
24
100
AcDbEntity
  8
0
100
AcDbText
 10
287.9530581679809
 20
176.25
 30
0.0
 40
3.0
  1
A
  7
ADESK1
 72
     1
 11
289.2387724536952
 21
176.25
 31
0.0
100
AcDbText
  0
TEXT
  5
7D
330
24
100
AcDbEntity
  8
0
100
AcDbText
 10
287.6673438822666
 20
128.75
 30
0.0
 40
3.0
  1
B
  7
ADESK1
 72
     1
 11
289.2387724536952
 21
128.75
 31
0.0
100
AcDbText
  0
TEXT
  5
7E
330
24
100
AcDbEntity
  8
0
100
AcDbText
 10
287.7387724536952
 20
81.25
 30
0.0
 40
3.0
  1
C
  7
ADESK1
 72
     1
 11
289.2387724536952
 21
81.25
 31
0.0
100
AcDbText
  0
TEXT
  5
7F
330
24
100
AcDbEntity
  8
0
100
AcDbText
 10
287.6673438822666
 20
33.75
 30
0.0
 40
3.0
  1
D
  7
ADESK1
 72
     1
 11
289.2387724536952
 21
33.75
 31
0.0
100
AcDbText
  0
LINE
  5
80
330
24
100
AcDbEntity
  8
0
 62
     0
100
AcDbLine
 10
157.2978723404242
 20
49.00000000000036
 30
0.0
 11
287.0
 21
49.00000000000036
 31
0.0
  0
LINE
  5
81
330
24
100
AcDbEntity
  8
0
 62
     0
100
AcDbLine
 10
157.2978723404242
 20
13.00000000000004
 30
0.0
 11
287.0
 21
13.00000000000004
 31
0.0
  0
LINE
  5
82
330
24
100
AcDbEntity
  8
0
 62
     0
100
AcDbLine
 10
157.2978723404242
 20
37.00000000000024
 30
0.0
 11
287.0
 21
37.00000000000024
 31
0.0
  0
LINE
  5
83
330
24
100
AcDbEntity
  8
0
 62
     0
100
AcDbLine
 10
195.1276595744673
 20
22.00000000000012
 30
0.0
 11
287.0
 21
22.00000000000012
 31
0.0
  0
LINE
  5
84
330
24
100
AcDbEntity
  8
0
 62
     0
100
AcDbLine
 10
157.2978723404242
 20
10.0
 30
0.0
 11
287.0
 21
10.0
 31
0.0
  0
LINE
  5
85
330
24
100
AcDbEntity
  8
0
 62
     0
100
AcDbLine
 10
287.0
 20
49.00000000000036
 30
0.0
 11
157.2978723404242
 21
49.00000000000036
 31
0.0
  0
LINE
  5
86
330
24
100
AcDbEntity
  8
0
 62
     0
100
AcDbLine
 10
180.7163120567365
 20
37.00000000000024
 30
0.0
 11
180.7163120567365
 21
10.0
 31
0.0
  0
LINE
  5
87
330
24
100
AcDbEntity
  8
0
 62
     0
100
AcDbLine
 10
162.702127659573
 20
37.00000000000024
 30
0.0
 11
162.702127659573
 21
10.0
 31
0.0
  0
LINE
  5
88
330
24
100
AcDbEntity
  8
0
 62
     0
100
AcDbLine
 10
189.7234042553184
 20
37.00000000000024
 30
0.0
 11
189.7234042553184
 21
10.0
 31
0.0
  0
LINE
  5
89
330
24
100
AcDbEntity
  8
0
 62
     0
100
AcDbLine
 10
195.1276595744673
 20
25.00000000000012
 30
0.0
 11
195.1276595744673
 21
10.0
 31
0.0
  0
LINE
  5
8A
330
24
100
AcDbEntity
  8
0
 62
     0
100
AcDbLine
 10
157.2978723404242
 20
49.00000000000036
 30
0.0
 11
157.2978723404242
 21
10.0
 31
0.0
  0
LINE
  5
8B
330
24
100
AcDbEntity
  8
0
 62
     0
100
AcDbLine
 10
225.7517730496447
 20
49.00000000000036
 30
0.0
 11
225.7517730496447
 21
10.0
 31
0.0
  0
LINE
  5
8C
330
24
100
AcDbEntity
  8
0
 62
     0
100
AcDbLine
 10
205.7659574468077
 20
22.00000000000007
 30
0.0
 11
205.7659574468077
 21
10.0
 31
0.0
  0
LINE
  5
8D
330
24
100
AcDbEntity
  8
0
 62
     0
100
AcDbLine
 10
216.4042553191484
 20
22.00000000000007
 30
0.0
 11
216.4042553191484
 21
10.0
 31
0.0
  0
LINE
  5
8E
330
24
100
AcDbEntity
  8
0
 62
     0
100
AcDbLine
 10
157.2978723404242
 20
16.00000000000008
 30
0.0
 11
195.1276595744673
 21
16.00000000000008
 31
0.0
  0
LINE
  5
8F
330
24
100
AcDbEntity
  8
0
 62
     0
100
AcDbLine
 10
157.2978723404242
 20
10.0
 30
0.0
 11
157.2978723404242
 21
13.00000000000004
 31
0.0
  0
TEXT
  5
90
330
24
100
AcDbEntity
  8
0
 62
     0
100
AcDbText
 10
198.7174935280942
 20
10.48329012996929
 30
0.0
 40
1.791674070777747
  1
製図
  7
ADESK1
 72
     1
 11
200.5688900678978
 21
10.48329012996929
 31
0.0
100
AcDbText
  0
TEXT
  5
91
330
24
100
AcDbEntity
  8
0
 62
     0
100
AcDbText
 10
209.2960689314087
 20
10.48329012996929
 30
0.0
 40
1.791674070777747
  1
設計
  7
ADESK1
 72
     1
 11
211.2071879402383
 21
10.48329012996929
 31
0.0
100
AcDbText
  0
TEXT
  5
92
330
24
100
AcDbEntity
  8
0
 62
     0
100
AcDbText
 10
219.2447163844405
 20
10.55220101068186
 30
0.0
 40
1.791674070777747
  1
照査
  7
ADESK1
 72
     1
 11
221.1558353932701
 21
10.55220101068186
 31
0.0
100
AcDbText
  0
LINE
  5
93
330
24
100
AcDbEntity
  8
0
 62
     0
100
AcDbLine
 10
157.2978723404242
 20
25.00000000000012
 30
0.0
 11
195.1276595744673
 21
25.00000000000012
 31
0.0
  0
LINE
  5
94
330
24
100
AcDbEntity
  8
0
 62
     0
100
AcDbLine
 10
157.2978723404242
 20
22.00000000000007
 30
0.0
 11
195.1276595744673
 21
22.00000000000012
 31
0.0
  0
LINE
  5
95
330
24
100
AcDbEntity
  8
0
 62
     0
100
AcDbLine
 10
157.2978723404242
 20
19.00000000000007
 30
0.0
 11
195.1276595744673
 21
19.00000000000012
 31
0.0
  0
LINE
  5
96
330
24
100
AcDbEntity
  8
0
 62
     0
100
AcDbLine
 10
157.2978723404242
 20
34.00000000000024
 30
0.0
 11
225.7517730496447
 21
34.00000000000024
 31
0.0
  0
LINE
  5
97
330
24
100
AcDbEntity
  8
0
 62
     0
100
AcDbLine
 10
157.2978723404242
 20
31.0000000000002
 30
0.0
 11
225.7517730496447
 21
31.0000000000002
 31
0.0
  0
LINE
  5
98
330
24
100
AcDbEntity
  8
0
 62
     0
100
AcDbLine
 10
157.2978723404242
 20
28.00000000000015
 30
0.0
 11
225.7517730496447
 21
28.00000000000015
 31
0.0
  0
LINE
  5
99
330
24
100
AcDbEntity
  8
0
 62
     0
100
AcDbLine
 10
195.1276595744673
 20
25.00000000000012
 30
0.0
 11
225.7517730496447
 21
25.00000000000012
 31
0.0
  0
LINE
  5
9A
330
24
100
AcDbEntity
  8
0
 62
     0
100
AcDbLine
 10
195.1276595744673
 20
49.00000000000036
 30
0.0
 11
195.1276595744673
 21
25.00000000000012
 31
0.0
  0
LINE
  5
9B
330
24
100
AcDbEntity
  8
0
 62
     0
100
AcDbLine
 10
202.3333333333325
 20
37.00000000000024
 30
0.0
 11
202.3333333333325
 21
25.00000000000012
 31
0.0
  0
LINE
  5
9C
330
24
100
AcDbEntity
  8
0
 62
     0
100
AcDbLine
 10
213.1418439716305
 20
49.00000000000036
 30
0.0
 11
213.1418439716305
 21
22.00000000000012
 31
0.0
  0
LINE
  5
9D
330
24
100
AcDbEntity
  8
0
 62
     0
100
AcDbLine
 10
279.7943262411347
 20
22.00000000000012
 30
0.0
 11
279.7943262411347
 21
10.0
 31
0.0
  0
LINE
  5
9E
330
24
100
AcDbEntity
  8
0
 62
     0
100
AcDbLine
 10
287.0
 20
49.00000000000036
 30
0.0
 11
287.0
 21
10.0
 31
0.0
  0
LINE
  5
9F
330
24
100
AcDbEntity
  8
0
 62
     0
100
AcDbLine
 10
287.0
 20
10.0
 30
0.0
 11
287.0
 21
49.00000000000036
 31
0.0
  0
LINE
  5
A0
330
24
100
AcDbEntity
  8
0
 62
     0
100
AcDbLine
 10
279.7943262411347
 20
16.00000000000008
 30
0.0
 11
287.0
 21
16.00000000000008
 31
0.0
  0
ENDBLK
  5
A2
330
24
100
AcDbEntity
  8
0
100
AcDbBlockEnd
  0
BLOCK
  5
3443
330
3437
100
AcDbEntity
  8
0
100
AcDbBlockBegin
  2
*D1
 70
     1
 10
0.0
 20
0.0
 30
0.0
  3
*D1
  1

  0
LINE
  5
3438
330
3437
100
AcDbEntity
  8
OBJECT
 62
     0
370
    -2
100
AcDbLine
 10
-8068.568047744786
 20
3998.303038975791
 30
0.0
 11
-7757.422052324407
 21
3998.303038975791
 31
0.0
  0
LINE
  5
3439
330
3437
100
AcDbEntity
  8
OBJECT
 62
     0
370
    -2
100
AcDbLine
 10
-8068.568047744786
 20
4078.303038975791
 30
0.0
 11
-7757.422052324407
 21
4078.303038975791
 31
0.0
  0
LINE
  5
343A
330
3437
100
AcDbEntity
  8
OBJECT
 62
     0
370
    -2
100
AcDbLine
 10
-7776.172052324408
 20
3960.803038975791
 30
0.0
 11
-7776.172052324408
 21
3923.303038975791
 31
0.0
  0
LINE
  5
343B
330
3437
100
AcDbEntity
  8
OBJECT
 62
     0
370
    -2
100
AcDbLine
 10
-7776.172052324408
 20
4115.803038975792
 30
0.0
 11
-7776.172052324408
 21
4153.303038975791
 31
0.0
  0
LINE
  5
343C
330
3437
100
AcDbEntity
  8
OBJECT
 62
     0
370
    -2
100
AcDbLine
 10
-7776.172052324408
 20
3998.303038975791
 30
0.0
 11
-7776.172052324408
 21
4078.303038975791
 31
0.0
  0
SOLID
  5
343D
330
3437
100
AcDbEntity
  8
OBJECT
 62
     0
100
AcDbTrace
 10
-7782.422052324408
 20
3960.803038975791
 30
0.0
 11
-7769.922052324408
 21
3960.803038975791
 31
0.0
 12
-7776.172052324408
 22
3998.303038975791
 32
0.0
 13
-7776.172052324408
 23
3998.303038975791
 33
0.0
  0
SOLID
  5
343E
330
3437
100
AcDbEntity
  8
OBJECT
 62
     0
100
AcDbTrace
 10
-7782.422052324408
 20
4115.803038975792
 30
0.0
 11
-7769.922052324408
 21
4115.803038975792
 31
0.0
 12
-7776.172052324408
 22
4078.303038975791
 32
0.0
 13
-7776.172052324408
 23
4078.303038975791
 33
0.0
  0
MTEXT
  5
343F
330
3437
100
AcDbEntity
  8
OBJECT
 62
     0
100
AcDbMText
 10
-7804.297052324407
 20
4038.303038975789
 30
0.0
 40
37.5
 41
0.0
 71
     5
 72
     1
  1
\A1;80
 11
0.0000000000000001
 21
1.0
 31
0.0
 73
     1
 44
1.0
  0
POINT
  5
3440
330
3437
100
AcDbEntity
  8
DEFPOINTS
 62
     0
100
AcDbPoint
 10
-8077.943047744787
 20
3998.303038975791
 30
0.0
  0
POINT
  5
3441
330
3437
100
AcDbEntity
  8
DEFPOINTS
 62
     0
100
AcDbPoint
 10
-8077.943047744787
 20
4078.303038975791
 30
0.0
  0
POINT
  5
3442
330
3437
100
AcDbEntity
  8
DEFPOINTS
 62
     0
100
AcDbPoint
 10
-7776.172052324408
 20
4078.303038975791
 30
0.0
  0
ENDBLK
  5
3444
330
3437
100
AcDbEntity
  8
0
100
AcDbBlockEnd
  0
BLOCK
  5
3447
330
3445
100
AcDbEntity
  8
0
100
AcDbBlockBegin
  2
A$C23BB6A77
 70
     0
 10
0.0
 20
0.0
 30
0.0
  3
A$C23BB6A77
  1

  0
DIMENSION
  5
3446
330
3445
100
AcDbEntity
  8
OBJECT
100
AcDbDimension
  2
*D1
 10
301.7709854312124
 20
154.9999934708971
 30
0.0
 11
273.6459854312115
 21
114.9999934708962
 31
0.0
 12
8077.94303775562
 22
-3923.303045504894
 32
0.0
 71
     5
 42
79.99999999999954
  3
STANDARD
100
AcDbAlignedDimension
 13
-0.0000099891658465
 23
74.99999347089761
 33
0.0
 14
-0.0000099891658465
 24
154.9999934708971
 34
0.0
 50
90.0
100
AcDbRotatedDimension
1001
ACAD
1000
DSTYLE
1002
{
1070
    40
1040
15.0
1070
    41
1040
2.5
1070
    42
1040
0.625
1070
    43
1040
3.75
1070
    44
1040
1.25
1070
    73
1070
     0
1070
    74
1070
     0
1070
    77
1070
     1
1070
    78
1070
     8
1070
   140
1040
2.5
1070
   141
1040
2.5
1070
   143
1040
0.0394
1070
   147
1040
0.625
1070
   171
1070
     4
1070
   172
1070
     1
1070
   273
1070
     8
1070
   274
1070
     4
1070
   277
1070
     6
1002
}
  0
ENDBLK
  5
3448
330
3445
100
AcDbEntity
  8
0
100
AcDbBlockEnd
  0
ENDSEC
  0
SECTION
  2
ENTITIES
  0
MTEXT
  5
938
330
18
100
AcDbEntity
  8
上書線
100
AcDbMText
 10
1865.739761775792
 20
499.0283937835011
 30
0.0
 40
37.5
 41
0.0
 71
     4
 72
     1
  1
\A1;
 73
     1
 44
1.0
  0
LINE
  5
123E
330
18
100
AcDbEntity
  8
基準線
100
AcDbLine
 10
710.0813698183028
 20
2117.506972677286
 30
0.0
 11
731.0813698183028
 21
2117.506972677286
 31
0.0
  0
LINE
  5
14BB
330
18
100
AcDbEntity
  8
基準線
100
AcDbLine
 10
1281.296189060135
 20
2744.451732006984
 30
0.0
 11
1631.12377476475
 21
2744.451732006984
 31
0.0
  0
LINE
  5
14BC
330
18
100
AcDbEntity
  8
基準線
100
AcDbLine
 10
1131.296189060135
 20
2594.451732006984
 30
0.0
 11
1604.134047986604
 21
2594.451732006984
 31
0.0
  0
LINE
  5
1546
330
18
100
AcDbEntity
  8
基準線
100
AcDbLine
 10
2000.40772718317
 20
1104.126411816217
 30
0.0
 11
2000.40772718317
 21
1262.163674897728
 31
0.0
  0
LINE
  5
154B
330
18
100
AcDbEntity
  8
基準線
100
AcDbLine
 10
2550.40772718317
 20
1049.126411816217
 30
0.0
 11
2550.40772718317
 21
1211.614819254876
 31
0.0
  0
LINE
  5
154C
330
18
100
AcDbEntity
  8
基準線
100
AcDbLine
 10
2150.40772718317
 20
1049.126411816217
 30
0.0
 11
2150.40772718317
 21
1226.779475202555
 31
0.0
  0
LINE
  5
15CA
330
18
100
AcDbEntity
  8
基準線
100
AcDbLine
 10
3419.935833980378
 20
2804.85492986955
 30
0.0
 11
3776.432100616551
 21
2804.85492986955
 31
0.0
  0
LINE
  5
15CC
330
18
100
AcDbEntity
  8
基準線
100
AcDbLine
 10
3776.432100616551
 20
2804.85492986955
 30
0.0
 11
4171.357345948922
 21
2804.85492986955
 31
0.0
  0
LINE
  5
15D0
330
18
100
AcDbEntity
  8
基準線
100
AcDbLine
 10
3419.935833980378
 20
2684.85492986955
 30
0.0
 11
3776.432100616551
 21
2684.85492986955
 31
0.0
  0
LINE
  5
15D1
330
18
100
AcDbEntity
  8
基準線
100
AcDbLine
 10
3598.183967298465
 20
2684.85492986955
 30
0.0
 11
3598.183967298465
 21
984.8549298695507
 31
0.0
  0
LINE
  5
15D2
330
18
100
AcDbEntity
  8
基準線
100
AcDbLine
 10
3776.432100616551
 20
2484.854929869551
 30
0.0
 11
4171.357345948921
 21
2484.85492986955
 31
0.0
  0
LINE
  5
15D3
330
18
100
AcDbEntity
  8
基準線
100
AcDbLine
 10
3973.894723282737
 20
2684.854929869551
 30
0.0
 11
3973.894723282734
 21
984.8549298695507
 31
0.0
  0
LINE
  5
15D4
330
18
100
AcDbEntity
  8
基準線
100
AcDbLine
 10
3419.935833980378
 20
2684.85492986955
 30
0.0
 11
3419.935833980378
 21
2584.85492986955
 31
0.0
  0
LINE
  5
15D5
330
18
100
AcDbEntity
  8
基準線
100
AcDbLine
 10
3419.935833980378
 20
2634.85492986955
 30
0.0
 11
4114.659436953616
 21
2634.85492986955
 31
0.0
  0
MTEXT
  5
2600
330
18
100
AcDbEntity
  8
上書線
100
AcDbMText
 10
8181.373564189959
 20
6490.698940438043
 30
0.0
 40
60.0
 41
956.9129999999999
 71
     1
 72
     5
  1
重量表
 73
     1
 44
1.0
  0
MTEXT
  5
283E
330
18
100
AcDbEntity
  8
上線
100
AcDbMText
 10
8281.205498490852
 20
6315.857030856621
 30
0.0
 40
49.968
 41
197.7879999999999
 71
     1
 72
     5
  1
Ｈ
 73
     1
 44
1.0
  0
LINE
  5
2841
330
18
100
AcDbEntity
  8
上線
100
AcDbLine
 10
7905.150219296705
 20
5948.93811035915
 30
0.0
 11
8722.88072694295
 21
5948.93811035915
 31
0.0
  0
LINE
  5
2842
330
18
100
AcDbEntity
  8
上線
100
AcDbLine
 10
7905.150219296705
 20
6046.853468034217
 30
0.0
 11
8722.88072694295
 21
6046.853468034217
 31
0.0
  0
LINE
  5
2843
330
18
100
AcDbEntity
  8
上線
100
AcDbLine
 10
7905.150219296705
 20
6144.768825709284
 30
0.0
 11
8722.88072694295
 21
6144.768825709284
 31
0.0
  0
LINE
  5
2844
330
18
100
AcDbEntity
  8
上線
100
AcDbLine
 10
7905.150219296705
 20
6242.604183498116
 30
0.0
 11
8723.515385774422
 21
6242.604183498116
 31
0.0
  0
LINE
  5
2845
330
18
100
AcDbEntity
  8
上線
100
AcDbLine
 10
8722.88072694295
 20
6340.599541059419
 30
0.0
 11
7905.150219296705
 21
6340.599541059419
 31
0.0
  0
LINE
  5
284A
330
18
100
AcDbEntity
  8
上線
100
AcDbLine
 10
8177.727055178786
 20
6340.599541059419
 30
0.0
 11
8177.727055178786
 21
5948.93811035915
 31
0.0
  0
LINE
  5
284B
330
18
100
AcDbEntity
  8
上線
100
AcDbLine
 10
7905.150219296705
 20
6340.599541059419
 30
0.0
 11
7905.150219296705
 21
5948.93811035915
 31
0.0
  0
MTEXT
  5
285C
330
18
100
AcDbEntity
  8
上線
100
AcDbMText
 10
7999.737584321829
 20
6315.857030856621
 30
0.0
 40
49.968
 41
197.7879999999999
 71
     1
 72
     5
  1
h1
 73
     1
 44
1.0
  0
LINE
  5
285F
330
18
100
AcDbEntity
  8
上線
100
AcDbLine
 10
8450.303891060867
 20
6340.599541059419
 30
0.0
 11
8450.303891060867
 21
5948.93811035915
 31
0.0
  0
LINE
  5
2860
330
18
100
AcDbEntity
  8
上線
100
AcDbLine
 10
8722.88072694295
 20
5948.93811035915
 30
0.0
 11
8722.88072694295
 21
6340.599541059419
 31
0.0
  0
MTEXT
  5
2866
330
18
100
AcDbEntity
  8
上線
100
AcDbMText
 10
8493.427766486723
 20
6299.043620099022
 30
0.0
 40
24.984
 41
247.78800162
 71
     1
 72
     5
  1
\fＭＳ Ｐ明朝|b0|i0|c128|p18;参考重量（㎏）
 73
     1
 44
1.0
  0
MTEXT
  5
355F
330
18
100
AcDbEntity
  8
上線
100
AcDbMText
 10
8562.771158974678
 20
6117.141203860625
 30
0.0
 40
49.968
 41
247.7879999999999
 71
     1
 72
     5
  1
972
 73
     1
 44
1.0
  0
MTEXT
  5
3560
330
18
100
AcDbEntity
  8
上線
100
AcDbMText
 10
8019.491935044021
 20
6214.976561649456
 30
0.0
 40
49.968
 41
247.7879999999999
 71
     1
 72
     5
  1
300
 73
     1
 44
1.0
  0
MTEXT
  5
3561
330
18
100
AcDbEntity
  8
上線
100
AcDbMText
 10
8017.617487210516
 20
6019.225846185557
 30
0.0
 40
49.968
 41
247.7879999999999
 71
     1
 72
     5
  1
400
 73
     1
 44
1.0
  0
MTEXT
  5
3572
330
18
100
AcDbEntity
  8
上線
100
AcDbMText
 10
8258.226323092596
 20
6018.825846754379
 30
0.0
 40
49.968
 41
279.7559999999999
 71
     1
 72
     5
  1
1300
 73
     1
 44
1.0
  0
MTEXT
  5
358C
330
18
100
AcDbEntity
  8
上線
100
AcDbMText
 10
8564.645606808181
 20
6214.976561649456
 30
0.0
 40
49.968
 41
247.7879999999999
 71
     1
 72
     5
  1
923
 73
     1
 44
1.0
  0
MTEXT
  5
3599
330
18
100
AcDbEntity
  8
上線
100
AcDbMText
 10
8258.226323092596
 20
6214.656562104512
 30
0.0
 40
49.968
 41
279.7559999999999
 71
     1
 72
     5
  1
1200
 73
     1
 44
1.0
  0
ARC
  5
36D1
330
18
100
AcDbEntity
  8
上線
100
AcDbCircle
 10
7083.735236903279
 20
4448.673940337061
 30
0.0
 40
50.0
100
AcDbArc
 50
270.0
 51
359.1815445383053
  0
LINE
  5
36D2
330
18
100
AcDbEntity
  8
点線
100
AcDbLine
 10
6788.740338683813
 20
5248.673940337061
 30
0.0
 11
7188.740338683813
 21
5248.673940337061
 31
0.0
  0
LINE
  5
36D3
330
18
100
AcDbEntity
  8
上線
100
AcDbLine
 10
7288.026052969526
 20
5298.673940337061
 30
0.0
 11
6718.026052969526
 21
5298.673940337061
 31
0.0
  0
LINE
  5
36D4
330
18
100
AcDbEntity
  8
OBJECT
100
AcDbLine
 10
7288.026052969526
 20
3998.67394033706
 30
0.0
 11
6718.026052969526
 21
3998.673940337061
 31
0.0
  0
LINE
  5
3700
330
18
100
AcDbEntity
  8
上線
 48
10.0
100
AcDbLine
 10
7137.31176725524
 20
5198.673940337061
 30
0.0
 11
7133.730135643253
 21
4447.959727497913
 31
0.0
  0
LINE
  5
3701
330
18
100
AcDbEntity
  8
上線
 48
10.0
100
AcDbLine
 10
6838.740338683813
 20
5198.673940337061
 30
0.0
 11
6842.321970295799
 21
4447.959727497913
 31
0.0
  0
LINE
  5
3705
330
18
100
AcDbEntity
  8
OBJECT
100
AcDbLine
 10
6718.026052969526
 20
3998.673940337061
 30
0.0
 11
6718.026052969526
 21
5298.673940337061
 31
0.0
  0
LINE
  5
3706
330
18
100
AcDbEntity
  8
点線
100
AcDbLine
 10
6838.740338683813
 20
5248.673940337061
 30
0.0
 11
6838.740338683812
 21
3998.67394033706
 31
0.0
  0
LINE
  5
3707
330
18
100
AcDbEntity
  8
点線
100
AcDbLine
 10
7137.31176725524
 20
5248.673940337061
 30
0.0
 11
7137.31176725524
 21
3998.67394033706
 31
0.0
  0
ARC
  5
370D
330
18
100
AcDbEntity
  8
上線
100
AcDbCircle
 10
6892.316869035774
 20
4448.673940337061
 30
0.0
 40
50.0
100
AcDbArc
 50
180.8184554616945
 51
270.0
  0
LINE
  5
3713
330
18
100
AcDbEntity
  8
上線
100
AcDbLine
 10
7083.735236903279
 20
4398.673940337061
 30
0.0
 11
6892.316869035774
 21
4398.673940337061
 31
0.0
  0
LINE
  5
3721
330
18
100
AcDbEntity
  8
上線
 48
10.0
100
AcDbLine
 10
6838.740338683813
 20
5198.673940337061
 30
0.0
 11
7137.31176725524
 21
5198.673940337061
 31
0.0
  0
LINE
  5
3722
330
18
100
AcDbEntity
  8
点線
100
AcDbLine
 10
6788.740338683813
 20
5248.673940337061
 30
0.0
 11
6788.740338683813
 21
5298.673940337061
 31
0.0
  0
LINE
  5
378D
330
18
100
AcDbEntity
  8
OBJECT
100
AcDbLine
 10
6418.026052969526
 20
3998.67394033706
 30
0.0
 11
6418.026052969526
 21
5298.673940337061
 31
0.0
  0
LINE
  5
378E
330
18
100
AcDbEntity
  8
点線
100
AcDbLine
 10
6218.026052969526
 20
5248.673940337061
 30
0.0
 11
6218.026052969526
 21
3998.67394033706
 31
0.0
  0
LINE
  5
378F
330
18
100
AcDbEntity
  8
OBJECT
100
AcDbLine
 10
7288.026052969526
 20
5298.673940337061
 30
0.0
 11
7288.026052969526
 21
3998.67394033706
 31
0.0
  0
LINE
  5
3790
330
18
100
AcDbEntity
  8
OBJECT
100
AcDbLine
 10
5418.026052969526
 20
5298.673940337061
 30
0.0
 11
5418.026052969526
 21
3998.67394033706
 31
0.0
  0
LINE
  5
3791
330
18
100
AcDbEntity
  8
点線
100
AcDbLine
 10
5618.026052969526
 20
5248.673940337061
 30
0.0
 11
5618.026052969526
 21
3998.67394033706
 31
0.0
  0
LINE
  5
3792
330
18
100
AcDbEntity
  8
OBJECT
100
AcDbLine
 10
5418.026052969526
 20
3998.67394033706
 30
0.0
 11
6418.026052969526
 21
3998.67394033706
 31
0.0
  0
LINE
  5
3793
330
18
100
AcDbEntity
  8
点線
100
AcDbLine
 10
5618.026052969526
 20
4398.673940337059
 30
0.0
 11
5418.026052969526
 21
4398.673940337059
 31
0.0
  0
LINE
  5
3794
330
18
100
AcDbEntity
  8
点線
100
AcDbLine
 10
6218.026052969526
 20
4398.673940337059
 30
0.0
 11
6418.026052969526
 21
4398.673940337059
 31
0.0
  0
LINE
  5
3797
330
18
100
AcDbEntity
  8
OBJECT
100
AcDbLine
 10
5418.026052969526
 20
5298.673940337061
 30
0.0
 11
6418.026052969526
 21
5298.673940337061
 31
0.0
  0
LINE
  5
3798
330
18
100
AcDbEntity
  8
点線
100
AcDbLine
 10
5618.026052969526
 20
5248.673940337061
 30
0.0
 11
6218.026052969526
 21
5248.673940337061
 31
0.0
  0
LINE
  5
379D
330
18
100
AcDbEntity
  8
点線
100
AcDbLine
 10
5618.026052969526
 20
5198.673940337059
 30
0.0
 11
5418.026052969526
 21
5198.673940337059
 31
0.0
  0
LINE
  5
379E
330
18
100
AcDbEntity
  8
点線
100
AcDbLine
 10
7188.740338683813
 20
5248.673940337061
 30
0.0
 11
7188.740338683813
 21
5298.673940337061
 31
0.0
  0
LINE
  5
379F
330
18
100
AcDbEntity
  8
点線
100
AcDbLine
 10
5618.026052969526
 20
5298.673940337061
 30
0.0
 11
5618.026052969526
 21
5248.673940337061
 31
0.0
  0
LINE
  5
37A7
330
18
100
AcDbEntity
  8
点線
100
AcDbLine
 10
6218.026052969526
 20
5198.673940337059
 30
0.0
 11
6418.026052969526
 21
5198.673940337059
 31
0.0
  0
LINE
  5
37A8
330
18
100
AcDbEntity
  8
点線
100
AcDbLine
 10
6218.026052969526
 20
5248.673940337061
 30
0.0
 11
6218.026052969526
 21
5298.673940337061
 31
0.0
  0
MTEXT
  5
3908
330
18
100
AcDbEntity
  8
上線
100
AcDbMText
 10
8019.491935044021
 20
6117.141203860625
 30
0.0
 40
49.968
 41
247.7879999999999
 71
     1
 72
     5
  1
350
 73
     1
 44
1.0
  0
MTEXT
  5
3913
330
18
100
AcDbEntity
  8
上線
100
AcDbMText
 10
8258.226323092596
 20
6116.821204315682
 30
0.0
 40
49.968
 41
279.7559999999999
 71
     1
 72
     5
  1
1250
 73
     1
 44
1.0
  0
MTEXT
  5
39DA
330
18
100
AcDbEntity
  8
上線
100
AcDbMText
 10
8530.803158974677
 20
6019.225846185557
 30
0.0
 40
49.968
 41
279.7559999999999
 71
     1
 72
     5
  1
1021
 73
     1
 44
1.0
  0
MTEXT
  5
3B41
330
18
100
AcDbEntity
  8
0
  6
ByBlock
 62
     0
 48
10.0
100
AcDbMText
 10
7163.026078792042
 20
5538.673931573645
 30
0.0
 40
37.5
 41
0.0
 71
     5
 72
     1
  1
50
 73
     1
 44
1.0
  0
LINE
  5
3B42
330
18
100
AcDbEntity
  8
OBJECT
 48
10.0
100
AcDbLine
 10
6718.026078791997
 20
5478.673931573643
 30
0.0
 11
7288.026078792042
 21
5478.673931573645
 31
0.0
  0
LINE
  5
3B43
330
18
100
AcDbEntity
  8
OBJECT
 48
10.0
100
AcDbLine
 10
6718.026078791997
 20
5628.673940337066
 30
0.0
 11
7288.026078792019
 21
5628.673940337066
 31
0.0
  0
LINE
  5
3B44
330
18
100
AcDbEntity
  8
WUWAGAKI
100
AcDbLine
 10
8893.411115746447
 20
6745.763888986864
 30
0.0
 11
4622.692197119529
 21
6745.763888986864
 31
0.0
  0
LINE
  5
3B45
330
18
100
AcDbEntity
  8
WUWAGAKI
100
AcDbLine
 10
4622.692197119529
 20
3819.614037190741
 30
0.0
 11
8893.411115746447
 21
3819.614037190741
 31
0.0
  0
LINE
  5
3B49
330
18
100
AcDbEntity
  8
0
 48
10.0
100
AcDbLine
 10
6718.026078791997
 20
5328.673940337061
 30
0.0
 11
6718.026078791997
 21
5658.673940337061
 31
0.0
  0
LINE
  5
3B4A
330
18
100
AcDbEntity
  8
WUWAGAKI
100
AcDbLine
 10
4622.692197119529
 20
6745.763888986864
 30
0.0
 11
4622.692197119529
 21
3819.614037190741
 31
0.0
  0
LINE
  5
3B4B
330
18
100
AcDbEntity
  8
0
 48
10.0
100
AcDbLine
 10
6838.026078791997
 20
5328.673930241866
 30
0.0
 11
6838.026078791997
 21
5508.673930241866
 31
0.0
  0
LINE
  5
3B4C
330
18
100
AcDbEntity
  8
0
 48
10.0
100
AcDbLine
 10
6788.026078791998
 20
5328.673940337058
 30
0.0
 11
6788.026078791998
 21
5508.673940337057
 31
0.0
  0
LINE
  5
3B4D
330
18
100
AcDbEntity
  8
0
 48
10.0
100
AcDbLine
 10
6838.026078791997
 20
5328.67393024187
 30
0.0
 11
6838.026078791997
 21
5508.67393024187
 31
0.0
  0
LINE
  5
3B4E
330
18
100
AcDbEntity
  8
0
 48
10.0
100
AcDbLine
 10
7138.026078792042
 20
5328.67393024187
 30
0.0
 11
7138.026078792042
 21
5508.67393024187
 31
0.0
  0
LINE
  5
3B52
330
18
100
AcDbEntity
  8
OBJECT
 48
10.0
100
AcDbLine
 10
5088.026061732947
 20
5298.673940337061
 30
0.0
 11
5088.026061732944
 21
3998.67394033706
 31
0.0
  0
LINE
  5
3B53
330
18
100
AcDbEntity
  8
OBJECT
 48
10.0
100
AcDbLine
 10
5238.026063709476
 20
3998.67394033706
 30
0.0
 11
5238.026063709476
 21
5298.673940337061
 31
0.0
  0
LINE
  5
3B56
330
18
100
AcDbEntity
  8
0
 48
10.0
100
AcDbLine
 10
5388.026052969526
 20
3998.67394033706
 30
0.0
 11
5058.026052969526
 21
3998.67394033706
 31
0.0
  0
SOLID
  5
3B57
330
18
100
AcDbEntity
  8
0
  6
ByBlock
 62
     0
 48
10.0
100
AcDbTrace
 10
5094.276052969525
 20
4036.173940337081
 30
0.0
 11
5081.776052969523
 21
4036.173940337081
 31
0.0
 12
5088.026052969524
 22
3998.673940337082
 32
0.0
 13
5088.026052969524
 23
3998.673940337082
 33
0.0
  0
SOLID
  5
3B58
330
18
100
AcDbEntity
  8
0
  6
ByBlock
 62
     0
 48
10.0
100
AcDbTrace
 10
5244.276063709474
 20
4036.173952196214
 30
0.0
 11
5231.776063709474
 21
4036.173952196214
 31
0.0
 12
5238.026063709473
 22
3998.673952196214
 32
0.0
 13
5238.026063709473
 23
3998.673952196214
 33
0.0
  0
MTEXT
  5
3B59
330
18
100
AcDbEntity
  8
0
  6
ByBlock
 62
     0
 48
10.0
100
AcDbMText
 10
5208.026061732946
 20
4198.673940337061
 30
0.0
 40
37.5
 41
0.0
 71
     5
 72
     1
  1
h1
 11
0.0000000000000001
 21
1.0
 31
0.0
 73
     1
 44
1.0
  0
LINE
  5
3B5A
330
18
100
AcDbEntity
  8
0
 48
10.0
100
AcDbLine
 10
5388.026052969526
 20
4398.673940337061
 30
0.0
 11
5208.026052969525
 21
4398.673940337061
 31
0.0
  0
MTEXT
  5
3B5B
330
18
100
AcDbEntity
  8
0
  6
ByBlock
 62
     0
 48
10.0
100
AcDbMText
 10
5058.026052969525
 20
4648.673940337061
 30
0.0
 40
37.5
 41
0.0
 71
     5
 72
     1
  1
H
 11
0.0000000000000001
 21
1.0
 31
0.0
 73
     1
 44
1.0
  0
SOLID
  5
3B5C
330
18
100
AcDbEntity
  8
0
  6
ByBlock
 62
     0
 48
10.0
100
AcDbTrace
 10
5244.276052969529
 20
4436.173940337061
 30
0.0
 11
5231.776052969529
 21
4436.173940337061
 31
0.0
 12
5238.026052969527
 22
4398.673940337061
 32
0.0
 13
5238.026052969527
 23
4398.673940337061
 33
0.0
  0
SOLID
  5
3B5D
330
18
100
AcDbEntity
  8
0
  6
ByBlock
 62
     0
 48
10.0
100
AcDbTrace
 10
5244.276052969529
 20
4361.173940337061
 30
0.0
 11
5231.776052969529
 21
4361.173940337061
 31
0.0
 12
5238.026052969527
 22
4398.673940337061
 32
0.0
 13
5238.026052969527
 23
4398.673940337061
 33
0.0
  0
MTEXT
  5
3B5E
330
18
100
AcDbEntity
  8
0
  6
ByBlock
 62
     0
 48
10.0
100
AcDbMText
 10
5208.026052969525
 20
4798.673940337061
 30
0.0
 40
37.5
 41
0.0
 71
     5
 72
     1
  1
800
 11
0.0000000000000001
 21
1.0
 31
0.0
 73
     1
 44
1.0
  0
LINE
  5
3B60
330
18
100
AcDbEntity
  8
0
 48
10.0
100
AcDbLine
 10
5388.026052969526
 20
5198.673940337061
 30
0.0
 11
5208.026052969525
 21
5198.673940337061
 31
0.0
  0
LINE
  5
3B61
330
18
100
AcDbEntity
  8
0
 48
10.0
100
AcDbLine
 10
5388.026052969526
 20
5298.673940337061
 30
0.0
 11
5058.026052969526
 21
5298.673940337061
 31
0.0
  0
SOLID
  5
3B62
330
18
100
AcDbEntity
  8
0
  6
ByBlock
 62
     0
 48
10.0
100
AcDbTrace
 10
5244.276052969529
 20
5161.174004776756
 30
0.0
 11
5231.776052969529
 21
5161.174004776756
 31
0.0
 12
5238.026052969527
 22
5198.674004776756
 32
0.0
 13
5238.026052969527
 23
5198.674004776756
 33
0.0
  0
SOLID
  5
3B63
330
18
100
AcDbEntity
  8
0
  6
ByBlock
 62
     0
 48
10.0
100
AcDbTrace
 10
5094.276052969525
 20
5261.173940337039
 30
0.0
 11
5081.776052969523
 21
5261.173940337039
 31
0.0
 12
5088.026052969524
 22
5298.673940337039
 32
0.0
 13
5088.026052969524
 23
5298.673940337039
 33
0.0
  0
SOLID
  5
3B64
330
18
100
AcDbEntity
  8
0
  6
ByBlock
 62
     0
 48
10.0
100
AcDbTrace
 10
5244.276063709474
 20
5261.173928477907
 30
0.0
 11
5231.776063709474
 21
5261.173928477907
 31
0.0
 12
5238.026063709473
 22
5298.673928477906
 32
0.0
 13
5238.026063709473
 23
5298.673928477906
 33
0.0
  0
SOLID
  5
3B65
330
18
100
AcDbEntity
  8
0
  6
ByBlock
 62
     0
 48
10.0
100
AcDbTrace
 10
5244.276052969529
 20
5236.173940337064
 30
0.0
 11
5231.776052969529
 21
5236.173940337064
 31
0.0
 12
5238.026052969527
 22
5198.673940337064
 32
0.0
 13
5238.026052969527
 23
5198.673940337064
 33
0.0
  0
MTEXT
  5
3B66
330
18
100
AcDbEntity
  8
0
  6
ByBlock
 62
     0
 48
10.0
100
AcDbMText
 10
5208.026061732946
 20
5248.673940337061
 30
0.0
 40
37.5
 41
0.0
 71
     5
 72
     1
  1
100
 11
0.0000000000000001
 21
1.0
 31
0.0
 73
     1
 44
1.0
  0
LINE
  5
3B73
330
18
100
AcDbEntity
  8
OBJECT
 48
10.0
100
AcDbLine
 10
6948.431417026871
 20
4480.659619005549
 30
0.0
 11
7053.431417026871
 21
4480.659619005549
 31
0.0
  0
MTEXT
  5
3B74
330
18
100
AcDbEntity
  8
0
  6
ByBlock
 62
     0
 48
10.0
100
AcDbMText
 10
7000.931417026873
 20
4510.659619005549
 30
0.0
 40
30.0
 41
0.0
 71
     5
 72
     1
  1
50R
 73
     1
 44
1.0
  0
SOLID
  5
3B77
330
18
100
AcDbEntity
  8
0
  6
ByBlock
 62
     0
 48
10.0
100
AcDbTrace
 10
6883.760939575402
 20
4440.28137325776
 30
0.0
 11
6891.152309574683
 21
4430.20081526062
 31
0.0
 12
6857.214950583626
 22
4413.066984261335
 32
0.0
 13
6857.214950583626
 23
4413.066984261335
 33
0.0
  0
LINE
  5
3B78
330
18
100
AcDbEntity
  8
WUWAGAKI
 48
10.0
100
AcDbLine
 10
6872.279682238192
 20
4424.230154069952
 30
0.0
 11
6948.431417026871
 21
4480.659619005549
 31
0.0
210
0.0
220
0.0
230
-1.0
1001
ACAD
1000
DSTYLE
1002
{
1070
    78
1070
     8
1070
   270
1070
     8
1070
   140
1040
2.5
1070
    74
1070
     0
1070
   172
1070
     1
1070
    73
1070
     0
1070
    77
1070
     1
1070
    40
1040
10.0
1070
   147
1040
0.625
1070
    42
1040
0.625
1070
    44
1040
1.25
1070
    43
1040
3.75
1070
   141
1040
2.5
1070
    41
1040
2.5
1070
   273
1070
     8
1070
   274
1070
     4
1070
   143
1040
0.0394
1070
   171
1070
     4
1002
}
  0
MTEXT
  5
3B7B
330
18
100
AcDbEntity
  8
0
  6
ByBlock
 62
     0
 48
10.0
100
AcDbMText
 10
6988.026078792042
 20
5158.673940337063
 30
0.0
 40
37.5
 41
0.0
 71
     5
 72
     1
  1
290
 73
     1
 44
1.0
  0
LINE
  5
3B7C
330
18
100
AcDbEntity
  8
OBJECT
 48
10.0
100
AcDbLine
 10
6843.026078791997
 20
5128.673931573644
 30
0.0
 11
7133.026078792042
 21
5128.673931573644
 31
0.0
  0
LINE
  5
3B7D
330
18
100
AcDbEntity
  8
0
 48
10.0
100
AcDbLine
 10
6843.026078791997
 20
4978.67393024187
 30
0.0
 11
6843.026078791997
 21
5158.67393024187
 31
0.0
  0
SOLID
  5
3B7E
330
18
100
AcDbEntity
  8
0
  6
ByBlock
 62
     0
 48
10.0
100
AcDbTrace
 10
6880.526078792005
 20
5122.423949100486
 30
0.0
 11
6880.526078792005
 21
5134.923949100484
 31
0.0
 12
6843.026078792004
 22
5128.673949100488
 32
0.0
 13
6843.026078792004
 23
5128.673949100488
 33
0.0
  0
LINE
  5
3B7F
330
18
100
AcDbEntity
  8
0
 48
10.0
100
AcDbLine
 10
7133.026078792042
 20
4978.67393024187
 30
0.0
 11
7133.026078792042
 21
5158.67393024187
 31
0.0
  0
SOLID
  5
3B80
330
18
100
AcDbEntity
  8
0
  6
ByBlock
 62
     0
 48
10.0
100
AcDbTrace
 10
7095.526183953086
 20
5122.423940337064
 30
0.0
 11
7095.526183953086
 21
5134.923940337063
 31
0.0
 12
7133.026183953086
 22
5128.673940337066
 32
0.0
 13
7133.026183953086
 23
5128.673940337066
 33
0.0
  0
LINE
  5
3B82
330
18
100
AcDbEntity
  8
OBJECT
100
AcDbLine
 10
5820.526054659902
 20
6063.673936956307
 30
0.0
 11
5623.026052969526
 21
6063.673936956307
 31
0.0
  0
LINE
  5
3B83
330
18
100
AcDbEntity
  8
OBJECT
100
AcDbLine
 10
5823.851691018422
 20
6057.022664239268
 30
0.0
 11
5625.641769596774
 21
6057.022664239266
 31
0.0
  0
LINE
  5
3B84
330
18
100
AcDbEntity
  8
OBJECT
 48
10.0
100
AcDbLine
 10
5418.026052969526
 20
6348.673929597111
 30
0.0
 11
6418.026052969526
 21
6348.673929597111
 31
0.0
  0
LINE
  5
3B85
330
18
100
AcDbEntity
  8
OBJECT
 48
10.0
100
AcDbLine
 10
6418.026052969526
 20
6498.67393157364
 30
0.0
 11
5418.026052969526
 21
6498.673931573641
 31
0.0
  0
LINE
  5
3B86
330
18
100
AcDbEntity
  8
OBJECT
100
AcDbLine
 10
6418.026052969526
 20
6168.673940337061
 30
0.0
 11
5418.026052969526
 21
6168.673940337061
 31
0.0
  0
LINE
  5
3B87
102
{ACAD_REACTORS
330
3B94
102
}
330
18
100
AcDbEntity
  8
OBJECT
100
AcDbLine
 10
5618.026052969526
 20
6068.673940337061
 30
0.0
 11
6218.026052969526
 21
6068.673940337061
 31
0.0
  0
LINE
  5
3B88
102
{ACAD_REACTORS
330
3B94
102
}
330
18
100
AcDbEntity
  8
OBJECT
100
AcDbLine
 10
5612.026052969525
 20
6074.673940337061
 30
0.0
 11
6224.026052969526
 21
6074.673940337061
 31
0.0
  0
LINE
  5
3B89
330
18
100
AcDbEntity
  8
OBJECT
100
AcDbLine
 10
6012.20041492063
 20
5680.325216434854
 30
0.0
 11
5625.641769596774
 21
5680.325216434856
 31
0.0
  0
LINE
  5
3B8A
330
18
100
AcDbEntity
  8
OBJECT
100
AcDbLine
 10
6015.526051279149
 20
5673.673943717815
 30
0.0
 11
5623.026052969526
 21
5673.673943717816
 31
0.0
  0
LINE
  5
3B8B
330
18
100
AcDbEntity
  8
OBJECT
100
AcDbLine
 10
5884.4316881055
 20
5935.862670065112
 30
0.0
 11
5625.641769596774
 21
5935.862670065112
 31
0.0
  0
LINE
  5
3B8C
330
18
100
AcDbEntity
  8
OBJECT
100
AcDbLine
 10
5887.736054842005
 20
5929.253936592102
 30
0.0
 11
5625.641769596774
 21
5929.253936592102
 31
0.0
  0
LINE
  5
3B8D
330
18
100
AcDbEntity
  8
OBJECT
100
AcDbLine
 10
5948.316054202273
 20
5808.093937871568
 30
0.0
 11
5625.641769596774
 21
5808.093937871568
 31
0.0
  0
LINE
  5
3B8E
330
18
100
AcDbEntity
  8
OBJECT
100
AcDbLine
 10
5951.620417833552
 20
5801.485210609009
 30
0.0
 11
5625.641769596774
 21
5801.485210609009
 31
0.0
  0
LINE
  5
3B8F
330
18
100
AcDbEntity
  8
OBJECT
100
AcDbLine
 10
5418.026052969526
 20
5598.673940337061
 30
0.0
 11
6418.026052969526
 21
5598.673940337061
 31
0.0
  0
LINE
  5
3B90
102
{ACAD_REACTORS
330
3B94
102
}
330
18
100
AcDbEntity
  8
OBJECT
100
AcDbLine
 10
5618.026052969526
 20
5668.673940337061
 30
0.0
 11
6218.026052969526
 21
5668.673940337061
 31
0.0
  0
LINE
  5
3B91
102
{ACAD_REACTORS
330
3B94
102
}
330
18
100
AcDbEntity
  8
OBJECT
100
AcDbLine
 10
5612.026052969525
 20
5662.673940337061
 30
0.0
 11
6224.026052969526
 21
5662.673940337061
 31
0.0
  0
LINE
  5
3B92
330
18
100
AcDbEntity
  8
点線
100
AcDbLine
 10
5418.026052969526
 20
5718.673940337061
 30
0.0
 11
5993.026052969526
 21
5718.673940337061
 31
0.0
  0
LINE
  5
3B93
330
18
100
AcDbEntity
  8
点線
100
AcDbLine
 10
5418.026052969526
 20
6018.673940337061
 30
0.0
 11
5843.026052969526
 21
6018.673940337061
 31
0.0
  0
HATCH
  5
3B94
330
18
100
AcDbEntity
  8
OBJECT
100
AcDbHatch
 10
0.0
 20
0.0
 30
0.0
210
0.0
220
0.0
230
1.0
  2
AR-SAND
 70
     0
 71
     1
 91
        2
 92
        1
 93
        4
 72
     1
 10
5612.026052969525
 20
5662.673940337061
 11
6224.026052969526
 21
5662.673940337061
 72
     1
 10
6224.026052969526
 20
5662.673940337061
 11
6224.026052969526
 21
6074.673940337061
 72
     1
 10
6224.026052969526
 20
6074.673940337061
 11
5612.026052969525
 21
6074.673940337061
 72
     1
 10
5612.026052969525
 20
6074.673940337061
 11
5612.026052969525
 21
5662.673940337061
 97
        4
330
3B91
330
3BD3
330
3B88
330
3BA1
 92
       16
 93
        4
 72
     1
 10
5618.026052969526
 20
5668.673940337061
 11
6218.026052969526
 21
5668.673940337061
 72
     1
 10
6218.026052969526
 20
5668.673940337061
 11
6218.026052969526
 21
6068.673940337061
 72
     1
 10
6218.026052969526
 20
6068.673940337061
 11
5618.026052969526
 21
6068.673940337061
 72
     1
 10
5618.026052969526
 20
6068.673940337061
 11
5618.026052969526
 21
5668.673940337061
 97
        4
330
3B90
330
3BD2
330
3B87
330
3BA0
 75
     0
 76
     1
 52
90.0
 41
1.0
 77
     0
 78
     4
 53
127.5
 43
10376.63280440946
 44
-299.3595982613169
 45
-48.94132373293423
 46
-1.600031295984042
 79
     6
 49
0.0
 49
-38.608
 49
0.0
 49
-43.18
 49
0.0
 49
-41.275
 53
97.49999999999985
 43
10376.63280440946
 44
-299.3595982613169
 45
-71.68251005683543
 46
44.95232831380027
 79
     6
 49
0.0
 49
-20.82799999999999
 49
0.0
 49
-34.79799999999999
 49
0.0
 49
-13.33499999999999
 53
57.49999999999997
 43
10376.63280440946
 44
-330.6015982613171
 45
-0.1437184678545643
 46
79.09923702414579
 79
     6
 49
0.0
 49
-12.69999999999996
 49
0.0
 49
-45.71999999999984
 49
0.0
 49
-59.68999999999984
 53
47.49999999999999
 43
10376.63280440946
 44
-330.6015982613171
 45
-22.29293232572162
 46
76.35564524722972
 79
     6
 49
0.0
 49
-6.349999999999999
 49
0.0
 49
-29.97199999999999
 49
0.0
 49
-34.29
 98
        1
 10
10376.63280440946
 20
-299.3595982613169
  0
LINE
  5
3B95
330
18
100
AcDbEntity
  8
OBJECT
 48
10.0
100
AcDbLine
 10
5238.026061732944
 20
5598.673966159533
 30
0.0
 11
5238.026061732942
 21
6168.673966159577
 31
0.0
  0
LINE
  5
3B96
330
18
100
AcDbEntity
  8
OBJECT
100
AcDbLine
 10
5623.026052969526
 20
6063.673936956307
 30
0.0
 11
5623.026052969526
 21
5673.673943717816
 31
0.0
  0
LINE
  5
3B97
330
18
100
AcDbEntity
  8
OBJECT
100
AcDbLine
 10
5625.641769596774
 20
6057.022664239266
 30
0.0
 11
5625.641769596774
 21
5680.325211888478
 31
0.0
  0
LINE
  5
3B98
330
18
100
AcDbEntity
  8
OBJECT
100
AcDbLine
 10
5645.259654759191
 20
5935.862665768904
 30
0.0
 11
5645.259654759191
 21
6057.022659943059
 31
0.0
  0
LINE
  5
3B99
330
18
100
AcDbEntity
  8
OBJECT
100
AcDbLine
 10
5642.643938131943
 20
5935.862665768904
 30
0.0
 11
5642.643938131943
 21
6057.022659943059
 31
0.0
  0
LINE
  5
3B9A
330
18
100
AcDbEntity
  8
OBJECT
100
AcDbLine
 10
5662.261834423485
 20
5935.862674611492
 30
0.0
 11
5662.261834423485
 21
6057.022668785645
 31
0.0
  0
LINE
  5
3B9B
330
18
100
AcDbEntity
  8
OBJECT
100
AcDbLine
 10
5701.497627006569
 20
5935.862683454079
 30
0.0
 11
5701.497627006569
 21
6057.022677628232
 31
0.0
  0
LINE
  5
3B9C
330
18
100
AcDbEntity
  8
OBJECT
100
AcDbLine
 10
5664.877551050733
 20
5935.862674611492
 30
0.0
 11
5664.877551050733
 21
6057.022668785645
 31
0.0
  0
LINE
  5
3B9D
330
18
100
AcDbEntity
  8
OBJECT
100
AcDbLine
 10
5681.879730715027
 20
5935.862674611492
 30
0.0
 11
5681.879730715027
 21
6057.022668785645
 31
0.0
  0
LINE
  5
3B9E
330
18
100
AcDbEntity
  8
OBJECT
100
AcDbLine
 10
5684.495447342275
 20
5935.862674611492
 30
0.0
 11
5684.495447342275
 21
6057.022668785645
 31
0.0
  0
LINE
  5
3B9F
330
18
100
AcDbEntity
  8
OBJECT
100
AcDbLine
 10
5418.026052969526
 20
6168.673940337061
 30
0.0
 11
5418.026052969526
 21
5598.673940337061
 31
0.0
  0
LINE
  5
3BA0
102
{ACAD_REACTORS
330
3B94
102
}
330
18
100
AcDbEntity
  8
OBJECT
100
AcDbLine
 10
5618.026052969526
 20
5668.673940337061
 30
0.0
 11
5618.026052969526
 21
6068.673940337061
 31
0.0
  0
LINE
  5
3BA1
102
{ACAD_REACTORS
330
3B94
102
}
330
18
100
AcDbEntity
  8
OBJECT
100
AcDbLine
 10
5612.026052969525
 20
5662.673940337061
 30
0.0
 11
5612.026052969525
 21
6074.673940337061
 31
0.0
  0
SOLID
  5
3BA2
330
18
100
AcDbEntity
  8
0
  6
ByBlock
 62
     0
 48
10.0
100
AcDbTrace
 10
5244.276052969523
 20
5981.174071320622
 30
0.0
 11
5231.776052969524
 21
5981.174071320622
 31
0.0
 12
5238.02605296952
 22
6018.674071320622
 32
0.0
 13
5238.02605296952
 23
6018.674071320622
 33
0.0
  0
LINE
  5
3BA3
330
18
100
AcDbEntity
  8
OBJECT
 48
10.0
100
AcDbLine
 10
5088.026052969521
 20
5598.673966159533
 30
0.0
 11
5088.026052969521
 21
6168.673966159555
 31
0.0
  0
LINE
  5
3BA4
330
18
100
AcDbEntity
  8
0
 48
10.0
100
AcDbLine
 10
5388.02605296953
 20
5668.673966159533
 30
0.0
 11
5208.026052969529
 21
5668.673966159533
 31
0.0
  0
LINE
  5
3BA5
330
18
100
AcDbEntity
  8
0
 48
10.0
100
AcDbLine
 10
5388.026063064721
 20
5718.673966159533
 30
0.0
 11
5208.026063064721
 21
5718.673966159533
 31
0.0
  0
LINE
  5
3BA6
330
18
100
AcDbEntity
  8
0
 48
10.0
100
AcDbLine
 10
5388.026063064717
 20
5718.673966159533
 30
0.0
 11
5208.026063064718
 21
5718.673966159533
 31
0.0
  0
LINE
  5
3BA7
330
18
100
AcDbEntity
  8
0
 48
10.0
100
AcDbLine
 10
5388.026052969526
 20
5598.673966159533
 30
0.0
 11
5058.026052969526
 21
5598.673966159533
 31
0.0
  0
SOLID
  5
3BA8
330
18
100
AcDbEntity
  8
0
  6
ByBlock
 62
     0
 48
10.0
100
AcDbTrace
 10
5244.276044206102
 20
5756.17396615954
 30
0.0
 11
5231.776044206103
 21
5756.17396615954
 31
0.0
 12
5238.0260442061
 22
5718.673966159539
 32
0.0
 13
5238.0260442061
 23
5718.673966159539
 33
0.0
  0
MTEXT
  5
3BA9
330
18
100
AcDbEntity
  8
0
  6
ByBlock
 62
     0
 48
10.0
100
AcDbMText
 10
5178.026061732946
 20
5693.673966159533
 30
0.0
 40
37.5
 41
0.0
 71
     5
 72
     1
  1
50
 11
0.0000000000000001
 21
1.0
 31
0.0
 73
     1
 44
1.0
  0
SOLID
  5
3BAA
330
18
100
AcDbEntity
  8
0
  6
ByBlock
 62
     0
 48
10.0
100
AcDbTrace
 10
5094.276052969522
 20
5636.173966159555
 30
0.0
 11
5081.776052969523
 21
5636.173966159555
 31
0.0
 12
5088.026052969521
 22
5598.673966159555
 32
0.0
 13
5088.026052969521
 23
5598.673966159555
 33
0.0
  0
SOLID
  5
3BAB
330
18
100
AcDbEntity
  8
0
  6
ByBlock
 62
     0
 48
10.0
100
AcDbTrace
 10
5231.77606173295
 20
5561.1739543004
 30
0.0
 11
5244.276061732951
 21
5561.1739543004
 31
0.0
 12
5238.026061732951
 22
5598.673954300401
 32
0.0
 13
5238.026061732951
 23
5598.673954300401
 33
0.0
  0
LINE
  5
3BAC
330
18
100
AcDbEntity
  8
OBJECT
 48
10.0
100
AcDbLine
 10
5238.026061732948
 20
5598.673966159555
 30
0.0
 11
5238.026061732948
 21
5486.173966159554
 31
0.0
  0
LWPOLYLINE
  5
3BAD
330
18
100
AcDbEntity
  8
上線
 48
10.0
100
AcDbPolyline
 90
        2
 70
     1
 43
5.0
 10
5238.047999340754
 20
5671.173966159533
 42
-1.0
 10
5238.047999340754
 20
5666.173966159533
 42
-1.0
  0
MTEXT
  5
3BAE
330
18
100
AcDbEntity
  8
0
  6
ByBlock
 62
     0
 48
10.0
100
AcDbMText
 10
5208.026061732946
 20
5633.673966159533
 30
0.0
 40
37.5
 41
0.0
 71
     5
 72
     1
  1
70
 11
0.0000000000000001
 21
1.0
 31
0.0
 73
     1
 44
1.0
  0
MTEXT
  5
3BAF
330
18
100
AcDbEntity
  8
0
  6
ByBlock
 62
     0
 48
10.0
100
AcDbMText
 10
5058.026052969522
 20
5883.673966159577
 30
0.0
 40
37.5
 41
0.0
 71
     5
 72
     1
  1
570
 11
0.0000000000000001
 21
1.0
 31
0.0
 73
     1
 44
1.0
  0
MTEXT
  5
3BB0
330
18
100
AcDbEntity
  8
0
  6
ByBlock
 62
     0
 48
10.0
100
AcDbMText
 10
5208.026052969525
 20
5868.673966159576
 30
0.0
 40
37.5
 41
0.0
 71
     5
 72
     1
  1
300
 11
0.0000000000000001
 21
1.0
 31
0.0
 73
     1
 44
1.0
  0
LINE
  5
3BB1
330
18
100
AcDbEntity
  8
OBJECT
100
AcDbLine
 10
5642.643938131943
 20
5801.485214905219
 30
0.0
 11
5642.643938131943
 21
5680.325220731063
 31
0.0
  0
LINE
  5
3BB2
330
18
100
AcDbEntity
  8
OBJECT
100
AcDbLine
 10
5684.495447342275
 20
5801.485206062631
 30
0.0
 11
5684.495447342275
 21
5680.325211888478
 31
0.0
  0
LINE
  5
3BB3
330
18
100
AcDbEntity
  8
OBJECT
100
AcDbLine
 10
5681.879730715027
 20
5801.485206062631
 30
0.0
 11
5681.879730715027
 21
5680.325211888478
 31
0.0
  0
LINE
  5
3BB4
330
18
100
AcDbEntity
  8
OBJECT
100
AcDbLine
 10
5664.877551050733
 20
5801.485206062631
 30
0.0
 11
5664.877551050733
 21
5680.325211888478
 31
0.0
  0
LINE
  5
3BB5
330
18
100
AcDbEntity
  8
OBJECT
100
AcDbLine
 10
5701.497627006569
 20
5801.485197220043
 30
0.0
 11
5701.497627006569
 21
5680.32520304589
 31
0.0
  0
LINE
  5
3BB6
330
18
100
AcDbEntity
  8
OBJECT
100
AcDbLine
 10
5662.261834423485
 20
5801.485206062631
 30
0.0
 11
5662.261834423485
 21
5680.325211888478
 31
0.0
  0
LINE
  5
3BB7
330
18
100
AcDbEntity
  8
OBJECT
100
AcDbLine
 10
5645.259654759191
 20
5801.485214905219
 30
0.0
 11
5645.259654759191
 21
5680.325220731063
 31
0.0
  0
LINE
  5
3BB8
330
18
100
AcDbEntity
  8
OBJECT
100
AcDbLine
 10
5684.495447342275
 20
5808.093942417947
 30
0.0
 11
5684.495447342275
 21
5929.253936592102
 31
0.0
  0
LINE
  5
3BB9
330
18
100
AcDbEntity
  8
OBJECT
100
AcDbLine
 10
5681.879730715027
 20
5808.093942417947
 30
0.0
 11
5681.879730715027
 21
5929.253936592102
 31
0.0
  0
LINE
  5
3BBA
330
18
100
AcDbEntity
  8
OBJECT
100
AcDbLine
 10
5701.497627006569
 20
5808.093951260534
 30
0.0
 11
5701.497627006569
 21
5929.253945434687
 31
0.0
  0
LINE
  5
3BBB
330
18
100
AcDbEntity
  8
OBJECT
100
AcDbLine
 10
5664.877551050733
 20
5808.093942417947
 30
0.0
 11
5664.877551050733
 21
5929.253936592102
 31
0.0
  0
LINE
  5
3BBC
330
18
100
AcDbEntity
  8
OBJECT
100
AcDbLine
 10
5662.261834423485
 20
5808.093942417947
 30
0.0
 11
5662.261834423485
 21
5929.253936592102
 31
0.0
  0
LINE
  5
3BBD
330
18
100
AcDbEntity
  8
OBJECT
100
AcDbLine
 10
5642.643938131943
 20
5808.093933575361
 30
0.0
 11
5642.643938131943
 21
5929.253927749514
 31
0.0
  0
LINE
  5
3BBE
330
18
100
AcDbEntity
  8
OBJECT
100
AcDbLine
 10
5645.259654759191
 20
5808.093933575361
 30
0.0
 11
5645.259654759191
 21
5929.253927749514
 31
0.0
  0
LINE
  5
3BBF
330
18
100
AcDbEntity
  8
0
 48
10.0
100
AcDbLine
 10
5388.026063064717
 20
6018.673966159576
 30
0.0
 11
5208.026063064718
 21
6018.673966159576
 31
0.0
  0
LINE
  5
3BC0
330
18
100
AcDbEntity
  8
0
 48
10.0
100
AcDbLine
 10
5388.026052969526
 20
6068.673966159576
 30
0.0
 11
5208.026052969525
 21
6068.673966159576
 31
0.0
  0
LINE
  5
3BC1
330
18
100
AcDbEntity
  8
0
 48
10.0
100
AcDbLine
 10
5388.026052969522
 20
6168.673966159577
 30
0.0
 11
5058.026052969522
 21
6168.673966159577
 31
0.0
  0
MTEXT
  5
3BC2
330
18
100
AcDbEntity
  8
0
  6
ByBlock
 62
     0
 48
10.0
100
AcDbMText
 10
5178.026061732943
 20
6043.673966159577
 30
0.0
 40
37.5
 41
0.0
 71
     5
 72
     1
  1
50
 11
0.0000000000000001
 21
1.0
 31
0.0
 73
     1
 44
1.0
  0
SOLID
  5
3BC3
330
18
100
AcDbEntity
  8
0
  6
ByBlock
 62
     0
 48
10.0
100
AcDbTrace
 10
5094.276052969522
 20
6131.173966159554
 30
0.0
 11
5081.776052969523
 21
6131.173966159554
 31
0.0
 12
5088.026052969521
 22
6168.673966159555
 32
0.0
 13
5088.026052969521
 23
6168.673966159555
 33
0.0
  0
MTEXT
  5
3BC4
330
18
100
AcDbEntity
  8
0
  6
ByBlock
 62
     0
 48
10.0
100
AcDbMText
 10
5208.026061732942
 20
6118.673966159576
 30
0.0
 40
37.5
 41
0.0
 71
     5
 72
     1
  1
100
 11
0.0000000000000001
 21
1.0
 31
0.0
 73
     1
 44
1.0
  0
SOLID
  5
3BC5
330
18
100
AcDbEntity
  8
0
  6
ByBlock
 62
     0
 48
10.0
100
AcDbTrace
 10
5231.776061732946
 20
6106.173989877873
 30
0.0
 11
5244.276061732947
 21
6106.173989877873
 31
0.0
 12
5238.026061732948
 22
6068.673989877874
 32
0.0
 13
5238.026061732948
 23
6068.673989877874
 33
0.0
  0
SOLID
  5
3BC6
330
18
100
AcDbEntity
  8
0
  6
ByBlock
 62
     0
 48
10.0
100
AcDbTrace
 10
5231.776061732946
 20
6131.173954300444
 30
0.0
 11
5244.276061732947
 21
6131.173954300444
 31
0.0
 12
5238.026061732948
 22
6168.673954300444
 32
0.0
 13
5238.026061732948
 23
6168.673954300444
 33
0.0
  0
LINE
  5
3BC7
330
18
100
AcDbEntity
  8
0
 48
10.0
100
AcDbLine
 10
5618.026052969526
 20
6198.673940337061
 30
0.0
 11
5618.026052969526
 21
6378.673940337061
 31
0.0
  0
LINE
  5
3BC8
330
18
100
AcDbEntity
  8
0
 48
10.0
100
AcDbLine
 10
5418.026052969526
 20
6198.673940337061
 30
0.0
 11
5418.026052969526
 21
6528.673940337061
 31
0.0
  0
MTEXT
  5
3BC9
330
18
100
AcDbEntity
  8
0
  6
ByBlock
 62
     0
 48
10.0
100
AcDbMText
 10
5518.026052969526
 20
6378.673931573641
 30
0.0
 40
37.5
 41
0.0
 71
     5
 72
     1
  1
200
 73
     1
 44
1.0
  0
SOLID
  5
3BCA
330
18
100
AcDbEntity
  8
0
  6
ByBlock
 62
     0
 48
10.0
100
AcDbTrace
 10
5455.52606482868
 20
6342.423929597114
 30
0.0
 11
5455.52606482868
 21
6354.923929597115
 31
0.0
 12
5418.02606482868
 22
6348.673929597115
 32
0.0
 13
5418.02606482868
 23
6348.673929597115
 33
0.0
  0
SOLID
  5
3BCB
330
18
100
AcDbEntity
  8
0
  6
ByBlock
 62
     0
 48
10.0
100
AcDbTrace
 10
5455.526052969548
 20
6492.423940337063
 30
0.0
 11
5455.526052969548
 21
6504.923940337064
 31
0.0
 12
5418.026052969548
 22
6498.673940337065
 32
0.0
 13
5418.026052969548
 23
6498.673940337065
 33
0.0
  0
SOLID
  5
3BCC
330
18
100
AcDbEntity
  8
0
  6
ByBlock
 62
     0
 48
10.0
100
AcDbTrace
 10
5580.526052969523
 20
6342.423940337059
 30
0.0
 11
5580.526052969523
 21
6354.923940337059
 31
0.0
 12
5618.026052969523
 22
6348.673940337061
 32
0.0
 13
5618.026052969523
 23
6348.673940337061
 33
0.0
  0
SOLID
  5
3BCD
330
18
100
AcDbEntity
  8
0
  6
ByBlock
 62
     0
 48
10.0
100
AcDbTrace
 10
5655.525988529831
 20
6342.423940337059
 30
0.0
 11
5655.525988529831
 21
6354.923940337059
 31
0.0
 12
5618.025988529831
 22
6348.673940337061
 32
0.0
 13
5618.025988529831
 23
6348.673940337061
 33
0.0
  0
MTEXT
  5
3BCE
330
18
100
AcDbEntity
  8
0
  6
ByBlock
 62
     0
 48
10.0
100
AcDbMText
 10
5918.026052969526
 20
6528.673940337061
 30
0.0
 40
37.5
 41
0.0
 71
     5
 72
     1
  1
1000
 73
     1
 44
1.0
  0
LINE
  5
3BCF
330
18
100
AcDbEntity
  8
WUWAGAKI
 48
10.0
100
AcDbLine
 10
6102.189568178879
 20
6011.333598400781
 30
0.0
 11
6453.075865363807
 21
5862.051923333376
 31
0.0
210
0.0
220
0.0
230
-1.0
1001
ACAD
1000
DSTYLE
1002
{
1070
    78
1070
     8
1070
   270
1070
     8
1070
   140
1040
2.5
1070
    74
1070
     0
1070
   172
1070
     1
1070
    73
1070
     0
1070
    77
1070
     1
1070
    40
1040
10.0
1070
   147
1040
0.625
1070
    42
1040
0.625
1070
    44
1040
1.25
1070
    43
1040
3.75
1070
   141
1040
2.5
1070
    41
1040
2.5
1070
   273
1070
     8
1070
   274
1070
     4
1070
   143
1040
0.0394
1070
   171
1070
     4
1002
}
  0
LINE
  5
3BD0
330
18
100
AcDbEntity
  8
OBJECT
 48
10.0
100
AcDbLine
 10
5966.869677903749
 20
5770.986690468614
 30
0.0
 11
6698.075865363806
 21
5770.986690468614
 31
0.0
  0
LINE
  5
3BD1
330
18
100
AcDbEntity
  8
OBJECT
100
AcDbLine
 10
6418.026052969526
 20
5598.673940337061
 30
0.0
 11
6418.026052969526
 21
6168.673940337061
 31
0.0
  0
LINE
  5
3BD2
102
{ACAD_REACTORS
330
3B94
102
}
330
18
100
AcDbEntity
  8
OBJECT
100
AcDbLine
 10
6218.026052969526
 20
5668.673940337061
 30
0.0
 11
6218.026052969526
 21
6068.673940337061
 31
0.0
  0
LINE
  5
3BD3
102
{ACAD_REACTORS
330
3B94
102
}
330
18
100
AcDbEntity
  8
OBJECT
100
AcDbLine
 10
6224.026052969526
 20
5662.673940337061
 30
0.0
 11
6224.026052969526
 21
6074.673940337061
 31
0.0
  0
LINE
  5
3BD4
330
18
100
AcDbEntity
  8
OBJECT
100
AcDbLine
 10
5841.438617674608
 20
5935.862663495716
 30
0.0
 11
5841.438617674608
 21
6021.848810926897
 31
0.0
  0
LINE
  5
3BD5
330
18
100
AcDbEntity
  8
OBJECT
100
AcDbLine
 10
5802.202825091525
 20
5935.862654653129
 30
0.0
 11
5802.202825091525
 21
6057.022648827282
 31
0.0
  0
LINE
  5
3BD6
330
18
100
AcDbEntity
  8
OBJECT
100
AcDbLine
 10
5704.113343633817
 20
5935.862683454079
 30
0.0
 11
5704.113343633817
 21
6057.022677628232
 31
0.0
  0
LINE
  5
3BD7
330
18
100
AcDbEntity
  8
OBJECT
100
AcDbLine
 10
5762.967032508441
 20
5935.862672338302
 30
0.0
 11
5762.967032508441
 21
6057.022666512454
 31
0.0
  0
LINE
  5
3BD8
330
18
100
AcDbEntity
  8
OBJECT
100
AcDbLine
 10
5760.351315881193
 20
5935.862672338302
 30
0.0
 11
5760.351315881193
 21
6057.022666512454
 31
0.0
  0
LINE
  5
3BD9
330
18
100
AcDbEntity
  8
OBJECT
100
AcDbLine
 10
5779.969212172734
 20
5935.862681180888
 30
0.0
 11
5779.969212172734
 21
6057.022675355043
 31
0.0
  0
LINE
  5
3BDA
330
18
100
AcDbEntity
  8
OBJECT
100
AcDbLine
 10
5782.584928799983
 20
5935.862681180888
 30
0.0
 11
5782.584928799983
 21
6057.022675355043
 31
0.0
  0
LINE
  5
3BDB
330
18
100
AcDbEntity
  8
OBJECT
100
AcDbLine
 10
5743.349136216901
 20
5935.862672338302
 30
0.0
 11
5743.349136216901
 21
6057.022666512454
 31
0.0
  0
LINE
  5
3BDC
330
18
100
AcDbEntity
  8
OBJECT
100
AcDbLine
 10
5740.733419589651
 20
5935.862672338302
 30
0.0
 11
5740.733419589651
 21
6057.022666512454
 31
0.0
  0
LINE
  5
3BDD
330
18
100
AcDbEntity
  8
OBJECT
100
AcDbLine
 10
5721.115523298109
 20
5935.862663495716
 30
0.0
 11
5721.115523298109
 21
6057.022657669868
 31
0.0
  0
LINE
  5
3BDE
330
18
100
AcDbEntity
  8
OBJECT
100
AcDbLine
 10
5723.731239925359
 20
5935.862663495716
 30
0.0
 11
5723.731239925359
 21
6057.022657669868
 31
0.0
  0
LINE
  5
3BDF
330
18
100
AcDbEntity
  8
OBJECT
100
AcDbLine
 10
5799.587108464277
 20
5935.862654653129
 30
0.0
 11
5799.587108464277
 21
6057.022648827282
 31
0.0
  0
LINE
  5
3BE0
330
18
100
AcDbEntity
  8
OBJECT
100
AcDbLine
 10
5838.822901047361
 20
5935.862663495716
 30
0.0
 11
5838.822901047361
 21
6027.080244181392
 31
0.0
  0
LINE
  5
3BE1
330
18
100
AcDbEntity
  8
OBJECT
100
AcDbLine
 10
5821.820721383066
 20
5935.862663495716
 30
0.0
 11
5821.820721383066
 21
6057.022657669868
 31
0.0
  0
LINE
  5
3BE2
330
18
100
AcDbEntity
  8
OBJECT
100
AcDbLine
 10
5819.205004755817
 20
5935.862663495716
 30
0.0
 11
5819.205004755817
 21
6057.022657669868
 31
0.0
  0
LINE
  5
3BE3
330
18
100
AcDbEntity
  8
OBJECT
100
AcDbLine
 10
5820.52605635028
 20
6063.673933575554
 30
0.0
 11
6015.526052969526
 21
5673.673940337061
 31
0.0
  0
LINE
  5
3BE4
330
18
100
AcDbEntity
  8
OBJECT
100
AcDbLine
 10
5993.026052969526
 20
5718.673940337061
 30
0.0
 11
6218.026052969526
 21
5718.673940337061
 31
0.0
  0
HATCH
  5
3BE5
330
18
100
AcDbEntity
  8
OBJECT
100
AcDbHatch
 10
0.0
 20
0.0
 30
0.0
210
0.0
220
0.0
230
1.0
  2
AR-SAND
 70
     0
 71
     0
 91
        1
 92
        1
 93
        4
 72
     1
 10
6018.026052969526
 20
5668.673940337061
 11
6218.026052969526
 21
5668.673940337061
 72
     1
 10
6218.026052969526
 20
5668.673940337061
 11
6218.026052969526
 21
5718.673940337061
 72
     1
 10
6218.026052969526
 20
5718.673940337061
 11
5993.026052969526
 21
5718.673940337061
 72
     1
 10
5993.026052969526
 20
5718.673940337061
 11
6018.026052969526
 21
5668.673940337061
 97
        0
 75
     0
 76
     1
 52
90.0
 41
1.0
 77
     0
 78
     4
 53
127.5
 43
10376.63280440946
 44
-299.3595982613169
 45
-48.94132373293423
 46
-1.600031295984042
 79
     6
 49
0.0
 49
-38.608
 49
0.0
 49
-43.18
 49
0.0
 49
-41.275
 53
97.49999999999985
 43
10376.63280440946
 44
-299.3595982613169
 45
-71.68251005683543
 46
44.95232831380027
 79
     6
 49
0.0
 49
-20.82799999999999
 49
0.0
 49
-34.79799999999999
 49
0.0
 49
-13.33499999999999
 53
57.49999999999997
 43
10376.63280440946
 44
-330.6015982613171
 45
-0.1437184678545643
 46
79.09923702414579
 79
     6
 49
0.0
 49
-12.69999999999996
 49
0.0
 49
-45.71999999999984
 49
0.0
 49
-59.68999999999984
 53
47.49999999999999
 43
10376.63280440946
 44
-330.6015982613171
 45
-22.29293232572162
 46
76.35564524722972
 79
     6
 49
0.0
 49
-6.349999999999999
 49
0.0
 49
-29.97199999999999
 49
0.0
 49
-34.29
 98
        1
 10
10376.63280440946
 20
-299.3595982613169
  0
LINE
  5
3BE6
330
18
100
AcDbEntity
  8
OBJECT
100
AcDbLine
 10
5976.148175088152
 20
5752.42969609981
 30
0.0
 11
5976.148175088152
 21
5680.325223004254
 31
0.0
  0
LINE
  5
3BE7
330
18
100
AcDbEntity
  8
OBJECT
100
AcDbLine
 10
5978.7638917154
 20
5747.198262845313
 30
0.0
 11
5978.7638917154
 21
5680.325223004254
 31
0.0
  0
LINE
  5
3BE8
330
18
100
AcDbEntity
  8
OBJECT
100
AcDbLine
 10
5878.058693630443
 20
5801.485228294183
 30
0.0
 11
5878.058693630443
 21
5680.325234120029
 31
0.0
  0
LINE
  5
3BE9
330
18
100
AcDbEntity
  8
OBJECT
100
AcDbLine
 10
5880.674410257692
 20
5801.485228294183
 30
0.0
 11
5880.674410257692
 21
5680.325234120029
 31
0.0
  0
LINE
  5
3BEA
330
18
100
AcDbEntity
  8
OBJECT
100
AcDbLine
 10
5900.292306549234
 20
5801.485219451597
 30
0.0
 11
5900.292306549234
 21
5680.325225277446
 31
0.0
  0
LINE
  5
3BEB
330
18
100
AcDbEntity
  8
OBJECT
100
AcDbLine
 10
5897.676589921985
 20
5801.485219451597
 30
0.0
 11
5897.676589921985
 21
5680.325225277446
 31
0.0
  0
LINE
  5
3BEC
330
18
100
AcDbEntity
  8
OBJECT
100
AcDbLine
 10
5861.056513966151
 20
5801.48520833582
 30
0.0
 11
5861.056513966151
 21
5680.325214161669
 31
0.0
  0
LINE
  5
3BED
330
18
100
AcDbEntity
  8
OBJECT
100
AcDbLine
 10
5858.4407973389
 20
5801.48520833582
 30
0.0
 11
5858.4407973389
 21
5680.325214161669
 31
0.0
  0
LINE
  5
3BEE
330
18
100
AcDbEntity
  8
OBJECT
100
AcDbLine
 10
5841.438617674608
 20
5801.485217178408
 30
0.0
 11
5841.438617674608
 21
5680.325223004254
 31
0.0
  0
LINE
  5
3BEF
330
18
100
AcDbEntity
  8
OBJECT
100
AcDbLine
 10
5939.528099132316
 20
5801.485210609009
 30
0.0
 11
5939.528099132316
 21
5680.325216434856
 31
0.0
  0
LINE
  5
3BF0
330
18
100
AcDbEntity
  8
OBJECT
100
AcDbLine
 10
5919.910202840776
 20
5801.485219451597
 30
0.0
 11
5919.910202840776
 21
5680.325225277446
 31
0.0
  0
LINE
  5
3BF1
330
18
100
AcDbEntity
  8
OBJECT
100
AcDbLine
 10
5917.294486213527
 20
5801.485219451597
 30
0.0
 11
5917.294486213527
 21
5680.325225277446
 31
0.0
  0
LINE
  5
3BF2
330
18
100
AcDbEntity
  8
OBJECT
100
AcDbLine
 10
5936.912382505068
 20
5801.485210609009
 30
0.0
 11
5936.912382505068
 21
5680.325216434856
 31
0.0
  0
LINE
  5
3BF3
330
18
100
AcDbEntity
  8
OBJECT
100
AcDbLine
 10
5956.53027879661
 20
5791.665488682893
 30
0.0
 11
5956.53027879661
 21
5680.32523184684
 31
0.0
  0
LINE
  5
3BF4
330
18
100
AcDbEntity
  8
OBJECT
100
AcDbLine
 10
5959.145995423858
 20
5786.434055428397
 30
0.0
 11
5959.145995423858
 21
5680.32523184684
 31
0.0
  0
LINE
  5
3BF5
330
18
100
AcDbEntity
  8
OBJECT
100
AcDbLine
 10
5723.731239925359
 20
5801.485217178408
 30
0.0
 11
5723.731239925359
 21
5680.325223004254
 31
0.0
  0
LINE
  5
3BF6
330
18
100
AcDbEntity
  8
OBJECT
100
AcDbLine
 10
5721.115523298109
 20
5801.485217178408
 30
0.0
 11
5721.115523298109
 21
5680.325223004254
 31
0.0
  0
LINE
  5
3BF7
330
18
100
AcDbEntity
  8
OBJECT
100
AcDbLine
 10
5740.733419589651
 20
5801.48520833582
 30
0.0
 11
5740.733419589651
 21
5680.325214161669
 31
0.0
  0
LINE
  5
3BF8
330
18
100
AcDbEntity
  8
OBJECT
100
AcDbLine
 10
5743.349136216901
 20
5801.48520833582
 30
0.0
 11
5743.349136216901
 21
5680.325214161669
 31
0.0
  0
LINE
  5
3BF9
330
18
100
AcDbEntity
  8
OBJECT
100
AcDbLine
 10
5760.351315881193
 20
5801.48520833582
 30
0.0
 11
5760.351315881193
 21
5680.325214161669
 31
0.0
  0
LINE
  5
3BFA
330
18
100
AcDbEntity
  8
OBJECT
100
AcDbLine
 10
5762.967032508441
 20
5801.48520833582
 30
0.0
 11
5762.967032508441
 21
5680.325214161669
 31
0.0
  0
LINE
  5
3BFB
330
18
100
AcDbEntity
  8
OBJECT
100
AcDbLine
 10
5704.113343633817
 20
5801.485197220043
 30
0.0
 11
5704.113343633817
 21
5680.32520304589
 31
0.0
  0
LINE
  5
3BFC
330
18
100
AcDbEntity
  8
OBJECT
100
AcDbLine
 10
5802.202825091525
 20
5801.485226020993
 30
0.0
 11
5802.202825091525
 21
5680.32523184684
 31
0.0
  0
LINE
  5
3BFD
330
18
100
AcDbEntity
  8
OBJECT
100
AcDbLine
 10
5799.587108464277
 20
5801.485226020993
 30
0.0
 11
5799.587108464277
 21
5680.32523184684
 31
0.0
  0
LINE
  5
3BFE
330
18
100
AcDbEntity
  8
OBJECT
100
AcDbLine
 10
5782.584928799983
 20
5801.485199493234
 30
0.0
 11
5782.584928799983
 21
5680.325205319078
 31
0.0
  0
LINE
  5
3BFF
330
18
100
AcDbEntity
  8
OBJECT
100
AcDbLine
 10
5779.969212172734
 20
5801.485199493234
 30
0.0
 11
5779.969212172734
 21
5680.325205319078
 31
0.0
  0
LINE
  5
3C00
330
18
100
AcDbEntity
  8
OBJECT
100
AcDbLine
 10
5838.822901047361
 20
5801.485217178408
 30
0.0
 11
5838.822901047361
 21
5680.325223004254
 31
0.0
  0
LINE
  5
3C01
330
18
100
AcDbEntity
  8
OBJECT
100
AcDbLine
 10
5819.205004755817
 20
5801.485217178408
 30
0.0
 11
5819.205004755817
 21
5680.325223004254
 31
0.0
  0
LINE
  5
3C02
330
18
100
AcDbEntity
  8
OBJECT
100
AcDbLine
 10
5821.820721383066
 20
5801.485217178408
 30
0.0
 11
5821.820721383066
 21
5680.325223004254
 31
0.0
  0
LINE
  5
3C03
330
18
100
AcDbEntity
  8
OBJECT
100
AcDbLine
 10
5995.766071379692
 20
5713.193903516727
 30
0.0
 11
5995.766071379692
 21
5680.325223004254
 31
0.0
  0
LINE
  5
3C04
330
18
100
AcDbEntity
  8
OBJECT
100
AcDbLine
 10
5998.381788006941
 20
5707.96247026223
 30
0.0
 11
5998.381788006941
 21
5680.325223004254
 31
0.0
  0
LINE
  5
3C05
330
18
100
AcDbEntity
  8
OBJECT
100
AcDbLine
 10
5878.058693630443
 20
5808.093920186395
 30
0.0
 11
5878.058693630443
 21
5929.253914360548
 31
0.0
  0
LINE
  5
3C06
330
18
100
AcDbEntity
  8
OBJECT
100
AcDbLine
 10
5880.674410257692
 20
5808.093920186395
 30
0.0
 11
5880.674410257692
 21
5929.253914360548
 31
0.0
  0
LINE
  5
3C07
330
18
100
AcDbEntity
  8
OBJECT
100
AcDbLine
 10
5861.056513966151
 20
5808.093940144757
 30
0.0
 11
5861.056513966151
 21
5929.253934318911
 31
0.0
  0
LINE
  5
3C08
330
18
100
AcDbEntity
  8
OBJECT
100
AcDbLine
 10
5858.4407973389
 20
5808.093940144757
 30
0.0
 11
5858.4407973389
 21
5929.253934318911
 31
0.0
  0
LINE
  5
3C09
330
18
100
AcDbEntity
  8
OBJECT
100
AcDbLine
 10
5841.438617674608
 20
5808.093931302171
 30
0.0
 11
5841.438617674608
 21
5929.253925476324
 31
0.0
  0
LINE
  5
3C0A
330
18
100
AcDbEntity
  8
OBJECT
100
AcDbLine
 10
5723.731239925359
 20
5808.093931302171
 30
0.0
 11
5723.731239925359
 21
5929.253925476324
 31
0.0
  0
LINE
  5
3C0B
330
18
100
AcDbEntity
  8
OBJECT
100
AcDbLine
 10
5721.115523298109
 20
5808.093931302171
 30
0.0
 11
5721.115523298109
 21
5929.253925476324
 31
0.0
  0
LINE
  5
3C0C
330
18
100
AcDbEntity
  8
OBJECT
100
AcDbLine
 10
5740.733419589651
 20
5808.093940144757
 30
0.0
 11
5740.733419589651
 21
5929.253934318911
 31
0.0
  0
LINE
  5
3C0D
330
18
100
AcDbEntity
  8
OBJECT
100
AcDbLine
 10
5743.349136216901
 20
5808.093940144757
 30
0.0
 11
5743.349136216901
 21
5929.253934318911
 31
0.0
  0
LINE
  5
3C0E
330
18
100
AcDbEntity
  8
OBJECT
100
AcDbLine
 10
5760.351315881193
 20
5808.093940144757
 30
0.0
 11
5760.351315881193
 21
5929.253934318911
 31
0.0
  0
LINE
  5
3C0F
330
18
100
AcDbEntity
  8
OBJECT
100
AcDbLine
 10
5762.967032508441
 20
5808.093940144757
 30
0.0
 11
5762.967032508441
 21
5929.253934318911
 31
0.0
  0
LINE
  5
3C10
330
18
100
AcDbEntity
  8
OBJECT
100
AcDbLine
 10
5704.113343633817
 20
5808.093951260534
 30
0.0
 11
5704.113343633817
 21
5929.253945434687
 31
0.0
  0
LINE
  5
3C11
330
18
100
AcDbEntity
  8
OBJECT
100
AcDbLine
 10
5802.202825091525
 20
5808.093922459586
 30
0.0
 11
5802.202825091525
 21
5929.253916633739
 31
0.0
  0
LINE
  5
3C12
330
18
100
AcDbEntity
  8
OBJECT
100
AcDbLine
 10
5799.587108464277
 20
5808.093922459586
 30
0.0
 11
5799.587108464277
 21
5929.253916633739
 31
0.0
  0
LINE
  5
3C13
330
18
100
AcDbEntity
  8
OBJECT
100
AcDbLine
 10
5782.584928799983
 20
5808.093948987345
 30
0.0
 11
5782.584928799983
 21
5929.253943161499
 31
0.0
  0
LINE
  5
3C14
330
18
100
AcDbEntity
  8
OBJECT
100
AcDbLine
 10
5779.969212172734
 20
5808.093948987345
 30
0.0
 11
5779.969212172734
 21
5929.253943161499
 31
0.0
  0
LINE
  5
3C15
330
18
100
AcDbEntity
  8
OBJECT
100
AcDbLine
 10
5838.822901047361
 20
5808.093931302171
 30
0.0
 11
5838.822901047361
 21
5929.253925476324
 31
0.0
  0
LINE
  5
3C16
330
18
100
AcDbEntity
  8
OBJECT
100
AcDbLine
 10
5819.205004755817
 20
5808.093931302171
 30
0.0
 11
5819.205004755817
 21
5929.253925476324
 31
0.0
  0
LINE
  5
3C17
330
18
100
AcDbEntity
  8
OBJECT
100
AcDbLine
 10
5821.820721383066
 20
5808.093931302171
 30
0.0
 11
5821.820721383066
 21
5929.253925476324
 31
0.0
  0
LINE
  5
3C18
330
18
100
AcDbEntity
  8
OBJECT
100
AcDbLine
 10
5858.4407973389
 20
5935.862672338302
 30
0.0
 11
5858.4407973389
 21
5987.84445159831
 31
0.0
  0
LINE
  5
3C19
330
18
100
AcDbEntity
  8
OBJECT
100
AcDbLine
 10
5861.056513966151
 20
5935.862672338302
 30
0.0
 11
5861.056513966151
 21
5982.613018343812
 31
0.0
  0
LINE
  5
3C1A
330
18
100
AcDbEntity
  8
OBJECT
100
AcDbLine
 10
5878.058693630443
 20
5935.862652379939
 30
0.0
 11
5878.058693630443
 21
5948.608659015226
 31
0.0
  0
LINE
  5
3C1B
330
18
100
AcDbEntity
  8
OBJECT
100
AcDbLine
 10
5880.674410257692
 20
5935.862652379939
 30
0.0
 11
5880.674410257692
 21
5943.377225760729
 31
0.0
  0
LINE
  5
3C1C
330
18
100
AcDbEntity
  8
OBJECT
100
AcDbLine
 10
5917.294486213527
 20
5808.093929028981
 30
0.0
 11
5917.294486213527
 21
5870.13707384906
 31
0.0
  0
LINE
  5
3C1D
330
18
100
AcDbEntity
  8
OBJECT
100
AcDbLine
 10
5919.910202840776
 20
5808.093929028981
 30
0.0
 11
5919.910202840776
 21
5864.905640594561
 31
0.0
  0
LINE
  5
3C1E
330
18
100
AcDbEntity
  8
OBJECT
100
AcDbLine
 10
5897.676589921985
 20
5808.093929028981
 30
0.0
 11
5897.676589921985
 21
5909.372866432144
 31
0.0
  0
LINE
  5
3C1F
330
18
100
AcDbEntity
  8
OBJECT
100
AcDbLine
 10
5900.292306549234
 20
5808.093929028981
 30
0.0
 11
5900.292306549234
 21
5904.141433177645
 31
0.0
  0
SOLID
  5
3C20
330
18
100
AcDbEntity
  8
0
  6
ByBlock
 62
     0
 48
10.0
100
AcDbTrace
 10
6003.793225960233
 20
5776.95868170045
 30
0.0
 11
6003.733252092818
 21
5764.45882557587
 31
0.0
 12
5966.263670652781
 22
5770.8886752404
 32
0.0
 13
5966.263670652781
 23
5770.8886752404
 33
0.0
  0
LINE
  5
3C21
330
18
100
AcDbEntity
  8
OBJECT
100
AcDbLine
 10
5936.912382505068
 20
5808.093937871568
 30
0.0
 11
5936.912382505068
 21
5830.901281265976
 31
0.0
  0
LINE
  5
3C22
330
18
100
AcDbEntity
  8
OBJECT
100
AcDbLine
 10
5939.528099132316
 20
5808.093937871568
 30
0.0
 11
5939.528099132316
 21
5825.669848011479
 31
0.0
  0
LINE
  5
3C23
330
18
100
AcDbEntity
  8
点線
100
AcDbLine
 10
6218.026052969526
 20
5718.673940337061
 30
0.0
 11
6418.026052969526
 21
5718.673940337061
 31
0.0
  0
LINE
  5
3C24
330
18
100
AcDbEntity
  8
OBJECT
100
AcDbLine
 10
6218.026052969526
 20
5668.673940337061
 30
0.0
 11
6218.026052969526
 21
5718.673940337061
 31
0.0
  0
HATCH
  5
3C25
330
18
100
AcDbEntity
  8
OBJECT
100
AcDbHatch
 10
0.0
 20
0.0
 30
0.0
210
0.0
220
0.0
230
1.0
  2
AR-SAND
 70
     0
 71
     0
 91
        1
 92
        1
 93
        4
 72
     1
 10
5818.026052969526
 20
6068.673940337061
 11
6218.026052969526
 21
6068.673940337061
 72
     1
 10
6218.026052969526
 20
6068.673940337061
 11
6218.026052969526
 21
6018.673940337061
 72
     1
 10
6218.026052969526
 20
6018.673940337061
 11
5843.026052969526
 21
6018.673940337061
 72
     1
 10
5843.026052969526
 20
6018.673940337061
 11
5818.026052969526
 21
6068.673940337061
 97
        0
 75
     0
 76
     1
 52
90.0
 41
1.0
 77
     0
 78
     4
 53
127.5
 43
10376.63280440946
 44
-299.3595982613169
 45
-48.94132373293423
 46
-1.600031295984042
 79
     6
 49
0.0
 49
-38.608
 49
0.0
 49
-43.18
 49
0.0
 49
-41.275
 53
97.49999999999985
 43
10376.63280440946
 44
-299.3595982613169
 45
-71.68251005683543
 46
44.95232831380027
 79
     6
 49
0.0
 49
-20.82799999999999
 49
0.0
 49
-34.79799999999999
 49
0.0
 49
-13.33499999999999
 53
57.49999999999997
 43
10376.63280440946
 44
-330.6015982613171
 45
-0.1437184678545643
 46
79.09923702414579
 79
     6
 49
0.0
 49
-12.69999999999996
 49
0.0
 49
-45.71999999999984
 49
0.0
 49
-59.68999999999984
 53
47.49999999999999
 43
10376.63280440946
 44
-330.6015982613171
 45
-22.29293232572162
 46
76.35564524722972
 79
     6
 49
0.0
 49
-6.349999999999999
 49
0.0
 49
-29.97199999999999
 49
0.0
 49
-34.29
 98
        1
 10
10376.63280440946
 20
-299.3595982613169
  0
LINE
  5
3C26
330
18
100
AcDbEntity
  8
OBJECT
100
AcDbLine
 10
5843.026052969526
 20
6018.673940337061
 30
0.0
 11
6218.026052969526
 21
6018.673940337061
 31
0.0
  0
MTEXT
  5
3C27
330
18
100
AcDbEntity
  8
0
  6
ByBlock
 62
     0
 48
10.0
100
AcDbMText
 10
5918.026052969526
 20
6378.673940337062
 30
0.0
 40
37.5
 41
0.0
 71
     5
 72
     1
  1
600
 73
     1
 44
1.0
  0
LINE
  5
3C28
330
18
100
AcDbEntity
  8
0
 48
10.0
100
AcDbLine
 10
6218.026052969526
 20
6198.673940337061
 30
0.0
 11
6218.026052969526
 21
6378.673940337061
 31
0.0
  0
LINE
  5
3C29
330
18
100
AcDbEntity
  8
0
 48
10.0
100
AcDbLine
 10
6418.026052969526
 20
6198.673940337061
 30
0.0
 11
6418.026052969526
 21
6528.673940337061
 31
0.0
  0
LINE
  5
3C2A
330
18
100
AcDbEntity
  8
点線
100
AcDbLine
 10
6218.026052969526
 20
6018.673940337061
 30
0.0
 11
6418.026052969526
 21
6018.673940337061
 31
0.0
  0
SOLID
  5
3C2B
330
18
100
AcDbEntity
  8
0
  6
ByBlock
 62
     0
 48
10.0
100
AcDbTrace
 10
6121.844306394343
 20
6009.558162358591
 30
0.0
 11
6116.892800122091
 21
5998.080680682029
 31
0.0
 12
6084.936108228524
 22
6018.673940337061
 32
0.0
 13
6084.936108228524
 23
6018.673940337061
 33
0.0
  0
SOLID
  5
3C2C
330
18
100
AcDbEntity
  8
0
  6
ByBlock
 62
     0
 48
10.0
100
AcDbTrace
 10
6255.526052969528
 20
6342.423940337059
 30
0.0
 11
6255.526052969528
 21
6354.923940337059
 31
0.0
 12
6218.026052969529
 22
6348.673940337061
 32
0.0
 13
6218.026052969529
 23
6348.673940337061
 33
0.0
  0
SOLID
  5
3C2D
330
18
100
AcDbEntity
  8
0
  6
ByBlock
 62
     0
 48
10.0
100
AcDbTrace
 10
6180.526117409222
 20
6342.423940337059
 30
0.0
 11
6180.526117409222
 21
6354.923940337059
 31
0.0
 12
6218.026117409221
 22
6348.673940337061
 32
0.0
 13
6218.026117409221
 23
6348.673940337061
 33
0.0
  0
MTEXT
  5
3C2E
330
18
100
AcDbEntity
  8
0
  6
ByBlock
 62
     0
 48
10.0
100
AcDbMText
 10
6318.026052969526
 20
6378.673931573641
 30
0.0
 40
37.5
 41
0.0
 71
     5
 72
     1
  1
200
 73
     1
 44
1.0
  0
SOLID
  5
3C2F
330
18
100
AcDbEntity
  8
0
  6
ByBlock
 62
     0
 48
10.0
100
AcDbTrace
 10
6380.526041110371
 20
6342.423929597114
 30
0.0
 11
6380.526041110371
 21
6354.923929597115
 31
0.0
 12
6418.026041110372
 22
6348.673929597115
 32
0.0
 13
6418.026041110372
 23
6348.673929597115
 33
0.0
  0
SOLID
  5
3C30
330
18
100
AcDbEntity
  8
0
  6
ByBlock
 62
     0
 48
10.0
100
AcDbTrace
 10
6380.526052969504
 20
6492.423940337063
 30
0.0
 11
6380.526052969504
 21
6504.923940337064
 31
0.0
 12
6418.026052969505
 22
6498.673940337065
 32
0.0
 13
6418.026052969505
 23
6498.673940337065
 33
0.0
  0
MTEXT
  5
3C31
330
18
100
AcDbEntity
  8
0
  6
ByBlock
 62
     0
 48
10.0
100
AcDbMText
 10
6813.026078791998
 20
5538.673931573641
 30
0.0
 40
37.5
 41
0.0
 71
     5
 72
     1
  1
50
 73
     1
 44
1.0
  0
LWPOLYLINE
  5
3C32
330
18
100
AcDbEntity
  8
上線
 48
10.0
100
AcDbPolyline
 90
        2
 70
     1
 43
5.0
 10
6790.526078791998
 20
5478.651993965834
 42
-1.0
 10
6785.526078791997
 20
5478.651993965834
 42
-1.0
  0
LINE
  5
3C33
330
18
100
AcDbEntity
  8
OBJECT
 48
10.0
100
AcDbLine
 10
6718.02607879202
 20
5478.67393157364
 30
0.0
 11
6605.526078792021
 21
5478.67393157364
 31
0.0
  0
SOLID
  5
3C34
330
18
100
AcDbEntity
  8
0
  6
ByBlock
 62
     0
 48
10.0
100
AcDbTrace
 10
6680.526066932866
 20
5484.923931573637
 30
0.0
 11
6680.526066932866
 21
5472.423931573635
 31
0.0
 12
6718.026066932866
 22
5478.673931573634
 32
0.0
 13
6718.026066932866
 23
5478.673931573634
 33
0.0
  0
MTEXT
  5
3C35
330
18
100
AcDbEntity
  8
0
  6
ByBlock
 62
     0
 48
10.0
100
AcDbMText
 10
6753.026078791998
 20
5508.673931573642
 30
0.0
 40
37.5
 41
0.0
 71
     5
 72
     1
  1
70
 73
     1
 44
1.0
  0
SOLID
  5
3C36
330
18
100
AcDbEntity
  8
0
  6
ByBlock
 62
     0
 48
10.0
100
AcDbTrace
 10
6755.52607879202
 20
5622.423940337064
 30
0.0
 11
6755.52607879202
 21
5634.923940337063
 31
0.0
 12
6718.02607879202
 22
5628.673940337066
 32
0.0
 13
6718.02607879202
 23
5628.673940337066
 33
0.0
  0
MTEXT
  5
3C37
330
18
100
AcDbEntity
  8
0
  6
ByBlock
 62
     0
 48
10.0
100
AcDbMText
 10
6570.575865363807
 20
5800.986690468614
 30
0.0
 40
30.0
 41
0.0
 71
     5
 72
     1
  1
グレーチング
 73
     1
 44
1.0
  0
LINE
  5
3C38
330
18
100
AcDbEntity
  8
OBJECT
 48
10.0
100
AcDbLine
 10
6453.075865363807
 20
5862.051923333376
 30
0.0
 11
6558.075865363807
 21
5862.051923333376
 31
0.0
  0
MTEXT
  5
3C39
330
18
100
AcDbEntity
  8
0
  6
ByBlock
 62
     0
 48
10.0
100
AcDbMText
 10
6505.575865363808
 20
5892.051923333376
 30
0.0
 40
30.0
 41
0.0
 71
     5
 72
     1
  1
受枠
 73
     1
 44
1.0
  0
MTEXT
  5
3C3A
330
18
100
AcDbEntity
  8
0
  6
ByBlock
 62
     0
 48
10.0
100
AcDbMText
 10
7003.026078792041
 20
5658.673940337065
 30
0.0
 40
37.5
 41
0.0
 71
     5
 72
     1
  1
570
 73
     1
 44
1.0
  0
MTEXT
  5
3C3B
330
18
100
AcDbEntity
  8
0
  6
ByBlock
 62
     0
 48
10.0
100
AcDbMText
 10
6988.026078792042
 20
5508.673940337063
 30
0.0
 40
37.5
 41
0.0
 71
     5
 72
     1
  1
300
 73
     1
 44
1.0
  0
SOLID
  5
3C3C
330
18
100
AcDbEntity
  8
0
  6
ByBlock
 62
     0
 48
10.0
100
AcDbTrace
 10
6875.526078792005
 20
5472.423949100486
 30
0.0
 11
6875.526078792005
 21
5484.923949100483
 31
0.0
 12
6838.026078792005
 22
5478.673949100487
 32
0.0
 13
6838.026078792005
 23
5478.673949100487
 33
0.0
  0
SOLID
  5
3C3D
330
18
100
AcDbEntity
  8
0
  6
ByBlock
 62
     0
 48
10.0
100
AcDbTrace
 10
7100.526183953087
 20
5472.423940337064
 30
0.0
 11
7100.526183953087
 21
5484.923940337062
 31
0.0
 12
7138.026183953087
 22
5478.673940337066
 32
0.0
 13
7138.026183953087
 23
5478.673940337066
 33
0.0
  0
LINE
  5
3C3E
330
18
100
AcDbEntity
  8
0
 48
10.0
100
AcDbLine
 10
7288.026078792042
 20
5328.673940337065
 30
0.0
 11
7288.026078792042
 21
5658.673940337065
 31
0.0
  0
LINE
  5
3C3F
330
18
100
AcDbEntity
  8
WUWAGAKI
100
AcDbLine
 10
8893.411115746447
 20
3819.614037190741
 30
0.0
 11
8893.411115746447
 21
6745.763888986864
 31
0.0
  0
LINE
  5
3C40
330
18
100
AcDbEntity
  8
0
 48
10.0
100
AcDbLine
 10
7188.026078792042
 20
5328.673940337061
 30
0.0
 11
7188.026078792042
 21
5508.673940337061
 31
0.0
  0
LINE
  5
3C41
330
18
100
AcDbEntity
  8
WUWAGAKI
100
AcDbLine
 10
7734.111527838068
 20
4308.094004262112
 30
0.0
 11
8826.908102938491
 21
4308.094004262112
 31
0.0
  0
LINE
  5
3C42
330
18
100
AcDbEntity
  8
WUWAGAKI
100
AcDbLine
 10
7734.111527838068
 20
4213.563716316976
 30
0.0
 11
8824.276280602727
 21
4213.563716316976
 31
0.0
  0
LINE
  5
3C43
330
18
100
AcDbEntity
  8
WUWAGAKI
100
AcDbLine
 10
7734.111527838068
 20
4213.563716316976
 30
0.0
 11
8824.276280602727
 21
4213.563716316976
 31
0.0
  0
LINE
  5
3C44
330
18
100
AcDbEntity
  8
WUWAGAKI
100
AcDbLine
 10
7734.111527838068
 20
3888.113571632544
 30
0.0
 11
8826.908102938491
 21
3888.113571632544
 31
0.0
  0
LINE
  5
3C45
330
18
100
AcDbEntity
  8
WUWAGAKI
100
AcDbLine
 10
7734.111527838068
 20
4117.657331352361
 30
0.0
 11
8826.908102938489
 21
4117.657331352361
 31
0.0
  0
LINE
  5
3C46
330
18
100
AcDbEntity
  8
WUWAGAKI
100
AcDbLine
 10
7734.111527838068
 20
4019.142267187755
 30
0.0
 11
8826.908102938489
 21
4019.142267187755
 31
0.0
  0
TEXT
  5
3C47
330
18
100
AcDbEntity
  8
WUWAGAKI
100
AcDbText
 10
8020.564402769407
 20
4142.081092904046
 30
0.0
 40
38.2725
  1
300×U800×1000×120/150×H
100
AcDbText
  0
TEXT
  5
3C49
330
18
100
AcDbEntity
  8
WUWAGAKI
100
AcDbText
 10
7806.63772936143
 20
4042.212810506029
 30
0.0
 40
45.0
  1
縮尺
100
AcDbText
  0
TEXT
  5
3C4A
330
18
100
AcDbEntity
  8
WUWAGAKI
100
AcDbText
 10
7781.645183486769
 20
4239.849603534491
 30
0.0
 40
45.0
  1
種　別
100
AcDbText
  0
TEXT
  5
3C4B
330
18
100
AcDbEntity
  8
WUWAGAKI
100
AcDbText
 10
7778.989971600349
 20
4138.71076349751
 30
0.0
 40
45.0
  1
寸　法
100
AcDbText
  0
LINE
  5
3C4C
330
18
100
AcDbEntity
  8
WUWAGAKI
100
AcDbLine
 10
7734.111527838068
 20
4308.094004262112
 30
0.0
 11
7734.111527838068
 21
3888.113571632544
 31
0.0
  0
TEXT
  5
3C4D
330
18
100
AcDbEntity
  8
WUWAGAKI
100
AcDbText
 10
8020.564402769407
 20
4043.514725935486
 30
0.0
 40
45.0
  1
S＝　1：15
100
AcDbText
  0
TEXT
  5
3C4E
330
18
100
AcDbEntity
  8
WUWAGAKI
100
AcDbText
 10
7972.816960737542
 20
3919.72113843893
 30
0.0
 40
60.0
  1
㈱　ウ　チ　コ　ン
100
AcDbText
  0
LINE
  5
3C4F
330
18
100
AcDbEntity
  8
WUWAGAKI
100
AcDbLine
 10
7986.227999406576
 20
4308.094004262112
 30
0.0
 11
7986.227999406576
 21
4019.142267187755
 31
0.0
  0
TEXT
  5
3C50
330
18
100
AcDbEntity
  8
WUWAGAKI
100
AcDbText
 10
8020.564402769407
 20
4237.270443338431
 30
0.0
 40
45.0
  1
集水桝
100
AcDbText
  0
LINE
  5
3C51
330
18
100
AcDbEntity
  8
WUWAGAKI
100
AcDbLine
 10
8564.625912352804
 20
4117.657331352361
 30
0.0
 11
8564.625912352804
 21
4019.142267187755
 31
0.0
  0
LINE
  5
3C52
330
18
100
AcDbEntity
  8
WUWAGAKI
100
AcDbLine
 10
8380.397485590485
 20
4117.657331352361
 30
0.0
 11
8380.397485590485
 21
4019.142267187755
 31
0.0
  0
TEXT
  5
3C53
330
18
100
AcDbEntity
  8
WUWAGAKI
100
AcDbText
 10
8407.325261342631
 20
4043.564163447026
 30
0.0
 40
45.0
  1
重量
100
AcDbText
  0
LINE
  5
3C55
330
18
100
AcDbEntity
  8
WUWAGAKI
100
AcDbLine
 10
8826.908102938491
 20
3888.113571632544
 30
0.0
 11
8826.908102938491
 21
4308.094004262112
 31
0.0
  0
MTEXT
  5
3C63
330
18
100
AcDbEntity
  8
0
  6
ByBlock
 62
     0
 48
10.0
100
AcDbMText
 10
7238.026078792042
 20
5508.673931573645
 30
0.0
 40
37.5
 41
0.0
 71
     5
 72
     1
  1
100
 73
     1
 44
1.0
  0
SOLID
  5
3C64
330
18
100
AcDbEntity
  8
0
  6
ByBlock
 62
     0
 48
10.0
100
AcDbTrace
 10
7225.52610251034
 20
5484.92393157364
 30
0.0
 11
7225.52610251034
 21
5472.423931573638
 31
0.0
 12
7188.026102510339
 22
5478.673931573638
 32
0.0
 13
7188.026102510339
 23
5478.673931573638
 33
0.0
  0
SOLID
  5
3C65
330
18
100
AcDbEntity
  8
0
  6
ByBlock
 62
     0
 48
10.0
100
AcDbTrace
 10
7250.526066932909
 20
5484.92393157364
 30
0.0
 11
7250.526066932909
 21
5472.423931573638
 31
0.0
 12
7288.026066932909
 22
5478.673931573638
 32
0.0
 13
7288.026066932909
 23
5478.673931573638
 33
0.0
  0
SOLID
  5
3C66
330
18
100
AcDbEntity
  8
0
  6
ByBlock
 62
     0
 48
10.0
100
AcDbTrace
 10
7250.526078792019
 20
5622.423940337064
 30
0.0
 11
7250.526078792019
 21
5634.923940337063
 31
0.0
 12
7288.026078792019
 22
5628.673940337066
 32
0.0
 13
7288.026078792019
 23
5628.673940337066
 33
0.0
  0
VIEWPORT
  5
298
330
15
100
AcDbEntity
 67
     1
  8
0
100
AcDbViewport
 10
291.7632241813602
 20
148.5
 30
0.0
 40
583.5264483627204
 41
297.0
 68
     1
 69
     1
 12
291.7632241813602
 22
148.5
 13
0.0
 23
0.0
 14
10.0
 24
10.0
 15
10.0
 25
10.0
 16
0.0
 26
0.0
 36
1.0
 17
0.0
 27
0.0
 37
0.0
 42
50.0
 43
0.0
 44
0.0
 45
297.0
 50
0.0
 51
0.0
 72
   100
 90
    32800
  1

281
     0
 71
     1
 74
     0
110
0.0
120
0.0
130
0.0
111
1.0
121
0.0
131
0.0
112
0.0
122
1.0
132
0.0
 79
     0
146
0.0
  0
ENDSEC
  0
SECTION
  2
OBJECTS
  0
DICTIONARY
  5
C
330
0
100
AcDbDictionary
281
     1
  3
ACAD_GROUP
350
D
  3
ACAD_LAYOUT
350
15FE
  3
ACAD_MLINESTYLE
350
1B
  3
ACAD_PLOTSETTINGS
350
15FF
  3
ACAD_PLOTSTYLENAME
350
15FC
  3
ACDBVARIABLEDICTIONARY
350
B2A
  3
DRAWINGVARIABLESDICT
350
1212
  0
DICTIONARY
  5
D
102
{ACAD_REACTORS
330
C
102
}
330
C
100
AcDbDictionary
281
     1
  3
*A1
350
1DE1
  3
*A2
350
2483
  3
*A3
350
2486
  3
*A4
350
2971
  3
*A5
350
3003
  3
*A6
350
34F4
  0
DICTIONARY
  5
15FE
102
{ACAD_REACTORS
330
C
102
}
330
C
100
AcDbDictionary
281
     1
  3
Model
350
1600
  3
ﾚｲｱｳﾄ1
350
1601
  0
DICTIONARY
  5
1B
102
{ACAD_REACTORS
330
C
102
}
330
C
100
AcDbDictionary
281
     1
  3
STANDARD
350
1C
  0
DICTIONARY
  5
15FF
102
{ACAD_REACTORS
330
C
102
}
330
C
100
AcDbDictionary
281
     1
  0
ACDBDICTIONARYWDFLT
  5
15FC
102
{ACAD_REACTORS
330
C
102
}
330
C
100
AcDbDictionary
281
     1
  3
Normal
350
15FD
100
AcDbDictionaryWithDefault
340
15FD
  0
DICTIONARY
  5
B2A
102
{ACAD_REACTORS
330
C
102
}
330
C
100
AcDbDictionary
281
     1
  3
SORTENTS
350
B2B
  0
DICTIONARY
  5
1212
102
{ACAD_REACTORS
330
C
102
}
330
C
100
AcDbDictionary
281
     1
1001
DRAWINGVARIABLESXDATA
1000
POLARANG
1000
0.785398
1000
POLARMODE
1000
0
  0
GROUP
  5
1DE1
102
{ACAD_REACTORS
330
D
102
}
330
D
100
AcDbGroup
300

 70
     1
 71
     1
  0
GROUP
  5
2483
102
{ACAD_REACTORS
330
D
102
}
330
D
100
AcDbGroup
300

 70
     1
 71
     1
  0
GROUP
  5
2486
102
{ACAD_REACTORS
330
D
102
}
330
D
100
AcDbGroup
300

 70
     1
 71
     1
  0
GROUP
  5
2971
102
{ACAD_REACTORS
330
D
102
}
330
D
100
AcDbGroup
300

 70
     1
 71
     1
  0
GROUP
  5
3003
102
{ACAD_REACTORS
330
D
102
}
330
D
100
AcDbGroup
300

 70
     1
 71
     1
  0
GROUP
  5
34F4
102
{ACAD_REACTORS
330
D
102
}
330
D
100
AcDbGroup
300

 70
     1
 71
     1
  0
LAYOUT
  5
1600
102
{ACAD_REACTORS
330
15FE
102
}
330
15FE
100
AcDbPlotSettings
  1

  2
Canon LBP3800 LIPSLX
  4
A4
  6

 40
5.873749732971191
 41
5.873747825622558
 42
5.873748779296875
 43
5.873748779296875
 44
209.9733276367187
 45
296.9259948730469
 46
0.0
 47
0.0
 48
0.0
 49
0.0
140
0.0
141
0.0
142
1.0
143
1.0
 70
 11952
 72
     1
 73
     1
 74
     0
  7

 75
     0
147
1.0
148
-1119.838883806218
149
-2764.341960111367
100
AcDbLayout
  1
Model
 70
     1
 71
     0
 10
0.0
 20
0.0
 11
12.0
 21
9.0
 12
0.0
 22
0.0
 32
0.0
 14
0.0
 24
0.0
 34
0.0
 15
0.0
 25
0.0
 35
0.0
146
0.0
 13
0.0
 23
0.0
 33
0.0
 16
1.0
 26
0.0
 36
0.0
 17
0.0
 27
1.0
 37
0.0
 76
     0
330
18
  0
LAYOUT
  5
1601
102
{ACAD_REACTORS
330
15FE
102
}
330
15FE
100
AcDbPlotSettings
  1

  2
Canon LBP3800 LIPSLX
  4

  6

 40
0.0
 41
0.0
 42
0.0
 43
0.0
 44
0.0
 45
0.0
 46
0.0
 47
0.0
 48
0.0
 49
0.0
140
0.0
141
0.0
142
1.0
143
1.0
 70
   688
 72
     0
 73
     0
 74
     5
  7

 75
    16
147
1.0
148
0.0
149
0.0
100
AcDbLayout
  1
ﾚｲｱｳﾄ1
 70
     1
 71
     1
 10
0.0
 20
0.0
 11
420.0
 21
297.0
 12
0.0
 22
0.0
 32
0.0
 14
1.000000000000000E+20
 24
1.000000000000000E+20
 34
1.000000000000000E+20
 15
-1.000000000000000E+20
 25
-1.000000000000000E+20
 35
-1.000000000000000E+20
146
0.0
 13
0.0
 23
0.0
 33
0.0
 16
1.0
 26
0.0
 36
0.0
 17
0.0
 27
1.0
 37
0.0
 76
     0
330
15
331
298
  0
MLINESTYLE
  5
1C
102
{ACAD_REACTORS
330
1B
102
}
330
1B
100
AcDbMlineStyle
  2
STANDARD
 70
     0
  3

 62
   256
 51
90.0
 52
90.0
 71
     2
 49
0.5
 62
   256
  6
BYLAYER
 49
-0.5
 62
   256
  6
BYLAYER
  0
ACDBPLACEHOLDER
  5
15FD
102
{ACAD_REACTORS
330
15FC
102
}
330
15FC
  0
DICTIONARYVAR
  5
B2B
102
{ACAD_REACTORS
330
B2A
102
}
330
B2A
100
DictionaryVariables
280
     0
  1
96
  0
ENDSEC
  0
EOF
