  0
SECTION
  2
HEADER
  9
$ACADVER
  1
AC1015
  9
$ACADMAINTVER
 70
     6
  9
$DWGCODEPAGE
  3
ANSI_932
  9
$INSBASE
 10
0.0
 20
0.0
 30
0.0
  9
$EXTMIN
 10
710.0813698183028
 20
984.8549298695507
 30
0.0
  9
$EXTMAX
 10
9282.502981687652
 20
6893.688092394938
 30
0.0
  9
$LIMMIN
 10
0.0
 20
0.0
  9
$LIMMAX
 10
4455.0
 20
3150.0
  9
$ORTHOMODE
 70
     0
  9
$REGENMODE
 70
     1
  9
$FILLMODE
 70
     1
  9
$QTEXTMODE
 70
     0
  9
$MIRRTEXT
 70
     1
  9
$LTSCALE
 40
5.0
  9
$ATTMODE
 70
     1
  9
$TEXTSIZE
 40
2.5
  9
$TRACEWID
 40
1.0
  9
$TEXTSTYLE
  7
STANDARD
  9
$CLAYER
  8
OBJECT
  9
$CELTYPE
  6
BYLAYER
  9
$CECOLOR
 62
   256
  9
$CELTSCALE
 40
1.0
  9
$DISPSILH
 70
     0
  9
$DIMSCALE
 40
15.0
  9
$DIMASZ
 40
2.5
  9
$DIMEXO
 40
0.625
  9
$DIMDLI
 40
3.75
  9
$DIMRND
 40
0.0
  9
$DIMDLE
 40
0.0
  9
$DIMEXE
 40
1.25
  9
$DIMTP
 40
0.0
  9
$DIMTM
 40
0.0
  9
$DIMTXT
 40
2.5
  9
$DIMCEN
 40
2.5
  9
$DIMTSZ
 40
0.0
  9
$DIMTOL
 70
     0
  9
$DIMLIM
 70
     0
  9
$DIMTIH
 70
     0
  9
$DIMTOH
 70
     0
  9
$DIMSE1
 70
     0
  9
$DIMSE2
 70
     0
  9
$DIMTAD
 70
     1
  9
$DIMZIN
 70
     8
  9
$DIMBLK
  1

  9
$DIMASO
 70
     1
  9
$DIMSHO
 70
     1
  9
$DIMPOST
  1

  9
$DIMAPOST
  1

  9
$DIMALT
 70
     0
  9
$DIMALTD
 70
     4
  9
$DIMALTF
 40
0.0394
  9
$DIMLFAC
 40
1.0
  9
$DIMTOFL
 70
     1
  9
$DIMTVP
 40
0.0
  9
$DIMTIX
 70
     0
  9
$DIMSOXD
 70
     0
  9
$DIMSAH
 70
     0
  9
$DIMBLK1
  1

  9
$DIMBLK2
  1

  9
$DIMSTYLE
  2
STANDARD
  9
$DIMCLRD
 70
     0
  9
$DIMCLRE
 70
     0
  9
$DIMCLRT
 70
     0
  9
$DIMTFAC
 40
1.0
  9
$DIMGAP
 40
0.625
  9
$DIMJUST
 70
     0
  9
$DIMSD1
 70
     0
  9
$DIMSD2
 70
     0
  9
$DIMTOLJ
 70
     1
  9
$DIMTZIN
 70
     0
  9
$DIMALTZ
 70
     0
  9
$DIMALTTZ
 70
     0
  9
$DIMUPT
 70
     0
  9
$DIMDEC
 70
     4
  9
$DIMTDEC
 70
     4
  9
$DIMALTU
 70
     8
  9
$DIMALTTD
 70
     4
  9
$DIMTXSTY
  7
STANDARD
  9
$DIMAUNIT
 70
     0
  9
$DIMADEC
 70
     0
  9
$DIMALTRND
 40
0.0
  9
$DIMAZIN
 70
     0
  9
$DIMDSEP
 70
    46
  9
$DIMATFIT
 70
     3
  9
$DIMFRAC
 70
     0
  9
$DIMLDRBLK
  1

  9
$DIMLUNIT
 70
     6
  9
$DIMLWD
 70
    -2
  9
$DIMLWE
 70
    -2
  9
$DIMTMOVE
 70
     0
  9
$LUNITS
 70
     2
  9
$LUPREC
 70
     4
  9
$SKETCHINC
 40
1.0
  9
$FILLETRAD
 40
10.0
  9
$AUNITS
 70
     0
  9
$AUPREC
 70
     0
  9
$MENU
  1
acad
  9
$ELEVATION
 40
0.0
  9
$PELEVATION
 40
0.0
  9
$THICKNESS
 40
0.0
  9
$LIMCHECK
 70
     0
  9
$CHAMFERA
 40
10.0
  9
$CHAMFERB
 40
10.0
  9
$CHAMFERC
 40
20.0
  9
$CHAMFERD
 40
0.0
  9
$SKPOLY
 70
     0
  9
$TDCREATE
 40
2452111.335768865
  9
$TDUCREATE
 40
2452110.960768866
  9
$TDUPDATE
 40
2454547.710077291
  9
$TDUUPDATE
 40
2454547.335077291
  9
$TDINDWG
 40
1.2576681481
  9
$TDUSRTIMER
 40
1.2576681481
  9
$USRTIMER
 70
     1
  9
$ANGBASE
 50
0.0
  9
$ANGDIR
 70
     0
  9
$PDMODE
 70
     0
  9
$PDSIZE
 40
0.0
  9
$PLINEWID
 40
0.0
  9
$SPLFRAME
 70
     0
  9
$SPLINETYPE
 70
     6
  9
$SPLINESEGS
 70
     8
  9
$HANDSEED
  5
3C97
  9
$SURFTAB1
 70
     6
  9
$SURFTAB2
 70
     6
  9
$SURFTYPE
 70
     6
  9
$SURFU
 70
     6
  9
$SURFV
 70
     6
  9
$UCSBASE
  2

  9
$UCSNAME
  2

  9
$UCSORG
 10
0.0
 20
0.0
 30
0.0
  9
$UCSXDIR
 10
1.0
 20
0.0
 30
0.0
  9
$UCSYDIR
 10
0.0
 20
1.0
 30
0.0
  9
$UCSORTHOREF
  2

  9
$UCSORTHOVIEW
 70
     0
  9
$UCSORGTOP
 10
0.0
 20
0.0
 30
0.0
  9
$UCSORGBOTTOM
 10
0.0
 20
0.0
 30
0.0
  9
$UCSORGLEFT
 10
0.0
 20
0.0
 30
0.0
  9
$UCSORGRIGHT
 10
0.0
 20
0.0
 30
0.0
  9
$UCSORGFRONT
 10
0.0
 20
0.0
 30
0.0
  9
$UCSORGBACK
 10
0.0
 20
0.0
 30
0.0
  9
$PUCSBASE
  2

  9
$PUCSNAME
  2

  9
$PUCSORG
 10
0.0
 20
0.0
 30
0.0
  9
$PUCSXDIR
 10
1.0
 20
0.0
 30
0.0
  9
$PUCSYDIR
 10
0.0
 20
1.0
 30
0.0
  9
$PUCSORTHOREF
  2

  9
$PUCSORTHOVIEW
 70
     0
  9
$PUCSORGTOP
 10
0.0
 20
0.0
 30
0.0
  9
$PUCSORGBOTTOM
 10
0.0
 20
0.0
 30
0.0
  9
$PUCSORGLEFT
 10
0.0
 20
0.0
 30
0.0
  9
$PUCSORGRIGHT
 10
0.0
 20
0.0
 30
0.0
  9
$PUCSORGFRONT
 10
0.0
 20
0.0
 30
0.0
  9
$PUCSORGBACK
 10
0.0
 20
0.0
 30
0.0
  9
$USERI1
 70
     0
  9
$USERI2
 70
     0
  9
$USERI3
 70
     0
  9
$USERI4
 70
     0
  9
$USERI5
 70
     0
  9
$USERR1
 40
0.0
  9
$USERR2
 40
0.0
  9
$USERR3
 40
0.0
  9
$USERR4
 40
0.0
  9
$USERR5
 40
0.0
  9
$WORLDVIEW
 70
     1
  9
$SHADEDGE
 70
     3
  9
$SHADEDIF
 70
    70
  9
$TILEMODE
 70
     1
  9
$MAXACTVP
 70
    48
  9
$PINSBASE
 10
0.0
 20
0.0
 30
0.0
  9
$PLIMCHECK
 70
     0
  9
$PEXTMIN
 10
1.000000000000000E+20
 20
1.000000000000000E+20
 30
1.000000000000000E+20
  9
$PEXTMAX
 10
-1.000000000000000E+20
 20
-1.000000000000000E+20
 30
-1.000000000000000E+20
  9
$PLIMMIN
 10
0.0
 20
0.0
  9
$PLIMMAX
 10
420.0
 20
297.0
  9
$UNITMODE
 70
     0
  9
$VISRETAIN
 70
     1
  9
$PLINEGEN
 70
     0
  9
$PSLTSCALE
 70
     1
  9
$TREEDEPTH
 70
  3020
  9
$CMLSTYLE
  2
STANDARD
  9
$CMLJUST
 70
     0
  9
$CMLSCALE
 40
20.0
  9
$PROXYGRAPHICS
 70
     1
  9
$MEASUREMENT
 70
     1
  9
$CELWEIGHT
370
    -1
  9
$ENDCAPS
280
     0
  9
$JOINSTYLE
280
     0
  9
$LWDISPLAY
290
     0
  9
$INSUNITS
 70
     0
  9
$HYPERLINKBASE
  1

  9
$STYLESHEET
  1

  9
$XEDIT
290
     1
  9
$CEPSNTYPE
380
     0
  9
$PSTYLEMODE
290
     1
  9
$FINGERPRINTGUID
  2
{C9668057-E409-4CFD-A4F9-6C0551275C13}
  9
$VERSIONGUID
  2
{B6EA709D-B6CB-46B7-A28F-8807A8F1D858}
  9
$EXTNAMES
290
     1
  9
$PSVPSCALE
 40
0.0
  9
$OLESTARTUP
290
     0
  0
ENDSEC
  0
SECTION
  2
CLASSES
  0
CLASS
  1
LWPOLYLINE
  2
AcDbPolyline
  3
AutoCAD 2000
 90
    32768
280
     0
281
     1
  0
CLASS
  1
DICTIONARYVAR
  2
AcDbDictionaryVar
  3
AutoCAD 2000
 90
        0
280
     0
281
     0
  0
CLASS
  1
HATCH
  2
AcDbHatch
  3
AutoCAD 2000
 90
    32768
280
     0
281
     1
  0
CLASS
  1
ACDBDICTIONARYWDFLT
  2
AcDbDictionaryWithDefault
  3
AutoCAD 2000
 90
        0
280
     0
281
     0
  0
CLASS
  1
ACDBPLACEHOLDER
  2
AcDbPlaceHolder
  3
AutoCAD 2000
 90
        0
280
     0
281
     0
  0
CLASS
  1
LAYOUT
  2
AcDbLayout
  3
AutoCAD 2000
 90
        0
280
     0
281
     0
  0
ENDSEC
  0
SECTION
  2
TABLES
  0
TABLE
  2
VPORT
  5
8
330
0
100
AcDbSymbolTable
 70
     2
  0
VPORT
  5
3C96
330
8
100
AcDbSymbolTableRecord
100
AcDbViewportTableRecord
  2
*Active
 70
     0
 10
0.0
 20
0.0
 11
1.0
 21
1.0
 12
7267.54871389724
 22
5455.938342027765
 13
0.0
 23
0.0
 14
10.0
 24
10.0
 15
10.0
 25
10.0
 16
0.0
 26
0.0
 36
1.0
 17
0.0
 27
0.0
 37
0.0
 40
3201.825565253484
 41
1.731203007518796
 42
50.0
 43
0.0
 44
0.0
 50
0.0
 51
0.0
 71
     0
 72
   100
 73
     1
 74
     1
 75
     0
 76
     0
 77
     0
 78
     0
281
     0
 65
     1
110
0.0
120
0.0
130
0.0
111
1.0
121
0.0
131
0.0
112
0.0
122
1.0
132
0.0
 79
     0
146
0.0
  0
ENDTAB
  0
TABLE
  2
LTYPE
  5
5
330
0
100
AcDbSymbolTable
 70
    46
  0
LTYPE
  5
12
330
5
100
AcDbSymbolTableRecord
100
AcDbLinetypeTableRecord
  2
BYBLOCK
 70
     0
  3

 72
    65
 73
     0
 40
0.0
  0
LTYPE
  5
13
330
5
100
AcDbSymbolTableRecord
100
AcDbLinetypeTableRecord
  2
BYLAYER
 70
     0
  3

 72
    65
 73
     0
 40
0.0
  0
LTYPE
  5
14
330
5
100
AcDbSymbolTableRecord
100
AcDbLinetypeTableRecord
  2
CONTINUOUS
 70
     0
  3
Solid line
 72
    65
 73
     0
 40
0.0
  0
LTYPE
  5
128
330
5
100
AcDbSymbolTableRecord
100
AcDbLinetypeTableRecord
  2
ACAD_ISO02W100
 70
     0
  3
ISO dash __ __ __ __ __ __ __ __ __ __ __ __ __
 72
    65
 73
     2
 40
15.0
 49
12.0
 74
     0
 49
-3.0
 74
     0
  0
LTYPE
  5
129
330
5
100
AcDbSymbolTableRecord
100
AcDbLinetypeTableRecord
  2
ACAD_ISO03W100
 70
     0
  3
ISO dash space __    __    __    __    __    __
 72
    65
 73
     2
 40
30.0
 49
12.0
 74
     0
 49
-18.0
 74
     0
  0
LTYPE
  5
12A
330
5
100
AcDbSymbolTableRecord
100
AcDbLinetypeTableRecord
  2
ACAD_ISO04W100
 70
     0
  3
ISO long-dash dot ____ . ____ . ____ . ____ . _
 72
    65
 73
     4
 40
30.5
 49
24.0
 74
     0
 49
-3.0
 74
     0
 49
0.5
 74
     0
 49
-3.0
 74
     0
  0
LTYPE
  5
12B
330
5
100
AcDbSymbolTableRecord
100
AcDbLinetypeTableRecord
  2
ACAD_ISO05W100
 70
     0
  3
ISO long-dash double-dot ____ .. ____ .. ____ .
 72
    65
 73
     8
 40
37.5
 49
24.0
 74
     0
 49
-3.0
 74
     0
 49
0.5
 74
     0
 49
-3.0
 74
     0
 49
0.5
 74
     0
 49
-3.0
 74
     0
 49
0.5
 74
     0
 49
-3.0
 74
     0
  0
LTYPE
  5
12C
330
5
100
AcDbSymbolTableRecord
100
AcDbLinetypeTableRecord
  2
ACAD_ISO06W100
 70
     0
  3
ISO long-dash triple-dot ____ ... ____ ... ____
 72
    65
 73
     8
 40
37.5
 49
24.0
 74
     0
 49
-3.0
 74
     0
 49
0.5
 74
     0
 49
-3.0
 74
     0
 49
0.5
 74
     0
 49
-3.0
 74
     0
 49
0.5
 74
     0
 49
-3.0
 74
     0
  0
LTYPE
  5
12D
330
5
100
AcDbSymbolTableRecord
100
AcDbLinetypeTableRecord
  2
ACAD_ISO07W100
 70
     0
  3
ISO dot . . . . . . . . . . . . . . . . . . . .
 72
    65
 73
     2
 40
3.5
 49
0.5
 74
     0
 49
-3.0
 74
     0
  0
LTYPE
  5
12E
330
5
100
AcDbSymbolTableRecord
100
AcDbLinetypeTableRecord
  2
ACAD_ISO08W100
 70
     0
  3
ISO long-dash short-dash ____ __ ____ __ ____ _
 72
    65
 73
     4
 40
36.0
 49
24.0
 74
     0
 49
-3.0
 74
     0
 49
6.0
 74
     0
 49
-3.0
 74
     0
  0
LTYPE
  5
12F
330
5
100
AcDbSymbolTableRecord
100
AcDbLinetypeTableRecord
  2
ACAD_ISO09W100
 70
     0
  3
ISO long-dash double-short-dash ____ __ __ ____
 72
    65
 73
     6
 40
45.0
 49
24.0
 74
     0
 49
-3.0
 74
     0
 49
6.0
 74
     0
 49
-3.0
 74
     0
 49
6.0
 74
     0
 49
-3.0
 74
     0
  0
LTYPE
  5
130
330
5
100
AcDbSymbolTableRecord
100
AcDbLinetypeTableRecord
  2
ACAD_ISO10W100
 70
     0
  3
ISO dash dot __ . __ . __ . __ . __ . __ . __ .
 72
    65
 73
     4
 40
18.5
 49
12.0
 74
     0
 49
-3.0
 74
     0
 49
0.5
 74
     0
 49
-3.0
 74
     0
  0
LTYPE
  5
131
330
5
100
AcDbSymbolTableRecord
100
AcDbLinetypeTableRecord
  2
ACAD_ISO11W100
 70
     0
  3
ISO double-dash dot __ __ . __ __ . __ __ . __ 
 72
    65
 73
     6
 40
33.5
 49
12.0
 74
     0
 49
-3.0
 74
     0
 49
12.0
 74
     0
 49
-3.0
 74
     0
 49
0.5
 74
     0
 49
-3.0
 74
     0
  0
LTYPE
  5
132
330
5
100
AcDbSymbolTableRecord
100
AcDbLinetypeTableRecord
  2
ACAD_ISO12W100
 70
     0
  3
ISO dash double-dot __ . . __ . . __ . . __ . .
 72
    65
 73
     6
 40
22.0
 49
12.0
 74
     0
 49
-3.0
 74
     0
 49
0.5
 74
     0
 49
-3.0
 74
     0
 49
0.5
 74
     0
 49
-3.0
 74
     0
  0
LTYPE
  5
133
330
5
100
AcDbSymbolTableRecord
100
AcDbLinetypeTableRecord
  2
ACAD_ISO13W100
 70
     0
  3
ISO double-dash double-dot __ __ . . __ __ . . 
 72
    65
 73
     8
 40
37.0
 49
12.0
 74
     0
 49
-3.0
 74
     0
 49
12.0
 74
     0
 49
-3.0
 74
     0
 49
0.5
 74
     0
 49
-3.0
 74
     0
 49
0.5
 74
     0
 49
-3.0
 74
     0
  0
LTYPE
  5
134
330
5
100
AcDbSymbolTableRecord
100
AcDbLinetypeTableRecord
  2
ACAD_ISO14W100
 70
     0
  3
ISO dash triple-dot __ . . . __ . . . __ . . . 
 72
    65
 73
     8
 40
25.5
 49
12.0
 74
     0
 49
-3.0
 74
     0
 49
0.5
 74
     0
 49
-3.0
 74
     0
 49
0.5
 74
     0
 49
-3.0
 74
     0
 49
0.5
 74
     0
 49
-3.0
 74
     0
  0
LTYPE
  5
135
330
5
100
AcDbSymbolTableRecord
100
AcDbLinetypeTableRecord
  2
ACAD_ISO15W100
 70
     0
  3
ISO double-dash triple-dot __ __ . . . __ __ . 
 72
    65
 73
    10
 40
40.49999999999999
 49
12.0
 74
     0
 49
-3.0
 74
     0
 49
12.0
 74
     0
 49
-3.0
 74
     0
 49
0.5
 74
     0
 49
-3.0
 74
     0
 49
0.5
 74
     0
 49
-3.0
 74
     0
 49
0.5
 74
     0
 49
-3.0
 74
     0
  0
LTYPE
  5
136
330
5
100
AcDbSymbolTableRecord
100
AcDbLinetypeTableRecord
  2
BATTING
 70
     0
  3
Batting SSSSSSSSSSSSSSSSSSSSSSSSSSSSSSSSSSSSSSS
 72
    65
 73
     4
 40
10.16253999999999
 49
0.00254
 74
     0
 49
-2.54
 74
     4
 75
   134
340
127
 46
2.54
 50
0.0
 44
-2.54
 45
0.0
 49
-5.08
 74
     4
 75
   134
340
127
 46
2.54
 50
180.0
 44
2.54
 45
0.0
 49
-2.54
 74
     0
  0
LTYPE
  5
137
330
5
100
AcDbSymbolTableRecord
100
AcDbLinetypeTableRecord
  2
BORDER
 70
     0
  3
Border __ __ . __ __ . __ __ . __ __ . __ __ .
 72
    65
 73
     6
 40
44.45
 49
12.7
 74
     0
 49
-6.349999999999999
 74
     0
 49
12.7
 74
     0
 49
-6.349999999999999
 74
     0
 49
0.0
 74
     0
 49
-6.349999999999999
 74
     0
  0
LTYPE
  5
138
330
5
100
AcDbSymbolTableRecord
100
AcDbLinetypeTableRecord
  2
BORDER2
 70
     0
  3
Border (.5x) __.__.__.__.__.__.__.__.__.__.__.
 72
    65
 73
     6
 40
22.225
 49
6.349999999999999
 74
     0
 49
-3.174999999999999
 74
     0
 49
6.349999999999999
 74
     0
 49
-3.174999999999999
 74
     0
 49
0.0
 74
     0
 49
-3.174999999999999
 74
     0
  0
LTYPE
  5
139
330
5
100
AcDbSymbolTableRecord
100
AcDbLinetypeTableRecord
  2
BORDERX2
 70
     0
  3
Border (2x) ____  ____  .  ____  ____  .  ___
 72
    65
 73
     6
 40
88.9
 49
25.4
 74
     0
 49
-12.7
 74
     0
 49
25.4
 74
     0
 49
-12.7
 74
     0
 49
0.0
 74
     0
 49
-12.7
 74
     0
  0
LTYPE
  5
13A
330
5
100
AcDbSymbolTableRecord
100
AcDbLinetypeTableRecord
  2
CENTER
 70
     0
  3
Center ____ _ ____ _ ____ _ ____ _ ____ _ ____
 72
    65
 73
     4
 40
50.8
 49
31.75
 74
     0
 49
-6.349999999999999
 74
     0
 49
6.349999999999999
 74
     0
 49
-6.349999999999999
 74
     0
  0
LTYPE
  5
13B
330
5
100
AcDbSymbolTableRecord
100
AcDbLinetypeTableRecord
  2
CENTER2
 70
     0
  3
Center (.5x) ___ _ ___ _ ___ _ ___ _ ___ _ ___
 72
    65
 73
     4
 40
28.57499999999999
 49
19.05
 74
     0
 49
-3.174999999999999
 74
     0
 49
3.174999999999999
 74
     0
 49
-3.174999999999999
 74
     0
  0
LTYPE
  5
13C
330
5
100
AcDbSymbolTableRecord
100
AcDbLinetypeTableRecord
  2
CENTERX2
 70
     0
  3
Center (2x) ________  __  ________  __  _____
 72
    65
 73
     4
 40
101.6
 49
63.5
 74
     0
 49
-12.7
 74
     0
 49
12.7
 74
     0
 49
-12.7
 74
     0
  0
LTYPE
  5
13D
330
5
100
AcDbSymbolTableRecord
100
AcDbLinetypeTableRecord
  2
DASHDOT
 70
     0
  3
Dash dot __ . __ . __ . __ . __ . __ . __ . __
 72
    65
 73
     4
 40
25.4
 49
12.7
 74
     0
 49
-6.349999999999999
 74
     0
 49
0.0
 74
     0
 49
-6.349999999999999
 74
     0
  0
LTYPE
  5
13E
330
5
100
AcDbSymbolTableRecord
100
AcDbLinetypeTableRecord
  2
DASHDOT2
 70
     0
  3
Dash dot (.5x) _._._._._._._._._._._._._._._.
 72
    65
 73
     4
 40
12.7
 49
6.349999999999999
 74
     0
 49
-3.174999999999999
 74
     0
 49
0.0
 74
     0
 49
-3.174999999999999
 74
     0
  0
LTYPE
  5
13F
330
5
100
AcDbSymbolTableRecord
100
AcDbLinetypeTableRecord
  2
DASHDOTX2
 70
     0
  3
Dash dot (2x) ____  .  ____  .  ____  .  ___
 72
    65
 73
     4
 40
50.8
 49
25.4
 74
     0
 49
-12.7
 74
     0
 49
0.0
 74
     0
 49
-12.7
 74
     0
  0
LTYPE
  5
140
330
5
100
AcDbSymbolTableRecord
100
AcDbLinetypeTableRecord
  2
DASHED
 70
     0
  3
Dashed __ __ __ __ __ __ __ __ __ __ __ __ __ _
 72
    65
 73
     2
 40
19.04999999999999
 49
12.7
 74
     0
 49
-6.349999999999999
 74
     0
  0
LTYPE
  5
141
330
5
100
AcDbSymbolTableRecord
100
AcDbLinetypeTableRecord
  2
DASHED2
 70
     0
  3
Dashed (.5x) _ _ _ _ _ _ _ _ _ _ _ _ _ _ _ _ _
 72
    65
 73
     2
 40
9.524999999999998
 49
6.349999999999999
 74
     0
 49
-3.174999999999999
 74
     0
  0
LTYPE
  5
142
330
5
100
AcDbSymbolTableRecord
100
AcDbLinetypeTableRecord
  2
DASHEDX2
 70
     0
  3
Dashed (2x) ____  ____  ____  ____  ____  ___
 72
    65
 73
     2
 40
38.09999999999999
 49
25.4
 74
     0
 49
-12.7
 74
     0
  0
LTYPE
  5
143
330
5
100
AcDbSymbolTableRecord
100
AcDbLinetypeTableRecord
  2
DIVIDE
 70
     0
  3
Divide ____ . . ____ . . ____ . . ____ . . ____
 72
    65
 73
     6
 40
31.74999999999999
 49
12.7
 74
     0
 49
-6.349999999999999
 74
     0
 49
0.0
 74
     0
 49
-6.349999999999999
 74
     0
 49
0.0
 74
     0
 49
-6.349999999999999
 74
     0
  0
LTYPE
  5
144
330
5
100
AcDbSymbolTableRecord
100
AcDbLinetypeTableRecord
  2
DIVIDE2
 70
     0
  3
Divide (.5x) __..__..__..__..__..__..__..__.._
 72
    65
 73
     6
 40
15.87499999999999
 49
6.349999999999999
 74
     0
 49
-3.174999999999999
 74
     0
 49
0.0
 74
     0
 49
-3.174999999999999
 74
     0
 49
0.0
 74
     0
 49
-3.174999999999999
 74
     0
  0
LTYPE
  5
145
330
5
100
AcDbSymbolTableRecord
100
AcDbLinetypeTableRecord
  2
DIVIDEX2
 70
     0
  3
Divide (2x) ________  .  .  ________  .  .  _
 72
    65
 73
     6
 40
63.49999999999999
 49
25.4
 74
     0
 49
-12.7
 74
     0
 49
0.0
 74
     0
 49
-12.7
 74
     0
 49
0.0
 74
     0
 49
-12.7
 74
     0
  0
LTYPE
  5
146
330
5
100
AcDbSymbolTableRecord
100
AcDbLinetypeTableRecord
  2
DOT
 70
     0
  3
Dot . . . . . . . . . . . . . . . . . . . . . .
 72
    65
 73
     2
 40
6.349999999999999
 49
0.0
 74
     0
 49
-6.349999999999999
 74
     0
  0
LTYPE
  5
147
330
5
100
AcDbSymbolTableRecord
100
AcDbLinetypeTableRecord
  2
DOT2
 70
     0
  3
Dot (.5x) .....................................
 72
    65
 73
     2
 40
3.174999999999999
 49
0.0
 74
     0
 49
-3.174999999999999
 74
     0
  0
LTYPE
  5
148
330
5
100
AcDbSymbolTableRecord
100
AcDbLinetypeTableRecord
  2
DOTX2
 70
     0
  3
Dot (2x) .  .  .  .  .  .  .  .  .  .  .  .  . 
 72
    65
 73
     2
 40
12.7
 49
0.0
 74
     0
 49
-12.7
 74
     0
  0
LTYPE
  5
149
330
5
100
AcDbSymbolTableRecord
100
AcDbLinetypeTableRecord
  2
FENCELINE1
 70
     0
  3
Fenceline circle ----0-----0----0-----0----0---
 72
    65
 73
     4
 40
36.82999999999999
 49
6.349999999999999
 74
     0
 49
-2.54
 74
     4
 75
   133
340
127
 46
2.54
 50
0.0
 44
-2.54
 45
0.0
 49
-2.54
 74
     0
 49
25.4
 74
     0
  0
LTYPE
  5
14A
330
5
100
AcDbSymbolTableRecord
100
AcDbLinetypeTableRecord
  2
FENCELINE2
 70
     0
  3
Fenceline square ----[]-----[]----[]-----[]----
 72
    65
 73
     4
 40
36.82999999999999
 49
6.349999999999999
 74
     0
 49
-2.54
 74
     4
 75
   132
340
127
 46
2.54
 50
0.0
 44
-2.54
 45
0.0
 49
-2.54
 74
     0
 49
25.4
 74
     0
  0
LTYPE
  5
14B
330
5
100
AcDbSymbolTableRecord
100
AcDbLinetypeTableRecord
  2
GAS_LINE
 70
     0
  3
Gas line ----GAS----GAS----GAS----GAS----GAS---
 72
    65
 73
     3
 40
24.13
 49
12.7
 74
     0
 49
-5.08
 74
     2
 75
     0
340
F
 46
2.54
 50
0.0
 44
-2.54
 45
-1.27
  9
GAS
 49
-6.349999999999999
 74
     0
  0
LTYPE
  5
14C
330
5
100
AcDbSymbolTableRecord
100
AcDbLinetypeTableRecord
  2
HIDDEN
 70
     0
  3
Hidden __ __ __ __ __ __ __ __ __ __ __ __ __ _
 72
    65
 73
     2
 40
9.524999999999998
 49
6.349999999999999
 74
     0
 49
-3.174999999999999
 74
     0
  0
LTYPE
  5
14D
330
5
100
AcDbSymbolTableRecord
100
AcDbLinetypeTableRecord
  2
HIDDEN2
 70
     0
  3
Hidden (.5x) _ _ _ _ _ _ _ _ _ _ _ _ _ _ _ _ _
 72
    65
 73
     2
 40
4.762499999999999
 49
3.174999999999999
 74
     0
 49
-1.587499999999999
 74
     0
  0
LTYPE
  5
14E
330
5
100
AcDbSymbolTableRecord
100
AcDbLinetypeTableRecord
  2
HIDDENX2
 70
     0
  3
Hidden (2x) ____ ____ ____ ____ ____ ____ ____
 72
    65
 73
     2
 40
19.04999999999999
 49
12.7
 74
     0
 49
-6.349999999999999
 74
     0
  0
LTYPE
  5
14F
330
5
100
AcDbSymbolTableRecord
100
AcDbLinetypeTableRecord
  2
HOT_WATER_SUPPLY
 70
     0
  3
Hot water supply ---- HW ---- HW ---- HW ----
 72
    65
 73
     3
 40
22.86
 49
12.7
 74
     0
 49
-5.08
 74
     2
 75
     0
340
F
 46
2.54
 50
0.0
 44
-2.54
 45
-1.27
  9
HW
 49
-5.08
 74
     0
  0
LTYPE
  5
150
330
5
100
AcDbSymbolTableRecord
100
AcDbLinetypeTableRecord
  2
PHANTOM
 70
     0
  3
Phantom ______  __  __  ______  __  __  ______
 72
    65
 73
     6
 40
63.5
 49
31.75
 74
     0
 49
-6.349999999999999
 74
     0
 49
6.349999999999999
 74
     0
 49
-6.349999999999999
 74
     0
 49
6.349999999999999
 74
     0
 49
-6.349999999999999
 74
     0
  0
LTYPE
  5
151
330
5
100
AcDbSymbolTableRecord
100
AcDbLinetypeTableRecord
  2
PHANTOM2
 70
     0
  3
Phantom (.5x) ___ _ _ ___ _ _ ___ _ _ ___ _ _
 72
    65
 73
     6
 40
31.75
 49
15.875
 74
     0
 49
-3.174999999999999
 74
     0
 49
3.174999999999999
 74
     0
 49
-3.174999999999999
 74
     0
 49
3.174999999999999
 74
     0
 49
-3.174999999999999
 74
     0
  0
LTYPE
  5
152
330
5
100
AcDbSymbolTableRecord
100
AcDbLinetypeTableRecord
  2
PHANTOMX2
 70
     0
  3
Phantom (2x) ____________    ____    ____   _
 72
    65
 73
     6
 40
127.0
 49
63.5
 74
     0
 49
-12.7
 74
     0
 49
12.7
 74
     0
 49
-12.7
 74
     0
 49
12.7
 74
     0
 49
-12.7
 74
     0
  0
LTYPE
  5
153
330
5
100
AcDbSymbolTableRecord
100
AcDbLinetypeTableRecord
  2
TRACKS
 70
     0
  3
Tracks -|-|-|-|-|-|-|-|-|-|-|-|-|-|-|-|-|-|-|-|
 72
    65
 73
     2
 40
7.62
 49
3.81
 74
     4
 75
   130
340
127
 46
6.349999999999999
 50
0.0
 44
0.0
 45
0.0
 49
3.81
 74
     0
  0
LTYPE
  5
154
330
5
100
AcDbSymbolTableRecord
100
AcDbLinetypeTableRecord
  2
ZIGZAG
 70
     0
  3
Zig zag /\/\/\/\/\/\/\/\/\/\/\/\/\/\/\/\/\/\/\/
 72
    65
 73
     4
 40
20.32254
 49
0.00254
 74
     0
 49
-5.08
 74
     4
 75
   131
340
127
 46
5.08
 50
0.0
 44
-5.08
 45
0.0
 49
-10.16
 74
     4
 75
   131
340
127
 46
5.08
 50
180.0
 44
5.08
 45
0.0
 49
-5.08
 74
     0
  0
ENDTAB
  0
TABLE
  2
LAYER
  5
2
330
0
100
AcDbSymbolTable
 70
    10
  0
LAYER
  5
E
330
2
100
AcDbSymbolTableRecord
100
AcDbLayerTableRecord
  2
0
 70
     0
 62
     7
  6
CONTINUOUS
370
    -3
390
15FD
  0
LAYER
  5
20
330
2
100
AcDbSymbolTableRecord
100
AcDbLayerTableRecord
  2
DEFPOINTS
 70
     0
 62
     7
  6
CONTINUOUS
290
     0
370
    -3
390
15FD
  0
LAYER
  5
21
330
2
100
AcDbSymbolTableRecord
100
AcDbLayerTableRecord
  2
OBJECT
 70
     0
 62
     7
  6
CONTINUOUS
370
    -3
390
15FD
  0
LAYER
  5
155
330
2
100
AcDbSymbolTableRecord
100
AcDbLayerTableRecord
  2
上書線
 70
     0
 62
     7
  6
CONTINUOUS
370
    -3
390
15FD
  0
LAYER
  5
156
330
2
100
AcDbSymbolTableRecord
100
AcDbLayerTableRecord
  2
基準線
 70
     0
 62
    -1
  6
CONTINUOUS
370
    -3
390
15FD
  0
LAYER
  5
157
330
2
100
AcDbSymbolTableRecord
100
AcDbLayerTableRecord
  2
点線
 70
     0
 62
     5
  6
HIDDEN
370
    -3
390
15FD
  0
LAYER
  5
158
330
2
100
AcDbSymbolTableRecord
100
AcDbLayerTableRecord
  2
寸法線
 70
     0
 62
     2
  6
CONTINUOUS
370
    -3
390
15FD
  0
LAYER
  5
19D7
330
2
100
AcDbSymbolTableRecord
100
AcDbLayerTableRecord
  2
上線
 70
     0
 62
     7
  6
CONTINUOUS
370
    -3
390
15FD
  0
LAYER
  5
2EB9
330
2
100
AcDbSymbolTableRecord
100
AcDbLayerTableRecord
  2
中心線
 70
     0
 62
     6
  6
CENTER
370
    -3
390
15FD
  0
LAYER
  5
39FE
330
2
100
AcDbSymbolTableRecord
100
AcDbLayerTableRecord
  2
WUWAGAKI
 70
     0
 62
     7
  6
CONTINUOUS
370
    -3
390
15FD
  0
ENDTAB
  0
TABLE
  2
STYLE
  5
3
330
0
100
AcDbSymbolTable
 70
     3
  0
STYLE
  5
F
330
3
100
AcDbSymbolTableRecord
100
AcDbTextStyleTableRecord
  2
STANDARD
 70
     0
 40
0.0
 41
1.0
 50
0.0
 71
     0
 42
2.5
  3
MS PMincho.ttf
  4

1001
ACAD
1000
MS PMincho
1071
    32786
  0
STYLE
  5
22
330
3
100
AcDbSymbolTableRecord
100
AcDbTextStyleTableRecord
  2
ADESK1
 70
     0
 40
0.0
 41
1.0
 50
0.0
 71
     0
 42
5.0
  3
romans
  4
bigfont
  0
STYLE
  5
127
330
3
100
AcDbSymbolTableRecord
100
AcDbTextStyleTableRecord
  2

 70
     1
 40
0.0
 41
1.0
 50
0.0
 71
     0
 42
2.5
  3
ltypeshp.shx
  4

  0
ENDTAB
  0
TABLE
  2
VIEW
  5
6
330
0
100
AcDbSymbolTable
 70
     0
  0
ENDTAB
  0
TABLE
  2
UCS
  5
7
330
0
100
AcDbSymbolTable
 70
     0
  0
ENDTAB
  0
TABLE
  2
APPID
  5
9
330
0
100
AcDbSymbolTable
 70
     2
  0
APPID
  5
10
330
9
100
AcDbSymbolTableRecord
100
AcDbRegAppTableRecord
  2
ACAD
 70
     0
  0
APPID
  5
1213
330
9
100
AcDbSymbolTableRecord
100
AcDbRegAppTableRecord
  2
DRAWINGVARIABLESXDATA
 70
     0
  0
ENDTAB
  0
TABLE
  2
DIMSTYLE
  5
A
330
0
100
AcDbSymbolTable
 70
     2
100
AcDbDimStyleTable
 71
     1
340
1D
  0
DIMSTYLE
105
1D
330
A
100
AcDbSymbolTableRecord
100
AcDbDimStyleTableRecord
  2
STANDARD
 70
     0
340
F
  0
DIMSTYLE
105
23
330
A
100
AcDbSymbolTableRecord
100
AcDbDimStyleTableRecord
  2
JIS
 70
     0
 41
2.5
 42
1.0
 43
7.0
 44
1.0
 73
     0
 74
     0
 77
     1
 78
     8
140
2.5
141
0.0
143
0.0394
147
0.0
172
     1
174
     1
175
     1
340
F
  0
ENDTAB
  0
TABLE
  2
BLOCK_RECORD
  5
1
330
0
100
AcDbSymbolTable
 70
     3
  0
BLOCK_RECORD
  5
18
330
1
100
AcDbSymbolTableRecord
100
AcDbBlockTableRecord
  2
*MODEL_SPACE
340
1600
  0
BLOCK_RECORD
  5
15
330
1
100
AcDbSymbolTableRecord
100
AcDbBlockTableRecord
  2
*PAPER_SPACE
340
1601
  0
BLOCK_RECORD
  5
24
330
1
100
AcDbSymbolTableRecord
100
AcDbBlockTableRecord
  2
JIS_A4L
340
0
  0
BLOCK_RECORD
  5
3437
330
1
100
AcDbSymbolTableRecord
100
AcDbBlockTableRecord
  2
*D1
340
0
  0
BLOCK_RECORD
  5
3445
330
1
100
AcDbSymbolTableRecord
100
AcDbBlockTableRecord
  2
A$C23BB6A77
340
0
  0
ENDTAB
  0
ENDSEC
  0
SECTION
  2
BLOCKS
  0
BLOCK
  5
19
330
18
100
AcDbEntity
  8
0
100
AcDbBlockBegin
  2
*MODEL_SPACE
 70
     2
 10
0.0
 20
0.0
 30
0.0
  3
*MODEL_SPACE
  1

  0
ENDBLK
  5
1A
330
18
100
AcDbEntity
  8
0
100
AcDbBlockEnd
  0
BLOCK
  5
16
330
15
100
AcDbEntity
 67
     1
  8
0
100
AcDbBlockBegin
  2
*PAPER_SPACE
 70
     0
 10
0.0
 20
0.0
 30
0.0
  3
*PAPER_SPACE
  1

  0
ENDBLK
  5
17
330
15
100
AcDbEntity
 67
     1
  8
0
100
AcDbBlockEnd
  0
BLOCK
  5
A1
330
24
100
AcDbEntity
  8
0
100
AcDbBlockBegin
  2
JIS_A4L
 70
     2
 10
0.0
 20
0.0
 30
0.0
  3
JIS_A4L
  1

  0
LINE
  5
25
330
24
100
AcDbEntity
  8
0
100
AcDbLine
 10
0.0
 20
0.0
 30
0.0
 11
0.0
 21
10.0
 31
0.0
  0
LINE
  5
26
330
24
100
AcDbEntity
  8
0
100
AcDbLine
 10
0.0
 20
210.0
 30
0.0
 11
25.0
 21
210.0
 31
0.0
  0
LINE
  5
27
330
24
100
AcDbEntity
  8
0
100
AcDbLine
 10
297.0
 20
210.0
 30
0.0
 11
297.0
 21
200.0
 31
0.0
  0
LINE
  5
28
330
24
100
AcDbEntity
  8
0
100
AcDbLine
 10
297.0
 20
0.0
 30
0.0
 11
287.0
 21
0.0
 31
0.0
  0
LINE
  5
29
330
24
100
AcDbEntity
  8
0
100
AcDbLine
 10
25.0
 20
10.0
 30
0.0
 11
25.0
 21
200.0
 31
0.0
  0
LINE
  5
2A
330
24
100
AcDbEntity
  8
0
100
AcDbLine
 10
287.0
 20
10.0
 30
0.0
 11
25.0
 21
10.0
 31
0.0
  0
LINE
  5
2B
330
24
100
AcDbEntity
  8
0
100
AcDbLine
 10
287.0
 20
200.0
 30
0.0
 11
287.0
 21
10.0
 31
0.0
  0
LINE
  5
2C
330
24
100
AcDbEntity
  8
0
100
AcDbLine
 10
25.0
 20
200.0
 30
0.0
 11
287.0
 21
200.0
 31
0.0
  0
LINE
  5
2D
330
24
100
AcDbEntity
  8
0
100
AcDbLine
 10
0.0
 20
200.0
 30
0.0
 11
0.0
 21
210.0
 31
0.0
  0
LINE
  5
2E
330
24
100
AcDbEntity
  8
0
100
AcDbLine
 10
25.0
 20
0.0
 30
0.0
 11
0.0
 21
0.0
 31
0.0
  0
LINE
  5
2F
330
24
100
AcDbEntity
  8
0
100
AcDbLine
 10
297.0
 20
10.0
 30
0.0
 11
297.0
 21
0.0
 31
0.0
  0
LINE
  5
30
330
24
100
AcDbEntity
  8
0
100
AcDbLine
 10
287.0
 20
210.0
 30
0.0
 11
297.0
 21
210.0
 31
0.0
  0
ATTDEF
  5
31
330
24
100
AcDbEntity
  8
0
 62
     0
100
AcDbText
 10
19.0
 20
10.0
 30
0.0
 40
3.0
  1

 50
90.0
  7
ADESK1
100
AcDbAttributeDefinition
  3

  2
USER
 70
     8
  0
ATTDEF
  5
32
330
24
100
AcDbEntity
  8
0
 62
     0
100
AcDbText
 10
19.0
 20
70.0
 30
0.0
 40
3.0
  1

 50
90.0
  7
ADESK1
100
AcDbAttributeDefinition
  3

  2
REVDATE
 70
     8
  0
ATTDEF
  5
33
330
24
100
AcDbEntity
  8
0
 62
     0
100
AcDbText
 10
19.0
 20
118.0
 30
0.0
 40
3.0
  1

 50
90.0
  7
ADESK1
100
AcDbAttributeDefinition
  3

  2
FNAME
 70
     8
  0
LINE
  5
34
330
24
100
AcDbEntity
  8
OBJECT
100
AcDbLine
 10
130.0
 20
16.0
 30
0.0
 11
25.0
 21
16.0
 31
0.0
  0
LINE
  5
35
330
24
100
AcDbEntity
  8
OBJECT
100
AcDbLine
 10
130.0
 20
22.0
 30
0.0
 11
25.0
 21
22.0
 31
0.0
  0
LINE
  5
36
330
24
100
AcDbEntity
  8
OBJECT
100
AcDbLine
 10
130.0
 20
28.0
 30
0.0
 11
25.0
 21
28.0
 31
0.0
  0
LINE
  5
37
330
24
100
AcDbEntity
  8
OBJECT
100
AcDbLine
 10
130.0
 20
34.0
 30
0.0
 11
25.0
 21
34.0
 31
0.0
  0
LINE
  5
38
330
24
100
AcDbEntity
  8
OBJECT
100
AcDbLine
 10
130.0
 20
40.0
 30
0.0
 11
25.0
 21
40.0
 31
0.0
  0
LINE
  5
39
330
24
100
AcDbEntity
  8
OBJECT
100
AcDbLine
 10
28.0
 20
11.53589799999999
 30
0.0
 11
30.0
 21
15.0
 31
0.0
  0
LINE
  5
3A
330
24
100
AcDbEntity
  8
OBJECT
100
AcDbLine
 10
32.0
 20
11.53589799999999
 30
0.0
 11
30.0
 21
15.0
 31
0.0
  0
LINE
  5
3B
330
24
100
AcDbEntity
  8
OBJECT
100
AcDbLine
 10
35.0
 20
10.0
 30
0.0
 11
35.0
 21
40.0
 31
0.0
  0
LINE
  5
3C
330
24
100
AcDbEntity
  8
OBJECT
100
AcDbLine
 10
50.0
 20
10.0
 30
0.0
 11
50.0
 21
40.0
 31
0.0
  0
LINE
  5
3D
330
24
100
AcDbEntity
  8
OBJECT
100
AcDbLine
 10
80.0
 20
10.0
 30
0.0
 11
80.0
 21
40.0
 31
0.0
  0
LINE
  5
3E
330
24
100
AcDbEntity
  8
OBJECT
100
AcDbLine
 10
28.0
 20
11.53589799999999
 30
0.0
 11
32.0
 21
11.53589799999999
 31
0.0
  0
LINE
  5
3F
330
24
100
AcDbEntity
  8
OBJECT
100
AcDbLine
 10
39.5
 20
13.0
 30
0.0
 11
40.49999999999999
 21
13.0
 31
0.0
  0
LINE
  5
40
330
24
100
AcDbEntity
  8
OBJECT
100
AcDbLine
 10
44.5
 20
13.0
 30
0.0
 11
45.49999999999999
 21
13.0
 31
0.0
  0
LINE
  5
41
330
24
100
AcDbEntity
  8
OBJECT
100
AcDbLine
 10
32.0
 20
17.535898
 30
0.0
 11
30.0
 21
20.99999999999999
 31
0.0
  0
LINE
  5
42
330
24
100
AcDbEntity
  8
OBJECT
100
AcDbLine
 10
28.0
 20
17.535898
 30
0.0
 11
32.0
 21
17.535898
 31
0.0
  0
LINE
  5
43
330
24
100
AcDbEntity
  8
OBJECT
100
AcDbLine
 10
28.0
 20
17.535898
 30
0.0
 11
30.0
 21
20.99999999999999
 31
0.0
  0
LINE
  5
44
330
24
100
AcDbEntity
  8
OBJECT
100
AcDbLine
 10
32.0
 20
23.53589799999999
 30
0.0
 11
30.0
 21
26.99999999999999
 31
0.0
  0
LINE
  5
45
330
24
100
AcDbEntity
  8
OBJECT
100
AcDbLine
 10
28.0
 20
23.53589799999999
 30
0.0
 11
32.0
 21
23.53589799999999
 31
0.0
  0
LINE
  5
46
330
24
100
AcDbEntity
  8
OBJECT
100
AcDbLine
 10
28.0
 20
23.53589799999999
 30
0.0
 11
30.0
 21
26.99999999999999
 31
0.0
  0
LINE
  5
47
330
24
100
AcDbEntity
  8
OBJECT
100
AcDbLine
 10
28.0
 20
35.53589799999999
 30
0.0
 11
30.0
 21
39.0
 31
0.0
  0
LINE
  5
48
330
24
100
AcDbEntity
  8
OBJECT
100
AcDbLine
 10
32.0
 20
35.53589799999999
 30
0.0
 11
30.0
 21
39.0
 31
0.0
  0
LINE
  5
49
330
24
100
AcDbEntity
  8
OBJECT
100
AcDbLine
 10
28.0
 20
35.53589799999999
 30
0.0
 11
32.0
 21
35.53589799999999
 31
0.0
  0
LINE
  5
4A
330
24
100
AcDbEntity
  8
OBJECT
100
AcDbLine
 10
32.0
 20
29.53589799999999
 30
0.0
 11
30.0
 21
33.0
 31
0.0
  0
LINE
  5
4B
330
24
100
AcDbEntity
  8
OBJECT
100
AcDbLine
 10
28.0
 20
29.53589799999999
 30
0.0
 11
32.0
 21
29.53589799999999
 31
0.0
  0
LINE
  5
4C
330
24
100
AcDbEntity
  8
OBJECT
100
AcDbLine
 10
28.0
 20
29.53589799999999
 30
0.0
 11
30.0
 21
33.0
 31
0.0
  0
LINE
  5
4D
330
24
100
AcDbEntity
  8
OBJECT
100
AcDbLine
 10
39.5
 20
19.0
 30
0.0
 11
40.49999999999999
 21
19.0
 31
0.0
  0
LINE
  5
4E
330
24
100
AcDbEntity
  8
OBJECT
100
AcDbLine
 10
44.5
 20
19.0
 30
0.0
 11
45.49999999999999
 21
19.0
 31
0.0
  0
LINE
  5
4F
330
24
100
AcDbEntity
  8
OBJECT
100
AcDbLine
 10
39.5
 20
25.0
 30
0.0
 11
40.49999999999999
 21
25.0
 31
0.0
  0
LINE
  5
50
330
24
100
AcDbEntity
  8
OBJECT
100
AcDbLine
 10
44.5
 20
25.0
 30
0.0
 11
45.49999999999999
 21
25.0
 31
0.0
  0
LINE
  5
51
330
24
100
AcDbEntity
  8
OBJECT
100
AcDbLine
 10
39.5
 20
31.0
 30
0.0
 11
40.49999999999999
 21
31.0
 31
0.0
  0
LINE
  5
52
330
24
100
AcDbEntity
  8
OBJECT
100
AcDbLine
 10
39.5
 20
37.0
 30
0.0
 11
40.49999999999999
 21
37.0
 31
0.0
  0
LINE
  5
53
330
24
100
AcDbEntity
  8
OBJECT
100
AcDbLine
 10
44.5
 20
31.0
 30
0.0
 11
45.49999999999999
 21
31.0
 31
0.0
  0
LINE
  5
54
330
24
100
AcDbEntity
  8
OBJECT
100
AcDbLine
 10
44.5
 20
37.0
 30
0.0
 11
45.49999999999999
 21
37.0
 31
0.0
  0
LINE
  5
55
330
24
100
AcDbEntity
  8
OBJECT
100
AcDbLine
 10
120.0
 20
10.0
 30
0.0
 11
120.0
 21
40.0
 31
0.0
  0
LINE
  5
56
330
24
100
AcDbEntity
  8
OBJECT
100
AcDbLine
 10
130.0
 20
40.0
 30
0.0
 11
130.0
 21
10.0
 31
0.0
  0
LINE
  5
57
330
24
100
AcDbEntity
  8
0
100
AcDbLine
 10
156.0
 20
10.0
 30
0.0
 11
156.0
 21
0.0
 31
0.0
  0
LINE
  5
58
330
24
100
AcDbEntity
  8
0
100
AcDbLine
 10
156.0
 20
200.0
 30
0.0
 11
156.0
 21
210.0
 31
0.0
  0
LINE
  5
59
330
24
100
AcDbEntity
  8
0
100
AcDbLine
 10
287.0
 20
105.0
 30
0.0
 11
297.0
 21
105.0
 31
0.0
  0
LINE
  5
5A
330
24
100
AcDbEntity
  8
0
100
AcDbLine
 10
25.0
 20
105.0
 30
0.0
 11
0.0
 21
105.0
 31
0.0
  0
TEXT
  5
5B
330
24
100
AcDbEntity
  8
0
100
AcDbText
 10
1.0
 20
1.0
 30
0.0
 40
3.0
  1
この図枠はサンプルです。社内の規格やプロッタの出力範囲に合わせて適当に変更してご利用ください。
  7
ADESK1
100
AcDbText
  0
LINE
  5
5C
330
24
100
AcDbEntity
  8
0
100
AcDbLine
 10
25.0
 20
152.5
 30
0.0
 11
20.0
 21
152.5
 31
0.0
  0
LINE
  5
5D
330
24
100
AcDbEntity
  8
0
100
AcDbLine
 10
25.0
 20
105.0
 30
0.0
 11
20.0
 21
105.0
 31
0.0
  0
LINE
  5
5E
330
24
100
AcDbEntity
  8
0
100
AcDbLine
 10
25.0
 20
57.5
 30
0.0
 11
20.0
 21
57.5
 31
0.0
  0
LINE
  5
5F
330
24
100
AcDbEntity
  8
0
100
AcDbLine
 10
68.66666666666668
 20
10.0
 30
0.0
 11
68.66666666666668
 21
5.0
 31
0.0
  0
LINE
  5
60
330
24
100
AcDbEntity
  8
0
100
AcDbLine
 10
112.3333333333333
 20
10.0
 30
0.0
 11
112.3333333333333
 21
5.0
 31
0.0
  0
LINE
  5
61
330
24
100
AcDbEntity
  8
0
100
AcDbLine
 10
156.0
 20
10.0
 30
0.0
 11
156.0
 21
5.0
 31
0.0
  0
LINE
  5
62
330
24
100
AcDbEntity
  8
0
100
AcDbLine
 10
199.6666666666666
 20
10.0
 30
0.0
 11
199.6666666666666
 21
5.0
 31
0.0
  0
LINE
  5
63
330
24
100
AcDbEntity
  8
0
100
AcDbLine
 10
243.3333333333333
 20
10.0
 30
0.0
 11
243.3333333333333
 21
5.0
 31
0.0
  0
LINE
  5
64
330
24
100
AcDbEntity
  8
0
100
AcDbLine
 10
287.0
 20
57.5
 30
0.0
 11
292.0
 21
57.5
 31
0.0
  0
LINE
  5
65
330
24
100
AcDbEntity
  8
0
100
AcDbLine
 10
287.0
 20
105.0
 30
0.0
 11
292.0
 21
105.0
 31
0.0
  0
LINE
  5
66
330
24
100
AcDbEntity
  8
0
100
AcDbLine
 10
287.0
 20
152.5
 30
0.0
 11
292.0
 21
152.5
 31
0.0
  0
LINE
  5
67
330
24
100
AcDbEntity
  8
0
100
AcDbLine
 10
243.3333333333333
 20
200.0
 30
0.0
 11
243.3333333333333
 21
205.0
 31
0.0
  0
LINE
  5
68
330
24
100
AcDbEntity
  8
0
100
AcDbLine
 10
199.6666666666666
 20
200.0
 30
0.0
 11
199.6666666666666
 21
205.0
 31
0.0
  0
LINE
  5
69
330
24
100
AcDbEntity
  8
0
100
AcDbLine
 10
156.0
 20
200.0
 30
0.0
 11
156.0
 21
205.0
 31
0.0
  0
LINE
  5
6A
330
24
100
AcDbEntity
  8
0
100
AcDbLine
 10
112.3333333333333
 20
200.0
 30
0.0
 11
112.3333333333333
 21
205.0
 31
0.0
  0
LINE
  5
6B
330
24
100
AcDbEntity
  8
0
100
AcDbLine
 10
68.66666666666666
 20
200.0
 30
0.0
 11
68.66666666666666
 21
205.0
 31
0.0
  0
TEXT
  5
6C
330
24
100
AcDbEntity
  8
0
100
AcDbText
 10
45.61904761904761
 20
201.0
 30
0.0
 40
3.0
  1
1
  7
ADESK1
 72
     1
 11
46.83333333333332
 21
201.0
 31
0.0
100
AcDbText
  0
TEXT
  5
6D
330
24
100
AcDbEntity
  8
0
100
AcDbText
 10
21.66139736003921
 20
176.25
 30
0.0
 40
3.0
  1
A
  7
ADESK1
 72
     1
 11
22.94711164575349
 21
176.25
 31
0.0
100
AcDbText
  0
TEXT
  5
6E
330
24
100
AcDbEntity
  8
0
100
AcDbText
 10
89.07142857142856
 20
201.0
 30
0.0
 40
3.0
  1
2
  7
ADESK1
 72
     1
 11
90.5
 21
201.0
 31
0.0
100
AcDbText
  0
TEXT
  5
6F
330
24
100
AcDbEntity
  8
0
100
AcDbText
 10
132.7380952380952
 20
201.0
 30
0.0
 40
3.0
  1
3
  7
ADESK1
 72
     1
 11
134.1666666666666
 21
201.0
 31
0.0
100
AcDbText
  0
TEXT
  5
70
330
24
100
AcDbEntity
  8
0
100
AcDbText
 10
176.3333333333333
 20
201.0
 30
0.0
 40
3.0
  1
4
  7
ADESK1
 72
     1
 11
177.8333333333333
 21
201.0
 31
0.0
100
AcDbText
  0
TEXT
  5
71
330
24
100
AcDbEntity
  8
0
100
AcDbText
 10
220.0714285714286
 20
201.0
 30
0.0
 40
3.0
  1
5
  7
ADESK1
 72
     1
 11
221.4999999999999
 21
201.0
 31
0.0
100
AcDbText
  0
TEXT
  5
72
330
24
100
AcDbEntity
  8
0
100
AcDbText
 10
263.6666666666666
 20
201.0
 30
0.0
 40
3.0
  1
6
  7
ADESK1
 72
     1
 11
265.1666666666666
 21
201.0
 31
0.0
100
AcDbText
  0
TEXT
  5
73
330
24
100
AcDbEntity
  8
0
100
AcDbText
 10
21.37568307432492
 20
128.75
 30
0.0
 40
3.0
  1
B
  7
ADESK1
 72
     1
 11
22.94711164575349
 21
128.75
 31
0.0
100
AcDbText
  0
TEXT
  5
74
330
24
100
AcDbEntity
  8
0
100
AcDbText
 10
21.44711164575349
 20
81.25
 30
0.0
 40
3.0
  1
C
  7
ADESK1
 72
     1
 11
22.94711164575349
 21
81.25
 31
0.0
100
AcDbText
  0
TEXT
  5
75
330
24
100
AcDbEntity
  8
0
100
AcDbText
 10
21.37568307432492
 20
33.75
 30
0.0
 40
3.0
  1
D
  7
ADESK1
 72
     1
 11
22.94711164575349
 21
33.75
 31
0.0
100
AcDbText
  0
TEXT
  5
76
330
24
100
AcDbEntity
  8
0
100
AcDbText
 10
45.61904761904759
 20
6.230338100985607
 30
0.0
 40
3.0
  1
1
  7
ADESK1
 72
     1
 11
46.83333333333331
 21
6.230338100985607
 31
0.0
100
AcDbText
  0
TEXT
  5
77
330
24
100
AcDbEntity
  8
0
100
AcDbText
 10
89.07142857142856
 20
6.230338100985607
 30
0.0
 40
3.0
  1
2
  7
ADESK1
 72
     1
 11
90.5
 21
6.230338100985607
 31
0.0
100
AcDbText
  0
TEXT
  5
78
330
24
100
AcDbEntity
  8
0
100
AcDbText
 10
132.7380952380952
 20
6.230338100985607
 30
0.0
 40
3.0
  1
3
  7
ADESK1
 72
     1
 11
134.1666666666666
 21
6.230338100985607
 31
0.0
100
AcDbText
  0
TEXT
  5
79
330
24
100
AcDbEntity
  8
0
100
AcDbText
 10
176.3333333333333
 20
6.230338100985607
 30
0.0
 40
3.0
  1
4
  7
ADESK1
 72
     1
 11
177.8333333333333
 21
6.230338100985607
 31
0.0
100
AcDbText
  0
TEXT
  5
7A
330
24
100
AcDbEntity
  8
0
100
AcDbText
 10
220.0714285714286
 20
6.230338100985607
 30
0.0
 40
3.0
  1
5
  7
ADESK1
 72
     1
 11
221.4999999999999
 21
6.230338100985607
 31
0.0
100
AcDbText
  0
TEXT
  5
7B
330
24
100
AcDbEntity
  8
0
100
AcDbText
 10
263.6666666666666
 20
6.230338100985607
 30
0.0
 40
3.0
  1
6
  7
ADESK1
 72
     1
 11
265.1666666666666
 21
6.230338100985607
 31
0.0
100
AcDbText
  0
TEXT
  5
7C
330
24
100
AcDbEntity
  8
0
100
AcDbText
 10
287.9530581679809
 20
176.25
 30
0.0
 40
3.0
  1
A
  7
ADESK1
 72
     1
 11
289.2387724536952
 21
176.25
 31
0.0
100
AcDbText
  0
TEXT
  5
7D
330
24
100
AcDbEntity
  8
0
100
AcDbText
 10
287.6673438822666
 20
128.75
 30
0.0
 40
3.0
  1
B
  7
ADESK1
 72
     1
 11
289.2387724536952
 21
128.75
 31
0.0
100
AcDbText
  0
TEXT
  5
7E
330
24
100
AcDbEntity
  8
0
100
AcDbText
 10
287.7387724536952
 20
81.25
 30
0.0
 40
3.0
  1
C
  7
ADESK1
 72
     1
 11
289.2387724536952
 21
81.25
 31
0.0
100
AcDbText
  0
TEXT
  5
7F
330
24
100
AcDbEntity
  8
0
100
AcDbText
 10
287.6673438822666
 20
33.75
 30
0.0
 40
3.0
  1
D
  7
ADESK1
 72
     1
 11
289.2387724536952
 21
33.75
 31
0.0
100
AcDbText
  0
LINE
  5
80
330
24
100
AcDbEntity
  8
0
 62
     0
100
AcDbLine
 10
157.2978723404242
 20
49.00000000000036
 30
0.0
 11
287.0
 21
49.00000000000036
 31
0.0
  0
LINE
  5
81
330
24
100
AcDbEntity
  8
0
 62
     0
100
AcDbLine
 10
157.2978723404242
 20
13.00000000000004
 30
0.0
 11
287.0
 21
13.00000000000004
 31
0.0
  0
LINE
  5
82
330
24
100
AcDbEntity
  8
0
 62
     0
100
AcDbLine
 10
157.2978723404242
 20
37.00000000000024
 30
0.0
 11
287.0
 21
37.00000000000024
 31
0.0
  0
LINE
  5
83
330
24
100
AcDbEntity
  8
0
 62
     0
100
AcDbLine
 10
195.1276595744673
 20
22.00000000000012
 30
0.0
 11
287.0
 21
22.00000000000012
 31
0.0
  0
LINE
  5
84
330
24
100
AcDbEntity
  8
0
 62
     0
100
AcDbLine
 10
157.2978723404242
 20
10.0
 30
0.0
 11
287.0
 21
10.0
 31
0.0
  0
LINE
  5
85
330
24
100
AcDbEntity
  8
0
 62
     0
100
AcDbLine
 10
287.0
 20
49.00000000000036
 30
0.0
 11
157.2978723404242
 21
49.00000000000036
 31
0.0
  0
LINE
  5
86
330
24
100
AcDbEntity
  8
0
 62
     0
100
AcDbLine
 10
180.7163120567365
 20
37.00000000000024
 30
0.0
 11
180.7163120567365
 21
10.0
 31
0.0
  0
LINE
  5
87
330
24
100
AcDbEntity
  8
0
 62
     0
100
AcDbLine
 10
162.702127659573
 20
37.00000000000024
 30
0.0
 11
162.702127659573
 21
10.0
 31
0.0
  0
LINE
  5
88
330
24
100
AcDbEntity
  8
0
 62
     0
100
AcDbLine
 10
189.7234042553184
 20
37.00000000000024
 30
0.0
 11
189.7234042553184
 21
10.0
 31
0.0
  0
LINE
  5
89
330
24
100
AcDbEntity
  8
0
 62
     0
100
AcDbLine
 10
195.1276595744673
 20
25.00000000000012
 30
0.0
 11
195.1276595744673
 21
10.0
 31
0.0
  0
LINE
  5
8A
330
24
100
AcDbEntity
  8
0
 62
     0
100
AcDbLine
 10
157.2978723404242
 20
49.00000000000036
 30
0.0
 11
157.2978723404242
 21
10.0
 31
0.0
  0
LINE
  5
8B
330
24
100
AcDbEntity
  8
0
 62
     0
100
AcDbLine
 10
225.7517730496447
 20
49.00000000000036
 30
0.0
 11
225.7517730496447
 21
10.0
 31
0.0
  0
LINE
  5
8C
330
24
100
AcDbEntity
  8
0
 62
     0
100
AcDbLine
 10
205.7659574468077
 20
22.00000000000007
 30
0.0
 11
205.7659574468077
 21
10.0
 31
0.0
  0
LINE
  5
8D
330
24
100
AcDbEntity
  8
0
 62
     0
100
AcDbLine
 10
216.4042553191484
 20
22.00000000000007
 30
0.0
 11
216.4042553191484
 21
10.0
 31
0.0
  0
LINE
  5
8E
330
24
100
AcDbEntity
  8
0
 62
     0
100
AcDbLine
 10
157.2978723404242
 20
16.00000000000008
 30
0.0
 11
195.1276595744673
 21
16.00000000000008
 31
0.0
  0
LINE
  5
8F
330
24
100
AcDbEntity
  8
0
 62
     0
100
AcDbLine
 10
157.2978723404242
 20
10.0
 30
0.0
 11
157.2978723404242
 21
13.00000000000004
 31
0.0
  0
TEXT
  5
90
330
24
100
AcDbEntity
  8
0
 62
     0
100
AcDbText
 10
198.7174935280942
 20
10.48329012996929
 30
0.0
 40
1.791674070777747
  1
製図
  7
ADESK1
 72
     1
 11
200.5688900678978
 21
10.48329012996929
 31
0.0
100
AcDbText
  0
TEXT
  5
91
330
24
100
AcDbEntity
  8
0
 62
     0
100
AcDbText
 10
209.2960689314087
 20
10.48329012996929
 30
0.0
 40
1.791674070777747
  1
設計
  7
ADESK1
 72
     1
 11
211.2071879402383
 21
10.48329012996929
 31
0.0
100
AcDbText
  0
TEXT
  5
92
330
24
100
AcDbEntity
  8
0
 62
     0
100
AcDbText
 10
219.2447163844405
 20
10.55220101068186
 30
0.0
 40
1.791674070777747
  1
照査
  7
ADESK1
 72
     1
 11
221.1558353932701
 21
10.55220101068186
 31
0.0
100
AcDbText
  0
LINE
  5
93
330
24
100
AcDbEntity
  8
0
 62
     0
100
AcDbLine
 10
157.2978723404242
 20
25.00000000000012
 30
0.0
 11
195.1276595744673
 21
25.00000000000012
 31
0.0
  0
LINE
  5
94
330
24
100
AcDbEntity
  8
0
 62
     0
100
AcDbLine
 10
157.2978723404242
 20
22.00000000000007
 30
0.0
 11
195.1276595744673
 21
22.00000000000012
 31
0.0
  0
LINE
  5
95
330
24
100
AcDbEntity
  8
0
 62
     0
100
AcDbLine
 10
157.2978723404242
 20
19.00000000000007
 30
0.0
 11
195.1276595744673
 21
19.00000000000012
 31
0.0
  0
LINE
  5
96
330
24
100
AcDbEntity
  8
0
 62
     0
100
AcDbLine
 10
157.2978723404242
 20
34.00000000000024
 30
0.0
 11
225.7517730496447
 21
34.00000000000024
 31
0.0
  0
LINE
  5
97
330
24
100
AcDbEntity
  8
0
 62
     0
100
AcDbLine
 10
157.2978723404242
 20
31.0000000000002
 30
0.0
 11
225.7517730496447
 21
31.0000000000002
 31
0.0
  0
LINE
  5
98
330
24
100
AcDbEntity
  8
0
 62
     0
100
AcDbLine
 10
157.2978723404242
 20
28.00000000000015
 30
0.0
 11
225.7517730496447
 21
28.00000000000015
 31
0.0
  0
LINE
  5
99
330
24
100
AcDbEntity
  8
0
 62
     0
100
AcDbLine
 10
195.1276595744673
 20
25.00000000000012
 30
0.0
 11
225.7517730496447
 21
25.00000000000012
 31
0.0
  0
LINE
  5
9A
330
24
100
AcDbEntity
  8
0
 62
     0
100
AcDbLine
 10
195.1276595744673
 20
49.00000000000036
 30
0.0
 11
195.1276595744673
 21
25.00000000000012
 31
0.0
  0
LINE
  5
9B
330
24
100
AcDbEntity
  8
0
 62
     0
100
AcDbLine
 10
202.3333333333325
 20
37.00000000000024
 30
0.0
 11
202.3333333333325
 21
25.00000000000012
 31
0.0
  0
LINE
  5
9C
330
24
100
AcDbEntity
  8
0
 62
     0
100
AcDbLine
 10
213.1418439716305
 20
49.00000000000036
 30
0.0
 11
213.1418439716305
 21
22.00000000000012
 31
0.0
  0
LINE
  5
9D
330
24
100
AcDbEntity
  8
0
 62
     0
100
AcDbLine
 10
279.7943262411347
 20
22.00000000000012
 30
0.0
 11
279.7943262411347
 21
10.0
 31
0.0
  0
LINE
  5
9E
330
24
100
AcDbEntity
  8
0
 62
     0
100
AcDbLine
 10
287.0
 20
49.00000000000036
 30
0.0
 11
287.0
 21
10.0
 31
0.0
  0
LINE
  5
9F
330
24
100
AcDbEntity
  8
0
 62
     0
100
AcDbLine
 10
287.0
 20
10.0
 30
0.0
 11
287.0
 21
49.00000000000036
 31
0.0
  0
LINE
  5
A0
330
24
100
AcDbEntity
  8
0
 62
     0
100
AcDbLine
 10
279.7943262411347
 20
16.00000000000008
 30
0.0
 11
287.0
 21
16.00000000000008
 31
0.0
  0
ENDBLK
  5
A2
330
24
100
AcDbEntity
  8
0
100
AcDbBlockEnd
  0
BLOCK
  5
3443
330
3437
100
AcDbEntity
  8
0
100
AcDbBlockBegin
  2
*D1
 70
     1
 10
0.0
 20
0.0
 30
0.0
  3
*D1
  1

  0
LINE
  5
3438
330
3437
100
AcDbEntity
  8
OBJECT
 62
     0
370
    -2
100
AcDbLine
 10
-8068.568047744786
 20
3998.303038975791
 30
0.0
 11
-7757.422052324407
 21
3998.303038975791
 31
0.0
  0
LINE
  5
3439
330
3437
100
AcDbEntity
  8
OBJECT
 62
     0
370
    -2
100
AcDbLine
 10
-8068.568047744786
 20
4078.303038975791
 30
0.0
 11
-7757.422052324407
 21
4078.303038975791
 31
0.0
  0
LINE
  5
343A
330
3437
100
AcDbEntity
  8
OBJECT
 62
     0
370
    -2
100
AcDbLine
 10
-7776.172052324408
 20
3960.803038975791
 30
0.0
 11
-7776.172052324408
 21
3923.303038975791
 31
0.0
  0
LINE
  5
343B
330
3437
100
AcDbEntity
  8
OBJECT
 62
     0
370
    -2
100
AcDbLine
 10
-7776.172052324408
 20
4115.803038975792
 30
0.0
 11
-7776.172052324408
 21
4153.303038975791
 31
0.0
  0
LINE
  5
343C
330
3437
100
AcDbEntity
  8
OBJECT
 62
     0
370
    -2
100
AcDbLine
 10
-7776.172052324408
 20
3998.303038975791
 30
0.0
 11
-7776.172052324408
 21
4078.303038975791
 31
0.0
  0
SOLID
  5
343D
330
3437
100
AcDbEntity
  8
OBJECT
 62
     0
100
AcDbTrace
 10
-7782.422052324408
 20
3960.803038975791
 30
0.0
 11
-7769.922052324408
 21
3960.803038975791
 31
0.0
 12
-7776.172052324408
 22
3998.303038975791
 32
0.0
 13
-7776.172052324408
 23
3998.303038975791
 33
0.0
  0
SOLID
  5
343E
330
3437
100
AcDbEntity
  8
OBJECT
 62
     0
100
AcDbTrace
 10
-7782.422052324408
 20
4115.803038975792
 30
0.0
 11
-7769.922052324408
 21
4115.803038975792
 31
0.0
 12
-7776.172052324408
 22
4078.303038975791
 32
0.0
 13
-7776.172052324408
 23
4078.303038975791
 33
0.0
  0
MTEXT
  5
343F
330
3437
100
AcDbEntity
  8
OBJECT
 62
     0
100
AcDbMText
 10
-7804.297052324407
 20
4038.303038975789
 30
0.0
 40
37.5
 41
0.0
 71
     5
 72
     1
  1
\A1;80
 11
0.0000000000000001
 21
1.0
 31
0.0
 73
     1
 44
1.0
  0
POINT
  5
3440
330
3437
100
AcDbEntity
  8
DEFPOINTS
 62
     0
100
AcDbPoint
 10
-8077.943047744787
 20
3998.303038975791
 30
0.0
  0
POINT
  5
3441
330
3437
100
AcDbEntity
  8
DEFPOINTS
 62
     0
100
AcDbPoint
 10
-8077.943047744787
 20
4078.303038975791
 30
0.0
  0
POINT
  5
3442
330
3437
100
AcDbEntity
  8
DEFPOINTS
 62
     0
100
AcDbPoint
 10
-7776.172052324408
 20
4078.303038975791
 30
0.0
  0
ENDBLK
  5
3444
330
3437
100
AcDbEntity
  8
0
100
AcDbBlockEnd
  0
BLOCK
  5
3447
330
3445
100
AcDbEntity
  8
0
100
AcDbBlockBegin
  2
A$C23BB6A77
 70
     0
 10
0.0
 20
0.0
 30
0.0
  3
A$C23BB6A77
  1

  0
DIMENSION
  5
3446
330
3445
100
AcDbEntity
  8
OBJECT
100
AcDbDimension
  2
*D1
 10
301.7709854312124
 20
154.9999934708971
 30
0.0
 11
273.6459854312115
 21
114.9999934708962
 31
0.0
 12
8077.94303775562
 22
-3923.303045504894
 32
0.0
 71
     5
 42
79.99999999999954
  3
STANDARD
100
AcDbAlignedDimension
 13
-0.0000099891658465
 23
74.99999347089761
 33
0.0
 14
-0.0000099891658465
 24
154.9999934708971
 34
0.0
 50
90.0
100
AcDbRotatedDimension
1001
ACAD
1000
DSTYLE
1002
{
1070
    40
1040
15.0
1070
    41
1040
2.5
1070
    42
1040
0.625
1070
    43
1040
3.75
1070
    44
1040
1.25
1070
    73
1070
     0
1070
    74
1070
     0
1070
    77
1070
     1
1070
    78
1070
     8
1070
   140
1040
2.5
1070
   141
1040
2.5
1070
   143
1040
0.0394
1070
   147
1040
0.625
1070
   171
1070
     4
1070
   172
1070
     1
1070
   273
1070
     8
1070
   274
1070
     4
1070
   277
1070
     6
1002
}
  0
ENDBLK
  5
3448
330
3445
100
AcDbEntity
  8
0
100
AcDbBlockEnd
  0
ENDSEC
  0
SECTION
  2
ENTITIES
  0
MTEXT
  5
938
330
18
100
AcDbEntity
  8
上書線
100
AcDbMText
 10
1865.739761775792
 20
499.0283937835011
 30
0.0
 40
37.5
 41
0.0
 71
     4
 72
     1
  1
\A1;
 73
     1
 44
1.0
  0
LINE
  5
123E
330
18
100
AcDbEntity
  8
基準線
100
AcDbLine
 10
710.0813698183028
 20
2117.506972677286
 30
0.0
 11
731.0813698183028
 21
2117.506972677286
 31
0.0
  0
LINE
  5
14BB
330
18
100
AcDbEntity
  8
基準線
100
AcDbLine
 10
1281.296189060135
 20
2744.451732006984
 30
0.0
 11
1631.12377476475
 21
2744.451732006984
 31
0.0
  0
LINE
  5
14BC
330
18
100
AcDbEntity
  8
基準線
100
AcDbLine
 10
1131.296189060135
 20
2594.451732006984
 30
0.0
 11
1604.134047986604
 21
2594.451732006984
 31
0.0
  0
LINE
  5
1546
330
18
100
AcDbEntity
  8
基準線
100
AcDbLine
 10
2000.40772718317
 20
1104.126411816217
 30
0.0
 11
2000.40772718317
 21
1262.163674897728
 31
0.0
  0
LINE
  5
154B
330
18
100
AcDbEntity
  8
基準線
100
AcDbLine
 10
2550.40772718317
 20
1049.126411816217
 30
0.0
 11
2550.40772718317
 21
1211.614819254876
 31
0.0
  0
LINE
  5
154C
330
18
100
AcDbEntity
  8
基準線
100
AcDbLine
 10
2150.40772718317
 20
1049.126411816217
 30
0.0
 11
2150.40772718317
 21
1226.779475202555
 31
0.0
  0
LINE
  5
15CA
330
18
100
AcDbEntity
  8
基準線
100
AcDbLine
 10
3419.935833980378
 20
2804.85492986955
 30
0.0
 11
3776.432100616551
 21
2804.85492986955
 31
0.0
  0
LINE
  5
15CC
330
18
100
AcDbEntity
  8
基準線
100
AcDbLine
 10
3776.432100616551
 20
2804.85492986955
 30
0.0
 11
4171.357345948922
 21
2804.85492986955
 31
0.0
  0
LINE
  5
15D0
330
18
100
AcDbEntity
  8
基準線
100
AcDbLine
 10
3419.935833980378
 20
2684.85492986955
 30
0.0
 11
3776.432100616551
 21
2684.85492986955
 31
0.0
  0
LINE
  5
15D1
330
18
100
AcDbEntity
  8
基準線
100
AcDbLine
 10
3598.183967298465
 20
2684.85492986955
 30
0.0
 11
3598.183967298465
 21
984.8549298695507
 31
0.0
  0
LINE
  5
15D2
330
18
100
AcDbEntity
  8
基準線
100
AcDbLine
 10
3776.432100616551
 20
2484.854929869551
 30
0.0
 11
4171.357345948921
 21
2484.85492986955
 31
0.0
  0
LINE
  5
15D3
330
18
100
AcDbEntity
  8
基準線
100
AcDbLine
 10
3973.894723282737
 20
2684.854929869551
 30
0.0
 11
3973.894723282734
 21
984.8549298695507
 31
0.0
  0
LINE
  5
15D4
330
18
100
AcDbEntity
  8
基準線
100
AcDbLine
 10
3419.935833980378
 20
2684.85492986955
 30
0.0
 11
3419.935833980378
 21
2584.85492986955
 31
0.0
  0
LINE
  5
15D5
330
18
100
AcDbEntity
  8
基準線
100
AcDbLine
 10
3419.935833980378
 20
2634.85492986955
 30
0.0
 11
4114.659436953616
 21
2634.85492986955
 31
0.0
  0
MTEXT
  5
2600
330
18
100
AcDbEntity
  8
上書線
100
AcDbMText
 10
8570.465430131163
 20
6638.623143846118
 30
0.0
 40
60.0
 41
956.9129999999999
 71
     1
 72
     5
  1
重量表
 73
     1
 44
1.0
  0
MTEXT
  5
283E
330
18
100
AcDbEntity
  8
上線
100
AcDbMText
 10
8670.297364432057
 20
6463.781234264695
 30
0.0
 40
49.968
 41
197.7879999999999
 71
     1
 72
     5
  1
Ｈ
 73
     1
 44
1.0
  0
LINE
  5
283F
330
18
100
AcDbEntity
  8
上線
100
AcDbLine
 10
8294.242085237911
 20
5901.031598417089
 30
0.0
 11
9111.972592884155
 21
5901.031598417089
 31
0.0
  0
LINE
  5
2840
330
18
100
AcDbEntity
  8
上線
100
AcDbLine
 10
8294.242085237911
 20
5998.946956092157
 30
0.0
 11
9111.972592884155
 21
5998.946956092157
 31
0.0
  0
LINE
  5
2841
330
18
100
AcDbEntity
  8
上線
100
AcDbLine
 10
8294.242085237911
 20
6096.862313767224
 30
0.0
 11
9111.972592884155
 21
6096.862313767224
 31
0.0
  0
LINE
  5
2842
330
18
100
AcDbEntity
  8
上線
100
AcDbLine
 10
8294.242085237911
 20
6194.777671442291
 30
0.0
 11
9111.972592884155
 21
6194.777671442291
 31
0.0
  0
LINE
  5
2843
330
18
100
AcDbEntity
  8
上線
100
AcDbLine
 10
8294.242085237911
 20
6292.693029117359
 30
0.0
 11
9111.972592884155
 21
6292.693029117359
 31
0.0
  0
LINE
  5
2844
330
18
100
AcDbEntity
  8
上線
100
AcDbLine
 10
8294.242085237911
 20
6390.52838690619
 30
0.0
 11
9112.607251715628
 21
6390.52838690619
 31
0.0
  0
LINE
  5
2845
330
18
100
AcDbEntity
  8
上線
100
AcDbLine
 10
9111.972592884155
 20
6488.523744467494
 30
0.0
 11
8294.242085237911
 21
6488.523744467494
 31
0.0
  0
LINE
  5
284A
330
18
100
AcDbEntity
  8
上線
100
AcDbLine
 10
8566.818921119992
 20
6488.523744467494
 30
0.0
 11
8566.818921119992
 21
5901.031598417089
 31
0.0
  0
LINE
  5
284B
330
18
100
AcDbEntity
  8
上線
100
AcDbLine
 10
8294.242085237911
 20
6488.523744467494
 30
0.0
 11
8294.242085237911
 21
5901.031598417089
 31
0.0
  0
MTEXT
  5
285C
330
18
100
AcDbEntity
  8
上線
100
AcDbMText
 10
8388.829450263035
 20
6463.781234264695
 30
0.0
 40
49.968
 41
197.7879999999999
 71
     1
 72
     5
  1
h1
 73
     1
 44
1.0
  0
LINE
  5
285F
330
18
100
AcDbEntity
  8
上線
100
AcDbLine
 10
8839.395757002071
 20
6488.523744467494
 30
0.0
 11
8839.395757002071
 21
5901.031598417089
 31
0.0
  0
LINE
  5
2860
330
18
100
AcDbEntity
  8
上線
100
AcDbLine
 10
9111.972592884155
 20
5901.031598417089
 30
0.0
 11
9111.972592884155
 21
6488.523744467494
 31
0.0
  0
MTEXT
  5
2866
330
18
100
AcDbEntity
  8
上線
100
AcDbMText
 10
8882.519632427927
 20
6446.967823507097
 30
0.0
 40
24.984
 41
247.78800162
 71
     1
 72
     5
  1
\fＭＳ Ｐ明朝|b0|i0|c128|p18;参考重量（㎏）
 73
     1
 44
1.0
  0
MTEXT
  5
355F
330
18
100
AcDbEntity
  8
上線
100
AcDbMText
 10
8406.709353151722
 20
5971.319334243498
 30
0.0
 40
49.968
 41
247.7879999999999
 71
     1
 72
     5
  1
500
 73
     1
 44
1.0
  0
MTEXT
  5
3560
330
18
100
AcDbEntity
  8
上線
100
AcDbMText
 10
8408.583800985224
 20
6362.90076505753
 30
0.0
 40
49.968
 41
247.7879999999999
 71
     1
 72
     5
  1
300
 73
     1
 44
1.0
  0
MTEXT
  5
3561
330
18
100
AcDbEntity
  8
上線
100
AcDbMText
 10
8406.709353151722
 20
6167.150049593631
 30
0.0
 40
49.968
 41
247.7879999999999
 71
     1
 72
     5
  1
400
 73
     1
 44
1.0
  0
MTEXT
  5
3572
330
18
100
AcDbEntity
  8
上線
100
AcDbMText
 10
8647.318189033802
 20
5970.999334698555
 30
0.0
 40
49.968
 41
279.7559999999999
 71
     1
 72
     5
  1
1300
 73
     1
 44
1.0
  0
MTEXT
  5
358C
330
18
100
AcDbEntity
  8
上線
100
AcDbMText
 10
8953.737472749386
 20
6362.90076505753
 30
0.0
 40
49.968
 41
247.7879999999999
 71
     1
 72
     5
  1
856
 73
     1
 44
1.0
  0
MTEXT
  5
358D
330
18
100
AcDbEntity
  8
上線
100
AcDbMText
 10
8951.863024915883
 20
6167.150049593631
 30
0.0
 40
49.968
 41
247.7879999999999
 71
     1
 72
     5
  1
953
 73
     1
 44
1.0
  0
MTEXT
  5
3599
330
18
100
AcDbEntity
  8
上線
100
AcDbMText
 10
8647.318189033802
 20
6166.830050048688
 30
0.0
 40
49.968
 41
279.7559999999999
 71
     1
 72
     5
  1
1200
 73
     1
 44
1.0
  0
MTEXT
  5
35A3
330
18
100
AcDbEntity
  8
上線
100
AcDbMText
 10
8647.318189033802
 20
6362.660765398824
 30
0.0
 40
49.968
 41
279.7559999999999
 71
     1
 72
     5
  1
1100
 73
     1
 44
1.0
  0
ARC
  5
36D1
330
18
100
AcDbEntity
  8
上線
100
AcDbCircle
 10
7472.827102844483
 20
4696.598143745135
 30
0.0
 40
50.0
100
AcDbArc
 50
270.0
 51
359.1815445383053
  0
LINE
  5
36D2
330
18
100
AcDbEntity
  8
点線
100
AcDbLine
 10
7177.832204625018
 20
5396.598143745135
 30
0.0
 11
7577.832204625018
 21
5396.598143745135
 31
0.0
  0
LINE
  5
36D3
330
18
100
AcDbEntity
  8
上線
100
AcDbLine
 10
7677.117918910731
 20
5446.598143745135
 30
0.0
 11
7107.117918910731
 21
5446.598143745135
 31
0.0
  0
LINE
  5
36D4
330
18
100
AcDbEntity
  8
OBJECT
100
AcDbLine
 10
7677.117918910731
 20
4146.598143745134
 30
0.0
 11
7107.117918910731
 21
4146.598143745135
 31
0.0
  0
LINE
  5
3700
330
18
100
AcDbEntity
  8
上線
 48
10.0
100
AcDbLine
 10
7526.403633196444
 20
5346.598143745135
 30
0.0
 11
7522.822001584458
 21
4695.883930905988
 31
0.0
  0
LINE
  5
3701
330
18
100
AcDbEntity
  8
上線
 48
10.0
100
AcDbLine
 10
7227.832204625018
 20
5346.598143745135
 30
0.0
 11
7231.413836237004
 21
4695.883930905988
 31
0.0
  0
LINE
  5
3705
330
18
100
AcDbEntity
  8
OBJECT
100
AcDbLine
 10
7107.117918910731
 20
4146.598143745135
 30
0.0
 11
7107.117918910731
 21
5446.598143745135
 31
0.0
  0
LINE
  5
3706
330
18
100
AcDbEntity
  8
点線
100
AcDbLine
 10
7227.832204625018
 20
5396.598143745135
 30
0.0
 11
7227.832204625016
 21
4146.598143745135
 31
0.0
  0
LINE
  5
3707
330
18
100
AcDbEntity
  8
点線
100
AcDbLine
 10
7526.403633196444
 20
5396.598143745135
 30
0.0
 11
7526.403633196444
 21
4146.598143745135
 31
0.0
  0
ARC
  5
370D
330
18
100
AcDbEntity
  8
上線
100
AcDbCircle
 10
7281.408734976979
 20
4696.598143745135
 30
0.0
 40
50.0
100
AcDbArc
 50
180.8184554616945
 51
270.0
  0
LINE
  5
3713
330
18
100
AcDbEntity
  8
上線
100
AcDbLine
 10
7472.827102844483
 20
4646.598143745135
 30
0.0
 11
7281.408734976979
 21
4646.598143745135
 31
0.0
  0
LINE
  5
3721
330
18
100
AcDbEntity
  8
上線
 48
10.0
100
AcDbLine
 10
7227.832204625018
 20
5346.598143745135
 30
0.0
 11
7526.403633196444
 21
5346.598143745135
 31
0.0
  0
LINE
  5
3722
330
18
100
AcDbEntity
  8
点線
100
AcDbLine
 10
7177.832204625018
 20
5396.598143745135
 30
0.0
 11
7177.832204625018
 21
5446.598143745135
 31
0.0
  0
LINE
  5
378D
330
18
100
AcDbEntity
  8
OBJECT
100
AcDbLine
 10
6807.117918910731
 20
4146.598143745135
 30
0.0
 11
6807.117918910731
 21
5446.598143745135
 31
0.0
  0
LINE
  5
378E
330
18
100
AcDbEntity
  8
点線
100
AcDbLine
 10
6607.117918910731
 20
5396.598143745135
 30
0.0
 11
6607.117918910731
 21
4146.598143745135
 31
0.0
  0
LINE
  5
378F
330
18
100
AcDbEntity
  8
OBJECT
100
AcDbLine
 10
7677.117918910731
 20
5446.598143745135
 30
0.0
 11
7677.117918910731
 21
4146.598143745134
 31
0.0
  0
LINE
  5
3790
330
18
100
AcDbEntity
  8
OBJECT
100
AcDbLine
 10
5807.117918910732
 20
5446.598143745135
 30
0.0
 11
5807.117918910732
 21
4146.598143745135
 31
0.0
  0
LINE
  5
3791
330
18
100
AcDbEntity
  8
点線
100
AcDbLine
 10
6007.117918910732
 20
5396.598143745135
 30
0.0
 11
6007.117918910732
 21
4146.598143745135
 31
0.0
  0
LINE
  5
3792
330
18
100
AcDbEntity
  8
OBJECT
100
AcDbLine
 10
5807.117918910732
 20
4146.598143745135
 30
0.0
 11
6807.117918910731
 21
4146.598143745135
 31
0.0
  0
LINE
  5
3793
330
18
100
AcDbEntity
  8
点線
100
AcDbLine
 10
6007.117918910732
 20
4646.598143745134
 30
0.0
 11
5807.117918910732
 21
4646.598143745134
 31
0.0
  0
LINE
  5
3794
330
18
100
AcDbEntity
  8
点線
100
AcDbLine
 10
6607.117918910731
 20
4646.598143745134
 30
0.0
 11
6807.117918910731
 21
4646.598143745134
 31
0.0
  0
LINE
  5
3797
330
18
100
AcDbEntity
  8
OBJECT
100
AcDbLine
 10
5807.117918910732
 20
5446.598143745135
 30
0.0
 11
6807.117918910731
 21
5446.598143745135
 31
0.0
  0
LINE
  5
3798
330
18
100
AcDbEntity
  8
点線
100
AcDbLine
 10
6007.117918910732
 20
5396.598143745135
 30
0.0
 11
6607.117918910731
 21
5396.598143745135
 31
0.0
  0
LINE
  5
379D
330
18
100
AcDbEntity
  8
点線
100
AcDbLine
 10
6007.117918910732
 20
5346.598143745134
 30
0.0
 11
5807.117918910732
 21
5346.598143745134
 31
0.0
  0
LINE
  5
379E
330
18
100
AcDbEntity
  8
点線
100
AcDbLine
 10
7577.832204625018
 20
5396.598143745135
 30
0.0
 11
7577.832204625018
 21
5446.598143745135
 31
0.0
  0
LINE
  5
379F
330
18
100
AcDbEntity
  8
点線
100
AcDbLine
 10
6007.117918910732
 20
5446.598143745135
 30
0.0
 11
6007.117918910732
 21
5396.598143745135
 31
0.0
  0
LINE
  5
37A7
330
18
100
AcDbEntity
  8
点線
100
AcDbLine
 10
6607.117918910731
 20
5346.598143745134
 30
0.0
 11
6807.117918910731
 21
5346.598143745134
 31
0.0
  0
LINE
  5
37A8
330
18
100
AcDbEntity
  8
点線
100
AcDbLine
 10
6607.117918910731
 20
5396.598143745135
 30
0.0
 11
6607.117918910731
 21
5446.598143745135
 31
0.0
  0
MTEXT
  5
3908
330
18
100
AcDbEntity
  8
上線
100
AcDbMText
 10
8408.583800985224
 20
6265.0654072687
 30
0.0
 40
49.968
 41
247.7879999999999
 71
     1
 72
     5
  1
350
 73
     1
 44
1.0
  0
MTEXT
  5
3909
330
18
100
AcDbEntity
  8
上線
100
AcDbMText
 10
8406.709353151722
 20
6069.314691804801
 30
0.0
 40
49.968
 41
247.7879999999999
 71
     1
 72
     5
  1
450
 73
     1
 44
1.0
  0
MTEXT
  5
3912
330
18
100
AcDbEntity
  8
上線
100
AcDbMText
 10
8647.318189033802
 20
6264.825407609993
 30
0.0
 40
49.968
 41
279.7559999999999
 71
     1
 72
     5
  1
1150
 73
     1
 44
1.0
  0
MTEXT
  5
3913
330
18
100
AcDbEntity
  8
上線
100
AcDbMText
 10
8647.318189033802
 20
6068.994692259857
 30
0.0
 40
49.968
 41
279.7559999999999
 71
     1
 72
     5
  1
1250
 73
     1
 44
1.0
  0
MTEXT
  5
3914
330
18
100
AcDbEntity
  8
上線
100
AcDbMText
 10
8953.737472749386
 20
6265.0654072687
 30
0.0
 40
49.968
 41
247.7879999999999
 71
     1
 72
     5
  1
904
 73
     1
 44
1.0
  0
MTEXT
  5
39DA
330
18
100
AcDbEntity
  8
上線
100
AcDbMText
 10
8919.895024915883
 20
5971.319334243498
 30
0.0
 40
49.968
 41
279.7559999999999
 71
     1
 72
     5
  1
1051
 73
     1
 44
1.0
  0
MTEXT
  5
39DB
330
18
100
AcDbEntity
  8
上線
100
AcDbMText
 10
8919.895024915883
 20
6069.234691918564
 30
0.0
 40
49.968
 41
279.7559999999999
 71
     1
 72
     5
  1
1002
 73
     1
 44
1.0
  0
MTEXT
  5
3B42
330
18
100
AcDbEntity
  8
0
  6
ByBlock
 62
     0
 48
10.0
100
AcDbMText
 10
7627.117944733247
 20
5656.598134981719
 30
0.0
 40
37.5
 41
0.0
 71
     5
 72
     1
  1
100
 73
     1
 44
1.0
  0
LINE
  5
3B43
330
18
100
AcDbEntity
  8
WUWAGAKI
100
AcDbLine
 10
5011.784063060734
 20
3967.538240598816
 30
0.0
 11
9282.502981687652
 21
3967.538240598816
 31
0.0
  0
LINE
  5
3B44
330
18
100
AcDbEntity
  8
WUWAGAKI
100
AcDbLine
 10
9282.502981687652
 20
6893.688092394938
 30
0.0
 11
5011.784063060734
 21
6893.688092394938
 31
0.0
  0
LINE
  5
3B45
330
18
100
AcDbEntity
  8
OBJECT
 48
10.0
100
AcDbLine
 10
7107.117944733203
 20
5776.598143745141
 30
0.0
 11
7677.117944733225
 21
5776.598143745141
 31
0.0
  0
LINE
  5
3B46
330
18
100
AcDbEntity
  8
OBJECT
 48
10.0
100
AcDbLine
 10
7107.117944733203
 20
5626.598134981717
 30
0.0
 11
7677.117944733247
 21
5626.598134981719
 31
0.0
  0
MTEXT
  5
3B49
330
18
100
AcDbEntity
  8
0
  6
ByBlock
 62
     0
 48
10.0
100
AcDbMText
 10
7377.117944733247
 20
5656.598143745138
 30
0.0
 40
37.5
 41
0.0
 71
     5
 72
     1
  1
300
 73
     1
 44
1.0
  0
MTEXT
  5
3B4A
330
18
100
AcDbEntity
  8
0
  6
ByBlock
 62
     0
 48
10.0
100
AcDbMText
 10
7142.117944733204
 20
5656.598134981716
 30
0.0
 40
37.5
 41
0.0
 71
     5
 72
     1
  1
70
 73
     1
 44
1.0
  0
LINE
  5
3B4B
330
18
100
AcDbEntity
  8
OBJECT
 48
10.0
100
AcDbLine
 10
5627.117927674153
 20
5746.598169567629
 30
0.0
 11
5627.117927674153
 21
5634.098169567629
 31
0.0
  0
LINE
  5
3B4C
330
18
100
AcDbEntity
  8
0
 48
10.0
100
AcDbLine
 10
7577.117944733247
 20
5476.598143745135
 30
0.0
 11
7577.117944733247
 21
5656.598143745135
 31
0.0
  0
LINE
  5
3B4D
330
18
100
AcDbEntity
  8
0
 48
10.0
100
AcDbLine
 10
7527.117944733247
 20
5476.598133649944
 30
0.0
 11
7527.117944733247
 21
5656.598133649945
 31
0.0
  0
LINE
  5
3B4E
330
18
100
AcDbEntity
  8
0
 48
10.0
100
AcDbLine
 10
7227.117944733203
 20
5476.598133649944
 30
0.0
 11
7227.117944733203
 21
5656.598133649945
 31
0.0
  0
LINE
  5
3B4F
330
18
100
AcDbEntity
  8
0
 48
10.0
100
AcDbLine
 10
7177.117944733203
 20
5476.598143745132
 30
0.0
 11
7177.117944733203
 21
5656.598143745132
 31
0.0
  0
LINE
  5
3B50
330
18
100
AcDbEntity
  8
0
 48
10.0
100
AcDbLine
 10
7227.117944733203
 20
5476.59813364994
 30
0.0
 11
7227.117944733203
 21
5656.598133649941
 31
0.0
  0
LINE
  5
3B51
330
18
100
AcDbEntity
  8
WUWAGAKI
100
AcDbLine
 10
5011.784063060734
 20
6893.688092394938
 30
0.0
 11
5011.784063060734
 21
3967.538240598816
 31
0.0
  0
LINE
  5
3B52
330
18
100
AcDbEntity
  8
0
 48
10.0
100
AcDbLine
 10
7107.117944733203
 20
5476.598143745135
 30
0.0
 11
7107.117944733203
 21
5806.598143745135
 31
0.0
  0
LINE
  5
3B56
330
18
100
AcDbEntity
  8
OBJECT
 48
10.0
100
AcDbLine
 10
5627.117929650681
 20
4146.598143745134
 30
0.0
 11
5627.117929650681
 21
5446.598143745135
 31
0.0
  0
LINE
  5
3B57
330
18
100
AcDbEntity
  8
OBJECT
 48
10.0
100
AcDbLine
 10
5477.117927674154
 20
5446.598143745135
 30
0.0
 11
5477.11792767415
 21
4146.598143745134
 31
0.0
  0
LINE
  5
3B5A
330
18
100
AcDbEntity
  8
0
 48
10.0
100
AcDbLine
 10
5777.117918910732
 20
4146.598143745134
 30
0.0
 11
5447.117918910731
 21
4146.598143745134
 31
0.0
  0
SOLID
  5
3B5B
330
18
100
AcDbEntity
  8
0
  6
ByBlock
 62
     0
 48
10.0
100
AcDbTrace
 10
5483.36791891073
 20
4184.098143745156
 30
0.0
 11
5470.867918910728
 21
4184.098143745156
 31
0.0
 12
5477.117918910728
 22
4146.598143745157
 32
0.0
 13
5477.117918910728
 23
4146.598143745157
 33
0.0
  0
SOLID
  5
3B5C
330
18
100
AcDbEntity
  8
0
  6
ByBlock
 62
     0
 48
10.0
100
AcDbTrace
 10
5633.367929650678
 20
4184.098155604289
 30
0.0
 11
5620.867929650678
 21
4184.098155604289
 31
0.0
 12
5627.117929650679
 22
4146.598155604289
 32
0.0
 13
5627.117929650679
 23
4146.598155604289
 33
0.0
  0
MTEXT
  5
3B5D
330
18
100
AcDbEntity
  8
0
  6
ByBlock
 62
     0
 48
10.0
100
AcDbMText
 10
5597.117927674151
 20
4396.598143745135
 30
0.0
 40
37.5
 41
0.0
 71
     5
 72
     1
  1
h1
 11
0.0000000000000001
 21
1.0
 31
0.0
 73
     1
 44
1.0
  0
LINE
  5
3B5E
330
18
100
AcDbEntity
  8
0
 48
10.0
100
AcDbLine
 10
5777.117918910732
 20
5446.598143745135
 30
0.0
 11
5447.117918910731
 21
5446.598143745135
 31
0.0
  0
MTEXT
  5
3B5F
330
18
100
AcDbEntity
  8
0
  6
ByBlock
 62
     0
 48
10.0
100
AcDbMText
 10
5447.117918910731
 20
4796.598143745135
 30
0.0
 40
37.5
 41
0.0
 71
     5
 72
     1
  1
H
 11
0.0000000000000001
 21
1.0
 31
0.0
 73
     1
 44
1.0
  0
SOLID
  5
3B60
330
18
100
AcDbEntity
  8
0
  6
ByBlock
 62
     0
 48
10.0
100
AcDbTrace
 10
5483.36791891073
 20
5409.098143745114
 30
0.0
 11
5470.867918910728
 21
5409.098143745114
 31
0.0
 12
5477.117918910728
 22
5446.598143745114
 32
0.0
 13
5477.117918910728
 23
5446.598143745114
 33
0.0
  0
LINE
  5
3B62
330
18
100
AcDbEntity
  8
0
 48
10.0
100
AcDbLine
 10
5777.117918910732
 20
4646.598143745135
 30
0.0
 11
5597.117918910732
 21
4646.598143745135
 31
0.0
  0
SOLID
  5
3B63
330
18
100
AcDbEntity
  8
0
  6
ByBlock
 62
     0
 48
10.0
100
AcDbTrace
 10
5633.367918910734
 20
4609.098143745135
 30
0.0
 11
5620.867918910734
 21
4609.098143745135
 31
0.0
 12
5627.117918910733
 22
4646.598143745135
 32
0.0
 13
5627.117918910733
 23
4646.598143745135
 33
0.0
  0
SOLID
  5
3B64
330
18
100
AcDbEntity
  8
0
  6
ByBlock
 62
     0
 48
10.0
100
AcDbTrace
 10
5633.367918910734
 20
4684.098143745135
 30
0.0
 11
5620.867918910734
 21
4684.098143745135
 31
0.0
 12
5627.117918910733
 22
4646.598143745135
 32
0.0
 13
5627.117918910733
 23
4646.598143745135
 33
0.0
  0
MTEXT
  5
3B65
330
18
100
AcDbEntity
  8
0
  6
ByBlock
 62
     0
 48
10.0
100
AcDbMText
 10
5597.117918910731
 20
4996.598143745135
 30
0.0
 40
37.5
 41
0.0
 71
     5
 72
     1
  1
700
 11
0.0000000000000001
 21
1.0
 31
0.0
 73
     1
 44
1.0
  0
MTEXT
  5
3B67
330
18
100
AcDbEntity
  8
0
  6
ByBlock
 62
     0
 48
10.0
100
AcDbMText
 10
5597.117927674151
 20
5396.598143745135
 30
0.0
 40
37.5
 41
0.0
 71
     5
 72
     1
  1
100
 11
0.0000000000000001
 21
1.0
 31
0.0
 73
     1
 44
1.0
  0
SOLID
  5
3B68
330
18
100
AcDbEntity
  8
0
  6
ByBlock
 62
     0
 48
10.0
100
AcDbTrace
 10
5633.367918910734
 20
5384.098143745138
 30
0.0
 11
5620.867918910734
 21
5384.098143745138
 31
0.0
 12
5627.117918910733
 22
5346.598143745138
 32
0.0
 13
5627.117918910733
 23
5346.598143745138
 33
0.0
  0
LINE
  5
3B69
330
18
100
AcDbEntity
  8
0
 48
10.0
100
AcDbLine
 10
5777.117918910732
 20
5346.598143745135
 30
0.0
 11
5597.117918910732
 21
5346.598143745135
 31
0.0
  0
SOLID
  5
3B6A
330
18
100
AcDbEntity
  8
0
  6
ByBlock
 62
     0
 48
10.0
100
AcDbTrace
 10
5633.367918910734
 20
5309.098208184831
 30
0.0
 11
5620.867918910734
 21
5309.098208184831
 31
0.0
 12
5627.117918910733
 22
5346.598208184831
 32
0.0
 13
5627.117918910733
 23
5346.598208184831
 33
0.0
  0
SOLID
  5
3B6B
330
18
100
AcDbEntity
  8
0
  6
ByBlock
 62
     0
 48
10.0
100
AcDbTrace
 10
5633.367929650678
 20
5409.098131885981
 30
0.0
 11
5620.867929650678
 21
5409.098131885981
 31
0.0
 12
5627.117929650679
 22
5446.598131885981
 32
0.0
 13
5627.117929650679
 23
5446.598131885981
 33
0.0
  0
LINE
  5
3B77
330
18
100
AcDbEntity
  8
WUWAGAKI
 48
10.0
100
AcDbLine
 10
7261.371548179397
 20
4672.154357478026
 30
0.0
 11
7337.523282968077
 21
4728.583822413623
 31
0.0
210
0.0
220
0.0
230
-1.0
1001
ACAD
1000
DSTYLE
1002
{
1070
    78
1070
     8
1070
   270
1070
     8
1070
   140
1040
2.5
1070
    74
1070
     0
1070
   172
1070
     1
1070
    73
1070
     0
1070
    77
1070
     1
1070
    40
1040
10.0
1070
   147
1040
0.625
1070
    42
1040
0.625
1070
    44
1040
1.25
1070
    43
1040
3.75
1070
   141
1040
2.5
1070
    41
1040
2.5
1070
   273
1070
     8
1070
   274
1070
     4
1070
   143
1040
0.0394
1070
   171
1070
     4
1002
}
  0
SOLID
  5
3B78
330
18
100
AcDbEntity
  8
0
  6
ByBlock
 62
     0
 48
10.0
100
AcDbTrace
 10
7272.852805516608
 20
4688.205576665834
 30
0.0
 11
7280.244175515889
 21
4678.125018668693
 31
0.0
 12
7246.306816524832
 22
4660.991187669409
 32
0.0
 13
7246.306816524832
 23
4660.991187669409
 33
0.0
  0
MTEXT
  5
3B7A
330
18
100
AcDbEntity
  8
0
  6
ByBlock
 62
     0
 48
10.0
100
AcDbMText
 10
7390.023282968077
 20
4758.583822413623
 30
0.0
 40
30.0
 41
0.0
 71
     5
 72
     1
  1
50R
 73
     1
 44
1.0
  0
LINE
  5
3B7C
330
18
100
AcDbEntity
  8
OBJECT
 48
10.0
100
AcDbLine
 10
7337.523282968077
 20
4728.583822413623
 30
0.0
 11
7442.523282968078
 21
4728.583822413623
 31
0.0
  0
LINE
  5
3B7E
330
18
100
AcDbEntity
  8
OBJECT
 48
10.0
100
AcDbLine
 10
7232.117944733203
 20
5276.598134981718
 30
0.0
 11
7522.117944733247
 21
5276.598134981719
 31
0.0
  0
LINE
  5
3B81
330
18
100
AcDbEntity
  8
0
 48
10.0
100
AcDbLine
 10
7232.117944733203
 20
5126.598133649944
 30
0.0
 11
7232.117944733203
 21
5306.598133649945
 31
0.0
  0
SOLID
  5
3B82
330
18
100
AcDbEntity
  8
0
  6
ByBlock
 62
     0
 48
10.0
100
AcDbTrace
 10
7269.61794473321
 20
5270.34815250856
 30
0.0
 11
7269.61794473321
 21
5282.848152508558
 31
0.0
 12
7232.11794473321
 22
5276.598152508562
 32
0.0
 13
7232.11794473321
 23
5276.598152508562
 33
0.0
  0
SOLID
  5
3B83
330
18
100
AcDbEntity
  8
0
  6
ByBlock
 62
     0
 48
10.0
100
AcDbTrace
 10
7069.617932874071
 20
5632.848134981711
 30
0.0
 11
7069.617932874071
 21
5620.34813498171
 31
0.0
 12
7107.117932874071
 22
5626.598134981709
 32
0.0
 13
7107.117932874071
 23
5626.598134981709
 33
0.0
  0
LINE
  5
3B84
330
18
100
AcDbEntity
  8
OBJECT
 48
10.0
100
AcDbLine
 10
7107.117944733225
 20
5626.598134981714
 30
0.0
 11
6994.617944733225
 21
5626.598134981714
 31
0.0
  0
LWPOLYLINE
  5
3B86
330
18
100
AcDbEntity
  8
上線
 48
10.0
100
AcDbPolyline
 90
        2
 70
     1
 43
5.0
 10
7179.617944733204
 20
5626.576197373908
 42
-1.0
 10
7174.617944733204
 20
5626.576197373908
 42
-1.0
  0
SOLID
  5
3B87
330
18
100
AcDbEntity
  8
0
  6
ByBlock
 62
     0
 48
10.0
100
AcDbTrace
 10
7264.61794473321
 20
5620.34815250856
 30
0.0
 11
7264.61794473321
 21
5632.848152508557
 31
0.0
 12
7227.11794473321
 22
5626.598152508562
 32
0.0
 13
7227.11794473321
 23
5626.598152508562
 33
0.0
  0
MTEXT
  5
3B88
330
18
100
AcDbEntity
  8
0
  6
ByBlock
 62
     0
 48
10.0
100
AcDbMText
 10
7377.117944733247
 20
5306.598143745137
 30
0.0
 40
37.5
 41
0.0
 71
     5
 72
     1
  1
290
 73
     1
 44
1.0
  0
LINE
  5
3B89
330
18
100
AcDbEntity
  8
0
 48
10.0
100
AcDbLine
 10
7522.117944733247
 20
5126.598133649944
 30
0.0
 11
7522.117944733247
 21
5306.598133649945
 31
0.0
  0
SOLID
  5
3B8A
330
18
100
AcDbEntity
  8
0
  6
ByBlock
 62
     0
 48
10.0
100
AcDbTrace
 10
7484.618049894293
 20
5270.348143745139
 30
0.0
 11
7484.618049894293
 21
5282.848143745138
 31
0.0
 12
7522.118049894293
 22
5276.598143745141
 32
0.0
 13
7522.118049894293
 23
5276.598143745141
 33
0.0
  0
SOLID
  5
3B8C
330
18
100
AcDbEntity
  8
0
  6
ByBlock
 62
     0
 48
10.0
100
AcDbTrace
 10
7489.618049894293
 20
5620.348143745139
 30
0.0
 11
7489.618049894293
 21
5632.848143745136
 31
0.0
 12
7527.118049894292
 22
5626.59814374514
 32
0.0
 13
7527.118049894292
 23
5626.59814374514
 33
0.0
  0
SOLID
  5
3B8D
330
18
100
AcDbEntity
  8
0
  6
ByBlock
 62
     0
 48
10.0
100
AcDbTrace
 10
7614.617968451544
 20
5632.848134981714
 30
0.0
 11
7614.617968451544
 21
5620.348134981713
 31
0.0
 12
7577.117968451545
 22
5626.598134981713
 32
0.0
 13
7577.117968451545
 23
5626.598134981713
 33
0.0
  0
LINE
  5
3B8E
330
18
100
AcDbEntity
  8
OBJECT
100
AcDbLine
 10
6209.617922291485
 20
6211.598136983628
 30
0.0
 11
6404.617918910732
 21
5821.598143745135
 31
0.0
  0
HATCH
  5
3B8F
330
18
100
AcDbEntity
  8
OBJECT
100
AcDbHatch
 10
0.0
 20
0.0
 30
0.0
210
0.0
220
0.0
230
1.0
  2
AR-SAND
 70
     0
 71
     1
 91
        2
 92
        1
 93
        4
 72
     1
 10
6001.117918910732
 20
5810.598143745135
 11
6613.117918910731
 21
5810.598143745135
 72
     1
 10
6613.117918910731
 20
5810.598143745135
 11
6613.117918910731
 21
6222.598143745136
 72
     1
 10
6613.117918910731
 20
6222.598143745136
 11
6001.117918910732
 21
6222.598143745136
 72
     1
 10
6001.117918910732
 20
6222.598143745136
 11
6001.117918910732
 21
5810.598143745135
 97
        4
330
3B92
330
3C0B
330
3B9B
330
3BAA
 92
       16
 93
        4
 72
     1
 10
6007.117918910732
 20
5816.598143745135
 11
6607.117918910731
 21
5816.598143745135
 72
     1
 10
6607.117918910731
 20
5816.598143745135
 11
6607.117918910731
 21
6216.598143745136
 72
     1
 10
6607.117918910731
 20
6216.598143745136
 11
6007.117918910732
 21
6216.598143745136
 72
     1
 10
6007.117918910732
 20
6216.598143745136
 11
6007.117918910732
 21
5816.598143745135
 97
        4
330
3B93
330
3C0C
330
3B9C
330
3BAB
 75
     0
 76
     1
 52
90.0
 41
1.0
 77
     0
 78
     4
 53
127.5
 43
10765.72467035066
 44
-151.4353948532425
 45
-48.94132373293423
 46
-1.600031295984042
 79
     6
 49
0.0
 49
-38.608
 49
0.0
 49
-43.18
 49
0.0
 49
-41.275
 53
97.49999999999985
 43
10765.72467035066
 44
-151.4353948532425
 45
-71.68251005683543
 46
44.95232831380027
 79
     6
 49
0.0
 49
-20.82799999999999
 49
0.0
 49
-34.79799999999999
 49
0.0
 49
-13.33499999999999
 53
57.49999999999997
 43
10765.72467035066
 44
-182.6773948532427
 45
-0.1437184678545643
 46
79.09923702414579
 79
     6
 49
0.0
 49
-12.69999999999996
 49
0.0
 49
-45.71999999999987
 49
0.0
 49
-59.68999999999986
 53
47.49999999999999
 43
10765.72467035066
 44
-182.6773948532427
 45
-22.29293232572162
 46
76.35564524722972
 79
     6
 49
0.0
 49
-6.349999999999999
 49
0.0
 49
-29.97199999999999
 49
0.0
 49
-34.29
 98
        1
 10
10765.72467035066
 20
-151.4353948532425
  0
LINE
  5
3B90
330
18
100
AcDbEntity
  8
点線
100
AcDbLine
 10
5807.117918910732
 20
6166.598143745136
 30
0.0
 11
6232.117918910732
 21
6166.598143745136
 31
0.0
  0
LINE
  5
3B91
330
18
100
AcDbEntity
  8
点線
100
AcDbLine
 10
5807.117918910732
 20
5866.598143745136
 30
0.0
 11
6382.117918910732
 21
5866.598143745136
 31
0.0
  0
LINE
  5
3B92
102
{ACAD_REACTORS
330
3B8F
102
}
330
18
100
AcDbEntity
  8
OBJECT
100
AcDbLine
 10
6001.117918910732
 20
5810.598143745135
 30
0.0
 11
6613.117918910731
 21
5810.598143745135
 31
0.0
  0
LINE
  5
3B93
102
{ACAD_REACTORS
330
3B8F
102
}
330
18
100
AcDbEntity
  8
OBJECT
100
AcDbLine
 10
6007.117918910732
 20
5816.598143745135
 30
0.0
 11
6607.117918910731
 21
5816.598143745135
 31
0.0
  0
LINE
  5
3B94
330
18
100
AcDbEntity
  8
OBJECT
100
AcDbLine
 10
5807.117918910732
 20
5746.598143745135
 30
0.0
 11
6807.117918910731
 21
5746.598143745135
 31
0.0
  0
LINE
  5
3B95
330
18
100
AcDbEntity
  8
OBJECT
100
AcDbLine
 10
6340.712283774758
 20
5949.409414017083
 30
0.0
 11
6014.733635537979
 21
5949.409414017083
 31
0.0
  0
LINE
  5
3B96
330
18
100
AcDbEntity
  8
OBJECT
100
AcDbLine
 10
6337.407920143478
 20
5956.018141279643
 30
0.0
 11
6014.733635537979
 21
5956.018141279643
 31
0.0
  0
LINE
  5
3B97
330
18
100
AcDbEntity
  8
OBJECT
100
AcDbLine
 10
6276.827920783212
 20
6077.178140000176
 30
0.0
 11
6014.733635537979
 21
6077.178140000176
 31
0.0
  0
LINE
  5
3B98
330
18
100
AcDbEntity
  8
OBJECT
100
AcDbLine
 10
6273.523554046706
 20
6083.786873473187
 30
0.0
 11
6014.733635537979
 21
6083.786873473187
 31
0.0
  0
LINE
  5
3B99
330
18
100
AcDbEntity
  8
OBJECT
100
AcDbLine
 10
6404.617917220353
 20
5821.598147125889
 30
0.0
 11
6012.117918910732
 21
5821.598147125891
 31
0.0
  0
LINE
  5
3B9A
330
18
100
AcDbEntity
  8
OBJECT
100
AcDbLine
 10
6401.292280861835
 20
5828.249419842928
 30
0.0
 11
6014.733635537979
 21
5828.24941984293
 31
0.0
  0
LINE
  5
3B9B
102
{ACAD_REACTORS
330
3B8F
102
}
330
18
100
AcDbEntity
  8
OBJECT
100
AcDbLine
 10
6001.117918910732
 20
6222.598143745136
 30
0.0
 11
6613.117918910731
 21
6222.598143745136
 31
0.0
  0
LINE
  5
3B9C
102
{ACAD_REACTORS
330
3B8F
102
}
330
18
100
AcDbEntity
  8
OBJECT
100
AcDbLine
 10
6007.117918910732
 20
6216.598143745136
 30
0.0
 11
6607.117918910731
 21
6216.598143745136
 31
0.0
  0
LINE
  5
3B9D
330
18
100
AcDbEntity
  8
OBJECT
100
AcDbLine
 10
6807.117918910731
 20
6316.598143745135
 30
0.0
 11
5807.117918910732
 21
6316.598143745135
 31
0.0
  0
LINE
  5
3B9E
330
18
100
AcDbEntity
  8
OBJECT
 48
10.0
100
AcDbLine
 10
6807.117918910731
 20
6646.598134981714
 30
0.0
 11
5807.117918910732
 21
6646.598134981715
 31
0.0
  0
LINE
  5
3B9F
330
18
100
AcDbEntity
  8
OBJECT
 48
10.0
100
AcDbLine
 10
5807.117918910732
 20
6496.598133005186
 30
0.0
 11
6807.117918910731
 21
6496.598133005186
 31
0.0
  0
LINE
  5
3BA0
330
18
100
AcDbEntity
  8
0
 48
10.0
100
AcDbLine
 10
5777.117918910728
 20
6316.598169567651
 30
0.0
 11
5447.117918910728
 21
6316.598169567651
 31
0.0
  0
LINE
  5
3BA1
330
18
100
AcDbEntity
  8
0
 48
10.0
100
AcDbLine
 10
5777.117918910732
 20
5746.598169567608
 30
0.0
 11
5447.117918910731
 21
5746.598169567608
 31
0.0
  0
LINE
  5
3BA2
330
18
100
AcDbEntity
  8
OBJECT
 48
10.0
100
AcDbLine
 10
5477.117918910726
 20
5746.598169567608
 30
0.0
 11
5477.117918910726
 21
6316.59816956763
 31
0.0
  0
SOLID
  5
3BA3
330
18
100
AcDbEntity
  8
0
  6
ByBlock
 62
     0
 48
10.0
100
AcDbTrace
 10
5483.367918910728
 20
5784.098169567629
 30
0.0
 11
5470.867918910728
 21
5784.098169567629
 31
0.0
 12
5477.117918910726
 22
5746.598169567629
 32
0.0
 13
5477.117918910726
 23
5746.598169567629
 33
0.0
  0
MTEXT
  5
3BA4
330
18
100
AcDbEntity
  8
0
  6
ByBlock
 62
     0
 48
10.0
100
AcDbMText
 10
5447.117918910728
 20
6031.598169567651
 30
0.0
 40
37.5
 41
0.0
 71
     5
 72
     1
  1
570
 11
0.0000000000000001
 21
1.0
 31
0.0
 73
     1
 44
1.0
  0
SOLID
  5
3BA5
330
18
100
AcDbEntity
  8
0
  6
ByBlock
 62
     0
 48
10.0
100
AcDbTrace
 10
5483.367918910728
 20
6279.098169567629
 30
0.0
 11
5470.867918910728
 21
6279.098169567629
 31
0.0
 12
5477.117918910726
 22
6316.59816956763
 32
0.0
 13
5477.117918910726
 23
6316.59816956763
 33
0.0
  0
LINE
  5
3BA6
330
18
100
AcDbEntity
  8
OBJECT
100
AcDbLine
 10
6208.296870697022
 20
6083.786866903791
 30
0.0
 11
6208.296870697022
 21
6204.946861077942
 31
0.0
  0
LINE
  5
3BA7
330
18
100
AcDbEntity
  8
OBJECT
100
AcDbLine
 10
6210.912587324272
 20
6083.786866903791
 30
0.0
 11
6210.912587324272
 21
6204.946861077942
 31
0.0
  0
LINE
  5
3BA8
330
18
100
AcDbEntity
  8
OBJECT
100
AcDbLine
 10
6227.914766988566
 20
6083.786866903791
 30
0.0
 11
6227.914766988566
 21
6175.004447589467
 31
0.0
  0
SOLID
  5
3BA9
330
18
100
AcDbEntity
  8
0
  6
ByBlock
 62
     0
 48
10.0
100
AcDbTrace
 10
5633.367918910728
 20
6129.098274728696
 30
0.0
 11
5620.86791891073
 21
6129.098274728696
 31
0.0
 12
5627.117918910727
 22
6166.598274728696
 32
0.0
 13
5627.117918910727
 23
6166.598274728696
 33
0.0
  0
LINE
  5
3BAA
102
{ACAD_REACTORS
330
3B8F
102
}
330
18
100
AcDbEntity
  8
OBJECT
100
AcDbLine
 10
6001.117918910732
 20
5810.598143745135
 30
0.0
 11
6001.117918910732
 21
6222.598143745136
 31
0.0
  0
LINE
  5
3BAB
102
{ACAD_REACTORS
330
3B8F
102
}
330
18
100
AcDbEntity
  8
OBJECT
100
AcDbLine
 10
6007.117918910732
 20
5816.598143745135
 30
0.0
 11
6007.117918910732
 21
6216.598143745136
 31
0.0
  0
LINE
  5
3BAC
330
18
100
AcDbEntity
  8
OBJECT
100
AcDbLine
 10
5807.117918910732
 20
6316.598143745135
 30
0.0
 11
5807.117918910732
 21
5746.598143745135
 31
0.0
  0
LINE
  5
3BAD
330
18
100
AcDbEntity
  8
OBJECT
100
AcDbLine
 10
6073.58731328348
 20
6083.786878019566
 30
0.0
 11
6073.58731328348
 21
6204.946872193719
 31
0.0
  0
LINE
  5
3BAE
330
18
100
AcDbEntity
  8
OBJECT
100
AcDbLine
 10
6070.971596656232
 20
6083.786878019566
 30
0.0
 11
6070.971596656232
 21
6204.946872193719
 31
0.0
  0
LINE
  5
3BAF
330
18
100
AcDbEntity
  8
OBJECT
100
AcDbLine
 10
6053.969416991939
 20
6083.786878019566
 30
0.0
 11
6053.969416991939
 21
6204.946872193719
 31
0.0
  0
LINE
  5
3BB0
330
18
100
AcDbEntity
  8
OBJECT
100
AcDbLine
 10
6188.678974405482
 20
6083.786858061203
 30
0.0
 11
6188.678974405482
 21
6204.946852235356
 31
0.0
  0
LINE
  5
3BB1
330
18
100
AcDbEntity
  8
OBJECT
100
AcDbLine
 10
6112.823105866564
 20
6083.786866903791
 30
0.0
 11
6112.823105866564
 21
6204.946861077942
 31
0.0
  0
LINE
  5
3BB2
330
18
100
AcDbEntity
  8
OBJECT
100
AcDbLine
 10
6110.207389239315
 20
6083.786866903791
 30
0.0
 11
6110.207389239315
 21
6204.946861077942
 31
0.0
  0
LINE
  5
3BB3
330
18
100
AcDbEntity
  8
OBJECT
100
AcDbLine
 10
6129.825285530857
 20
6083.786875746376
 30
0.0
 11
6129.825285530857
 21
6204.946869920529
 31
0.0
  0
LINE
  5
3BB4
330
18
100
AcDbEntity
  8
OBJECT
100
AcDbLine
 10
6132.441002158106
 20
6083.786875746376
 30
0.0
 11
6132.441002158106
 21
6204.946869920529
 31
0.0
  0
LINE
  5
3BB5
330
18
100
AcDbEntity
  8
OBJECT
100
AcDbLine
 10
6171.676794741188
 20
6083.786884588962
 30
0.0
 11
6171.676794741188
 21
6204.946878763117
 31
0.0
  0
LINE
  5
3BB6
330
18
100
AcDbEntity
  8
OBJECT
100
AcDbLine
 10
6169.061078113941
 20
6083.786884588962
 30
0.0
 11
6169.061078113941
 21
6204.946878763117
 31
0.0
  0
LINE
  5
3BB7
330
18
100
AcDbEntity
  8
OBJECT
100
AcDbLine
 10
6149.443181822398
 20
6083.786875746376
 30
0.0
 11
6149.443181822398
 21
6204.946869920529
 31
0.0
  0
LINE
  5
3BB8
330
18
100
AcDbEntity
  8
OBJECT
100
AcDbLine
 10
6152.058898449646
 20
6083.786875746376
 30
0.0
 11
6152.058898449646
 21
6204.946869920529
 31
0.0
  0
LINE
  5
3BB9
330
18
100
AcDbEntity
  8
OBJECT
100
AcDbLine
 10
6090.589492947774
 20
6083.786886862153
 30
0.0
 11
6090.589492947774
 21
6204.946881036307
 31
0.0
  0
LINE
  5
3BBA
330
18
100
AcDbEntity
  8
OBJECT
100
AcDbLine
 10
6093.205209575022
 20
6083.786886862153
 30
0.0
 11
6093.205209575022
 21
6204.946881036307
 31
0.0
  0
LINE
  5
3BBB
330
18
100
AcDbEntity
  8
OBJECT
100
AcDbLine
 10
6051.353700364691
 20
6083.786878019566
 30
0.0
 11
6051.353700364691
 21
6204.946872193719
 31
0.0
  0
LINE
  5
3BBC
330
18
100
AcDbEntity
  8
OBJECT
100
AcDbLine
 10
6031.735804073149
 20
6083.786869176979
 30
0.0
 11
6031.735804073149
 21
6204.946863351133
 31
0.0
  0
LINE
  5
3BBD
330
18
100
AcDbEntity
  8
OBJECT
100
AcDbLine
 10
6034.351520700397
 20
6083.786869176979
 30
0.0
 11
6034.351520700397
 21
6204.946863351133
 31
0.0
  0
LINE
  5
3BBE
330
18
100
AcDbEntity
  8
OBJECT
100
AcDbLine
 10
6191.29469103273
 20
6083.786858061203
 30
0.0
 11
6191.29469103273
 21
6204.946852235356
 31
0.0
  0
LINE
  5
3BBF
330
18
100
AcDbEntity
  8
OBJECT
100
AcDbLine
 10
6014.733635537979
 20
6204.946867647341
 30
0.0
 11
6014.733635537979
 21
5828.249415296552
 31
0.0
  0
LINE
  5
3BC0
330
18
100
AcDbEntity
  8
OBJECT
100
AcDbLine
 10
6012.117918910732
 20
6211.598140364382
 30
0.0
 11
6012.117918910732
 21
5821.598147125891
 31
0.0
  0
LINE
  5
3BC1
330
18
100
AcDbEntity
  8
OBJECT
 48
10.0
100
AcDbLine
 10
5627.11792767415
 20
5746.598169567608
 30
0.0
 11
5627.117927674148
 21
6316.598169567651
 31
0.0
  0
SOLID
  5
3BC2
330
18
100
AcDbEntity
  8
0
  6
ByBlock
 62
     0
 48
10.0
100
AcDbTrace
 10
5633.367910147307
 20
5904.098169567614
 30
0.0
 11
5620.867910147309
 21
5904.098169567614
 31
0.0
 12
5627.117910147305
 22
5866.598169567613
 32
0.0
 13
5627.117910147305
 23
5866.598169567613
 33
0.0
  0
LINE
  5
3BC3
330
18
100
AcDbEntity
  8
0
 48
10.0
100
AcDbLine
 10
5777.117929005923
 20
5866.598169567607
 30
0.0
 11
5597.117929005922
 21
5866.598169567607
 31
0.0
  0
LINE
  5
3BC4
330
18
100
AcDbEntity
  8
0
 48
10.0
100
AcDbLine
 10
5777.117929005926
 20
5866.598169567607
 30
0.0
 11
5597.117929005926
 21
5866.598169567607
 31
0.0
  0
LINE
  5
3BC5
330
18
100
AcDbEntity
  8
0
 48
10.0
100
AcDbLine
 10
5777.117918910735
 20
5816.598169567607
 30
0.0
 11
5597.117918910735
 21
5816.598169567607
 31
0.0
  0
MTEXT
  5
3BC6
330
18
100
AcDbEntity
  8
0
  6
ByBlock
 62
     0
 48
10.0
100
AcDbMText
 10
5597.117927674151
 20
5781.598169567607
 30
0.0
 40
37.5
 41
0.0
 71
     5
 72
     1
  1
70
 11
0.0000000000000001
 21
1.0
 31
0.0
 73
     1
 44
1.0
  0
SOLID
  5
3BC7
330
18
100
AcDbEntity
  8
0
  6
ByBlock
 62
     0
 48
10.0
100
AcDbTrace
 10
5620.867927674154
 20
5709.098157708474
 30
0.0
 11
5633.367927674157
 21
5709.098157708474
 31
0.0
 12
5627.117927674157
 22
5746.598157708475
 32
0.0
 13
5627.117927674157
 23
5746.598157708475
 33
0.0
  0
MTEXT
  5
3BC8
330
18
100
AcDbEntity
  8
0
  6
ByBlock
 62
     0
 48
10.0
100
AcDbMText
 10
5567.117927674151
 20
5841.598169567607
 30
0.0
 40
37.5
 41
0.0
 71
     5
 72
     1
  1
50
 11
0.0000000000000001
 21
1.0
 31
0.0
 73
     1
 44
1.0
  0
LWPOLYLINE
  5
3BC9
330
18
100
AcDbEntity
  8
上線
 48
10.0
100
AcDbPolyline
 90
        2
 70
     1
 43
5.0
 10
5627.139865281959
 20
5819.098169567607
 42
-1.0
 10
5627.139865281959
 20
5814.098169567607
 42
-1.0
  0
MTEXT
  5
3BCA
330
18
100
AcDbEntity
  8
0
  6
ByBlock
 62
     0
 48
10.0
100
AcDbMText
 10
5597.117918910729
 20
6016.598169567651
 30
0.0
 40
37.5
 41
0.0
 71
     5
 72
     1
  1
300
 11
0.0000000000000001
 21
1.0
 31
0.0
 73
     1
 44
1.0
  0
LINE
  5
3BCB
330
18
100
AcDbEntity
  8
OBJECT
100
AcDbLine
 10
6210.912587324272
 20
5949.409420586483
 30
0.0
 11
6210.912587324272
 21
5828.249426412329
 31
0.0
  0
LINE
  5
3BCC
330
18
100
AcDbEntity
  8
OBJECT
100
AcDbLine
 10
6208.296870697022
 20
5949.409420586483
 30
0.0
 11
6208.296870697022
 21
5828.249426412329
 31
0.0
  0
LINE
  5
3BCD
330
18
100
AcDbEntity
  8
OBJECT
100
AcDbLine
 10
6227.914766988566
 20
5949.409420586483
 30
0.0
 11
6227.914766988566
 21
5828.249426412329
 31
0.0
  0
LINE
  5
3BCE
330
18
100
AcDbEntity
  8
OBJECT
100
AcDbLine
 10
6169.061078113941
 20
5949.409402901308
 30
0.0
 11
6169.061078113941
 21
5828.249408727153
 31
0.0
  0
LINE
  5
3BCF
330
18
100
AcDbEntity
  8
OBJECT
100
AcDbLine
 10
6171.676794741188
 20
5949.409402901308
 30
0.0
 11
6171.676794741188
 21
5828.249408727153
 31
0.0
  0
LINE
  5
3BD0
330
18
100
AcDbEntity
  8
OBJECT
100
AcDbLine
 10
6188.678974405482
 20
5949.409429429068
 30
0.0
 11
6188.678974405482
 21
5828.249435254915
 31
0.0
  0
LINE
  5
3BD1
330
18
100
AcDbEntity
  8
OBJECT
100
AcDbLine
 10
6191.29469103273
 20
5949.409429429068
 30
0.0
 11
6191.29469103273
 21
5828.249435254915
 31
0.0
  0
LINE
  5
3BD2
330
18
100
AcDbEntity
  8
OBJECT
100
AcDbLine
 10
6034.351520700397
 20
5949.409418313293
 30
0.0
 11
6034.351520700397
 21
5828.249424139137
 31
0.0
  0
LINE
  5
3BD3
330
18
100
AcDbEntity
  8
OBJECT
100
AcDbLine
 10
6051.353700364691
 20
5949.409409470705
 30
0.0
 11
6051.353700364691
 21
5828.249415296552
 31
0.0
  0
LINE
  5
3BD4
330
18
100
AcDbEntity
  8
OBJECT
100
AcDbLine
 10
6093.205209575022
 20
5949.409400628117
 30
0.0
 11
6093.205209575022
 21
5828.249406453964
 31
0.0
  0
LINE
  5
3BD5
330
18
100
AcDbEntity
  8
OBJECT
100
AcDbLine
 10
6090.589492947774
 20
5949.409400628117
 30
0.0
 11
6090.589492947774
 21
5828.249406453964
 31
0.0
  0
LINE
  5
3BD6
330
18
100
AcDbEntity
  8
OBJECT
100
AcDbLine
 10
6152.058898449646
 20
5949.409411743895
 30
0.0
 11
6152.058898449646
 21
5828.249417569743
 31
0.0
  0
LINE
  5
3BD7
330
18
100
AcDbEntity
  8
OBJECT
100
AcDbLine
 10
6149.443181822398
 20
5949.409411743895
 30
0.0
 11
6149.443181822398
 21
5828.249417569743
 31
0.0
  0
LINE
  5
3BD8
330
18
100
AcDbEntity
  8
OBJECT
100
AcDbLine
 10
6132.441002158106
 20
5949.409411743895
 30
0.0
 11
6132.441002158106
 21
5828.249417569743
 31
0.0
  0
LINE
  5
3BD9
330
18
100
AcDbEntity
  8
OBJECT
100
AcDbLine
 10
6129.825285530857
 20
5949.409411743895
 30
0.0
 11
6129.825285530857
 21
5828.249417569743
 31
0.0
  0
LINE
  5
3BDA
330
18
100
AcDbEntity
  8
OBJECT
100
AcDbLine
 10
6110.207389239315
 20
5949.409420586483
 30
0.0
 11
6110.207389239315
 21
5828.249426412329
 31
0.0
  0
LINE
  5
3BDB
330
18
100
AcDbEntity
  8
OBJECT
100
AcDbLine
 10
6112.823105866564
 20
5949.409420586483
 30
0.0
 11
6112.823105866564
 21
5828.249426412329
 31
0.0
  0
LINE
  5
3BDC
330
18
100
AcDbEntity
  8
OBJECT
100
AcDbLine
 10
6053.969416991939
 20
5949.409409470705
 30
0.0
 11
6053.969416991939
 21
5828.249415296552
 31
0.0
  0
LINE
  5
3BDD
330
18
100
AcDbEntity
  8
OBJECT
100
AcDbLine
 10
6070.971596656232
 20
5949.409409470705
 30
0.0
 11
6070.971596656232
 21
5828.249415296552
 31
0.0
  0
LINE
  5
3BDE
330
18
100
AcDbEntity
  8
OBJECT
100
AcDbLine
 10
6073.58731328348
 20
5949.409409470705
 30
0.0
 11
6073.58731328348
 21
5828.249415296552
 31
0.0
  0
LINE
  5
3BDF
330
18
100
AcDbEntity
  8
OBJECT
100
AcDbLine
 10
6031.735804073149
 20
5949.409418313293
 30
0.0
 11
6031.735804073149
 21
5828.249424139137
 31
0.0
  0
LINE
  5
3BE0
330
18
100
AcDbEntity
  8
OBJECT
100
AcDbLine
 10
6034.351520700397
 20
5956.018136983435
 30
0.0
 11
6034.351520700397
 21
6077.178131157588
 31
0.0
  0
LINE
  5
3BE1
330
18
100
AcDbEntity
  8
OBJECT
100
AcDbLine
 10
6031.735804073149
 20
5956.018136983435
 30
0.0
 11
6031.735804073149
 21
6077.178131157588
 31
0.0
  0
LINE
  5
3BE2
330
18
100
AcDbEntity
  8
OBJECT
100
AcDbLine
 10
6051.353700364691
 20
5956.018145826021
 30
0.0
 11
6051.353700364691
 21
6077.178140000176
 31
0.0
  0
LINE
  5
3BE3
330
18
100
AcDbEntity
  8
OBJECT
100
AcDbLine
 10
6053.969416991939
 20
5956.018145826021
 30
0.0
 11
6053.969416991939
 21
6077.178140000176
 31
0.0
  0
LINE
  5
3BE4
330
18
100
AcDbEntity
  8
OBJECT
100
AcDbLine
 10
6210.912587324272
 20
5956.018134710246
 30
0.0
 11
6210.912587324272
 21
6077.178128884398
 31
0.0
  0
LINE
  5
3BE5
330
18
100
AcDbEntity
  8
OBJECT
100
AcDbLine
 10
6208.296870697022
 20
5956.018134710246
 30
0.0
 11
6208.296870697022
 21
6077.178128884398
 31
0.0
  0
LINE
  5
3BE6
330
18
100
AcDbEntity
  8
OBJECT
100
AcDbLine
 10
6227.914766988566
 20
5956.018134710246
 30
0.0
 11
6227.914766988566
 21
6077.178128884398
 31
0.0
  0
LINE
  5
3BE7
330
18
100
AcDbEntity
  8
OBJECT
100
AcDbLine
 10
6169.061078113941
 20
5956.01815239542
 30
0.0
 11
6169.061078113941
 21
6077.178146569573
 31
0.0
  0
LINE
  5
3BE8
330
18
100
AcDbEntity
  8
OBJECT
100
AcDbLine
 10
6171.676794741188
 20
5956.01815239542
 30
0.0
 11
6171.676794741188
 21
6077.178146569573
 31
0.0
  0
LINE
  5
3BE9
330
18
100
AcDbEntity
  8
OBJECT
100
AcDbLine
 10
6188.678974405482
 20
5956.018125867661
 30
0.0
 11
6188.678974405482
 21
6077.178120041814
 31
0.0
  0
LINE
  5
3BEA
330
18
100
AcDbEntity
  8
OBJECT
100
AcDbLine
 10
6191.29469103273
 20
5956.018125867661
 30
0.0
 11
6191.29469103273
 21
6077.178120041814
 31
0.0
  0
LINE
  5
3BEB
330
18
100
AcDbEntity
  8
OBJECT
100
AcDbLine
 10
6093.205209575022
 20
5956.018154668608
 30
0.0
 11
6093.205209575022
 21
6077.178148842762
 31
0.0
  0
LINE
  5
3BEC
330
18
100
AcDbEntity
  8
OBJECT
100
AcDbLine
 10
6090.589492947774
 20
5956.018154668608
 30
0.0
 11
6090.589492947774
 21
6077.178148842762
 31
0.0
  0
LINE
  5
3BED
330
18
100
AcDbEntity
  8
OBJECT
100
AcDbLine
 10
6070.971596656232
 20
5956.018145826021
 30
0.0
 11
6070.971596656232
 21
6077.178140000176
 31
0.0
  0
LINE
  5
3BEE
330
18
100
AcDbEntity
  8
OBJECT
100
AcDbLine
 10
6073.58731328348
 20
5956.018145826021
 30
0.0
 11
6073.58731328348
 21
6077.178140000176
 31
0.0
  0
LINE
  5
3BEF
330
18
100
AcDbEntity
  8
OBJECT
100
AcDbLine
 10
6152.058898449646
 20
5956.018143552832
 30
0.0
 11
6152.058898449646
 21
6077.178137726985
 31
0.0
  0
LINE
  5
3BF0
330
18
100
AcDbEntity
  8
OBJECT
100
AcDbLine
 10
6149.443181822398
 20
5956.018143552832
 30
0.0
 11
6149.443181822398
 21
6077.178137726985
 31
0.0
  0
LINE
  5
3BF1
330
18
100
AcDbEntity
  8
OBJECT
100
AcDbLine
 10
6132.441002158106
 20
5956.018143552832
 30
0.0
 11
6132.441002158106
 21
6077.178137726985
 31
0.0
  0
LINE
  5
3BF2
330
18
100
AcDbEntity
  8
OBJECT
100
AcDbLine
 10
6129.825285530857
 20
5956.018143552832
 30
0.0
 11
6129.825285530857
 21
6077.178137726985
 31
0.0
  0
LINE
  5
3BF3
330
18
100
AcDbEntity
  8
OBJECT
100
AcDbLine
 10
6110.207389239315
 20
5956.018134710246
 30
0.0
 11
6110.207389239315
 21
6077.178128884398
 31
0.0
  0
LINE
  5
3BF4
330
18
100
AcDbEntity
  8
OBJECT
100
AcDbLine
 10
6112.823105866564
 20
5956.018134710246
 30
0.0
 11
6112.823105866564
 21
6077.178128884398
 31
0.0
  0
MTEXT
  5
3BF5
330
18
100
AcDbEntity
  8
0
  6
ByBlock
 62
     0
 48
10.0
100
AcDbMText
 10
5907.117918910731
 20
6526.598134981715
 30
0.0
 40
37.5
 41
0.0
 71
     5
 72
     1
  1
200
 73
     1
 44
1.0
  0
LINE
  5
3BF6
330
18
100
AcDbEntity
  8
0
 48
10.0
100
AcDbLine
 10
5807.117918910732
 20
6346.598143745135
 30
0.0
 11
5807.117918910732
 21
6676.598143745136
 31
0.0
  0
LINE
  5
3BF7
330
18
100
AcDbEntity
  8
0
 48
10.0
100
AcDbLine
 10
5777.117918910732
 20
6216.598169567651
 30
0.0
 11
5597.117918910732
 21
6216.598169567651
 31
0.0
  0
LINE
  5
3BF8
330
18
100
AcDbEntity
  8
0
 48
10.0
100
AcDbLine
 10
5777.117929005923
 20
6166.598169567651
 30
0.0
 11
5597.117929005922
 21
6166.598169567651
 31
0.0
  0
MTEXT
  5
3BF9
330
18
100
AcDbEntity
  8
0
  6
ByBlock
 62
     0
 48
10.0
100
AcDbMText
 10
5597.117927674148
 20
6266.598169567651
 30
0.0
 40
37.5
 41
0.0
 71
     5
 72
     1
  1
100
 11
0.0000000000000001
 21
1.0
 31
0.0
 73
     1
 44
1.0
  0
SOLID
  5
3BFA
330
18
100
AcDbEntity
  8
0
  6
ByBlock
 62
     0
 48
10.0
100
AcDbTrace
 10
5620.867927674151
 20
6279.098157708518
 30
0.0
 11
5633.367927674154
 21
6279.098157708518
 31
0.0
 12
5627.117927674153
 22
6316.598157708519
 32
0.0
 13
5627.117927674153
 23
6316.598157708519
 33
0.0
  0
SOLID
  5
3BFB
330
18
100
AcDbEntity
  8
0
  6
ByBlock
 62
     0
 48
10.0
100
AcDbTrace
 10
5620.867927674151
 20
6254.098193285948
 30
0.0
 11
5633.367927674154
 21
6254.098193285948
 31
0.0
 12
5627.117927674153
 22
6216.598193285949
 32
0.0
 13
5627.117927674153
 23
6216.598193285949
 33
0.0
  0
MTEXT
  5
3BFC
330
18
100
AcDbEntity
  8
0
  6
ByBlock
 62
     0
 48
10.0
100
AcDbMText
 10
5567.117927674147
 20
6191.598169567651
 30
0.0
 40
37.5
 41
0.0
 71
     5
 72
     1
  1
50
 11
0.0000000000000001
 21
1.0
 31
0.0
 73
     1
 44
1.0
  0
SOLID
  5
3BFD
330
18
100
AcDbEntity
  8
0
  6
ByBlock
 62
     0
 48
10.0
100
AcDbTrace
 10
5844.617930769885
 20
6490.348133005189
 30
0.0
 11
5844.617930769885
 21
6502.848133005189
 31
0.0
 12
5807.117930769885
 22
6496.598133005189
 32
0.0
 13
5807.117930769885
 23
6496.598133005189
 33
0.0
  0
SOLID
  5
3BFE
330
18
100
AcDbEntity
  8
0
  6
ByBlock
 62
     0
 48
10.0
100
AcDbTrace
 10
5844.617918910753
 20
6640.348143745137
 30
0.0
 11
5844.617918910753
 21
6652.848143745138
 31
0.0
 12
5807.117918910753
 22
6646.598143745139
 32
0.0
 13
5807.117918910753
 23
6646.598143745139
 33
0.0
  0
LINE
  5
3BFF
330
18
100
AcDbEntity
  8
0
 48
10.0
100
AcDbLine
 10
6007.117918910732
 20
6346.598143745135
 30
0.0
 11
6007.117918910732
 21
6526.598143745136
 31
0.0
  0
LINE
  5
3C00
330
18
100
AcDbEntity
  8
OBJECT
100
AcDbLine
 10
6212.943556959628
 20
6204.946867647342
 30
0.0
 11
6014.733635537979
 21
6204.946867647341
 31
0.0
  0
LINE
  5
3C01
330
18
100
AcDbEntity
  8
OBJECT
100
AcDbLine
 10
6209.617920601107
 20
6211.598140364382
 30
0.0
 11
6012.117918910732
 21
6211.598140364382
 31
0.0
  0
SOLID
  5
3C02
330
18
100
AcDbEntity
  8
0
  6
ByBlock
 62
     0
 48
10.0
100
AcDbTrace
 10
5969.617918910729
 20
6490.348143745134
 30
0.0
 11
5969.617918910729
 21
6502.848143745133
 31
0.0
 12
6007.117918910729
 22
6496.598143745136
 32
0.0
 13
6007.117918910729
 23
6496.598143745136
 33
0.0
  0
SOLID
  5
3C03
330
18
100
AcDbEntity
  8
0
  6
ByBlock
 62
     0
 48
10.0
100
AcDbTrace
 10
6044.617854471036
 20
6490.348143745134
 30
0.0
 11
6044.617854471036
 21
6502.848143745133
 31
0.0
 12
6007.117854471037
 22
6496.598143745136
 32
0.0
 13
6007.117854471037
 23
6496.598143745136
 33
0.0
  0
MTEXT
  5
3C04
330
18
100
AcDbEntity
  8
0
  6
ByBlock
 62
     0
 48
10.0
100
AcDbMText
 10
6307.117918910732
 20
6676.598143745136
 30
0.0
 40
37.5
 41
0.0
 71
     5
 72
     1
  1
1000
 73
     1
 44
1.0
  0
MTEXT
  5
3C05
330
18
100
AcDbEntity
  8
0
  6
ByBlock
 62
     0
 48
10.0
100
AcDbMText
 10
6894.667731305013
 20
6039.97612674145
 30
0.0
 40
30.0
 41
0.0
 71
     5
 72
     1
  1
受枠
 73
     1
 44
1.0
  0
LINE
  5
3C06
330
18
100
AcDbEntity
  8
OBJECT
 48
10.0
100
AcDbLine
 10
6842.167731305012
 20
6009.976126741451
 30
0.0
 11
6947.167731305012
 21
6009.976126741451
 31
0.0
  0
MTEXT
  5
3C07
330
18
100
AcDbEntity
  8
0
  6
ByBlock
 62
     0
 48
10.0
100
AcDbMText
 10
6959.667731305014
 20
5948.910893876689
 30
0.0
 40
30.0
 41
0.0
 71
     5
 72
     1
  1
グレーチング
 73
     1
 44
1.0
  0
LINE
  5
3C08
330
18
100
AcDbEntity
  8
OBJECT
 48
10.0
100
AcDbLine
 10
6355.961543844955
 20
5918.910893876688
 30
0.0
 11
7087.167731305012
 21
5918.910893876688
 31
0.0
  0
SOLID
  5
3C09
330
18
100
AcDbEntity
  8
0
  6
ByBlock
 62
     0
 48
10.0
100
AcDbTrace
 10
6510.936172335549
 20
6157.482365766665
 30
0.0
 11
6505.984666063297
 21
6146.004884090103
 31
0.0
 12
6474.027974169729
 22
6166.598143745136
 32
0.0
 13
6474.027974169729
 23
6166.598143745136
 33
0.0
  0
LINE
  5
3C0A
330
18
100
AcDbEntity
  8
OBJECT
100
AcDbLine
 10
6230.530483615814
 20
6083.786866903791
 30
0.0
 11
6230.530483615814
 21
6169.773014334971
 31
0.0
  0
LINE
  5
3C0B
102
{ACAD_REACTORS
330
3B8F
102
}
330
18
100
AcDbEntity
  8
OBJECT
100
AcDbLine
 10
6613.117918910731
 20
5810.598143745135
 30
0.0
 11
6613.117918910731
 21
6222.598143745136
 31
0.0
  0
LINE
  5
3C0C
102
{ACAD_REACTORS
330
3B8F
102
}
330
18
100
AcDbEntity
  8
OBJECT
100
AcDbLine
 10
6607.117918910731
 20
5816.598143745135
 30
0.0
 11
6607.117918910731
 21
6216.598143745136
 31
0.0
  0
LINE
  5
3C0D
330
18
100
AcDbEntity
  8
OBJECT
100
AcDbLine
 10
6807.117918910731
 20
5746.598143745135
 30
0.0
 11
6807.117918910731
 21
6316.598143745135
 31
0.0
  0
HATCH
  5
3C0E
330
18
100
AcDbEntity
  8
OBJECT
100
AcDbHatch
 10
0.0
 20
0.0
 30
0.0
210
0.0
220
0.0
230
1.0
  2
AR-SAND
 70
     0
 71
     0
 91
        1
 92
        1
 93
        4
 72
     1
 10
6407.117918910731
 20
5816.598143745135
 11
6607.117918910731
 21
5816.598143745135
 72
     1
 10
6607.117918910731
 20
5816.598143745135
 11
6607.117918910731
 21
5866.598143745136
 72
     1
 10
6607.117918910731
 20
5866.598143745136
 11
6382.117918910732
 21
5866.598143745136
 72
     1
 10
6382.117918910732
 20
5866.598143745136
 11
6407.117918910731
 21
5816.598143745135
 97
        0
 75
     0
 76
     1
 52
90.0
 41
1.0
 77
     0
 78
     4
 53
127.5
 43
10765.72467035066
 44
-151.4353948532425
 45
-48.94132373293423
 46
-1.600031295984042
 79
     6
 49
0.0
 49
-38.608
 49
0.0
 49
-43.18
 49
0.0
 49
-41.275
 53
97.49999999999985
 43
10765.72467035066
 44
-151.4353948532425
 45
-71.68251005683543
 46
44.95232831380027
 79
     6
 49
0.0
 49
-20.82799999999999
 49
0.0
 49
-34.79799999999999
 49
0.0
 49
-13.33499999999999
 53
57.49999999999997
 43
10765.72467035066
 44
-182.6773948532427
 45
-0.1437184678545643
 46
79.09923702414579
 79
     6
 49
0.0
 49
-12.69999999999996
 49
0.0
 49
-45.71999999999987
 49
0.0
 49
-59.68999999999986
 53
47.49999999999999
 43
10765.72467035066
 44
-182.6773948532427
 45
-22.29293232572162
 46
76.35564524722972
 79
     6
 49
0.0
 49
-6.349999999999999
 49
0.0
 49
-29.97199999999999
 49
0.0
 49
-34.29
 98
        1
 10
10765.72467035066
 20
-151.4353948532425
  0
LINE
  5
3C0F
330
18
100
AcDbEntity
  8
OBJECT
100
AcDbLine
 10
6382.117918910732
 20
5866.598143745136
 30
0.0
 11
6607.117918910731
 21
5866.598143745136
 31
0.0
  0
LINE
  5
3C10
330
18
100
AcDbEntity
  8
WUWAGAKI
 48
10.0
100
AcDbLine
 10
6491.281434120084
 20
6159.257801808855
 30
0.0
 11
6842.167731305012
 21
6009.976126741451
 31
0.0
210
0.0
220
0.0
230
-1.0
1001
ACAD
1000
DSTYLE
1002
{
1070
    78
1070
     8
1070
   270
1070
     8
1070
   140
1040
2.5
1070
    74
1070
     0
1070
   172
1070
     1
1070
    73
1070
     0
1070
    77
1070
     1
1070
    40
1040
10.0
1070
   147
1040
0.625
1070
    42
1040
0.625
1070
    44
1040
1.25
1070
    43
1040
3.75
1070
   141
1040
2.5
1070
    41
1040
2.5
1070
   273
1070
     8
1070
   274
1070
     4
1070
   143
1040
0.0394
1070
   171
1070
     4
1002
}
  0
LINE
  5
3C11
330
18
100
AcDbEntity
  8
OBJECT
100
AcDbLine
 10
6348.237861365063
 20
5934.358258836471
 30
0.0
 11
6348.237861365063
 21
5828.249435254915
 31
0.0
  0
LINE
  5
3C12
330
18
100
AcDbEntity
  8
OBJECT
100
AcDbLine
 10
6345.622144737816
 20
5939.589692090967
 30
0.0
 11
6345.622144737816
 21
5828.249435254915
 31
0.0
  0
LINE
  5
3C13
330
18
100
AcDbEntity
  8
OBJECT
100
AcDbLine
 10
6326.004248446274
 20
5949.409414017083
 30
0.0
 11
6326.004248446274
 21
5828.24941984293
 31
0.0
  0
LINE
  5
3C14
330
18
100
AcDbEntity
  8
OBJECT
100
AcDbLine
 10
6306.386352154731
 20
5949.409422859671
 30
0.0
 11
6306.386352154731
 21
5828.24942868552
 31
0.0
  0
LINE
  5
3C15
330
18
100
AcDbEntity
  8
OBJECT
100
AcDbLine
 10
6309.002068781982
 20
5949.409422859671
 30
0.0
 11
6309.002068781982
 21
5828.24942868552
 31
0.0
  0
LINE
  5
3C16
330
18
100
AcDbEntity
  8
OBJECT
100
AcDbLine
 10
6328.619965073522
 20
5949.409414017083
 30
0.0
 11
6328.619965073522
 21
5828.24941984293
 31
0.0
  0
LINE
  5
3C17
330
18
100
AcDbEntity
  8
OBJECT
100
AcDbLine
 10
6230.530483615814
 20
5949.409420586483
 30
0.0
 11
6230.530483615814
 21
5828.249426412329
 31
0.0
  0
LINE
  5
3C18
330
18
100
AcDbEntity
  8
OBJECT
100
AcDbLine
 10
6247.532663280106
 20
5949.409411743895
 30
0.0
 11
6247.532663280106
 21
5828.249417569743
 31
0.0
  0
LINE
  5
3C19
330
18
100
AcDbEntity
  8
OBJECT
100
AcDbLine
 10
6250.148379907356
 20
5949.409411743895
 30
0.0
 11
6250.148379907356
 21
5828.249417569743
 31
0.0
  0
LINE
  5
3C1A
330
18
100
AcDbEntity
  8
OBJECT
100
AcDbLine
 10
6286.76845586319
 20
5949.409422859671
 30
0.0
 11
6286.76845586319
 21
5828.24942868552
 31
0.0
  0
LINE
  5
3C1B
330
18
100
AcDbEntity
  8
OBJECT
100
AcDbLine
 10
6289.384172490439
 20
5949.409422859671
 30
0.0
 11
6289.384172490439
 21
5828.24942868552
 31
0.0
  0
LINE
  5
3C1C
330
18
100
AcDbEntity
  8
OBJECT
100
AcDbLine
 10
6269.766276198898
 20
5949.409431702257
 30
0.0
 11
6269.766276198898
 21
5828.249437528103
 31
0.0
  0
LINE
  5
3C1D
330
18
100
AcDbEntity
  8
OBJECT
100
AcDbLine
 10
6267.150559571648
 20
5949.409431702257
 30
0.0
 11
6267.150559571648
 21
5828.249437528103
 31
0.0
  0
LINE
  5
3C1E
330
18
100
AcDbEntity
  8
OBJECT
100
AcDbLine
 10
6387.473653948148
 20
5855.886673670304
 30
0.0
 11
6387.473653948148
 21
5828.249426412329
 31
0.0
  0
LINE
  5
3C1F
330
18
100
AcDbEntity
  8
OBJECT
100
AcDbLine
 10
6384.857937320898
 20
5861.118106924801
 30
0.0
 11
6384.857937320898
 21
5828.249426412329
 31
0.0
  0
LINE
  5
3C20
330
18
100
AcDbEntity
  8
OBJECT
100
AcDbLine
 10
6367.855757656606
 20
5895.122466253388
 30
0.0
 11
6367.855757656606
 21
5828.249426412329
 31
0.0
  0
LINE
  5
3C21
330
18
100
AcDbEntity
  8
OBJECT
100
AcDbLine
 10
6365.240041029358
 20
5900.353899507884
 30
0.0
 11
6365.240041029358
 21
5828.249426412329
 31
0.0
  0
LINE
  5
3C22
330
18
100
AcDbEntity
  8
OBJECT
100
AcDbLine
 10
6289.384172490439
 20
5956.018132437055
 30
0.0
 11
6289.384172490439
 21
6052.065636585719
 31
0.0
  0
LINE
  5
3C23
330
18
100
AcDbEntity
  8
OBJECT
100
AcDbLine
 10
6286.76845586319
 20
5956.018132437055
 30
0.0
 11
6286.76845586319
 21
6057.297069840219
 31
0.0
  0
LINE
  5
3C24
330
18
100
AcDbEntity
  8
OBJECT
100
AcDbLine
 10
6230.530483615814
 20
5956.018134710246
 30
0.0
 11
6230.530483615814
 21
6077.178128884398
 31
0.0
  0
LINE
  5
3C25
330
18
100
AcDbEntity
  8
OBJECT
100
AcDbLine
 10
6247.532663280106
 20
5956.018143552832
 30
0.0
 11
6247.532663280106
 21
6077.178137726985
 31
0.0
  0
LINE
  5
3C26
330
18
100
AcDbEntity
  8
OBJECT
100
AcDbLine
 10
6250.148379907356
 20
5956.018143552832
 30
0.0
 11
6250.148379907356
 21
6077.178137726985
 31
0.0
  0
LINE
  5
3C27
330
18
100
AcDbEntity
  8
OBJECT
100
AcDbLine
 10
6269.766276198898
 20
5956.01812359447
 30
0.0
 11
6269.766276198898
 21
6077.178117768623
 31
0.0
  0
LINE
  5
3C28
330
18
100
AcDbEntity
  8
OBJECT
100
AcDbLine
 10
6267.150559571648
 20
5956.01812359447
 30
0.0
 11
6267.150559571648
 21
6077.178117768623
 31
0.0
  0
LINE
  5
3C29
330
18
100
AcDbEntity
  8
OBJECT
100
AcDbLine
 10
6309.002068781982
 20
5956.018132437055
 30
0.0
 11
6309.002068781982
 21
6012.829844002635
 31
0.0
  0
LINE
  5
3C2A
330
18
100
AcDbEntity
  8
OBJECT
100
AcDbLine
 10
6306.386352154731
 20
5956.018132437055
 30
0.0
 11
6306.386352154731
 21
6018.061277257135
 31
0.0
  0
LINE
  5
3C2B
330
18
100
AcDbEntity
  8
OBJECT
100
AcDbLine
 10
6328.619965073522
 20
5956.018141279643
 30
0.0
 11
6328.619965073522
 21
5973.594051419553
 31
0.0
  0
LINE
  5
3C2C
330
18
100
AcDbEntity
  8
OBJECT
100
AcDbLine
 10
6326.004248446274
 20
5956.018141279643
 30
0.0
 11
6326.004248446274
 21
5978.825484674051
 31
0.0
  0
SOLID
  5
3C2D
330
18
100
AcDbEntity
  8
0
  6
ByBlock
 62
     0
 48
10.0
100
AcDbTrace
 10
6392.885091901439
 20
5924.882885108525
 30
0.0
 11
6392.825118034023
 21
5912.383028983945
 31
0.0
 12
6355.355536593986
 22
5918.812878648475
 32
0.0
 13
6355.355536593986
 23
5918.812878648475
 33
0.0
  0
LINE
  5
3C2E
330
18
100
AcDbEntity
  8
OBJECT
100
AcDbLine
 10
6269.766276198898
 20
6083.786855788014
 30
0.0
 11
6269.766276198898
 21
6091.301429168804
 31
0.0
  0
LINE
  5
3C2F
330
18
100
AcDbEntity
  8
OBJECT
100
AcDbLine
 10
6267.150559571648
 20
6083.786855788014
 30
0.0
 11
6267.150559571648
 21
6096.532862423301
 31
0.0
  0
LINE
  5
3C30
330
18
100
AcDbEntity
  8
OBJECT
100
AcDbLine
 10
6250.148379907356
 20
6083.786875746376
 30
0.0
 11
6250.148379907356
 21
6130.537221751887
 31
0.0
  0
LINE
  5
3C31
330
18
100
AcDbEntity
  8
OBJECT
100
AcDbLine
 10
6247.532663280106
 20
6083.786875746376
 30
0.0
 11
6247.532663280106
 21
6135.768655006384
 31
0.0
  0
LINE
  5
3C32
330
18
100
AcDbEntity
  8
点線
100
AcDbLine
 10
6607.117918910731
 20
5866.598143745136
 30
0.0
 11
6807.117918910731
 21
5866.598143745136
 31
0.0
  0
LINE
  5
3C33
330
18
100
AcDbEntity
  8
OBJECT
100
AcDbLine
 10
6607.117918910731
 20
5816.598143745135
 30
0.0
 11
6607.117918910731
 21
5866.598143745136
 31
0.0
  0
SOLID
  5
3C34
330
18
100
AcDbEntity
  8
0
  6
ByBlock
 62
     0
 48
10.0
100
AcDbTrace
 10
6569.617983350426
 20
6490.348143745134
 30
0.0
 11
6569.617983350426
 21
6502.848143745133
 31
0.0
 12
6607.117983350426
 22
6496.598143745136
 32
0.0
 13
6607.117983350426
 23
6496.598143745136
 33
0.0
  0
LINE
  5
3C35
330
18
100
AcDbEntity
  8
OBJECT
100
AcDbLine
 10
6232.117918910732
 20
6166.598143745136
 30
0.0
 11
6607.117918910731
 21
6166.598143745136
 31
0.0
  0
HATCH
  5
3C36
330
18
100
AcDbEntity
  8
OBJECT
100
AcDbHatch
 10
0.0
 20
0.0
 30
0.0
210
0.0
220
0.0
230
1.0
  2
AR-SAND
 70
     0
 71
     0
 91
        1
 92
        1
 93
        4
 72
     1
 10
6207.117918910732
 20
6216.598143745136
 11
6607.117918910731
 21
6216.598143745136
 72
     1
 10
6607.117918910731
 20
6216.598143745136
 11
6607.117918910731
 21
6166.598143745136
 72
     1
 10
6607.117918910731
 20
6166.598143745136
 11
6232.117918910732
 21
6166.598143745136
 72
     1
 10
6232.117918910732
 20
6166.598143745136
 11
6207.117918910732
 21
6216.598143745136
 97
        0
 75
     0
 76
     1
 52
90.0
 41
1.0
 77
     0
 78
     4
 53
127.5
 43
10765.72467035066
 44
-151.4353948532425
 45
-48.94132373293423
 46
-1.600031295984042
 79
     6
 49
0.0
 49
-38.608
 49
0.0
 49
-43.18
 49
0.0
 49
-41.275
 53
97.49999999999985
 43
10765.72467035066
 44
-151.4353948532425
 45
-71.68251005683543
 46
44.95232831380027
 79
     6
 49
0.0
 49
-20.82799999999999
 49
0.0
 49
-34.79799999999999
 49
0.0
 49
-13.33499999999999
 53
57.49999999999997
 43
10765.72467035066
 44
-182.6773948532427
 45
-0.1437184678545643
 46
79.09923702414579
 79
     6
 49
0.0
 49
-12.69999999999996
 49
0.0
 49
-45.71999999999987
 49
0.0
 49
-59.68999999999986
 53
47.49999999999999
 43
10765.72467035066
 44
-182.6773948532427
 45
-22.29293232572162
 46
76.35564524722972
 79
     6
 49
0.0
 49
-6.349999999999999
 49
0.0
 49
-29.97199999999999
 49
0.0
 49
-34.29
 98
        1
 10
10765.72467035066
 20
-151.4353948532425
  0
MTEXT
  5
3C37
330
18
100
AcDbEntity
  8
0
  6
ByBlock
 62
     0
 48
10.0
100
AcDbMText
 10
6307.117918910732
 20
6526.598143745136
 30
0.0
 40
37.5
 41
0.0
 71
     5
 72
     1
  1
600
 73
     1
 44
1.0
  0
LINE
  5
3C38
330
18
100
AcDbEntity
  8
0
 48
10.0
100
AcDbLine
 10
6807.117918910731
 20
6346.598143745135
 30
0.0
 11
6807.117918910731
 21
6676.598143745136
 31
0.0
  0
LINE
  5
3C39
330
18
100
AcDbEntity
  8
0
 48
10.0
100
AcDbLine
 10
6607.117918910731
 20
6346.598143745135
 30
0.0
 11
6607.117918910731
 21
6526.598143745136
 31
0.0
  0
LINE
  5
3C3A
330
18
100
AcDbEntity
  8
点線
100
AcDbLine
 10
6607.117918910731
 20
6166.598143745136
 30
0.0
 11
6807.117918910731
 21
6166.598143745136
 31
0.0
  0
MTEXT
  5
3C3B
330
18
100
AcDbEntity
  8
0
  6
ByBlock
 62
     0
 48
10.0
100
AcDbMText
 10
6707.117918910731
 20
6526.598134981715
 30
0.0
 40
37.5
 41
0.0
 71
     5
 72
     1
  1
200
 73
     1
 44
1.0
  0
SOLID
  5
3C3C
330
18
100
AcDbEntity
  8
0
  6
ByBlock
 62
     0
 48
10.0
100
AcDbTrace
 10
6644.617918910734
 20
6490.348143745134
 30
0.0
 11
6644.617918910734
 21
6502.848143745133
 31
0.0
 12
6607.117918910734
 22
6496.598143745136
 32
0.0
 13
6607.117918910734
 23
6496.598143745136
 33
0.0
  0
SOLID
  5
3C3D
330
18
100
AcDbEntity
  8
0
  6
ByBlock
 62
     0
 48
10.0
100
AcDbTrace
 10
6769.617907051577
 20
6490.348133005189
 30
0.0
 11
6769.617907051577
 21
6502.848133005189
 31
0.0
 12
6807.117907051576
 22
6496.598133005189
 32
0.0
 13
6807.117907051576
 23
6496.598133005189
 33
0.0
  0
SOLID
  5
3C3E
330
18
100
AcDbEntity
  8
0
  6
ByBlock
 62
     0
 48
10.0
100
AcDbTrace
 10
6769.61791891071
 20
6640.348143745137
 30
0.0
 11
6769.61791891071
 21
6652.848143745138
 31
0.0
 12
6807.11791891071
 22
6646.598143745139
 32
0.0
 13
6807.11791891071
 23
6646.598143745139
 33
0.0
  0
SOLID
  5
3C3F
330
18
100
AcDbEntity
  8
0
  6
ByBlock
 62
     0
 48
10.0
100
AcDbTrace
 10
7144.617944733226
 20
5770.348143745138
 30
0.0
 11
7144.617944733226
 21
5782.848143745138
 31
0.0
 12
7107.117944733225
 22
5776.59814374514
 32
0.0
 13
7107.117944733225
 23
5776.59814374514
 33
0.0
  0
MTEXT
  5
3C40
330
18
100
AcDbEntity
  8
0
  6
ByBlock
 62
     0
 48
10.0
100
AcDbMText
 10
7202.117944733203
 20
5686.598134981716
 30
0.0
 40
37.5
 41
0.0
 71
     5
 72
     1
  1
50
 73
     1
 44
1.0
  0
MTEXT
  5
3C41
330
18
100
AcDbEntity
  8
0
  6
ByBlock
 62
     0
 48
10.0
100
AcDbMText
 10
7392.117944733247
 20
5806.598143745139
 30
0.0
 40
37.5
 41
0.0
 71
     5
 72
     1
  1
570
 73
     1
 44
1.0
  0
MTEXT
  5
3C42
330
18
100
AcDbEntity
  8
0
  6
ByBlock
 62
     0
 48
10.0
100
AcDbMText
 10
7552.117944733247
 20
5686.59813498172
 30
0.0
 40
37.5
 41
0.0
 71
     5
 72
     1
  1
50
 73
     1
 44
1.0
  0
LINE
  5
3C43
330
18
100
AcDbEntity
  8
WUWAGAKI
100
AcDbLine
 10
9282.502981687652
 20
3967.538240598816
 30
0.0
 11
9282.502981687652
 21
6893.688092394938
 31
0.0
  0
LINE
  5
3C44
330
18
100
AcDbEntity
  8
0
 48
10.0
100
AcDbLine
 10
7677.117944733247
 20
5476.598143745139
 30
0.0
 11
7677.117944733247
 21
5806.598143745139
 31
0.0
  0
TEXT
  5
3C45
330
18
100
AcDbEntity
  8
WUWAGAKI
100
AcDbText
 10
8409.656268710612
 20
4290.00529631212
 30
0.0
 40
38.2725
  1
300×U700×1000×120/150×H
100
AcDbText
  0
LINE
  5
3C46
330
18
100
AcDbEntity
  8
WUWAGAKI
100
AcDbLine
 10
8123.203393779274
 20
4167.06647059583
 30
0.0
 11
9215.999968879694
 21
4167.06647059583
 31
0.0
  0
LINE
  5
3C47
330
18
100
AcDbEntity
  8
WUWAGAKI
100
AcDbLine
 10
8123.203393779274
 20
4265.581534760435
 30
0.0
 11
9215.999968879694
 21
4265.581534760435
 31
0.0
  0
LINE
  5
3C48
330
18
100
AcDbEntity
  8
WUWAGAKI
100
AcDbLine
 10
8123.203393779274
 20
4036.037775040618
 30
0.0
 11
9215.999968879696
 21
4036.037775040618
 31
0.0
  0
LINE
  5
3C49
330
18
100
AcDbEntity
  8
WUWAGAKI
100
AcDbLine
 10
8123.203393779274
 20
4361.48791972505
 30
0.0
 11
9213.368146543933
 21
4361.48791972505
 31
0.0
  0
LINE
  5
3C4A
330
18
100
AcDbEntity
  8
WUWAGAKI
100
AcDbLine
 10
8123.203393779274
 20
4361.48791972505
 30
0.0
 11
9213.368146543933
 21
4361.48791972505
 31
0.0
  0
LINE
  5
3C4B
330
18
100
AcDbEntity
  8
WUWAGAKI
100
AcDbLine
 10
8123.203393779274
 20
4456.018207670187
 30
0.0
 11
9215.999968879696
 21
4456.018207670187
 31
0.0
  0
TEXT
  5
3C4D
330
18
100
AcDbEntity
  8
WUWAGAKI
100
AcDbText
 10
8168.081837541555
 20
4286.634966905584
 30
0.0
 40
45.0
  1
寸　法
100
AcDbText
  0
TEXT
  5
3C4E
330
18
100
AcDbEntity
  8
WUWAGAKI
100
AcDbText
 10
8170.737049427975
 20
4387.773806942566
 30
0.0
 40
45.0
  1
種　別
100
AcDbText
  0
TEXT
  5
3C4F
330
18
100
AcDbEntity
  8
WUWAGAKI
100
AcDbText
 10
8195.729595302635
 20
4190.137013914103
 30
0.0
 40
45.0
  1
縮尺
100
AcDbText
  0
LINE
  5
3C50
330
18
100
AcDbEntity
  8
WUWAGAKI
100
AcDbLine
 10
8123.203393779274
 20
4456.018207670187
 30
0.0
 11
8123.203393779274
 21
4036.037775040618
 31
0.0
  0
TEXT
  5
3C51
330
18
100
AcDbEntity
  8
WUWAGAKI
100
AcDbText
 10
8361.908826678748
 20
4067.645341847004
 30
0.0
 40
60.0
  1
㈱　ウ　チ　コ　ン
100
AcDbText
  0
TEXT
  5
3C52
330
18
100
AcDbEntity
  8
WUWAGAKI
100
AcDbText
 10
8409.656268710612
 20
4191.43892934356
 30
0.0
 40
45.0
  1
S＝　1：15
100
AcDbText
  0
LINE
  5
3C53
330
18
100
AcDbEntity
  8
WUWAGAKI
100
AcDbLine
 10
8375.319865347782
 20
4456.018207670187
 30
0.0
 11
8375.319865347782
 21
4167.06647059583
 31
0.0
  0
TEXT
  5
3C54
330
18
100
AcDbEntity
  8
WUWAGAKI
100
AcDbText
 10
8409.656268710612
 20
4385.194646746506
 30
0.0
 40
45.0
  1
集水桝
100
AcDbText
  0
TEXT
  5
3C55
330
18
100
AcDbEntity
  8
WUWAGAKI
100
AcDbText
 10
8796.417127283836
 20
4191.488366855101
 30
0.0
 40
45.0
  1
重量
100
AcDbText
  0
LINE
  5
3C56
330
18
100
AcDbEntity
  8
WUWAGAKI
100
AcDbLine
 10
8769.48935153169
 20
4265.581534760435
 30
0.0
 11
8769.48935153169
 21
4167.06647059583
 31
0.0
  0
LINE
  5
3C57
330
18
100
AcDbEntity
  8
WUWAGAKI
100
AcDbLine
 10
8953.717778294009
 20
4265.581534760435
 30
0.0
 11
8953.717778294009
 21
4167.06647059583
 31
0.0
  0
SOLID
  5
3C58
330
18
100
AcDbEntity
  8
0
  6
ByBlock
 62
     0
 48
10.0
100
AcDbTrace
 10
7639.617932874114
 20
5632.848134981714
 30
0.0
 11
7639.617932874114
 21
5620.348134981713
 31
0.0
 12
7677.117932874114
 22
5626.598134981713
 32
0.0
 13
7677.117932874114
 23
5626.598134981713
 33
0.0
  0
LINE
  5
3C59
330
18
100
AcDbEntity
  8
WUWAGAKI
100
AcDbLine
 10
9215.999968879696
 20
4036.037775040618
 30
0.0
 11
9215.999968879696
 21
4456.018207670187
 31
0.0
  0
SOLID
  5
3C6C
330
18
100
AcDbEntity
  8
0
  6
ByBlock
 62
     0
 48
10.0
100
AcDbTrace
 10
7639.617944733226
 20
5770.348143745138
 30
0.0
 11
7639.617944733226
 21
5782.848143745138
 31
0.0
 12
7677.117944733225
 22
5776.59814374514
 32
0.0
 13
7677.117944733225
 23
5776.59814374514
 33
0.0
  0
VIEWPORT
  5
298
330
15
100
AcDbEntity
 67
     1
  8
0
100
AcDbViewport
 10
291.7632241813602
 20
148.5
 30
0.0
 40
583.5264483627204
 41
297.0
 68
     1
 69
     1
 12
291.7632241813602
 22
148.5
 13
0.0
 23
0.0
 14
10.0
 24
10.0
 15
10.0
 25
10.0
 16
0.0
 26
0.0
 36
1.0
 17
0.0
 27
0.0
 37
0.0
 42
50.0
 43
0.0
 44
0.0
 45
297.0
 50
0.0
 51
0.0
 72
   100
 90
    32800
  1

281
     0
 71
     1
 74
     0
110
0.0
120
0.0
130
0.0
111
1.0
121
0.0
131
0.0
112
0.0
122
1.0
132
0.0
 79
     0
146
0.0
  0
ENDSEC
  0
SECTION
  2
OBJECTS
  0
DICTIONARY
  5
C
330
0
100
AcDbDictionary
281
     1
  3
ACAD_GROUP
350
D
  3
ACAD_LAYOUT
350
15FE
  3
ACAD_MLINESTYLE
350
1B
  3
ACAD_PLOTSETTINGS
350
15FF
  3
ACAD_PLOTSTYLENAME
350
15FC
  3
ACDBVARIABLEDICTIONARY
350
B2A
  3
DRAWINGVARIABLESDICT
350
1212
  0
DICTIONARY
  5
D
102
{ACAD_REACTORS
330
C
102
}
330
C
100
AcDbDictionary
281
     1
  3
*A1
350
1DE1
  3
*A2
350
2483
  3
*A3
350
2486
  3
*A4
350
2971
  3
*A5
350
3003
  3
*A6
350
34F4
  0
DICTIONARY
  5
15FE
102
{ACAD_REACTORS
330
C
102
}
330
C
100
AcDbDictionary
281
     1
  3
Model
350
1600
  3
ﾚｲｱｳﾄ1
350
1601
  0
DICTIONARY
  5
1B
102
{ACAD_REACTORS
330
C
102
}
330
C
100
AcDbDictionary
281
     1
  3
STANDARD
350
1C
  0
DICTIONARY
  5
15FF
102
{ACAD_REACTORS
330
C
102
}
330
C
100
AcDbDictionary
281
     1
  0
ACDBDICTIONARYWDFLT
  5
15FC
102
{ACAD_REACTORS
330
C
102
}
330
C
100
AcDbDictionary
281
     1
  3
Normal
350
15FD
100
AcDbDictionaryWithDefault
340
15FD
  0
DICTIONARY
  5
B2A
102
{ACAD_REACTORS
330
C
102
}
330
C
100
AcDbDictionary
281
     1
  3
SORTENTS
350
B2B
  0
DICTIONARY
  5
1212
102
{ACAD_REACTORS
330
C
102
}
330
C
100
AcDbDictionary
281
     1
1001
DRAWINGVARIABLESXDATA
1000
POLARANG
1000
0.785398
1000
POLARMODE
1000
0
  0
GROUP
  5
1DE1
102
{ACAD_REACTORS
330
D
102
}
330
D
100
AcDbGroup
300

 70
     1
 71
     1
  0
GROUP
  5
2483
102
{ACAD_REACTORS
330
D
102
}
330
D
100
AcDbGroup
300

 70
     1
 71
     1
  0
GROUP
  5
2486
102
{ACAD_REACTORS
330
D
102
}
330
D
100
AcDbGroup
300

 70
     1
 71
     1
  0
GROUP
  5
2971
102
{ACAD_REACTORS
330
D
102
}
330
D
100
AcDbGroup
300

 70
     1
 71
     1
  0
GROUP
  5
3003
102
{ACAD_REACTORS
330
D
102
}
330
D
100
AcDbGroup
300

 70
     1
 71
     1
  0
GROUP
  5
34F4
102
{ACAD_REACTORS
330
D
102
}
330
D
100
AcDbGroup
300

 70
     1
 71
     1
  0
LAYOUT
  5
1600
102
{ACAD_REACTORS
330
15FE
102
}
330
15FE
100
AcDbPlotSettings
  1

  2
Canon LBP3800 LIPSLX
  4
A4
  6

 40
5.873749732971191
 41
5.873747825622558
 42
5.873748779296875
 43
5.873748779296875
 44
209.9733276367187
 45
296.9259948730469
 46
0.0
 47
0.0
 48
0.0
 49
0.0
140
0.0
141
0.0
142
1.0
143
1.0
 70
 11952
 72
     1
 73
     1
 74
     0
  7

 75
     0
147
1.0
148
-1119.838883806218
149
-2764.341960111367
100
AcDbLayout
  1
Model
 70
     1
 71
     0
 10
0.0
 20
0.0
 11
12.0
 21
9.0
 12
0.0
 22
0.0
 32
0.0
 14
0.0
 24
0.0
 34
0.0
 15
0.0
 25
0.0
 35
0.0
146
0.0
 13
0.0
 23
0.0
 33
0.0
 16
1.0
 26
0.0
 36
0.0
 17
0.0
 27
1.0
 37
0.0
 76
     0
330
18
  0
LAYOUT
  5
1601
102
{ACAD_REACTORS
330
15FE
102
}
330
15FE
100
AcDbPlotSettings
  1

  2
Canon LBP3800 LIPSLX
  4

  6

 40
0.0
 41
0.0
 42
0.0
 43
0.0
 44
0.0
 45
0.0
 46
0.0
 47
0.0
 48
0.0
 49
0.0
140
0.0
141
0.0
142
1.0
143
1.0
 70
   688
 72
     0
 73
     0
 74
     5
  7

 75
    16
147
1.0
148
0.0
149
0.0
100
AcDbLayout
  1
ﾚｲｱｳﾄ1
 70
     1
 71
     1
 10
0.0
 20
0.0
 11
420.0
 21
297.0
 12
0.0
 22
0.0
 32
0.0
 14
1.000000000000000E+20
 24
1.000000000000000E+20
 34
1.000000000000000E+20
 15
-1.000000000000000E+20
 25
-1.000000000000000E+20
 35
-1.000000000000000E+20
146
0.0
 13
0.0
 23
0.0
 33
0.0
 16
1.0
 26
0.0
 36
0.0
 17
0.0
 27
1.0
 37
0.0
 76
     0
330
15
331
298
  0
MLINESTYLE
  5
1C
102
{ACAD_REACTORS
330
1B
102
}
330
1B
100
AcDbMlineStyle
  2
STANDARD
 70
     0
  3

 62
   256
 51
90.0
 52
90.0
 71
     2
 49
0.5
 62
   256
  6
BYLAYER
 49
-0.5
 62
   256
  6
BYLAYER
  0
ACDBPLACEHOLDER
  5
15FD
102
{ACAD_REACTORS
330
15FC
102
}
330
15FC
  0
DICTIONARYVAR
  5
B2B
102
{ACAD_REACTORS
330
B2A
102
}
330
B2A
100
DictionaryVariables
280
     0
  1
96
  0
ENDSEC
  0
EOF
