  0
SECTION
  2
HEADER
  9
$ACADVER
  1
AC1015
  9
$ACADMAINTVER
 70
     6
  9
$DWGCODEPAGE
  3
ANSI_932
  9
$INSBASE
 10
0.0
 20
0.0
 30
0.0
  9
$EXTMIN
 10
710.0813698183028
 20
984.8549298695507
 30
0.0
  9
$EXTMAX
 10
8884.253193875442
 20
6687.028964014011
 30
0.0
  9
$LIMMIN
 10
0.0
 20
0.0
  9
$LIMMAX
 10
4455.0
 20
3150.0
  9
$ORTHOMODE
 70
     0
  9
$REGENMODE
 70
     1
  9
$FILLMODE
 70
     1
  9
$QTEXTMODE
 70
     0
  9
$MIRRTEXT
 70
     1
  9
$LTSCALE
 40
5.0
  9
$ATTMODE
 70
     1
  9
$TEXTSIZE
 40
2.5
  9
$TRACEWID
 40
1.0
  9
$TEXTSTYLE
  7
STANDARD
  9
$CLAYER
  8
OBJECT
  9
$CELTYPE
  6
BYLAYER
  9
$CECOLOR
 62
   256
  9
$CELTSCALE
 40
1.0
  9
$DISPSILH
 70
     0
  9
$DIMSCALE
 40
15.0
  9
$DIMASZ
 40
2.5
  9
$DIMEXO
 40
0.625
  9
$DIMDLI
 40
3.75
  9
$DIMRND
 40
0.0
  9
$DIMDLE
 40
0.0
  9
$DIMEXE
 40
1.25
  9
$DIMTP
 40
0.0
  9
$DIMTM
 40
0.0
  9
$DIMTXT
 40
2.5
  9
$DIMCEN
 40
2.5
  9
$DIMTSZ
 40
0.0
  9
$DIMTOL
 70
     0
  9
$DIMLIM
 70
     0
  9
$DIMTIH
 70
     0
  9
$DIMTOH
 70
     0
  9
$DIMSE1
 70
     0
  9
$DIMSE2
 70
     0
  9
$DIMTAD
 70
     1
  9
$DIMZIN
 70
     8
  9
$DIMBLK
  1

  9
$DIMASO
 70
     1
  9
$DIMSHO
 70
     1
  9
$DIMPOST
  1

  9
$DIMAPOST
  1

  9
$DIMALT
 70
     0
  9
$DIMALTD
 70
     4
  9
$DIMALTF
 40
0.0394
  9
$DIMLFAC
 40
1.0
  9
$DIMTOFL
 70
     1
  9
$DIMTVP
 40
0.0
  9
$DIMTIX
 70
     0
  9
$DIMSOXD
 70
     0
  9
$DIMSAH
 70
     0
  9
$DIMBLK1
  1

  9
$DIMBLK2
  1

  9
$DIMSTYLE
  2
STANDARD
  9
$DIMCLRD
 70
     0
  9
$DIMCLRE
 70
     0
  9
$DIMCLRT
 70
     0
  9
$DIMTFAC
 40
1.0
  9
$DIMGAP
 40
0.625
  9
$DIMJUST
 70
     0
  9
$DIMSD1
 70
     0
  9
$DIMSD2
 70
     0
  9
$DIMTOLJ
 70
     1
  9
$DIMTZIN
 70
     0
  9
$DIMALTZ
 70
     0
  9
$DIMALTTZ
 70
     0
  9
$DIMUPT
 70
     0
  9
$DIMDEC
 70
     4
  9
$DIMTDEC
 70
     4
  9
$DIMALTU
 70
     8
  9
$DIMALTTD
 70
     4
  9
$DIMTXSTY
  7
STANDARD
  9
$DIMAUNIT
 70
     0
  9
$DIMADEC
 70
     0
  9
$DIMALTRND
 40
0.0
  9
$DIMAZIN
 70
     0
  9
$DIMDSEP
 70
    46
  9
$DIMATFIT
 70
     3
  9
$DIMFRAC
 70
     0
  9
$DIMLDRBLK
  1

  9
$DIMLUNIT
 70
     6
  9
$DIMLWD
 70
    -2
  9
$DIMLWE
 70
    -2
  9
$DIMTMOVE
 70
     0
  9
$LUNITS
 70
     2
  9
$LUPREC
 70
     4
  9
$SKETCHINC
 40
1.0
  9
$FILLETRAD
 40
10.0
  9
$AUNITS
 70
     0
  9
$AUPREC
 70
     0
  9
$MENU
  1
acad
  9
$ELEVATION
 40
0.0
  9
$PELEVATION
 40
0.0
  9
$THICKNESS
 40
0.0
  9
$LIMCHECK
 70
     0
  9
$CHAMFERA
 40
10.0
  9
$CHAMFERB
 40
10.0
  9
$CHAMFERC
 40
20.0
  9
$CHAMFERD
 40
0.0
  9
$SKPOLY
 70
     0
  9
$TDCREATE
 40
2452111.335768865
  9
$TDUCREATE
 40
2452110.960768866
  9
$TDUPDATE
 40
2454547.709958587
  9
$TDUUPDATE
 40
2454547.334958587
  9
$TDINDWG
 40
1.2574560185
  9
$TDUSRTIMER
 40
1.2574560185
  9
$USRTIMER
 70
     1
  9
$ANGBASE
 50
0.0
  9
$ANGDIR
 70
     0
  9
$PDMODE
 70
     0
  9
$PDSIZE
 40
0.0
  9
$PLINEWID
 40
0.0
  9
$SPLFRAME
 70
     0
  9
$SPLINETYPE
 70
     6
  9
$SPLINESEGS
 70
     8
  9
$HANDSEED
  5
3CAD
  9
$SURFTAB1
 70
     6
  9
$SURFTAB2
 70
     6
  9
$SURFTYPE
 70
     6
  9
$SURFU
 70
     6
  9
$SURFV
 70
     6
  9
$UCSBASE
  2

  9
$UCSNAME
  2

  9
$UCSORG
 10
0.0
 20
0.0
 30
0.0
  9
$UCSXDIR
 10
1.0
 20
0.0
 30
0.0
  9
$UCSYDIR
 10
0.0
 20
1.0
 30
0.0
  9
$UCSORTHOREF
  2

  9
$UCSORTHOVIEW
 70
     0
  9
$UCSORGTOP
 10
0.0
 20
0.0
 30
0.0
  9
$UCSORGBOTTOM
 10
0.0
 20
0.0
 30
0.0
  9
$UCSORGLEFT
 10
0.0
 20
0.0
 30
0.0
  9
$UCSORGRIGHT
 10
0.0
 20
0.0
 30
0.0
  9
$UCSORGFRONT
 10
0.0
 20
0.0
 30
0.0
  9
$UCSORGBACK
 10
0.0
 20
0.0
 30
0.0
  9
$PUCSBASE
  2

  9
$PUCSNAME
  2

  9
$PUCSORG
 10
0.0
 20
0.0
 30
0.0
  9
$PUCSXDIR
 10
1.0
 20
0.0
 30
0.0
  9
$PUCSYDIR
 10
0.0
 20
1.0
 30
0.0
  9
$PUCSORTHOREF
  2

  9
$PUCSORTHOVIEW
 70
     0
  9
$PUCSORGTOP
 10
0.0
 20
0.0
 30
0.0
  9
$PUCSORGBOTTOM
 10
0.0
 20
0.0
 30
0.0
  9
$PUCSORGLEFT
 10
0.0
 20
0.0
 30
0.0
  9
$PUCSORGRIGHT
 10
0.0
 20
0.0
 30
0.0
  9
$PUCSORGFRONT
 10
0.0
 20
0.0
 30
0.0
  9
$PUCSORGBACK
 10
0.0
 20
0.0
 30
0.0
  9
$USERI1
 70
     0
  9
$USERI2
 70
     0
  9
$USERI3
 70
     0
  9
$USERI4
 70
     0
  9
$USERI5
 70
     0
  9
$USERR1
 40
0.0
  9
$USERR2
 40
0.0
  9
$USERR3
 40
0.0
  9
$USERR4
 40
0.0
  9
$USERR5
 40
0.0
  9
$WORLDVIEW
 70
     1
  9
$SHADEDGE
 70
     3
  9
$SHADEDIF
 70
    70
  9
$TILEMODE
 70
     1
  9
$MAXACTVP
 70
    48
  9
$PINSBASE
 10
0.0
 20
0.0
 30
0.0
  9
$PLIMCHECK
 70
     0
  9
$PEXTMIN
 10
1.000000000000000E+20
 20
1.000000000000000E+20
 30
1.000000000000000E+20
  9
$PEXTMAX
 10
-1.000000000000000E+20
 20
-1.000000000000000E+20
 30
-1.000000000000000E+20
  9
$PLIMMIN
 10
0.0
 20
0.0
  9
$PLIMMAX
 10
420.0
 20
297.0
  9
$UNITMODE
 70
     0
  9
$VISRETAIN
 70
     1
  9
$PLINEGEN
 70
     0
  9
$PSLTSCALE
 70
     1
  9
$TREEDEPTH
 70
  3020
  9
$CMLSTYLE
  2
STANDARD
  9
$CMLJUST
 70
     0
  9
$CMLSCALE
 40
20.0
  9
$PROXYGRAPHICS
 70
     1
  9
$MEASUREMENT
 70
     1
  9
$CELWEIGHT
370
    -1
  9
$ENDCAPS
280
     0
  9
$JOINSTYLE
280
     0
  9
$LWDISPLAY
290
     0
  9
$INSUNITS
 70
     0
  9
$HYPERLINKBASE
  1

  9
$STYLESHEET
  1

  9
$XEDIT
290
     1
  9
$CEPSNTYPE
380
     0
  9
$PSTYLEMODE
290
     1
  9
$FINGERPRINTGUID
  2
{C9668057-E409-4CFD-A4F9-6C0551275C13}
  9
$VERSIONGUID
  2
{A37B0274-5C39-4123-BC2C-37E33434B976}
  9
$EXTNAMES
290
     1
  9
$PSVPSCALE
 40
0.0
  9
$OLESTARTUP
290
     0
  0
ENDSEC
  0
SECTION
  2
CLASSES
  0
CLASS
  1
LWPOLYLINE
  2
AcDbPolyline
  3
AutoCAD 2000
 90
    32768
280
     0
281
     1
  0
CLASS
  1
DICTIONARYVAR
  2
AcDbDictionaryVar
  3
AutoCAD 2000
 90
        0
280
     0
281
     0
  0
CLASS
  1
HATCH
  2
AcDbHatch
  3
AutoCAD 2000
 90
    32768
280
     0
281
     1
  0
CLASS
  1
ACDBDICTIONARYWDFLT
  2
AcDbDictionaryWithDefault
  3
AutoCAD 2000
 90
        0
280
     0
281
     0
  0
CLASS
  1
ACDBPLACEHOLDER
  2
AcDbPlaceHolder
  3
AutoCAD 2000
 90
        0
280
     0
281
     0
  0
CLASS
  1
LAYOUT
  2
AcDbLayout
  3
AutoCAD 2000
 90
        0
280
     0
281
     0
  0
ENDSEC
  0
SECTION
  2
TABLES
  0
TABLE
  2
VPORT
  5
8
330
0
100
AcDbSymbolTable
 70
     2
  0
VPORT
  5
3CAC
330
8
100
AcDbSymbolTableRecord
100
AcDbViewportTableRecord
  2
*Active
 70
     0
 10
0.0
 20
0.0
 11
1.0
 21
1.0
 12
6811.042767207968
 22
5225.982416465313
 13
0.0
 23
0.0
 14
10.0
 24
10.0
 15
10.0
 25
10.0
 16
0.0
 26
0.0
 36
1.0
 17
0.0
 27
0.0
 37
0.0
 40
3072.355866419242
 41
1.731203007518796
 42
50.0
 43
0.0
 44
0.0
 50
0.0
 51
0.0
 71
     0
 72
   100
 73
     1
 74
     1
 75
     0
 76
     0
 77
     0
 78
     0
281
     0
 65
     1
110
0.0
120
0.0
130
0.0
111
1.0
121
0.0
131
0.0
112
0.0
122
1.0
132
0.0
 79
     0
146
0.0
  0
ENDTAB
  0
TABLE
  2
LTYPE
  5
5
330
0
100
AcDbSymbolTable
 70
    46
  0
LTYPE
  5
12
330
5
100
AcDbSymbolTableRecord
100
AcDbLinetypeTableRecord
  2
BYBLOCK
 70
     0
  3

 72
    65
 73
     0
 40
0.0
  0
LTYPE
  5
13
330
5
100
AcDbSymbolTableRecord
100
AcDbLinetypeTableRecord
  2
BYLAYER
 70
     0
  3

 72
    65
 73
     0
 40
0.0
  0
LTYPE
  5
14
330
5
100
AcDbSymbolTableRecord
100
AcDbLinetypeTableRecord
  2
CONTINUOUS
 70
     0
  3
Solid line
 72
    65
 73
     0
 40
0.0
  0
LTYPE
  5
128
330
5
100
AcDbSymbolTableRecord
100
AcDbLinetypeTableRecord
  2
ACAD_ISO02W100
 70
     0
  3
ISO dash __ __ __ __ __ __ __ __ __ __ __ __ __
 72
    65
 73
     2
 40
15.0
 49
12.0
 74
     0
 49
-3.0
 74
     0
  0
LTYPE
  5
129
330
5
100
AcDbSymbolTableRecord
100
AcDbLinetypeTableRecord
  2
ACAD_ISO03W100
 70
     0
  3
ISO dash space __    __    __    __    __    __
 72
    65
 73
     2
 40
30.0
 49
12.0
 74
     0
 49
-18.0
 74
     0
  0
LTYPE
  5
12A
330
5
100
AcDbSymbolTableRecord
100
AcDbLinetypeTableRecord
  2
ACAD_ISO04W100
 70
     0
  3
ISO long-dash dot ____ . ____ . ____ . ____ . _
 72
    65
 73
     4
 40
30.5
 49
24.0
 74
     0
 49
-3.0
 74
     0
 49
0.5
 74
     0
 49
-3.0
 74
     0
  0
LTYPE
  5
12B
330
5
100
AcDbSymbolTableRecord
100
AcDbLinetypeTableRecord
  2
ACAD_ISO05W100
 70
     0
  3
ISO long-dash double-dot ____ .. ____ .. ____ .
 72
    65
 73
     8
 40
37.5
 49
24.0
 74
     0
 49
-3.0
 74
     0
 49
0.5
 74
     0
 49
-3.0
 74
     0
 49
0.5
 74
     0
 49
-3.0
 74
     0
 49
0.5
 74
     0
 49
-3.0
 74
     0
  0
LTYPE
  5
12C
330
5
100
AcDbSymbolTableRecord
100
AcDbLinetypeTableRecord
  2
ACAD_ISO06W100
 70
     0
  3
ISO long-dash triple-dot ____ ... ____ ... ____
 72
    65
 73
     8
 40
37.5
 49
24.0
 74
     0
 49
-3.0
 74
     0
 49
0.5
 74
     0
 49
-3.0
 74
     0
 49
0.5
 74
     0
 49
-3.0
 74
     0
 49
0.5
 74
     0
 49
-3.0
 74
     0
  0
LTYPE
  5
12D
330
5
100
AcDbSymbolTableRecord
100
AcDbLinetypeTableRecord
  2
ACAD_ISO07W100
 70
     0
  3
ISO dot . . . . . . . . . . . . . . . . . . . .
 72
    65
 73
     2
 40
3.5
 49
0.5
 74
     0
 49
-3.0
 74
     0
  0
LTYPE
  5
12E
330
5
100
AcDbSymbolTableRecord
100
AcDbLinetypeTableRecord
  2
ACAD_ISO08W100
 70
     0
  3
ISO long-dash short-dash ____ __ ____ __ ____ _
 72
    65
 73
     4
 40
36.0
 49
24.0
 74
     0
 49
-3.0
 74
     0
 49
6.0
 74
     0
 49
-3.0
 74
     0
  0
LTYPE
  5
12F
330
5
100
AcDbSymbolTableRecord
100
AcDbLinetypeTableRecord
  2
ACAD_ISO09W100
 70
     0
  3
ISO long-dash double-short-dash ____ __ __ ____
 72
    65
 73
     6
 40
45.0
 49
24.0
 74
     0
 49
-3.0
 74
     0
 49
6.0
 74
     0
 49
-3.0
 74
     0
 49
6.0
 74
     0
 49
-3.0
 74
     0
  0
LTYPE
  5
130
330
5
100
AcDbSymbolTableRecord
100
AcDbLinetypeTableRecord
  2
ACAD_ISO10W100
 70
     0
  3
ISO dash dot __ . __ . __ . __ . __ . __ . __ .
 72
    65
 73
     4
 40
18.5
 49
12.0
 74
     0
 49
-3.0
 74
     0
 49
0.5
 74
     0
 49
-3.0
 74
     0
  0
LTYPE
  5
131
330
5
100
AcDbSymbolTableRecord
100
AcDbLinetypeTableRecord
  2
ACAD_ISO11W100
 70
     0
  3
ISO double-dash dot __ __ . __ __ . __ __ . __ 
 72
    65
 73
     6
 40
33.5
 49
12.0
 74
     0
 49
-3.0
 74
     0
 49
12.0
 74
     0
 49
-3.0
 74
     0
 49
0.5
 74
     0
 49
-3.0
 74
     0
  0
LTYPE
  5
132
330
5
100
AcDbSymbolTableRecord
100
AcDbLinetypeTableRecord
  2
ACAD_ISO12W100
 70
     0
  3
ISO dash double-dot __ . . __ . . __ . . __ . .
 72
    65
 73
     6
 40
22.0
 49
12.0
 74
     0
 49
-3.0
 74
     0
 49
0.5
 74
     0
 49
-3.0
 74
     0
 49
0.5
 74
     0
 49
-3.0
 74
     0
  0
LTYPE
  5
133
330
5
100
AcDbSymbolTableRecord
100
AcDbLinetypeTableRecord
  2
ACAD_ISO13W100
 70
     0
  3
ISO double-dash double-dot __ __ . . __ __ . . 
 72
    65
 73
     8
 40
37.0
 49
12.0
 74
     0
 49
-3.0
 74
     0
 49
12.0
 74
     0
 49
-3.0
 74
     0
 49
0.5
 74
     0
 49
-3.0
 74
     0
 49
0.5
 74
     0
 49
-3.0
 74
     0
  0
LTYPE
  5
134
330
5
100
AcDbSymbolTableRecord
100
AcDbLinetypeTableRecord
  2
ACAD_ISO14W100
 70
     0
  3
ISO dash triple-dot __ . . . __ . . . __ . . . 
 72
    65
 73
     8
 40
25.5
 49
12.0
 74
     0
 49
-3.0
 74
     0
 49
0.5
 74
     0
 49
-3.0
 74
     0
 49
0.5
 74
     0
 49
-3.0
 74
     0
 49
0.5
 74
     0
 49
-3.0
 74
     0
  0
LTYPE
  5
135
330
5
100
AcDbSymbolTableRecord
100
AcDbLinetypeTableRecord
  2
ACAD_ISO15W100
 70
     0
  3
ISO double-dash triple-dot __ __ . . . __ __ . 
 72
    65
 73
    10
 40
40.49999999999999
 49
12.0
 74
     0
 49
-3.0
 74
     0
 49
12.0
 74
     0
 49
-3.0
 74
     0
 49
0.5
 74
     0
 49
-3.0
 74
     0
 49
0.5
 74
     0
 49
-3.0
 74
     0
 49
0.5
 74
     0
 49
-3.0
 74
     0
  0
LTYPE
  5
136
330
5
100
AcDbSymbolTableRecord
100
AcDbLinetypeTableRecord
  2
BATTING
 70
     0
  3
Batting SSSSSSSSSSSSSSSSSSSSSSSSSSSSSSSSSSSSSSS
 72
    65
 73
     4
 40
10.16253999999999
 49
0.00254
 74
     0
 49
-2.54
 74
     4
 75
   134
340
127
 46
2.54
 50
0.0
 44
-2.54
 45
0.0
 49
-5.08
 74
     4
 75
   134
340
127
 46
2.54
 50
180.0
 44
2.54
 45
0.0
 49
-2.54
 74
     0
  0
LTYPE
  5
137
330
5
100
AcDbSymbolTableRecord
100
AcDbLinetypeTableRecord
  2
BORDER
 70
     0
  3
Border __ __ . __ __ . __ __ . __ __ . __ __ .
 72
    65
 73
     6
 40
44.45
 49
12.7
 74
     0
 49
-6.349999999999999
 74
     0
 49
12.7
 74
     0
 49
-6.349999999999999
 74
     0
 49
0.0
 74
     0
 49
-6.349999999999999
 74
     0
  0
LTYPE
  5
138
330
5
100
AcDbSymbolTableRecord
100
AcDbLinetypeTableRecord
  2
BORDER2
 70
     0
  3
Border (.5x) __.__.__.__.__.__.__.__.__.__.__.
 72
    65
 73
     6
 40
22.225
 49
6.349999999999999
 74
     0
 49
-3.174999999999999
 74
     0
 49
6.349999999999999
 74
     0
 49
-3.174999999999999
 74
     0
 49
0.0
 74
     0
 49
-3.174999999999999
 74
     0
  0
LTYPE
  5
139
330
5
100
AcDbSymbolTableRecord
100
AcDbLinetypeTableRecord
  2
BORDERX2
 70
     0
  3
Border (2x) ____  ____  .  ____  ____  .  ___
 72
    65
 73
     6
 40
88.9
 49
25.4
 74
     0
 49
-12.7
 74
     0
 49
25.4
 74
     0
 49
-12.7
 74
     0
 49
0.0
 74
     0
 49
-12.7
 74
     0
  0
LTYPE
  5
13A
330
5
100
AcDbSymbolTableRecord
100
AcDbLinetypeTableRecord
  2
CENTER
 70
     0
  3
Center ____ _ ____ _ ____ _ ____ _ ____ _ ____
 72
    65
 73
     4
 40
50.8
 49
31.75
 74
     0
 49
-6.349999999999999
 74
     0
 49
6.349999999999999
 74
     0
 49
-6.349999999999999
 74
     0
  0
LTYPE
  5
13B
330
5
100
AcDbSymbolTableRecord
100
AcDbLinetypeTableRecord
  2
CENTER2
 70
     0
  3
Center (.5x) ___ _ ___ _ ___ _ ___ _ ___ _ ___
 72
    65
 73
     4
 40
28.57499999999999
 49
19.05
 74
     0
 49
-3.174999999999999
 74
     0
 49
3.174999999999999
 74
     0
 49
-3.174999999999999
 74
     0
  0
LTYPE
  5
13C
330
5
100
AcDbSymbolTableRecord
100
AcDbLinetypeTableRecord
  2
CENTERX2
 70
     0
  3
Center (2x) ________  __  ________  __  _____
 72
    65
 73
     4
 40
101.6
 49
63.5
 74
     0
 49
-12.7
 74
     0
 49
12.7
 74
     0
 49
-12.7
 74
     0
  0
LTYPE
  5
13D
330
5
100
AcDbSymbolTableRecord
100
AcDbLinetypeTableRecord
  2
DASHDOT
 70
     0
  3
Dash dot __ . __ . __ . __ . __ . __ . __ . __
 72
    65
 73
     4
 40
25.4
 49
12.7
 74
     0
 49
-6.349999999999999
 74
     0
 49
0.0
 74
     0
 49
-6.349999999999999
 74
     0
  0
LTYPE
  5
13E
330
5
100
AcDbSymbolTableRecord
100
AcDbLinetypeTableRecord
  2
DASHDOT2
 70
     0
  3
Dash dot (.5x) _._._._._._._._._._._._._._._.
 72
    65
 73
     4
 40
12.7
 49
6.349999999999999
 74
     0
 49
-3.174999999999999
 74
     0
 49
0.0
 74
     0
 49
-3.174999999999999
 74
     0
  0
LTYPE
  5
13F
330
5
100
AcDbSymbolTableRecord
100
AcDbLinetypeTableRecord
  2
DASHDOTX2
 70
     0
  3
Dash dot (2x) ____  .  ____  .  ____  .  ___
 72
    65
 73
     4
 40
50.8
 49
25.4
 74
     0
 49
-12.7
 74
     0
 49
0.0
 74
     0
 49
-12.7
 74
     0
  0
LTYPE
  5
140
330
5
100
AcDbSymbolTableRecord
100
AcDbLinetypeTableRecord
  2
DASHED
 70
     0
  3
Dashed __ __ __ __ __ __ __ __ __ __ __ __ __ _
 72
    65
 73
     2
 40
19.04999999999999
 49
12.7
 74
     0
 49
-6.349999999999999
 74
     0
  0
LTYPE
  5
141
330
5
100
AcDbSymbolTableRecord
100
AcDbLinetypeTableRecord
  2
DASHED2
 70
     0
  3
Dashed (.5x) _ _ _ _ _ _ _ _ _ _ _ _ _ _ _ _ _
 72
    65
 73
     2
 40
9.524999999999998
 49
6.349999999999999
 74
     0
 49
-3.174999999999999
 74
     0
  0
LTYPE
  5
142
330
5
100
AcDbSymbolTableRecord
100
AcDbLinetypeTableRecord
  2
DASHEDX2
 70
     0
  3
Dashed (2x) ____  ____  ____  ____  ____  ___
 72
    65
 73
     2
 40
38.09999999999999
 49
25.4
 74
     0
 49
-12.7
 74
     0
  0
LTYPE
  5
143
330
5
100
AcDbSymbolTableRecord
100
AcDbLinetypeTableRecord
  2
DIVIDE
 70
     0
  3
Divide ____ . . ____ . . ____ . . ____ . . ____
 72
    65
 73
     6
 40
31.74999999999999
 49
12.7
 74
     0
 49
-6.349999999999999
 74
     0
 49
0.0
 74
     0
 49
-6.349999999999999
 74
     0
 49
0.0
 74
     0
 49
-6.349999999999999
 74
     0
  0
LTYPE
  5
144
330
5
100
AcDbSymbolTableRecord
100
AcDbLinetypeTableRecord
  2
DIVIDE2
 70
     0
  3
Divide (.5x) __..__..__..__..__..__..__..__.._
 72
    65
 73
     6
 40
15.87499999999999
 49
6.349999999999999
 74
     0
 49
-3.174999999999999
 74
     0
 49
0.0
 74
     0
 49
-3.174999999999999
 74
     0
 49
0.0
 74
     0
 49
-3.174999999999999
 74
     0
  0
LTYPE
  5
145
330
5
100
AcDbSymbolTableRecord
100
AcDbLinetypeTableRecord
  2
DIVIDEX2
 70
     0
  3
Divide (2x) ________  .  .  ________  .  .  _
 72
    65
 73
     6
 40
63.49999999999999
 49
25.4
 74
     0
 49
-12.7
 74
     0
 49
0.0
 74
     0
 49
-12.7
 74
     0
 49
0.0
 74
     0
 49
-12.7
 74
     0
  0
LTYPE
  5
146
330
5
100
AcDbSymbolTableRecord
100
AcDbLinetypeTableRecord
  2
DOT
 70
     0
  3
Dot . . . . . . . . . . . . . . . . . . . . . .
 72
    65
 73
     2
 40
6.349999999999999
 49
0.0
 74
     0
 49
-6.349999999999999
 74
     0
  0
LTYPE
  5
147
330
5
100
AcDbSymbolTableRecord
100
AcDbLinetypeTableRecord
  2
DOT2
 70
     0
  3
Dot (.5x) .....................................
 72
    65
 73
     2
 40
3.174999999999999
 49
0.0
 74
     0
 49
-3.174999999999999
 74
     0
  0
LTYPE
  5
148
330
5
100
AcDbSymbolTableRecord
100
AcDbLinetypeTableRecord
  2
DOTX2
 70
     0
  3
Dot (2x) .  .  .  .  .  .  .  .  .  .  .  .  . 
 72
    65
 73
     2
 40
12.7
 49
0.0
 74
     0
 49
-12.7
 74
     0
  0
LTYPE
  5
149
330
5
100
AcDbSymbolTableRecord
100
AcDbLinetypeTableRecord
  2
FENCELINE1
 70
     0
  3
Fenceline circle ----0-----0----0-----0----0---
 72
    65
 73
     4
 40
36.82999999999999
 49
6.349999999999999
 74
     0
 49
-2.54
 74
     4
 75
   133
340
127
 46
2.54
 50
0.0
 44
-2.54
 45
0.0
 49
-2.54
 74
     0
 49
25.4
 74
     0
  0
LTYPE
  5
14A
330
5
100
AcDbSymbolTableRecord
100
AcDbLinetypeTableRecord
  2
FENCELINE2
 70
     0
  3
Fenceline square ----[]-----[]----[]-----[]----
 72
    65
 73
     4
 40
36.82999999999999
 49
6.349999999999999
 74
     0
 49
-2.54
 74
     4
 75
   132
340
127
 46
2.54
 50
0.0
 44
-2.54
 45
0.0
 49
-2.54
 74
     0
 49
25.4
 74
     0
  0
LTYPE
  5
14B
330
5
100
AcDbSymbolTableRecord
100
AcDbLinetypeTableRecord
  2
GAS_LINE
 70
     0
  3
Gas line ----GAS----GAS----GAS----GAS----GAS---
 72
    65
 73
     3
 40
24.13
 49
12.7
 74
     0
 49
-5.08
 74
     2
 75
     0
340
F
 46
2.54
 50
0.0
 44
-2.54
 45
-1.27
  9
GAS
 49
-6.349999999999999
 74
     0
  0
LTYPE
  5
14C
330
5
100
AcDbSymbolTableRecord
100
AcDbLinetypeTableRecord
  2
HIDDEN
 70
     0
  3
Hidden __ __ __ __ __ __ __ __ __ __ __ __ __ _
 72
    65
 73
     2
 40
9.524999999999998
 49
6.349999999999999
 74
     0
 49
-3.174999999999999
 74
     0
  0
LTYPE
  5
14D
330
5
100
AcDbSymbolTableRecord
100
AcDbLinetypeTableRecord
  2
HIDDEN2
 70
     0
  3
Hidden (.5x) _ _ _ _ _ _ _ _ _ _ _ _ _ _ _ _ _
 72
    65
 73
     2
 40
4.762499999999999
 49
3.174999999999999
 74
     0
 49
-1.587499999999999
 74
     0
  0
LTYPE
  5
14E
330
5
100
AcDbSymbolTableRecord
100
AcDbLinetypeTableRecord
  2
HIDDENX2
 70
     0
  3
Hidden (2x) ____ ____ ____ ____ ____ ____ ____
 72
    65
 73
     2
 40
19.04999999999999
 49
12.7
 74
     0
 49
-6.349999999999999
 74
     0
  0
LTYPE
  5
14F
330
5
100
AcDbSymbolTableRecord
100
AcDbLinetypeTableRecord
  2
HOT_WATER_SUPPLY
 70
     0
  3
Hot water supply ---- HW ---- HW ---- HW ----
 72
    65
 73
     3
 40
22.86
 49
12.7
 74
     0
 49
-5.08
 74
     2
 75
     0
340
F
 46
2.54
 50
0.0
 44
-2.54
 45
-1.27
  9
HW
 49
-5.08
 74
     0
  0
LTYPE
  5
150
330
5
100
AcDbSymbolTableRecord
100
AcDbLinetypeTableRecord
  2
PHANTOM
 70
     0
  3
Phantom ______  __  __  ______  __  __  ______
 72
    65
 73
     6
 40
63.5
 49
31.75
 74
     0
 49
-6.349999999999999
 74
     0
 49
6.349999999999999
 74
     0
 49
-6.349999999999999
 74
     0
 49
6.349999999999999
 74
     0
 49
-6.349999999999999
 74
     0
  0
LTYPE
  5
151
330
5
100
AcDbSymbolTableRecord
100
AcDbLinetypeTableRecord
  2
PHANTOM2
 70
     0
  3
Phantom (.5x) ___ _ _ ___ _ _ ___ _ _ ___ _ _
 72
    65
 73
     6
 40
31.75
 49
15.875
 74
     0
 49
-3.174999999999999
 74
     0
 49
3.174999999999999
 74
     0
 49
-3.174999999999999
 74
     0
 49
3.174999999999999
 74
     0
 49
-3.174999999999999
 74
     0
  0
LTYPE
  5
152
330
5
100
AcDbSymbolTableRecord
100
AcDbLinetypeTableRecord
  2
PHANTOMX2
 70
     0
  3
Phantom (2x) ____________    ____    ____   _
 72
    65
 73
     6
 40
127.0
 49
63.5
 74
     0
 49
-12.7
 74
     0
 49
12.7
 74
     0
 49
-12.7
 74
     0
 49
12.7
 74
     0
 49
-12.7
 74
     0
  0
LTYPE
  5
153
330
5
100
AcDbSymbolTableRecord
100
AcDbLinetypeTableRecord
  2
TRACKS
 70
     0
  3
Tracks -|-|-|-|-|-|-|-|-|-|-|-|-|-|-|-|-|-|-|-|
 72
    65
 73
     2
 40
7.62
 49
3.81
 74
     4
 75
   130
340
127
 46
6.349999999999999
 50
0.0
 44
0.0
 45
0.0
 49
3.81
 74
     0
  0
LTYPE
  5
154
330
5
100
AcDbSymbolTableRecord
100
AcDbLinetypeTableRecord
  2
ZIGZAG
 70
     0
  3
Zig zag /\/\/\/\/\/\/\/\/\/\/\/\/\/\/\/\/\/\/\/
 72
    65
 73
     4
 40
20.32254
 49
0.00254
 74
     0
 49
-5.08
 74
     4
 75
   131
340
127
 46
5.08
 50
0.0
 44
-5.08
 45
0.0
 49
-10.16
 74
     4
 75
   131
340
127
 46
5.08
 50
180.0
 44
5.08
 45
0.0
 49
-5.08
 74
     0
  0
ENDTAB
  0
TABLE
  2
LAYER
  5
2
330
0
100
AcDbSymbolTable
 70
    10
  0
LAYER
  5
E
330
2
100
AcDbSymbolTableRecord
100
AcDbLayerTableRecord
  2
0
 70
     0
 62
     7
  6
CONTINUOUS
370
    -3
390
15FD
  0
LAYER
  5
20
330
2
100
AcDbSymbolTableRecord
100
AcDbLayerTableRecord
  2
DEFPOINTS
 70
     0
 62
     7
  6
CONTINUOUS
290
     0
370
    -3
390
15FD
  0
LAYER
  5
21
330
2
100
AcDbSymbolTableRecord
100
AcDbLayerTableRecord
  2
OBJECT
 70
     0
 62
     7
  6
CONTINUOUS
370
    -3
390
15FD
  0
LAYER
  5
155
330
2
100
AcDbSymbolTableRecord
100
AcDbLayerTableRecord
  2
上書線
 70
     0
 62
     7
  6
CONTINUOUS
370
    -3
390
15FD
  0
LAYER
  5
156
330
2
100
AcDbSymbolTableRecord
100
AcDbLayerTableRecord
  2
基準線
 70
     0
 62
    -1
  6
CONTINUOUS
370
    -3
390
15FD
  0
LAYER
  5
157
330
2
100
AcDbSymbolTableRecord
100
AcDbLayerTableRecord
  2
点線
 70
     0
 62
     5
  6
HIDDEN
370
    -3
390
15FD
  0
LAYER
  5
158
330
2
100
AcDbSymbolTableRecord
100
AcDbLayerTableRecord
  2
寸法線
 70
     0
 62
     2
  6
CONTINUOUS
370
    -3
390
15FD
  0
LAYER
  5
19D7
330
2
100
AcDbSymbolTableRecord
100
AcDbLayerTableRecord
  2
上線
 70
     0
 62
     7
  6
CONTINUOUS
370
    -3
390
15FD
  0
LAYER
  5
2EB9
330
2
100
AcDbSymbolTableRecord
100
AcDbLayerTableRecord
  2
中心線
 70
     0
 62
     6
  6
CENTER
370
    -3
390
15FD
  0
LAYER
  5
3A04
330
2
100
AcDbSymbolTableRecord
100
AcDbLayerTableRecord
  2
WUWAGAKI
 70
     0
 62
     7
  6
CONTINUOUS
370
    -3
390
15FD
  0
ENDTAB
  0
TABLE
  2
STYLE
  5
3
330
0
100
AcDbSymbolTable
 70
     3
  0
STYLE
  5
F
330
3
100
AcDbSymbolTableRecord
100
AcDbTextStyleTableRecord
  2
STANDARD
 70
     0
 40
0.0
 41
1.0
 50
0.0
 71
     0
 42
2.5
  3
MS PMincho.ttf
  4

1001
ACAD
1000
MS PMincho
1071
    32786
  0
STYLE
  5
22
330
3
100
AcDbSymbolTableRecord
100
AcDbTextStyleTableRecord
  2
ADESK1
 70
     0
 40
0.0
 41
1.0
 50
0.0
 71
     0
 42
5.0
  3
romans
  4
bigfont
  0
STYLE
  5
127
330
3
100
AcDbSymbolTableRecord
100
AcDbTextStyleTableRecord
  2

 70
     1
 40
0.0
 41
1.0
 50
0.0
 71
     0
 42
2.5
  3
ltypeshp.shx
  4

  0
ENDTAB
  0
TABLE
  2
VIEW
  5
6
330
0
100
AcDbSymbolTable
 70
     0
  0
ENDTAB
  0
TABLE
  2
UCS
  5
7
330
0
100
AcDbSymbolTable
 70
     0
  0
ENDTAB
  0
TABLE
  2
APPID
  5
9
330
0
100
AcDbSymbolTable
 70
     2
  0
APPID
  5
10
330
9
100
AcDbSymbolTableRecord
100
AcDbRegAppTableRecord
  2
ACAD
 70
     0
  0
APPID
  5
1213
330
9
100
AcDbSymbolTableRecord
100
AcDbRegAppTableRecord
  2
DRAWINGVARIABLESXDATA
 70
     0
  0
ENDTAB
  0
TABLE
  2
DIMSTYLE
  5
A
330
0
100
AcDbSymbolTable
 70
     2
100
AcDbDimStyleTable
 71
     1
340
1D
  0
DIMSTYLE
105
1D
330
A
100
AcDbSymbolTableRecord
100
AcDbDimStyleTableRecord
  2
STANDARD
 70
     0
340
F
  0
DIMSTYLE
105
23
330
A
100
AcDbSymbolTableRecord
100
AcDbDimStyleTableRecord
  2
JIS
 70
     0
 41
2.5
 42
1.0
 43
7.0
 44
1.0
 73
     0
 74
     0
 77
     1
 78
     8
140
2.5
141
0.0
143
0.0394
147
0.0
172
     1
174
     1
175
     1
340
F
  0
ENDTAB
  0
TABLE
  2
BLOCK_RECORD
  5
1
330
0
100
AcDbSymbolTable
 70
     3
  0
BLOCK_RECORD
  5
18
330
1
100
AcDbSymbolTableRecord
100
AcDbBlockTableRecord
  2
*MODEL_SPACE
340
1600
  0
BLOCK_RECORD
  5
15
330
1
100
AcDbSymbolTableRecord
100
AcDbBlockTableRecord
  2
*PAPER_SPACE
340
1601
  0
BLOCK_RECORD
  5
24
330
1
100
AcDbSymbolTableRecord
100
AcDbBlockTableRecord
  2
JIS_A4L
340
0
  0
BLOCK_RECORD
  5
3437
330
1
100
AcDbSymbolTableRecord
100
AcDbBlockTableRecord
  2
*D1
340
0
  0
BLOCK_RECORD
  5
3445
330
1
100
AcDbSymbolTableRecord
100
AcDbBlockTableRecord
  2
A$C23BB6A77
340
0
  0
ENDTAB
  0
ENDSEC
  0
SECTION
  2
BLOCKS
  0
BLOCK
  5
19
330
18
100
AcDbEntity
  8
0
100
AcDbBlockBegin
  2
*MODEL_SPACE
 70
     2
 10
0.0
 20
0.0
 30
0.0
  3
*MODEL_SPACE
  1

  0
ENDBLK
  5
1A
330
18
100
AcDbEntity
  8
0
100
AcDbBlockEnd
  0
BLOCK
  5
16
330
15
100
AcDbEntity
 67
     1
  8
0
100
AcDbBlockBegin
  2
*PAPER_SPACE
 70
     0
 10
0.0
 20
0.0
 30
0.0
  3
*PAPER_SPACE
  1

  0
ENDBLK
  5
17
330
15
100
AcDbEntity
 67
     1
  8
0
100
AcDbBlockEnd
  0
BLOCK
  5
A1
330
24
100
AcDbEntity
  8
0
100
AcDbBlockBegin
  2
JIS_A4L
 70
     2
 10
0.0
 20
0.0
 30
0.0
  3
JIS_A4L
  1

  0
LINE
  5
25
330
24
100
AcDbEntity
  8
0
100
AcDbLine
 10
0.0
 20
0.0
 30
0.0
 11
0.0
 21
10.0
 31
0.0
  0
LINE
  5
26
330
24
100
AcDbEntity
  8
0
100
AcDbLine
 10
0.0
 20
210.0
 30
0.0
 11
25.0
 21
210.0
 31
0.0
  0
LINE
  5
27
330
24
100
AcDbEntity
  8
0
100
AcDbLine
 10
297.0
 20
210.0
 30
0.0
 11
297.0
 21
200.0
 31
0.0
  0
LINE
  5
28
330
24
100
AcDbEntity
  8
0
100
AcDbLine
 10
297.0
 20
0.0
 30
0.0
 11
287.0
 21
0.0
 31
0.0
  0
LINE
  5
29
330
24
100
AcDbEntity
  8
0
100
AcDbLine
 10
25.0
 20
10.0
 30
0.0
 11
25.0
 21
200.0
 31
0.0
  0
LINE
  5
2A
330
24
100
AcDbEntity
  8
0
100
AcDbLine
 10
287.0
 20
10.0
 30
0.0
 11
25.0
 21
10.0
 31
0.0
  0
LINE
  5
2B
330
24
100
AcDbEntity
  8
0
100
AcDbLine
 10
287.0
 20
200.0
 30
0.0
 11
287.0
 21
10.0
 31
0.0
  0
LINE
  5
2C
330
24
100
AcDbEntity
  8
0
100
AcDbLine
 10
25.0
 20
200.0
 30
0.0
 11
287.0
 21
200.0
 31
0.0
  0
LINE
  5
2D
330
24
100
AcDbEntity
  8
0
100
AcDbLine
 10
0.0
 20
200.0
 30
0.0
 11
0.0
 21
210.0
 31
0.0
  0
LINE
  5
2E
330
24
100
AcDbEntity
  8
0
100
AcDbLine
 10
25.0
 20
0.0
 30
0.0
 11
0.0
 21
0.0
 31
0.0
  0
LINE
  5
2F
330
24
100
AcDbEntity
  8
0
100
AcDbLine
 10
297.0
 20
10.0
 30
0.0
 11
297.0
 21
0.0
 31
0.0
  0
LINE
  5
30
330
24
100
AcDbEntity
  8
0
100
AcDbLine
 10
287.0
 20
210.0
 30
0.0
 11
297.0
 21
210.0
 31
0.0
  0
ATTDEF
  5
31
330
24
100
AcDbEntity
  8
0
 62
     0
100
AcDbText
 10
19.0
 20
10.0
 30
0.0
 40
3.0
  1

 50
90.0
  7
ADESK1
100
AcDbAttributeDefinition
  3

  2
USER
 70
     8
  0
ATTDEF
  5
32
330
24
100
AcDbEntity
  8
0
 62
     0
100
AcDbText
 10
19.0
 20
70.0
 30
0.0
 40
3.0
  1

 50
90.0
  7
ADESK1
100
AcDbAttributeDefinition
  3

  2
REVDATE
 70
     8
  0
ATTDEF
  5
33
330
24
100
AcDbEntity
  8
0
 62
     0
100
AcDbText
 10
19.0
 20
118.0
 30
0.0
 40
3.0
  1

 50
90.0
  7
ADESK1
100
AcDbAttributeDefinition
  3

  2
FNAME
 70
     8
  0
LINE
  5
34
330
24
100
AcDbEntity
  8
OBJECT
100
AcDbLine
 10
130.0
 20
16.0
 30
0.0
 11
25.0
 21
16.0
 31
0.0
  0
LINE
  5
35
330
24
100
AcDbEntity
  8
OBJECT
100
AcDbLine
 10
130.0
 20
22.0
 30
0.0
 11
25.0
 21
22.0
 31
0.0
  0
LINE
  5
36
330
24
100
AcDbEntity
  8
OBJECT
100
AcDbLine
 10
130.0
 20
28.0
 30
0.0
 11
25.0
 21
28.0
 31
0.0
  0
LINE
  5
37
330
24
100
AcDbEntity
  8
OBJECT
100
AcDbLine
 10
130.0
 20
34.0
 30
0.0
 11
25.0
 21
34.0
 31
0.0
  0
LINE
  5
38
330
24
100
AcDbEntity
  8
OBJECT
100
AcDbLine
 10
130.0
 20
40.0
 30
0.0
 11
25.0
 21
40.0
 31
0.0
  0
LINE
  5
39
330
24
100
AcDbEntity
  8
OBJECT
100
AcDbLine
 10
28.0
 20
11.53589799999999
 30
0.0
 11
30.0
 21
15.0
 31
0.0
  0
LINE
  5
3A
330
24
100
AcDbEntity
  8
OBJECT
100
AcDbLine
 10
32.0
 20
11.53589799999999
 30
0.0
 11
30.0
 21
15.0
 31
0.0
  0
LINE
  5
3B
330
24
100
AcDbEntity
  8
OBJECT
100
AcDbLine
 10
35.0
 20
10.0
 30
0.0
 11
35.0
 21
40.0
 31
0.0
  0
LINE
  5
3C
330
24
100
AcDbEntity
  8
OBJECT
100
AcDbLine
 10
50.0
 20
10.0
 30
0.0
 11
50.0
 21
40.0
 31
0.0
  0
LINE
  5
3D
330
24
100
AcDbEntity
  8
OBJECT
100
AcDbLine
 10
80.0
 20
10.0
 30
0.0
 11
80.0
 21
40.0
 31
0.0
  0
LINE
  5
3E
330
24
100
AcDbEntity
  8
OBJECT
100
AcDbLine
 10
28.0
 20
11.53589799999999
 30
0.0
 11
32.0
 21
11.53589799999999
 31
0.0
  0
LINE
  5
3F
330
24
100
AcDbEntity
  8
OBJECT
100
AcDbLine
 10
39.5
 20
13.0
 30
0.0
 11
40.49999999999999
 21
13.0
 31
0.0
  0
LINE
  5
40
330
24
100
AcDbEntity
  8
OBJECT
100
AcDbLine
 10
44.5
 20
13.0
 30
0.0
 11
45.49999999999999
 21
13.0
 31
0.0
  0
LINE
  5
41
330
24
100
AcDbEntity
  8
OBJECT
100
AcDbLine
 10
32.0
 20
17.535898
 30
0.0
 11
30.0
 21
20.99999999999999
 31
0.0
  0
LINE
  5
42
330
24
100
AcDbEntity
  8
OBJECT
100
AcDbLine
 10
28.0
 20
17.535898
 30
0.0
 11
32.0
 21
17.535898
 31
0.0
  0
LINE
  5
43
330
24
100
AcDbEntity
  8
OBJECT
100
AcDbLine
 10
28.0
 20
17.535898
 30
0.0
 11
30.0
 21
20.99999999999999
 31
0.0
  0
LINE
  5
44
330
24
100
AcDbEntity
  8
OBJECT
100
AcDbLine
 10
32.0
 20
23.53589799999999
 30
0.0
 11
30.0
 21
26.99999999999999
 31
0.0
  0
LINE
  5
45
330
24
100
AcDbEntity
  8
OBJECT
100
AcDbLine
 10
28.0
 20
23.53589799999999
 30
0.0
 11
32.0
 21
23.53589799999999
 31
0.0
  0
LINE
  5
46
330
24
100
AcDbEntity
  8
OBJECT
100
AcDbLine
 10
28.0
 20
23.53589799999999
 30
0.0
 11
30.0
 21
26.99999999999999
 31
0.0
  0
LINE
  5
47
330
24
100
AcDbEntity
  8
OBJECT
100
AcDbLine
 10
28.0
 20
35.53589799999999
 30
0.0
 11
30.0
 21
39.0
 31
0.0
  0
LINE
  5
48
330
24
100
AcDbEntity
  8
OBJECT
100
AcDbLine
 10
32.0
 20
35.53589799999999
 30
0.0
 11
30.0
 21
39.0
 31
0.0
  0
LINE
  5
49
330
24
100
AcDbEntity
  8
OBJECT
100
AcDbLine
 10
28.0
 20
35.53589799999999
 30
0.0
 11
32.0
 21
35.53589799999999
 31
0.0
  0
LINE
  5
4A
330
24
100
AcDbEntity
  8
OBJECT
100
AcDbLine
 10
32.0
 20
29.53589799999999
 30
0.0
 11
30.0
 21
33.0
 31
0.0
  0
LINE
  5
4B
330
24
100
AcDbEntity
  8
OBJECT
100
AcDbLine
 10
28.0
 20
29.53589799999999
 30
0.0
 11
32.0
 21
29.53589799999999
 31
0.0
  0
LINE
  5
4C
330
24
100
AcDbEntity
  8
OBJECT
100
AcDbLine
 10
28.0
 20
29.53589799999999
 30
0.0
 11
30.0
 21
33.0
 31
0.0
  0
LINE
  5
4D
330
24
100
AcDbEntity
  8
OBJECT
100
AcDbLine
 10
39.5
 20
19.0
 30
0.0
 11
40.49999999999999
 21
19.0
 31
0.0
  0
LINE
  5
4E
330
24
100
AcDbEntity
  8
OBJECT
100
AcDbLine
 10
44.5
 20
19.0
 30
0.0
 11
45.49999999999999
 21
19.0
 31
0.0
  0
LINE
  5
4F
330
24
100
AcDbEntity
  8
OBJECT
100
AcDbLine
 10
39.5
 20
25.0
 30
0.0
 11
40.49999999999999
 21
25.0
 31
0.0
  0
LINE
  5
50
330
24
100
AcDbEntity
  8
OBJECT
100
AcDbLine
 10
44.5
 20
25.0
 30
0.0
 11
45.49999999999999
 21
25.0
 31
0.0
  0
LINE
  5
51
330
24
100
AcDbEntity
  8
OBJECT
100
AcDbLine
 10
39.5
 20
31.0
 30
0.0
 11
40.49999999999999
 21
31.0
 31
0.0
  0
LINE
  5
52
330
24
100
AcDbEntity
  8
OBJECT
100
AcDbLine
 10
39.5
 20
37.0
 30
0.0
 11
40.49999999999999
 21
37.0
 31
0.0
  0
LINE
  5
53
330
24
100
AcDbEntity
  8
OBJECT
100
AcDbLine
 10
44.5
 20
31.0
 30
0.0
 11
45.49999999999999
 21
31.0
 31
0.0
  0
LINE
  5
54
330
24
100
AcDbEntity
  8
OBJECT
100
AcDbLine
 10
44.5
 20
37.0
 30
0.0
 11
45.49999999999999
 21
37.0
 31
0.0
  0
LINE
  5
55
330
24
100
AcDbEntity
  8
OBJECT
100
AcDbLine
 10
120.0
 20
10.0
 30
0.0
 11
120.0
 21
40.0
 31
0.0
  0
LINE
  5
56
330
24
100
AcDbEntity
  8
OBJECT
100
AcDbLine
 10
130.0
 20
40.0
 30
0.0
 11
130.0
 21
10.0
 31
0.0
  0
LINE
  5
57
330
24
100
AcDbEntity
  8
0
100
AcDbLine
 10
156.0
 20
10.0
 30
0.0
 11
156.0
 21
0.0
 31
0.0
  0
LINE
  5
58
330
24
100
AcDbEntity
  8
0
100
AcDbLine
 10
156.0
 20
200.0
 30
0.0
 11
156.0
 21
210.0
 31
0.0
  0
LINE
  5
59
330
24
100
AcDbEntity
  8
0
100
AcDbLine
 10
287.0
 20
105.0
 30
0.0
 11
297.0
 21
105.0
 31
0.0
  0
LINE
  5
5A
330
24
100
AcDbEntity
  8
0
100
AcDbLine
 10
25.0
 20
105.0
 30
0.0
 11
0.0
 21
105.0
 31
0.0
  0
TEXT
  5
5B
330
24
100
AcDbEntity
  8
0
100
AcDbText
 10
1.0
 20
1.0
 30
0.0
 40
3.0
  1
この図枠はサンプルです。社内の規格やプロッタの出力範囲に合わせて適当に変更してご利用ください。
  7
ADESK1
100
AcDbText
  0
LINE
  5
5C
330
24
100
AcDbEntity
  8
0
100
AcDbLine
 10
25.0
 20
152.5
 30
0.0
 11
20.0
 21
152.5
 31
0.0
  0
LINE
  5
5D
330
24
100
AcDbEntity
  8
0
100
AcDbLine
 10
25.0
 20
105.0
 30
0.0
 11
20.0
 21
105.0
 31
0.0
  0
LINE
  5
5E
330
24
100
AcDbEntity
  8
0
100
AcDbLine
 10
25.0
 20
57.5
 30
0.0
 11
20.0
 21
57.5
 31
0.0
  0
LINE
  5
5F
330
24
100
AcDbEntity
  8
0
100
AcDbLine
 10
68.66666666666668
 20
10.0
 30
0.0
 11
68.66666666666668
 21
5.0
 31
0.0
  0
LINE
  5
60
330
24
100
AcDbEntity
  8
0
100
AcDbLine
 10
112.3333333333333
 20
10.0
 30
0.0
 11
112.3333333333333
 21
5.0
 31
0.0
  0
LINE
  5
61
330
24
100
AcDbEntity
  8
0
100
AcDbLine
 10
156.0
 20
10.0
 30
0.0
 11
156.0
 21
5.0
 31
0.0
  0
LINE
  5
62
330
24
100
AcDbEntity
  8
0
100
AcDbLine
 10
199.6666666666666
 20
10.0
 30
0.0
 11
199.6666666666666
 21
5.0
 31
0.0
  0
LINE
  5
63
330
24
100
AcDbEntity
  8
0
100
AcDbLine
 10
243.3333333333333
 20
10.0
 30
0.0
 11
243.3333333333333
 21
5.0
 31
0.0
  0
LINE
  5
64
330
24
100
AcDbEntity
  8
0
100
AcDbLine
 10
287.0
 20
57.5
 30
0.0
 11
292.0
 21
57.5
 31
0.0
  0
LINE
  5
65
330
24
100
AcDbEntity
  8
0
100
AcDbLine
 10
287.0
 20
105.0
 30
0.0
 11
292.0
 21
105.0
 31
0.0
  0
LINE
  5
66
330
24
100
AcDbEntity
  8
0
100
AcDbLine
 10
287.0
 20
152.5
 30
0.0
 11
292.0
 21
152.5
 31
0.0
  0
LINE
  5
67
330
24
100
AcDbEntity
  8
0
100
AcDbLine
 10
243.3333333333333
 20
200.0
 30
0.0
 11
243.3333333333333
 21
205.0
 31
0.0
  0
LINE
  5
68
330
24
100
AcDbEntity
  8
0
100
AcDbLine
 10
199.6666666666666
 20
200.0
 30
0.0
 11
199.6666666666666
 21
205.0
 31
0.0
  0
LINE
  5
69
330
24
100
AcDbEntity
  8
0
100
AcDbLine
 10
156.0
 20
200.0
 30
0.0
 11
156.0
 21
205.0
 31
0.0
  0
LINE
  5
6A
330
24
100
AcDbEntity
  8
0
100
AcDbLine
 10
112.3333333333333
 20
200.0
 30
0.0
 11
112.3333333333333
 21
205.0
 31
0.0
  0
LINE
  5
6B
330
24
100
AcDbEntity
  8
0
100
AcDbLine
 10
68.66666666666666
 20
200.0
 30
0.0
 11
68.66666666666666
 21
205.0
 31
0.0
  0
TEXT
  5
6C
330
24
100
AcDbEntity
  8
0
100
AcDbText
 10
45.61904761904761
 20
201.0
 30
0.0
 40
3.0
  1
1
  7
ADESK1
 72
     1
 11
46.83333333333332
 21
201.0
 31
0.0
100
AcDbText
  0
TEXT
  5
6D
330
24
100
AcDbEntity
  8
0
100
AcDbText
 10
21.66139736003921
 20
176.25
 30
0.0
 40
3.0
  1
A
  7
ADESK1
 72
     1
 11
22.94711164575349
 21
176.25
 31
0.0
100
AcDbText
  0
TEXT
  5
6E
330
24
100
AcDbEntity
  8
0
100
AcDbText
 10
89.07142857142856
 20
201.0
 30
0.0
 40
3.0
  1
2
  7
ADESK1
 72
     1
 11
90.5
 21
201.0
 31
0.0
100
AcDbText
  0
TEXT
  5
6F
330
24
100
AcDbEntity
  8
0
100
AcDbText
 10
132.7380952380952
 20
201.0
 30
0.0
 40
3.0
  1
3
  7
ADESK1
 72
     1
 11
134.1666666666666
 21
201.0
 31
0.0
100
AcDbText
  0
TEXT
  5
70
330
24
100
AcDbEntity
  8
0
100
AcDbText
 10
176.3333333333333
 20
201.0
 30
0.0
 40
3.0
  1
4
  7
ADESK1
 72
     1
 11
177.8333333333333
 21
201.0
 31
0.0
100
AcDbText
  0
TEXT
  5
71
330
24
100
AcDbEntity
  8
0
100
AcDbText
 10
220.0714285714286
 20
201.0
 30
0.0
 40
3.0
  1
5
  7
ADESK1
 72
     1
 11
221.4999999999999
 21
201.0
 31
0.0
100
AcDbText
  0
TEXT
  5
72
330
24
100
AcDbEntity
  8
0
100
AcDbText
 10
263.6666666666666
 20
201.0
 30
0.0
 40
3.0
  1
6
  7
ADESK1
 72
     1
 11
265.1666666666666
 21
201.0
 31
0.0
100
AcDbText
  0
TEXT
  5
73
330
24
100
AcDbEntity
  8
0
100
AcDbText
 10
21.37568307432492
 20
128.75
 30
0.0
 40
3.0
  1
B
  7
ADESK1
 72
     1
 11
22.94711164575349
 21
128.75
 31
0.0
100
AcDbText
  0
TEXT
  5
74
330
24
100
AcDbEntity
  8
0
100
AcDbText
 10
21.44711164575349
 20
81.25
 30
0.0
 40
3.0
  1
C
  7
ADESK1
 72
     1
 11
22.94711164575349
 21
81.25
 31
0.0
100
AcDbText
  0
TEXT
  5
75
330
24
100
AcDbEntity
  8
0
100
AcDbText
 10
21.37568307432492
 20
33.75
 30
0.0
 40
3.0
  1
D
  7
ADESK1
 72
     1
 11
22.94711164575349
 21
33.75
 31
0.0
100
AcDbText
  0
TEXT
  5
76
330
24
100
AcDbEntity
  8
0
100
AcDbText
 10
45.61904761904759
 20
6.230338100985607
 30
0.0
 40
3.0
  1
1
  7
ADESK1
 72
     1
 11
46.83333333333331
 21
6.230338100985607
 31
0.0
100
AcDbText
  0
TEXT
  5
77
330
24
100
AcDbEntity
  8
0
100
AcDbText
 10
89.07142857142856
 20
6.230338100985607
 30
0.0
 40
3.0
  1
2
  7
ADESK1
 72
     1
 11
90.5
 21
6.230338100985607
 31
0.0
100
AcDbText
  0
TEXT
  5
78
330
24
100
AcDbEntity
  8
0
100
AcDbText
 10
132.7380952380952
 20
6.230338100985607
 30
0.0
 40
3.0
  1
3
  7
ADESK1
 72
     1
 11
134.1666666666666
 21
6.230338100985607
 31
0.0
100
AcDbText
  0
TEXT
  5
79
330
24
100
AcDbEntity
  8
0
100
AcDbText
 10
176.3333333333333
 20
6.230338100985607
 30
0.0
 40
3.0
  1
4
  7
ADESK1
 72
     1
 11
177.8333333333333
 21
6.230338100985607
 31
0.0
100
AcDbText
  0
TEXT
  5
7A
330
24
100
AcDbEntity
  8
0
100
AcDbText
 10
220.0714285714286
 20
6.230338100985607
 30
0.0
 40
3.0
  1
5
  7
ADESK1
 72
     1
 11
221.4999999999999
 21
6.230338100985607
 31
0.0
100
AcDbText
  0
TEXT
  5
7B
330
24
100
AcDbEntity
  8
0
100
AcDbText
 10
263.6666666666666
 20
6.230338100985607
 30
0.0
 40
3.0
  1
6
  7
ADESK1
 72
     1
 11
265.1666666666666
 21
6.230338100985607
 31
0.0
100
AcDbText
  0
TEXT
  5
7C
330
24
100
AcDbEntity
  8
0
100
AcDbText
 10
287.9530581679809
 20
176.25
 30
0.0
 40
3.0
  1
A
  7
ADESK1
 72
     1
 11
289.2387724536952
 21
176.25
 31
0.0
100
AcDbText
  0
TEXT
  5
7D
330
24
100
AcDbEntity
  8
0
100
AcDbText
 10
287.6673438822666
 20
128.75
 30
0.0
 40
3.0
  1
B
  7
ADESK1
 72
     1
 11
289.2387724536952
 21
128.75
 31
0.0
100
AcDbText
  0
TEXT
  5
7E
330
24
100
AcDbEntity
  8
0
100
AcDbText
 10
287.7387724536952
 20
81.25
 30
0.0
 40
3.0
  1
C
  7
ADESK1
 72
     1
 11
289.2387724536952
 21
81.25
 31
0.0
100
AcDbText
  0
TEXT
  5
7F
330
24
100
AcDbEntity
  8
0
100
AcDbText
 10
287.6673438822666
 20
33.75
 30
0.0
 40
3.0
  1
D
  7
ADESK1
 72
     1
 11
289.2387724536952
 21
33.75
 31
0.0
100
AcDbText
  0
LINE
  5
80
330
24
100
AcDbEntity
  8
0
 62
     0
100
AcDbLine
 10
157.2978723404242
 20
49.00000000000036
 30
0.0
 11
287.0
 21
49.00000000000036
 31
0.0
  0
LINE
  5
81
330
24
100
AcDbEntity
  8
0
 62
     0
100
AcDbLine
 10
157.2978723404242
 20
13.00000000000004
 30
0.0
 11
287.0
 21
13.00000000000004
 31
0.0
  0
LINE
  5
82
330
24
100
AcDbEntity
  8
0
 62
     0
100
AcDbLine
 10
157.2978723404242
 20
37.00000000000024
 30
0.0
 11
287.0
 21
37.00000000000024
 31
0.0
  0
LINE
  5
83
330
24
100
AcDbEntity
  8
0
 62
     0
100
AcDbLine
 10
195.1276595744673
 20
22.00000000000012
 30
0.0
 11
287.0
 21
22.00000000000012
 31
0.0
  0
LINE
  5
84
330
24
100
AcDbEntity
  8
0
 62
     0
100
AcDbLine
 10
157.2978723404242
 20
10.0
 30
0.0
 11
287.0
 21
10.0
 31
0.0
  0
LINE
  5
85
330
24
100
AcDbEntity
  8
0
 62
     0
100
AcDbLine
 10
287.0
 20
49.00000000000036
 30
0.0
 11
157.2978723404242
 21
49.00000000000036
 31
0.0
  0
LINE
  5
86
330
24
100
AcDbEntity
  8
0
 62
     0
100
AcDbLine
 10
180.7163120567365
 20
37.00000000000024
 30
0.0
 11
180.7163120567365
 21
10.0
 31
0.0
  0
LINE
  5
87
330
24
100
AcDbEntity
  8
0
 62
     0
100
AcDbLine
 10
162.702127659573
 20
37.00000000000024
 30
0.0
 11
162.702127659573
 21
10.0
 31
0.0
  0
LINE
  5
88
330
24
100
AcDbEntity
  8
0
 62
     0
100
AcDbLine
 10
189.7234042553184
 20
37.00000000000024
 30
0.0
 11
189.7234042553184
 21
10.0
 31
0.0
  0
LINE
  5
89
330
24
100
AcDbEntity
  8
0
 62
     0
100
AcDbLine
 10
195.1276595744673
 20
25.00000000000012
 30
0.0
 11
195.1276595744673
 21
10.0
 31
0.0
  0
LINE
  5
8A
330
24
100
AcDbEntity
  8
0
 62
     0
100
AcDbLine
 10
157.2978723404242
 20
49.00000000000036
 30
0.0
 11
157.2978723404242
 21
10.0
 31
0.0
  0
LINE
  5
8B
330
24
100
AcDbEntity
  8
0
 62
     0
100
AcDbLine
 10
225.7517730496447
 20
49.00000000000036
 30
0.0
 11
225.7517730496447
 21
10.0
 31
0.0
  0
LINE
  5
8C
330
24
100
AcDbEntity
  8
0
 62
     0
100
AcDbLine
 10
205.7659574468077
 20
22.00000000000007
 30
0.0
 11
205.7659574468077
 21
10.0
 31
0.0
  0
LINE
  5
8D
330
24
100
AcDbEntity
  8
0
 62
     0
100
AcDbLine
 10
216.4042553191484
 20
22.00000000000007
 30
0.0
 11
216.4042553191484
 21
10.0
 31
0.0
  0
LINE
  5
8E
330
24
100
AcDbEntity
  8
0
 62
     0
100
AcDbLine
 10
157.2978723404242
 20
16.00000000000008
 30
0.0
 11
195.1276595744673
 21
16.00000000000008
 31
0.0
  0
LINE
  5
8F
330
24
100
AcDbEntity
  8
0
 62
     0
100
AcDbLine
 10
157.2978723404242
 20
10.0
 30
0.0
 11
157.2978723404242
 21
13.00000000000004
 31
0.0
  0
TEXT
  5
90
330
24
100
AcDbEntity
  8
0
 62
     0
100
AcDbText
 10
198.7174935280942
 20
10.48329012996929
 30
0.0
 40
1.791674070777747
  1
製図
  7
ADESK1
 72
     1
 11
200.5688900678978
 21
10.48329012996929
 31
0.0
100
AcDbText
  0
TEXT
  5
91
330
24
100
AcDbEntity
  8
0
 62
     0
100
AcDbText
 10
209.2960689314087
 20
10.48329012996929
 30
0.0
 40
1.791674070777747
  1
設計
  7
ADESK1
 72
     1
 11
211.2071879402383
 21
10.48329012996929
 31
0.0
100
AcDbText
  0
TEXT
  5
92
330
24
100
AcDbEntity
  8
0
 62
     0
100
AcDbText
 10
219.2447163844405
 20
10.55220101068186
 30
0.0
 40
1.791674070777747
  1
照査
  7
ADESK1
 72
     1
 11
221.1558353932701
 21
10.55220101068186
 31
0.0
100
AcDbText
  0
LINE
  5
93
330
24
100
AcDbEntity
  8
0
 62
     0
100
AcDbLine
 10
157.2978723404242
 20
25.00000000000012
 30
0.0
 11
195.1276595744673
 21
25.00000000000012
 31
0.0
  0
LINE
  5
94
330
24
100
AcDbEntity
  8
0
 62
     0
100
AcDbLine
 10
157.2978723404242
 20
22.00000000000007
 30
0.0
 11
195.1276595744673
 21
22.00000000000012
 31
0.0
  0
LINE
  5
95
330
24
100
AcDbEntity
  8
0
 62
     0
100
AcDbLine
 10
157.2978723404242
 20
19.00000000000007
 30
0.0
 11
195.1276595744673
 21
19.00000000000012
 31
0.0
  0
LINE
  5
96
330
24
100
AcDbEntity
  8
0
 62
     0
100
AcDbLine
 10
157.2978723404242
 20
34.00000000000024
 30
0.0
 11
225.7517730496447
 21
34.00000000000024
 31
0.0
  0
LINE
  5
97
330
24
100
AcDbEntity
  8
0
 62
     0
100
AcDbLine
 10
157.2978723404242
 20
31.0000000000002
 30
0.0
 11
225.7517730496447
 21
31.0000000000002
 31
0.0
  0
LINE
  5
98
330
24
100
AcDbEntity
  8
0
 62
     0
100
AcDbLine
 10
157.2978723404242
 20
28.00000000000015
 30
0.0
 11
225.7517730496447
 21
28.00000000000015
 31
0.0
  0
LINE
  5
99
330
24
100
AcDbEntity
  8
0
 62
     0
100
AcDbLine
 10
195.1276595744673
 20
25.00000000000012
 30
0.0
 11
225.7517730496447
 21
25.00000000000012
 31
0.0
  0
LINE
  5
9A
330
24
100
AcDbEntity
  8
0
 62
     0
100
AcDbLine
 10
195.1276595744673
 20
49.00000000000036
 30
0.0
 11
195.1276595744673
 21
25.00000000000012
 31
0.0
  0
LINE
  5
9B
330
24
100
AcDbEntity
  8
0
 62
     0
100
AcDbLine
 10
202.3333333333325
 20
37.00000000000024
 30
0.0
 11
202.3333333333325
 21
25.00000000000012
 31
0.0
  0
LINE
  5
9C
330
24
100
AcDbEntity
  8
0
 62
     0
100
AcDbLine
 10
213.1418439716305
 20
49.00000000000036
 30
0.0
 11
213.1418439716305
 21
22.00000000000012
 31
0.0
  0
LINE
  5
9D
330
24
100
AcDbEntity
  8
0
 62
     0
100
AcDbLine
 10
279.7943262411347
 20
22.00000000000012
 30
0.0
 11
279.7943262411347
 21
10.0
 31
0.0
  0
LINE
  5
9E
330
24
100
AcDbEntity
  8
0
 62
     0
100
AcDbLine
 10
287.0
 20
49.00000000000036
 30
0.0
 11
287.0
 21
10.0
 31
0.0
  0
LINE
  5
9F
330
24
100
AcDbEntity
  8
0
 62
     0
100
AcDbLine
 10
287.0
 20
10.0
 30
0.0
 11
287.0
 21
49.00000000000036
 31
0.0
  0
LINE
  5
A0
330
24
100
AcDbEntity
  8
0
 62
     0
100
AcDbLine
 10
279.7943262411347
 20
16.00000000000008
 30
0.0
 11
287.0
 21
16.00000000000008
 31
0.0
  0
ENDBLK
  5
A2
330
24
100
AcDbEntity
  8
0
100
AcDbBlockEnd
  0
BLOCK
  5
3443
330
3437
100
AcDbEntity
  8
0
100
AcDbBlockBegin
  2
*D1
 70
     1
 10
0.0
 20
0.0
 30
0.0
  3
*D1
  1

  0
LINE
  5
3438
330
3437
100
AcDbEntity
  8
OBJECT
 62
     0
370
    -2
100
AcDbLine
 10
-8068.568047744786
 20
3998.303038975791
 30
0.0
 11
-7757.422052324407
 21
3998.303038975791
 31
0.0
  0
LINE
  5
3439
330
3437
100
AcDbEntity
  8
OBJECT
 62
     0
370
    -2
100
AcDbLine
 10
-8068.568047744786
 20
4078.303038975791
 30
0.0
 11
-7757.422052324407
 21
4078.303038975791
 31
0.0
  0
LINE
  5
343A
330
3437
100
AcDbEntity
  8
OBJECT
 62
     0
370
    -2
100
AcDbLine
 10
-7776.172052324408
 20
3960.803038975791
 30
0.0
 11
-7776.172052324408
 21
3923.303038975791
 31
0.0
  0
LINE
  5
343B
330
3437
100
AcDbEntity
  8
OBJECT
 62
     0
370
    -2
100
AcDbLine
 10
-7776.172052324408
 20
4115.803038975792
 30
0.0
 11
-7776.172052324408
 21
4153.303038975791
 31
0.0
  0
LINE
  5
343C
330
3437
100
AcDbEntity
  8
OBJECT
 62
     0
370
    -2
100
AcDbLine
 10
-7776.172052324408
 20
3998.303038975791
 30
0.0
 11
-7776.172052324408
 21
4078.303038975791
 31
0.0
  0
SOLID
  5
343D
330
3437
100
AcDbEntity
  8
OBJECT
 62
     0
100
AcDbTrace
 10
-7782.422052324408
 20
3960.803038975791
 30
0.0
 11
-7769.922052324408
 21
3960.803038975791
 31
0.0
 12
-7776.172052324408
 22
3998.303038975791
 32
0.0
 13
-7776.172052324408
 23
3998.303038975791
 33
0.0
  0
SOLID
  5
343E
330
3437
100
AcDbEntity
  8
OBJECT
 62
     0
100
AcDbTrace
 10
-7782.422052324408
 20
4115.803038975792
 30
0.0
 11
-7769.922052324408
 21
4115.803038975792
 31
0.0
 12
-7776.172052324408
 22
4078.303038975791
 32
0.0
 13
-7776.172052324408
 23
4078.303038975791
 33
0.0
  0
MTEXT
  5
343F
330
3437
100
AcDbEntity
  8
OBJECT
 62
     0
100
AcDbMText
 10
-7804.297052324407
 20
4038.303038975789
 30
0.0
 40
37.5
 41
0.0
 71
     5
 72
     1
  1
\A1;80
 11
0.0000000000000001
 21
1.0
 31
0.0
 73
     1
 44
1.0
  0
POINT
  5
3440
330
3437
100
AcDbEntity
  8
DEFPOINTS
 62
     0
100
AcDbPoint
 10
-8077.943047744787
 20
3998.303038975791
 30
0.0
  0
POINT
  5
3441
330
3437
100
AcDbEntity
  8
DEFPOINTS
 62
     0
100
AcDbPoint
 10
-8077.943047744787
 20
4078.303038975791
 30
0.0
  0
POINT
  5
3442
330
3437
100
AcDbEntity
  8
DEFPOINTS
 62
     0
100
AcDbPoint
 10
-7776.172052324408
 20
4078.303038975791
 30
0.0
  0
ENDBLK
  5
3444
330
3437
100
AcDbEntity
  8
0
100
AcDbBlockEnd
  0
BLOCK
  5
3447
330
3445
100
AcDbEntity
  8
0
100
AcDbBlockBegin
  2
A$C23BB6A77
 70
     0
 10
0.0
 20
0.0
 30
0.0
  3
A$C23BB6A77
  1

  0
DIMENSION
  5
3446
330
3445
100
AcDbEntity
  8
OBJECT
100
AcDbDimension
  2
*D1
 10
301.7709854312124
 20
154.9999934708971
 30
0.0
 11
273.6459854312115
 21
114.9999934708962
 31
0.0
 12
8077.94303775562
 22
-3923.303045504894
 32
0.0
 71
     5
 42
79.99999999999954
  3
STANDARD
100
AcDbAlignedDimension
 13
-0.0000099891658465
 23
74.99999347089761
 33
0.0
 14
-0.0000099891658465
 24
154.9999934708971
 34
0.0
 50
90.0
100
AcDbRotatedDimension
1001
ACAD
1000
DSTYLE
1002
{
1070
    40
1040
15.0
1070
    41
1040
2.5
1070
    42
1040
0.625
1070
    43
1040
3.75
1070
    44
1040
1.25
1070
    73
1070
     0
1070
    74
1070
     0
1070
    77
1070
     1
1070
    78
1070
     8
1070
   140
1040
2.5
1070
   141
1040
2.5
1070
   143
1040
0.0394
1070
   147
1040
0.625
1070
   171
1070
     4
1070
   172
1070
     1
1070
   273
1070
     8
1070
   274
1070
     4
1070
   277
1070
     6
1002
}
  0
ENDBLK
  5
3448
330
3445
100
AcDbEntity
  8
0
100
AcDbBlockEnd
  0
ENDSEC
  0
SECTION
  2
ENTITIES
  0
MTEXT
  5
938
330
18
100
AcDbEntity
  8
上書線
100
AcDbMText
 10
1865.739761775792
 20
499.0283937835011
 30
0.0
 40
37.5
 41
0.0
 71
     4
 72
     1
  1
\A1;
 73
     1
 44
1.0
  0
LINE
  5
123E
330
18
100
AcDbEntity
  8
基準線
100
AcDbLine
 10
710.0813698183028
 20
2117.506972677286
 30
0.0
 11
731.0813698183028
 21
2117.506972677286
 31
0.0
  0
LINE
  5
14BB
330
18
100
AcDbEntity
  8
基準線
100
AcDbLine
 10
1281.296189060135
 20
2744.451732006984
 30
0.0
 11
1631.12377476475
 21
2744.451732006984
 31
0.0
  0
LINE
  5
14BC
330
18
100
AcDbEntity
  8
基準線
100
AcDbLine
 10
1131.296189060135
 20
2594.451732006984
 30
0.0
 11
1604.134047986604
 21
2594.451732006984
 31
0.0
  0
LINE
  5
1546
330
18
100
AcDbEntity
  8
基準線
100
AcDbLine
 10
2000.40772718317
 20
1104.126411816217
 30
0.0
 11
2000.40772718317
 21
1262.163674897728
 31
0.0
  0
LINE
  5
154B
330
18
100
AcDbEntity
  8
基準線
100
AcDbLine
 10
2550.40772718317
 20
1049.126411816217
 30
0.0
 11
2550.40772718317
 21
1211.614819254876
 31
0.0
  0
LINE
  5
154C
330
18
100
AcDbEntity
  8
基準線
100
AcDbLine
 10
2150.40772718317
 20
1049.126411816217
 30
0.0
 11
2150.40772718317
 21
1226.779475202555
 31
0.0
  0
LINE
  5
15CA
330
18
100
AcDbEntity
  8
基準線
100
AcDbLine
 10
3419.935833980378
 20
2804.85492986955
 30
0.0
 11
3776.432100616551
 21
2804.85492986955
 31
0.0
  0
LINE
  5
15CC
330
18
100
AcDbEntity
  8
基準線
100
AcDbLine
 10
3776.432100616551
 20
2804.85492986955
 30
0.0
 11
4171.357345948922
 21
2804.85492986955
 31
0.0
  0
LINE
  5
15D0
330
18
100
AcDbEntity
  8
基準線
100
AcDbLine
 10
3419.935833980378
 20
2684.85492986955
 30
0.0
 11
3776.432100616551
 21
2684.85492986955
 31
0.0
  0
LINE
  5
15D1
330
18
100
AcDbEntity
  8
基準線
100
AcDbLine
 10
3598.183967298465
 20
2684.85492986955
 30
0.0
 11
3598.183967298465
 21
984.8549298695507
 31
0.0
  0
LINE
  5
15D2
330
18
100
AcDbEntity
  8
基準線
100
AcDbLine
 10
3776.432100616551
 20
2484.854929869551
 30
0.0
 11
4171.357345948921
 21
2484.85492986955
 31
0.0
  0
LINE
  5
15D3
330
18
100
AcDbEntity
  8
基準線
100
AcDbLine
 10
3973.894723282737
 20
2684.854929869551
 30
0.0
 11
3973.894723282734
 21
984.8549298695507
 31
0.0
  0
LINE
  5
15D4
330
18
100
AcDbEntity
  8
基準線
100
AcDbLine
 10
3419.935833980378
 20
2684.85492986955
 30
0.0
 11
3419.935833980378
 21
2584.85492986955
 31
0.0
  0
LINE
  5
15D5
330
18
100
AcDbEntity
  8
基準線
100
AcDbLine
 10
3419.935833980378
 20
2634.85492986955
 30
0.0
 11
4114.659436953616
 21
2634.85492986955
 31
0.0
  0
MTEXT
  5
2600
330
18
100
AcDbEntity
  8
上書線
100
AcDbMText
 10
8172.215642318956
 20
6431.964015465189
 30
0.0
 40
60.0
 41
956.9129999999999
 71
     1
 72
     5
  1
重量表
 73
     1
 44
1.0
  0
MTEXT
  5
283E
330
18
100
AcDbEntity
  8
上線
100
AcDbMText
 10
8272.047576619849
 20
6257.122105883767
 30
0.0
 40
49.968
 41
197.7879999999999
 71
     1
 72
     5
  1
Ｈ
 73
     1
 44
1.0
  0
LINE
  5
283F
330
18
100
AcDbEntity
  8
上線
100
AcDbLine
 10
7895.992297425703
 20
5694.37247003616
 30
0.0
 11
8713.722805071945
 21
5694.37247003616
 31
0.0
  0
LINE
  5
2840
330
18
100
AcDbEntity
  8
上線
100
AcDbLine
 10
7895.992297425703
 20
5792.287827711229
 30
0.0
 11
8713.722805071945
 21
5792.287827711229
 31
0.0
  0
LINE
  5
2841
330
18
100
AcDbEntity
  8
上線
100
AcDbLine
 10
7895.992297425703
 20
5890.203185386296
 30
0.0
 11
8713.722805071945
 21
5890.203185386296
 31
0.0
  0
LINE
  5
2842
330
18
100
AcDbEntity
  8
上線
100
AcDbLine
 10
7895.992297425703
 20
5988.118543061363
 30
0.0
 11
8713.722805071945
 21
5988.118543061363
 31
0.0
  0
LINE
  5
2843
330
18
100
AcDbEntity
  8
上線
100
AcDbLine
 10
7895.992297425703
 20
6086.03390073643
 30
0.0
 11
8713.722805071945
 21
6086.03390073643
 31
0.0
  0
LINE
  5
2844
330
18
100
AcDbEntity
  8
上線
100
AcDbLine
 10
7895.992297425703
 20
6183.869258525261
 30
0.0
 11
8714.35746390342
 21
6183.869258525261
 31
0.0
  0
LINE
  5
2845
330
18
100
AcDbEntity
  8
上線
100
AcDbLine
 10
8713.722805071945
 20
6281.864616086565
 30
0.0
 11
7895.992297425703
 21
6281.864616086565
 31
0.0
  0
LINE
  5
284A
330
18
100
AcDbEntity
  8
上線
100
AcDbLine
 10
8168.569133307782
 20
6281.864616086565
 30
0.0
 11
8168.569133307782
 21
5498.541754686026
 31
0.0
  0
LINE
  5
284B
330
18
100
AcDbEntity
  8
上線
100
AcDbLine
 10
7895.992297425703
 20
6281.864616086565
 30
0.0
 11
7895.992297425703
 21
5498.541754686026
 31
0.0
  0
MTEXT
  5
285C
330
18
100
AcDbEntity
  8
上線
100
AcDbMText
 10
7990.579662450826
 20
6257.122105883767
 30
0.0
 40
49.968
 41
197.7879999999999
 71
     1
 72
     5
  1
h1
 73
     1
 44
1.0
  0
LINE
  5
285F
330
18
100
AcDbEntity
  8
上線
100
AcDbLine
 10
8441.145969189864
 20
6281.864616086565
 30
0.0
 11
8441.145969189864
 21
5498.541754686026
 31
0.0
  0
LINE
  5
2860
330
18
100
AcDbEntity
  8
上線
100
AcDbLine
 10
8713.722805071945
 20
5498.541754686026
 30
0.0
 11
8713.722805071945
 21
6281.864616086565
 31
0.0
  0
MTEXT
  5
2866
330
18
100
AcDbEntity
  8
上線
100
AcDbMText
 10
8484.26984461572
 20
6240.308695126168
 30
0.0
 40
24.984
 41
247.78800162
 71
     1
 72
     5
  1
\fＭＳ Ｐ明朝|b0|i0|c128|p18;参考重量（㎏）
 73
     1
 44
1.0
  0
LINE
  5
34F5
330
18
100
AcDbEntity
  8
上線
100
AcDbLine
 10
7895.992297425703
 20
5596.457112361093
 30
0.0
 11
8713.722805071945
 21
5596.457112361093
 31
0.0
  0
LINE
  5
34F6
330
18
100
AcDbEntity
  8
上線
100
AcDbLine
 10
7895.992297425703
 20
5498.541754686026
 30
0.0
 11
8713.722805071945
 21
5498.541754686026
 31
0.0
  0
MTEXT
  5
355D
330
18
100
AcDbEntity
  8
上線
100
AcDbMText
 10
8008.459565339514
 20
5568.829490512434
 30
0.0
 40
49.968
 41
247.7879999999999
 71
     1
 72
     5
  1
600
 73
     1
 44
1.0
  0
MTEXT
  5
355F
330
18
100
AcDbEntity
  8
上線
100
AcDbMText
 10
8008.459565339514
 20
5764.660205862569
 30
0.0
 40
49.968
 41
247.7879999999999
 71
     1
 72
     5
  1
500
 73
     1
 44
1.0
  0
MTEXT
  5
3560
330
18
100
AcDbEntity
  8
上線
100
AcDbMText
 10
8010.334013173016
 20
6156.241636676602
 30
0.0
 40
49.968
 41
247.7879999999999
 71
     1
 72
     5
  1
300
 73
     1
 44
1.0
  0
MTEXT
  5
3561
330
18
100
AcDbEntity
  8
上線
100
AcDbMText
 10
8008.459565339514
 20
5960.490921212703
 30
0.0
 40
49.968
 41
247.7879999999999
 71
     1
 72
     5
  1
400
 73
     1
 44
1.0
  0
MTEXT
  5
3572
330
18
100
AcDbEntity
  8
上線
100
AcDbMText
 10
8249.068401221594
 20
5568.589490853728
 30
0.0
 40
49.968
 41
279.7559999999999
 71
     1
 72
     5
  1
1300
 73
     1
 44
1.0
  0
MTEXT
  5
358B
330
18
100
AcDbEntity
  8
上線
100
AcDbMText
 10
8553.613237103673
 20
5764.660205862569
 30
0.0
 40
49.968
 41
247.7879999999999
 71
     1
 72
     5
  1
982
 73
     1
 44
1.0
  0
MTEXT
  5
358C
330
18
100
AcDbEntity
  8
上線
100
AcDbMText
 10
8555.487684937178
 20
6156.241636676602
 30
0.0
 40
49.968
 41
247.7879999999999
 71
     1
 72
     5
  1
787
 73
     1
 44
1.0
  0
MTEXT
  5
358D
330
18
100
AcDbEntity
  8
上線
100
AcDbMText
 10
8553.613237103673
 20
5960.490921212703
 30
0.0
 40
49.968
 41
247.7879999999999
 71
     1
 72
     5
  1
884
 73
     1
 44
1.0
  0
MTEXT
  5
3599
330
18
100
AcDbEntity
  8
上線
100
AcDbMText
 10
8249.068401221594
 20
5764.420206203862
 30
0.0
 40
49.968
 41
279.7559999999999
 71
     1
 72
     5
  1
1200
 73
     1
 44
1.0
  0
MTEXT
  5
35A3
330
18
100
AcDbEntity
  8
上線
100
AcDbMText
 10
8249.068401221594
 20
5960.250921553996
 30
0.0
 40
49.968
 41
279.7559999999999
 71
     1
 72
     5
  1
1100
 73
     1
 44
1.0
  0
MTEXT
  5
35AD
330
18
100
AcDbEntity
  8
上線
100
AcDbMText
 10
8249.068401221594
 20
6156.081636904131
 30
0.0
 40
49.968
 41
279.7559999999999
 71
     1
 72
     5
  1
1000
 73
     1
 44
1.0
  0
ARC
  5
36D1
330
18
100
AcDbEntity
  8
上線
100
AcDbCircle
 10
7074.577315032275
 20
4589.939015364207
 30
0.0
 40
50.0
100
AcDbArc
 50
270.0
 51
359.1815445383053
  0
LINE
  5
36D2
330
18
100
AcDbEntity
  8
点線
100
AcDbLine
 10
6779.582416812809
 20
5189.939015364207
 30
0.0
 11
7179.582416812809
 21
5189.939015364207
 31
0.0
  0
LINE
  5
36D3
330
18
100
AcDbEntity
  8
上線
100
AcDbLine
 10
7278.868131098523
 20
5239.939015364207
 30
0.0
 11
6708.868131098523
 21
5239.939015364207
 31
0.0
  0
LINE
  5
36D4
330
18
100
AcDbEntity
  8
OBJECT
100
AcDbLine
 10
7278.868131098523
 20
3939.939015364206
 30
0.0
 11
6708.868131098523
 21
3939.939015364207
 31
0.0
  0
LINE
  5
3700
330
18
100
AcDbEntity
  8
上線
 48
10.0
100
AcDbLine
 10
7128.153845384237
 20
5139.939015364207
 30
0.0
 11
7124.57221377225
 21
4589.224802525059
 31
0.0
  0
LINE
  5
3701
330
18
100
AcDbEntity
  8
上線
 48
10.0
100
AcDbLine
 10
6829.582416812809
 20
5139.939015364207
 30
0.0
 11
6833.164048424797
 21
4589.224802525059
 31
0.0
  0
LINE
  5
3705
330
18
100
AcDbEntity
  8
OBJECT
100
AcDbLine
 10
6708.868131098523
 20
3939.939015364207
 30
0.0
 11
6708.868131098523
 21
5239.939015364207
 31
0.0
  0
LINE
  5
3706
330
18
100
AcDbEntity
  8
点線
100
AcDbLine
 10
6829.582416812809
 20
5189.939015364207
 30
0.0
 11
6829.582416812808
 21
3939.939015364206
 31
0.0
  0
LINE
  5
3707
330
18
100
AcDbEntity
  8
点線
100
AcDbLine
 10
7128.153845384237
 20
5189.939015364207
 30
0.0
 11
7128.153845384237
 21
3939.939015364206
 31
0.0
  0
ARC
  5
370D
330
18
100
AcDbEntity
  8
上線
100
AcDbCircle
 10
6883.158947164772
 20
4589.939015364207
 30
0.0
 40
50.0
100
AcDbArc
 50
180.8184554616945
 51
270.0
  0
LINE
  5
3713
330
18
100
AcDbEntity
  8
上線
100
AcDbLine
 10
7074.577315032275
 20
4539.939015364207
 30
0.0
 11
6883.158947164772
 21
4539.939015364207
 31
0.0
  0
LINE
  5
3721
330
18
100
AcDbEntity
  8
上線
 48
10.0
100
AcDbLine
 10
6829.582416812809
 20
5139.939015364207
 30
0.0
 11
7128.153845384237
 21
5139.939015364207
 31
0.0
  0
LINE
  5
3722
330
18
100
AcDbEntity
  8
点線
100
AcDbLine
 10
6779.582416812809
 20
5189.939015364207
 30
0.0
 11
6779.582416812809
 21
5239.939015364207
 31
0.0
  0
LINE
  5
378D
330
18
100
AcDbEntity
  8
OBJECT
100
AcDbLine
 10
6408.868131098524
 20
3939.939015364206
 30
0.0
 11
6408.868131098524
 21
5239.939015364207
 31
0.0
  0
LINE
  5
378E
330
18
100
AcDbEntity
  8
点線
100
AcDbLine
 10
6208.868131098522
 20
5189.939015364207
 30
0.0
 11
6208.868131098522
 21
3939.939015364206
 31
0.0
  0
LINE
  5
378F
330
18
100
AcDbEntity
  8
OBJECT
100
AcDbLine
 10
7278.868131098523
 20
5239.939015364207
 30
0.0
 11
7278.868131098523
 21
3939.939015364206
 31
0.0
  0
LINE
  5
3790
330
18
100
AcDbEntity
  8
OBJECT
100
AcDbLine
 10
5408.868131098523
 20
5239.939015364207
 30
0.0
 11
5408.868131098523
 21
3939.939015364206
 31
0.0
  0
LINE
  5
3791
330
18
100
AcDbEntity
  8
点線
100
AcDbLine
 10
5608.868131098523
 20
5189.939015364207
 30
0.0
 11
5608.868131098523
 21
3939.939015364206
 31
0.0
  0
LINE
  5
3792
330
18
100
AcDbEntity
  8
OBJECT
100
AcDbLine
 10
5408.868131098523
 20
3939.939015364206
 30
0.0
 11
6408.868131098524
 21
3939.939015364206
 31
0.0
  0
LINE
  5
3793
330
18
100
AcDbEntity
  8
点線
100
AcDbLine
 10
5608.868131098523
 20
4539.939015364205
 30
0.0
 11
5408.868131098523
 21
4539.939015364205
 31
0.0
  0
LINE
  5
3794
330
18
100
AcDbEntity
  8
点線
100
AcDbLine
 10
6208.868131098522
 20
4539.939015364205
 30
0.0
 11
6408.868131098524
 21
4539.939015364205
 31
0.0
  0
LINE
  5
3797
330
18
100
AcDbEntity
  8
OBJECT
100
AcDbLine
 10
5408.868131098523
 20
5239.939015364207
 30
0.0
 11
6408.868131098524
 21
5239.939015364207
 31
0.0
  0
LINE
  5
3798
330
18
100
AcDbEntity
  8
点線
100
AcDbLine
 10
5608.868131098523
 20
5189.939015364207
 30
0.0
 11
6208.868131098522
 21
5189.939015364207
 31
0.0
  0
LINE
  5
379D
330
18
100
AcDbEntity
  8
点線
100
AcDbLine
 10
5608.868131098523
 20
5139.939015364205
 30
0.0
 11
5408.868131098523
 21
5139.939015364205
 31
0.0
  0
LINE
  5
379E
330
18
100
AcDbEntity
  8
点線
100
AcDbLine
 10
7179.582416812809
 20
5189.939015364207
 30
0.0
 11
7179.582416812809
 21
5239.939015364207
 31
0.0
  0
LINE
  5
379F
330
18
100
AcDbEntity
  8
点線
100
AcDbLine
 10
5608.868131098523
 20
5239.939015364207
 30
0.0
 11
5608.868131098523
 21
5189.939015364207
 31
0.0
  0
LINE
  5
37A7
330
18
100
AcDbEntity
  8
点線
100
AcDbLine
 10
6208.868131098522
 20
5139.939015364205
 30
0.0
 11
6408.868131098524
 21
5139.939015364205
 31
0.0
  0
LINE
  5
37A8
330
18
100
AcDbEntity
  8
点線
100
AcDbLine
 10
6208.868131098522
 20
5189.939015364207
 30
0.0
 11
6208.868131098522
 21
5239.939015364207
 31
0.0
  0
MTEXT
  5
3908
330
18
100
AcDbEntity
  8
上線
100
AcDbMText
 10
8010.334013173016
 20
6058.406278887771
 30
0.0
 40
49.968
 41
247.7879999999999
 71
     1
 72
     5
  1
350
 73
     1
 44
1.0
  0
MTEXT
  5
3909
330
18
100
AcDbEntity
  8
上線
100
AcDbMText
 10
8008.459565339514
 20
5862.655563423872
 30
0.0
 40
49.968
 41
247.7879999999999
 71
     1
 72
     5
  1
450
 73
     1
 44
1.0
  0
MTEXT
  5
390A
330
18
100
AcDbEntity
  8
上線
100
AcDbMText
 10
8008.459565339514
 20
5666.824848073738
 30
0.0
 40
49.968
 41
247.7879999999999
 71
     1
 72
     5
  1
550
 73
     1
 44
1.0
  0
MTEXT
  5
3911
330
18
100
AcDbEntity
  8
上線
100
AcDbMText
 10
8249.068401221594
 20
6058.246279115301
 30
0.0
 40
49.968
 41
279.7559999999999
 71
     1
 72
     5
  1
1050
 73
     1
 44
1.0
  0
MTEXT
  5
3912
330
18
100
AcDbEntity
  8
上線
100
AcDbMText
 10
8249.068401221594
 20
5862.415563765165
 30
0.0
 40
49.968
 41
279.7559999999999
 71
     1
 72
     5
  1
1150
 73
     1
 44
1.0
  0
MTEXT
  5
3913
330
18
100
AcDbEntity
  8
上線
100
AcDbMText
 10
8249.068401221594
 20
5666.58484841503
 30
0.0
 40
49.968
 41
279.7559999999999
 71
     1
 72
     5
  1
1250
 73
     1
 44
1.0
  0
MTEXT
  5
3914
330
18
100
AcDbEntity
  8
上線
100
AcDbMText
 10
8555.487684937178
 20
6058.406278887771
 30
0.0
 40
49.968
 41
247.7879999999999
 71
     1
 72
     5
  1
835
 73
     1
 44
1.0
  0
MTEXT
  5
3915
330
18
100
AcDbEntity
  8
上線
100
AcDbMText
 10
8553.613237103673
 20
5862.655563423872
 30
0.0
 40
49.968
 41
247.7879999999999
 71
     1
 72
     5
  1
933
 73
     1
 44
1.0
  0
MTEXT
  5
39E0
330
18
100
AcDbEntity
  8
上線
100
AcDbMText
 10
8521.645237103674
 20
5568.829490512435
 30
0.0
 40
49.968
 41
279.7559999999999
 71
     1
 72
     5
  1
1079
 73
     1
 44
1.0
  0
MTEXT
  5
39E1
330
18
100
AcDbEntity
  8
上線
100
AcDbMText
 10
8521.645237103674
 20
5666.744848187502
 30
0.0
 40
49.968
 41
279.7559999999999
 71
     1
 72
     5
  1
1030
 73
     1
 44
1.0
  0
LINE
  5
3B50
330
18
100
AcDbEntity
  8
OBJECT
 48
10.0
100
AcDbLine
 10
6708.868156920996
 20
5419.939006600789
 30
0.0
 11
7278.868156921038
 21
5419.939006600791
 31
0.0
  0
LINE
  5
3B51
330
18
100
AcDbEntity
  8
OBJECT
 48
10.0
100
AcDbLine
 10
6708.868156920996
 20
5569.939015364212
 30
0.0
 11
7278.868156921017
 21
5569.939015364212
 31
0.0
  0
LINE
  5
3B52
330
18
100
AcDbEntity
  8
WUWAGAKI
100
AcDbLine
 10
8884.253193875442
 20
6687.028964014011
 30
0.0
 11
4613.534275248525
 21
6687.028964014011
 31
0.0
  0
LINE
  5
3B53
330
18
100
AcDbEntity
  8
WUWAGAKI
100
AcDbLine
 10
4613.534275248525
 20
3760.879112217887
 30
0.0
 11
8884.253193875442
 21
3760.879112217887
 31
0.0
  0
SOLID
  5
3B54
330
18
100
AcDbEntity
  8
0
  6
ByBlock
 62
     0
 48
10.0
100
AcDbTrace
 10
7216.368180639335
 20
5426.189006600786
 30
0.0
 11
7216.368180639335
 21
5413.689006600784
 31
0.0
 12
7178.868180639335
 22
5419.939006600785
 32
0.0
 13
7178.868180639335
 23
5419.939006600785
 33
0.0
  0
MTEXT
  5
3B55
330
18
100
AcDbEntity
  8
0
  6
ByBlock
 62
     0
 48
10.0
100
AcDbMText
 10
7228.868156921038
 20
5449.939006600791
 30
0.0
 40
37.5
 41
0.0
 71
     5
 72
     1
  1
100
 73
     1
 44
1.0
  0
LINE
  5
3B58
330
18
100
AcDbEntity
  8
0
 48
10.0
100
AcDbLine
 10
6708.868156920996
 20
5269.939015364207
 30
0.0
 11
6708.868156920996
 21
5599.939015364207
 31
0.0
  0
LINE
  5
3B59
330
18
100
AcDbEntity
  8
WUWAGAKI
100
AcDbLine
 10
4613.534275248525
 20
6687.028964014011
 30
0.0
 11
4613.534275248525
 21
3760.879112217887
 31
0.0
  0
LINE
  5
3B5A
330
18
100
AcDbEntity
  8
0
 48
10.0
100
AcDbLine
 10
6828.868156920996
 20
5269.939005269012
 30
0.0
 11
6828.868156920996
 21
5449.939005269012
 31
0.0
  0
LINE
  5
3B5B
330
18
100
AcDbEntity
  8
0
 48
10.0
100
AcDbLine
 10
6778.868156920996
 20
5269.939015364204
 30
0.0
 11
6778.868156920996
 21
5449.939015364203
 31
0.0
  0
LINE
  5
3B5C
330
18
100
AcDbEntity
  8
0
 48
10.0
100
AcDbLine
 10
6828.868156920996
 20
5269.939005269016
 30
0.0
 11
6828.868156920996
 21
5449.939005269015
 31
0.0
  0
LINE
  5
3B5D
330
18
100
AcDbEntity
  8
0
 48
10.0
100
AcDbLine
 10
7128.868156921038
 20
5269.939005269016
 30
0.0
 11
7128.868156921038
 21
5449.939005269015
 31
0.0
  0
LINE
  5
3B5E
330
18
100
AcDbEntity
  8
0
 48
10.0
100
AcDbLine
 10
7178.868156921038
 20
5269.939015364207
 30
0.0
 11
7178.868156921038
 21
5449.939015364208
 31
0.0
  0
LINE
  5
3B62
330
18
100
AcDbEntity
  8
OBJECT
 48
10.0
100
AcDbLine
 10
5078.868139861945
 20
5239.939015364207
 30
0.0
 11
5078.868139861941
 21
3939.939015364206
 31
0.0
  0
LINE
  5
3B63
330
18
100
AcDbEntity
  8
OBJECT
 48
10.0
100
AcDbLine
 10
5228.868141838473
 20
3939.939015364206
 30
0.0
 11
5228.868141838473
 21
5239.939015364207
 31
0.0
  0
LINE
  5
3B66
330
18
100
AcDbEntity
  8
0
 48
10.0
100
AcDbLine
 10
5378.868131098523
 20
3939.939015364206
 30
0.0
 11
5048.868131098522
 21
3939.939015364206
 31
0.0
  0
SOLID
  5
3B67
330
18
100
AcDbEntity
  8
0
  6
ByBlock
 62
     0
 48
10.0
100
AcDbTrace
 10
5085.118131098522
 20
3977.439015364227
 30
0.0
 11
5072.61813109852
 21
3977.439015364227
 31
0.0
 12
5078.86813109852
 22
3939.939015364227
 32
0.0
 13
5078.86813109852
 23
3939.939015364227
 33
0.0
  0
SOLID
  5
3B68
330
18
100
AcDbEntity
  8
0
  6
ByBlock
 62
     0
 48
10.0
100
AcDbTrace
 10
5235.11814183847
 20
3977.43902722336
 30
0.0
 11
5222.61814183847
 21
3977.43902722336
 31
0.0
 12
5228.868141838471
 22
3939.93902722336
 32
0.0
 13
5228.868141838471
 23
3939.93902722336
 33
0.0
  0
MTEXT
  5
3B69
330
18
100
AcDbEntity
  8
0
  6
ByBlock
 62
     0
 48
10.0
100
AcDbMText
 10
5198.868139861943
 20
4239.939015364207
 30
0.0
 40
37.5
 41
0.0
 71
     5
 72
     1
  1
h1
 11
0.0000000000000001
 21
1.0
 31
0.0
 73
     1
 44
1.0
  0
LINE
  5
3B6A
330
18
100
AcDbEntity
  8
0
 48
10.0
100
AcDbLine
 10
5378.868131098523
 20
5239.939015364207
 30
0.0
 11
5048.868131098522
 21
5239.939015364207
 31
0.0
  0
MTEXT
  5
3B6B
330
18
100
AcDbEntity
  8
0
  6
ByBlock
 62
     0
 48
10.0
100
AcDbMText
 10
5048.868131098522
 20
4589.939015364206
 30
0.0
 40
37.5
 41
0.0
 71
     5
 72
     1
  1
H
 11
0.0000000000000001
 21
1.0
 31
0.0
 73
     1
 44
1.0
  0
SOLID
  5
3B6C
330
18
100
AcDbEntity
  8
0
  6
ByBlock
 62
     0
 48
10.0
100
AcDbTrace
 10
5085.118131098522
 20
5202.439015364185
 30
0.0
 11
5072.61813109852
 21
5202.439015364185
 31
0.0
 12
5078.86813109852
 22
5239.939015364186
 32
0.0
 13
5078.86813109852
 23
5239.939015364186
 33
0.0
  0
MTEXT
  5
3B6D
330
18
100
AcDbEntity
  8
0
  6
ByBlock
 62
     0
 48
10.0
100
AcDbMText
 10
5198.868131098522
 20
4839.939015364207
 30
0.0
 40
37.5
 41
0.0
 71
     5
 72
     1
  1
600
 11
0.0000000000000001
 21
1.0
 31
0.0
 73
     1
 44
1.0
  0
SOLID
  5
3B6F
330
18
100
AcDbEntity
  8
0
  6
ByBlock
 62
     0
 48
10.0
100
AcDbTrace
 10
5235.118131098526
 20
4502.439015364207
 30
0.0
 11
5222.618131098526
 21
4502.439015364207
 31
0.0
 12
5228.868131098524
 22
4539.939015364207
 32
0.0
 13
5228.868131098524
 23
4539.939015364207
 33
0.0
  0
LINE
  5
3B70
330
18
100
AcDbEntity
  8
0
 48
10.0
100
AcDbLine
 10
5378.868131098523
 20
4539.939015364207
 30
0.0
 11
5198.868131098523
 21
4539.939015364207
 31
0.0
  0
SOLID
  5
3B71
330
18
100
AcDbEntity
  8
0
  6
ByBlock
 62
     0
 48
10.0
100
AcDbTrace
 10
5235.118131098526
 20
4577.439015364207
 30
0.0
 11
5222.618131098526
 21
4577.439015364207
 31
0.0
 12
5228.868131098524
 22
4539.939015364207
 32
0.0
 13
5228.868131098524
 23
4539.939015364207
 33
0.0
  0
SOLID
  5
3B73
330
18
100
AcDbEntity
  8
0
  6
ByBlock
 62
     0
 48
10.0
100
AcDbTrace
 10
5235.118131098526
 20
5177.43901536421
 30
0.0
 11
5222.618131098526
 21
5177.43901536421
 31
0.0
 12
5228.868131098524
 22
5139.93901536421
 32
0.0
 13
5228.868131098524
 23
5139.93901536421
 33
0.0
  0
LINE
  5
3B74
330
18
100
AcDbEntity
  8
0
 48
10.0
100
AcDbLine
 10
5378.868131098523
 20
5139.939015364207
 30
0.0
 11
5198.868131098523
 21
5139.939015364207
 31
0.0
  0
SOLID
  5
3B75
330
18
100
AcDbEntity
  8
0
  6
ByBlock
 62
     0
 48
10.0
100
AcDbTrace
 10
5235.118131098526
 20
5102.439079803902
 30
0.0
 11
5222.618131098526
 21
5102.439079803902
 31
0.0
 12
5228.868131098524
 22
5139.939079803902
 32
0.0
 13
5228.868131098524
 23
5139.939079803902
 33
0.0
  0
MTEXT
  5
3B76
330
18
100
AcDbEntity
  8
0
  6
ByBlock
 62
     0
 48
10.0
100
AcDbMText
 10
5198.868139861943
 20
5189.939015364207
 30
0.0
 40
37.5
 41
0.0
 71
     5
 72
     1
  1
100
 11
0.0000000000000001
 21
1.0
 31
0.0
 73
     1
 44
1.0
  0
SOLID
  5
3B77
330
18
100
AcDbEntity
  8
0
  6
ByBlock
 62
     0
 48
10.0
100
AcDbTrace
 10
5235.11814183847
 20
5202.439003505053
 30
0.0
 11
5222.61814183847
 21
5202.439003505053
 31
0.0
 12
5228.868141838471
 22
5239.939003505053
 32
0.0
 13
5228.868141838471
 23
5239.939003505053
 33
0.0
  0
SOLID
  5
3B83
330
18
100
AcDbEntity
  8
0
  6
ByBlock
 62
     0
 48
10.0
100
AcDbTrace
 10
6874.603017704399
 20
4581.546448284906
 30
0.0
 11
6881.994387703681
 21
4571.465890287765
 31
0.0
 12
6848.057028712623
 22
4554.332059288481
 32
0.0
 13
6848.057028712623
 23
4554.332059288481
 33
0.0
  0
LINE
  5
3B85
330
18
100
AcDbEntity
  8
OBJECT
 48
10.0
100
AcDbLine
 10
6939.27349515587
 20
4621.924694032695
 30
0.0
 11
7044.273495155869
 21
4621.924694032695
 31
0.0
  0
MTEXT
  5
3B87
330
18
100
AcDbEntity
  8
0
  6
ByBlock
 62
     0
 48
10.0
100
AcDbMText
 10
6991.773495155868
 20
4651.924694032695
 30
0.0
 40
30.0
 41
0.0
 71
     5
 72
     1
  1
50R
 73
     1
 44
1.0
  0
LINE
  5
3B88
330
18
100
AcDbEntity
  8
WUWAGAKI
 48
10.0
100
AcDbLine
 10
6863.121760367189
 20
4565.495229097098
 30
0.0
 11
6939.27349515587
 21
4621.924694032695
 31
0.0
210
0.0
220
0.0
230
-1.0
1001
ACAD
1000
DSTYLE
1002
{
1070
    78
1070
     8
1070
   270
1070
     8
1070
   140
1040
2.5
1070
    74
1070
     0
1070
   172
1070
     1
1070
    73
1070
     0
1070
    77
1070
     1
1070
    40
1040
10.0
1070
   147
1040
0.625
1070
    42
1040
0.625
1070
    44
1040
1.25
1070
    43
1040
3.75
1070
   141
1040
2.5
1070
    41
1040
2.5
1070
   273
1070
     8
1070
   274
1070
     4
1070
   143
1040
0.0394
1070
   171
1070
     4
1002
}
  0
LINE
  5
3B8A
330
18
100
AcDbEntity
  8
OBJECT
 48
10.0
100
AcDbLine
 10
6833.868156920996
 20
5069.939006600789
 30
0.0
 11
7123.868156921038
 21
5069.93900660079
 31
0.0
  0
SOLID
  5
3B8B
330
18
100
AcDbEntity
  8
0
  6
ByBlock
 62
     0
 48
10.0
100
AcDbTrace
 10
6871.368156921001
 20
5063.689024127632
 30
0.0
 11
6871.368156921001
 21
5076.189024127629
 31
0.0
 12
6833.868156921001
 22
5069.939024127633
 32
0.0
 13
6833.868156921001
 23
5069.939024127633
 33
0.0
  0
LINE
  5
3B8E
330
18
100
AcDbEntity
  8
0
 48
10.0
100
AcDbLine
 10
6833.868156920996
 20
4919.939005269016
 30
0.0
 11
6833.868156920996
 21
5099.939005269016
 31
0.0
  0
MTEXT
  5
3B90
330
18
100
AcDbEntity
  8
0
  6
ByBlock
 62
     0
 48
10.0
100
AcDbMText
 10
6978.868156921038
 20
5099.939015364209
 30
0.0
 40
37.5
 41
0.0
 71
     5
 72
     1
  1
290
 73
     1
 44
1.0
  0
LINE
  5
3B91
330
18
100
AcDbEntity
  8
0
 48
10.0
100
AcDbLine
 10
7123.868156921038
 20
4919.939005269016
 30
0.0
 11
7123.868156921038
 21
5099.939005269016
 31
0.0
  0
SOLID
  5
3B92
330
18
100
AcDbEntity
  8
0
  6
ByBlock
 62
     0
 48
10.0
100
AcDbTrace
 10
7086.368262082084
 20
5063.689015364211
 30
0.0
 11
7086.368262082084
 21
5076.189015364209
 31
0.0
 12
7123.868262082083
 22
5069.939015364212
 32
0.0
 13
7123.868262082083
 23
5069.939015364212
 33
0.0
  0
LINE
  5
3B94
330
18
100
AcDbEntity
  8
OBJECT
100
AcDbLine
 10
5811.368132788899
 20
6004.939011983453
 30
0.0
 11
5613.868131098524
 21
6004.939011983453
 31
0.0
  0
LINE
  5
3B95
330
18
100
AcDbEntity
  8
OBJECT
100
AcDbLine
 10
5814.693769147419
 20
5998.287739266414
 30
0.0
 11
5616.483847725771
 21
5998.287739266412
 31
0.0
  0
LINE
  5
3B96
330
18
100
AcDbEntity
  8
OBJECT
 48
10.0
100
AcDbLine
 10
5408.868131098523
 20
6289.939004624257
 30
0.0
 11
6408.868131098524
 21
6289.939004624257
 31
0.0
  0
LINE
  5
3B97
330
18
100
AcDbEntity
  8
OBJECT
 48
10.0
100
AcDbLine
 10
6408.868131098524
 20
6439.939006600785
 30
0.0
 11
5408.868131098523
 21
6439.939006600787
 31
0.0
  0
LINE
  5
3B98
330
18
100
AcDbEntity
  8
OBJECT
100
AcDbLine
 10
6408.868131098524
 20
6109.939015364207
 30
0.0
 11
5408.868131098523
 21
6109.939015364207
 31
0.0
  0
LINE
  5
3B99
102
{ACAD_REACTORS
330
3BA6
102
}
330
18
100
AcDbEntity
  8
OBJECT
100
AcDbLine
 10
5608.868131098523
 20
6009.939015364206
 30
0.0
 11
6208.868131098522
 21
6009.939015364206
 31
0.0
  0
LINE
  5
3B9A
102
{ACAD_REACTORS
330
3BA6
102
}
330
18
100
AcDbEntity
  8
OBJECT
100
AcDbLine
 10
5602.868131098523
 20
6015.939015364207
 30
0.0
 11
6214.868131098523
 21
6015.939015364207
 31
0.0
  0
LINE
  5
3B9B
330
18
100
AcDbEntity
  8
OBJECT
100
AcDbLine
 10
6003.042493049626
 20
5621.590291462
 30
0.0
 11
5616.483847725771
 21
5621.590291462002
 31
0.0
  0
LINE
  5
3B9C
330
18
100
AcDbEntity
  8
OBJECT
100
AcDbLine
 10
6006.368129408145
 20
5614.939018744961
 30
0.0
 11
5613.868131098524
 21
5614.939018744962
 31
0.0
  0
LINE
  5
3B9D
330
18
100
AcDbEntity
  8
OBJECT
100
AcDbLine
 10
5875.273766234497
 20
5877.127745092259
 30
0.0
 11
5616.483847725771
 21
5877.127745092259
 31
0.0
  0
LINE
  5
3B9E
330
18
100
AcDbEntity
  8
OBJECT
100
AcDbLine
 10
5878.578132971003
 20
5870.519011619248
 30
0.0
 11
5616.483847725771
 21
5870.519011619248
 31
0.0
  0
LINE
  5
3B9F
330
18
100
AcDbEntity
  8
OBJECT
100
AcDbLine
 10
5939.158132331269
 20
5749.359012898715
 30
0.0
 11
5616.483847725771
 21
5749.359012898715
 31
0.0
  0
LINE
  5
3BA0
330
18
100
AcDbEntity
  8
OBJECT
100
AcDbLine
 10
5942.462495962549
 20
5742.750285636155
 30
0.0
 11
5616.483847725771
 21
5742.750285636155
 31
0.0
  0
LINE
  5
3BA1
330
18
100
AcDbEntity
  8
OBJECT
100
AcDbLine
 10
5408.868131098523
 20
5539.939015364208
 30
0.0
 11
6408.868131098524
 21
5539.939015364208
 31
0.0
  0
LINE
  5
3BA2
102
{ACAD_REACTORS
330
3BA6
102
}
330
18
100
AcDbEntity
  8
OBJECT
100
AcDbLine
 10
5608.868131098523
 20
5609.939015364207
 30
0.0
 11
6208.868131098522
 21
5609.939015364207
 31
0.0
  0
LINE
  5
3BA3
102
{ACAD_REACTORS
330
3BA6
102
}
330
18
100
AcDbEntity
  8
OBJECT
100
AcDbLine
 10
5602.868131098523
 20
5603.939015364208
 30
0.0
 11
6214.868131098523
 21
5603.939015364208
 31
0.0
  0
LINE
  5
3BA4
330
18
100
AcDbEntity
  8
点線
100
AcDbLine
 10
5408.868131098523
 20
5659.939015364207
 30
0.0
 11
5983.868131098523
 21
5659.939015364207
 31
0.0
  0
LINE
  5
3BA5
330
18
100
AcDbEntity
  8
点線
100
AcDbLine
 10
5408.868131098523
 20
5959.939015364207
 30
0.0
 11
5833.868131098522
 21
5959.939015364207
 31
0.0
  0
HATCH
  5
3BA6
330
18
100
AcDbEntity
  8
OBJECT
100
AcDbHatch
 10
0.0
 20
0.0
 30
0.0
210
0.0
220
0.0
230
1.0
  2
AR-SAND
 70
     0
 71
     1
 91
        2
 92
        1
 93
        4
 72
     1
 10
5602.868131098523
 20
5603.939015364208
 11
6214.868131098523
 21
5603.939015364208
 72
     1
 10
6214.868131098523
 20
5603.939015364208
 11
6214.868131098523
 21
6015.939015364207
 72
     1
 10
6214.868131098523
 20
6015.939015364207
 11
5602.868131098523
 21
6015.939015364207
 72
     1
 10
5602.868131098523
 20
6015.939015364207
 11
5602.868131098523
 21
5603.939015364208
 97
        4
330
3BA3
330
3C09
330
3B9A
330
3BC4
 92
       16
 93
        4
 72
     1
 10
5608.868131098523
 20
5609.939015364207
 11
6208.868131098522
 21
5609.939015364207
 72
     1
 10
6208.868131098522
 20
5609.939015364207
 11
6208.868131098522
 21
6009.939015364206
 72
     1
 10
6208.868131098522
 20
6009.939015364206
 11
5608.868131098523
 21
6009.939015364206
 72
     1
 10
5608.868131098523
 20
6009.939015364206
 11
5608.868131098523
 21
5609.939015364207
 97
        4
330
3BA2
330
3C08
330
3B99
330
3BC3
 75
     0
 76
     1
 52
90.0
 41
1.0
 77
     0
 78
     4
 53
127.5
 43
10367.47488253845
 44
-358.094523234171
 45
-48.94132373293423
 46
-1.600031295984042
 79
     6
 49
0.0
 49
-38.608
 49
0.0
 49
-43.18
 49
0.0
 49
-41.275
 53
97.49999999999985
 43
10367.47488253845
 44
-358.094523234171
 45
-71.68251005683543
 46
44.95232831380027
 79
     6
 49
0.0
 49
-20.82799999999999
 49
0.0
 49
-34.79799999999999
 49
0.0
 49
-13.33499999999999
 53
57.49999999999997
 43
10367.47488253845
 44
-389.3365232341711
 45
-0.1437184678545643
 46
79.09923702414579
 79
     6
 49
0.0
 49
-12.69999999999997
 49
0.0
 49
-45.7199999999999
 49
0.0
 49
-59.6899999999999
 53
47.49999999999999
 43
10367.47488253845
 44
-389.3365232341711
 45
-22.29293232572162
 46
76.35564524722972
 79
     6
 49
0.0
 49
-6.349999999999999
 49
0.0
 49
-29.97199999999999
 49
0.0
 49
-34.29
 98
        1
 10
10367.47488253845
 20
-358.094523234171
  0
LINE
  5
3BA7
330
18
100
AcDbEntity
  8
0
 48
10.0
100
AcDbLine
 10
5378.868131098523
 20
5539.939041186679
 30
0.0
 11
5048.868131098522
 21
5539.939041186679
 31
0.0
  0
LINE
  5
3BA8
330
18
100
AcDbEntity
  8
0
 48
10.0
100
AcDbLine
 10
5378.86813109852
 20
6109.939041186723
 30
0.0
 11
5048.868131098519
 21
6109.939041186723
 31
0.0
  0
LINE
  5
3BA9
330
18
100
AcDbEntity
  8
OBJECT
 48
10.0
100
AcDbLine
 10
5078.868131098517
 20
5539.939041186679
 30
0.0
 11
5078.868131098517
 21
6109.9390411867
 31
0.0
  0
SOLID
  5
3BAA
330
18
100
AcDbEntity
  8
0
  6
ByBlock
 62
     0
 48
10.0
100
AcDbTrace
 10
5085.11813109852
 20
5577.439041186701
 30
0.0
 11
5072.618131098519
 21
5577.439041186701
 31
0.0
 12
5078.868131098517
 22
5539.939041186701
 32
0.0
 13
5078.868131098517
 23
5539.939041186701
 33
0.0
  0
MTEXT
  5
3BAB
330
18
100
AcDbEntity
  8
0
  6
ByBlock
 62
     0
 48
10.0
100
AcDbMText
 10
5048.868131098519
 20
5824.939041186723
 30
0.0
 40
37.5
 41
0.0
 71
     5
 72
     1
  1
570
 11
0.0000000000000001
 21
1.0
 31
0.0
 73
     1
 44
1.0
  0
SOLID
  5
3BAC
330
18
100
AcDbEntity
  8
0
  6
ByBlock
 62
     0
 48
10.0
100
AcDbTrace
 10
5085.11813109852
 20
6072.439041186701
 30
0.0
 11
5072.618131098519
 21
6072.439041186701
 31
0.0
 12
5078.868131098517
 22
6109.9390411867
 32
0.0
 13
5078.868131098517
 23
6109.9390411867
 33
0.0
  0
LINE
  5
3BAD
330
18
100
AcDbEntity
  8
OBJECT
 48
10.0
100
AcDbLine
 10
5228.86813986194
 20
5539.939041186679
 30
0.0
 11
5228.86813986194
 21
6109.939041186723
 31
0.0
  0
LINE
  5
3BAE
330
18
100
AcDbEntity
  8
OBJECT
100
AcDbLine
 10
5613.868131098524
 20
6004.939011983453
 30
0.0
 11
5613.868131098524
 21
5614.939018744962
 31
0.0
  0
LINE
  5
3BAF
330
18
100
AcDbEntity
  8
OBJECT
100
AcDbLine
 10
5616.483847725771
 20
5998.287739266412
 30
0.0
 11
5616.483847725771
 21
5621.590286915624
 31
0.0
  0
LINE
  5
3BB0
330
18
100
AcDbEntity
  8
OBJECT
100
AcDbLine
 10
5793.044903220522
 20
5877.127729680275
 30
0.0
 11
5793.044903220522
 21
5998.287723854428
 31
0.0
  0
LINE
  5
3BB1
330
18
100
AcDbEntity
  8
OBJECT
100
AcDbLine
 10
5636.101732888188
 20
5877.12774079605
 30
0.0
 11
5636.101732888188
 21
5998.287734970205
 31
0.0
  0
LINE
  5
3BB2
330
18
100
AcDbEntity
  8
OBJECT
100
AcDbLine
 10
5633.48601626094
 20
5877.12774079605
 30
0.0
 11
5633.48601626094
 21
5998.287734970205
 31
0.0
  0
LINE
  5
3BB3
330
18
100
AcDbEntity
  8
OBJECT
100
AcDbLine
 10
5653.103912552482
 20
5877.127749638638
 30
0.0
 11
5653.103912552482
 21
5998.287743812791
 31
0.0
  0
LINE
  5
3BB4
330
18
100
AcDbEntity
  8
OBJECT
100
AcDbLine
 10
5694.955421762814
 20
5877.127758481226
 30
0.0
 11
5694.955421762814
 21
5998.287752655379
 31
0.0
  0
LINE
  5
3BB5
330
18
100
AcDbEntity
  8
OBJECT
100
AcDbLine
 10
5692.339705135566
 20
5877.127758481226
 30
0.0
 11
5692.339705135566
 21
5998.287752655379
 31
0.0
  0
LINE
  5
3BB6
330
18
100
AcDbEntity
  8
OBJECT
100
AcDbLine
 10
5753.809110637438
 20
5877.127747365449
 30
0.0
 11
5753.809110637438
 21
5998.287741539599
 31
0.0
  0
LINE
  5
3BB7
330
18
100
AcDbEntity
  8
OBJECT
100
AcDbLine
 10
5751.19339401019
 20
5877.127747365449
 30
0.0
 11
5751.19339401019
 21
5998.287741539599
 31
0.0
  0
LINE
  5
3BB8
330
18
100
AcDbEntity
  8
OBJECT
100
AcDbLine
 10
5770.811290301732
 20
5877.127756208034
 30
0.0
 11
5770.811290301732
 21
5998.287750382189
 31
0.0
  0
LINE
  5
3BB9
330
18
100
AcDbEntity
  8
OBJECT
100
AcDbLine
 10
5773.427006928979
 20
5877.127756208034
 30
0.0
 11
5773.427006928979
 21
5998.287750382189
 31
0.0
  0
LINE
  5
3BBA
330
18
100
AcDbEntity
  8
OBJECT
100
AcDbLine
 10
5734.191214345898
 20
5877.127747365449
 30
0.0
 11
5734.191214345898
 21
5998.287741539599
 31
0.0
  0
LINE
  5
3BBB
330
18
100
AcDbEntity
  8
OBJECT
100
AcDbLine
 10
5731.575497718647
 20
5877.127747365449
 30
0.0
 11
5731.575497718647
 21
5998.287741539599
 31
0.0
  0
LINE
  5
3BBC
330
18
100
AcDbEntity
  8
OBJECT
100
AcDbLine
 10
5711.957601427106
 20
5877.127738522862
 30
0.0
 11
5711.957601427106
 21
5998.287732697014
 31
0.0
  0
LINE
  5
3BBD
330
18
100
AcDbEntity
  8
OBJECT
100
AcDbLine
 10
5714.573318054355
 20
5877.127738522862
 30
0.0
 11
5714.573318054355
 21
5998.287732697014
 31
0.0
  0
LINE
  5
3BBE
330
18
100
AcDbEntity
  8
OBJECT
100
AcDbLine
 10
5790.429186593274
 20
5877.127729680275
 30
0.0
 11
5790.429186593274
 21
5998.287723854428
 31
0.0
  0
LINE
  5
3BBF
330
18
100
AcDbEntity
  8
OBJECT
100
AcDbLine
 10
5655.71962917973
 20
5877.127749638638
 30
0.0
 11
5655.71962917973
 21
5998.287743812791
 31
0.0
  0
LINE
  5
3BC0
330
18
100
AcDbEntity
  8
OBJECT
100
AcDbLine
 10
5672.721808844023
 20
5877.127749638638
 30
0.0
 11
5672.721808844023
 21
5998.287743812791
 31
0.0
  0
LINE
  5
3BC1
330
18
100
AcDbEntity
  8
OBJECT
100
AcDbLine
 10
5675.337525471272
 20
5877.127749638638
 30
0.0
 11
5675.337525471272
 21
5998.287743812791
 31
0.0
  0
LINE
  5
3BC2
330
18
100
AcDbEntity
  8
OBJECT
100
AcDbLine
 10
5408.868131098523
 20
6109.939015364207
 30
0.0
 11
5408.868131098523
 21
5539.939015364208
 31
0.0
  0
LINE
  5
3BC3
102
{ACAD_REACTORS
330
3BA6
102
}
330
18
100
AcDbEntity
  8
OBJECT
100
AcDbLine
 10
5608.868131098523
 20
5609.939015364207
 30
0.0
 11
5608.868131098523
 21
6009.939015364206
 31
0.0
  0
LINE
  5
3BC4
102
{ACAD_REACTORS
330
3BA6
102
}
330
18
100
AcDbEntity
  8
OBJECT
100
AcDbLine
 10
5602.868131098523
 20
5603.939015364208
 30
0.0
 11
5602.868131098523
 21
6015.939015364207
 31
0.0
  0
SOLID
  5
3BC5
330
18
100
AcDbEntity
  8
0
  6
ByBlock
 62
     0
 48
10.0
100
AcDbTrace
 10
5235.11813109852
 20
5922.439146347768
 30
0.0
 11
5222.618131098521
 21
5922.439146347768
 31
0.0
 12
5228.868131098518
 22
5959.939146347768
 32
0.0
 13
5228.868131098518
 23
5959.939146347768
 33
0.0
  0
SOLID
  5
3BC6
330
18
100
AcDbEntity
  8
0
  6
ByBlock
 62
     0
 48
10.0
100
AcDbTrace
 10
5235.118122335098
 20
5697.439041186686
 30
0.0
 11
5222.6181223351
 21
5697.439041186686
 31
0.0
 12
5228.868122335097
 22
5659.939041186685
 32
0.0
 13
5228.868122335097
 23
5659.939041186685
 33
0.0
  0
LINE
  5
3BC7
330
18
100
AcDbEntity
  8
0
 48
10.0
100
AcDbLine
 10
5378.868131098527
 20
5609.939041186679
 30
0.0
 11
5198.868131098527
 21
5609.939041186679
 31
0.0
  0
LINE
  5
3BC8
330
18
100
AcDbEntity
  8
0
 48
10.0
100
AcDbLine
 10
5378.868141193717
 20
5659.939041186679
 30
0.0
 11
5198.868141193718
 21
5659.939041186679
 31
0.0
  0
LINE
  5
3BC9
330
18
100
AcDbEntity
  8
0
 48
10.0
100
AcDbLine
 10
5378.868141193714
 20
5659.939041186679
 30
0.0
 11
5198.868141193714
 21
5659.939041186679
 31
0.0
  0
SOLID
  5
3BCA
330
18
100
AcDbEntity
  8
0
  6
ByBlock
 62
     0
 48
10.0
100
AcDbTrace
 10
5222.618139861946
 20
5502.439029327547
 30
0.0
 11
5235.118139861948
 21
5502.439029327547
 31
0.0
 12
5228.868139861948
 22
5539.939029327547
 32
0.0
 13
5228.868139861948
 23
5539.939029327547
 33
0.0
  0
LINE
  5
3BCB
330
18
100
AcDbEntity
  8
OBJECT
 48
10.0
100
AcDbLine
 10
5228.868139861944
 20
5539.939041186701
 30
0.0
 11
5228.868139861944
 21
5427.439041186701
 31
0.0
  0
MTEXT
  5
3BCC
330
18
100
AcDbEntity
  8
0
  6
ByBlock
 62
     0
 48
10.0
100
AcDbMText
 10
5168.868139861943
 20
5634.939041186679
 30
0.0
 40
37.5
 41
0.0
 71
     5
 72
     1
  1
50
 11
0.0000000000000001
 21
1.0
 31
0.0
 73
     1
 44
1.0
  0
MTEXT
  5
3BCD
330
18
100
AcDbEntity
  8
0
  6
ByBlock
 62
     0
 48
10.0
100
AcDbMText
 10
5198.868139861943
 20
5574.939041186679
 30
0.0
 40
37.5
 41
0.0
 71
     5
 72
     1
  1
70
 11
0.0000000000000001
 21
1.0
 31
0.0
 73
     1
 44
1.0
  0
LWPOLYLINE
  5
3BCE
330
18
100
AcDbEntity
  8
上線
 48
10.0
100
AcDbPolyline
 90
        2
 70
     1
 43
5.0
 10
5228.89007746975
 20
5612.439041186679
 42
-1.0
 10
5228.89007746975
 20
5607.439041186679
 42
-1.0
  0
MTEXT
  5
3BCF
330
18
100
AcDbEntity
  8
0
  6
ByBlock
 62
     0
 48
10.0
100
AcDbMText
 10
5198.868131098521
 20
5809.939041186723
 30
0.0
 40
37.5
 41
0.0
 71
     5
 72
     1
  1
300
 11
0.0000000000000001
 21
1.0
 31
0.0
 73
     1
 44
1.0
  0
LINE
  5
3BD0
330
18
100
AcDbEntity
  8
OBJECT
100
AcDbLine
 10
5633.48601626094
 20
5742.750289932365
 30
0.0
 11
5633.48601626094
 21
5621.59029575821
 31
0.0
  0
LINE
  5
3BD1
330
18
100
AcDbEntity
  8
OBJECT
100
AcDbLine
 10
5675.337525471272
 20
5742.750281089777
 30
0.0
 11
5675.337525471272
 21
5621.590286915624
 31
0.0
  0
LINE
  5
3BD2
330
18
100
AcDbEntity
  8
OBJECT
100
AcDbLine
 10
5672.721808844023
 20
5742.750281089777
 30
0.0
 11
5672.721808844023
 21
5621.590286915624
 31
0.0
  0
LINE
  5
3BD3
330
18
100
AcDbEntity
  8
OBJECT
100
AcDbLine
 10
5655.71962917973
 20
5742.750281089777
 30
0.0
 11
5655.71962917973
 21
5621.590286915624
 31
0.0
  0
LINE
  5
3BD4
330
18
100
AcDbEntity
  8
OBJECT
100
AcDbLine
 10
5714.573318054355
 20
5742.750292205553
 30
0.0
 11
5714.573318054355
 21
5621.5902980314
 31
0.0
  0
LINE
  5
3BD5
330
18
100
AcDbEntity
  8
OBJECT
100
AcDbLine
 10
5711.957601427106
 20
5742.750292205553
 30
0.0
 11
5711.957601427106
 21
5621.5902980314
 31
0.0
  0
LINE
  5
3BD6
330
18
100
AcDbEntity
  8
OBJECT
100
AcDbLine
 10
5731.575497718647
 20
5742.750283362966
 30
0.0
 11
5731.575497718647
 21
5621.590289188815
 31
0.0
  0
LINE
  5
3BD7
330
18
100
AcDbEntity
  8
OBJECT
100
AcDbLine
 10
5734.191214345898
 20
5742.750283362966
 30
0.0
 11
5734.191214345898
 21
5621.590289188815
 31
0.0
  0
LINE
  5
3BD8
330
18
100
AcDbEntity
  8
OBJECT
100
AcDbLine
 10
5751.19339401019
 20
5742.750283362966
 30
0.0
 11
5751.19339401019
 21
5621.590289188815
 31
0.0
  0
LINE
  5
3BD9
330
18
100
AcDbEntity
  8
OBJECT
100
AcDbLine
 10
5753.809110637438
 20
5742.750283362966
 30
0.0
 11
5753.809110637438
 21
5621.590289188815
 31
0.0
  0
LINE
  5
3BDA
330
18
100
AcDbEntity
  8
OBJECT
100
AcDbLine
 10
5692.339705135566
 20
5742.750272247189
 30
0.0
 11
5692.339705135566
 21
5621.590278073036
 31
0.0
  0
LINE
  5
3BDB
330
18
100
AcDbEntity
  8
OBJECT
100
AcDbLine
 10
5694.955421762814
 20
5742.750272247189
 30
0.0
 11
5694.955421762814
 21
5621.590278073036
 31
0.0
  0
LINE
  5
3BDC
330
18
100
AcDbEntity
  8
OBJECT
100
AcDbLine
 10
5653.103912552482
 20
5742.750281089777
 30
0.0
 11
5653.103912552482
 21
5621.590286915624
 31
0.0
  0
LINE
  5
3BDD
330
18
100
AcDbEntity
  8
OBJECT
100
AcDbLine
 10
5636.101732888188
 20
5742.750289932365
 30
0.0
 11
5636.101732888188
 21
5621.59029575821
 31
0.0
  0
LINE
  5
3BDE
330
18
100
AcDbEntity
  8
OBJECT
100
AcDbLine
 10
5793.044903220522
 20
5742.75030104814
 30
0.0
 11
5793.044903220522
 21
5621.590306873986
 31
0.0
  0
LINE
  5
3BDF
330
18
100
AcDbEntity
  8
OBJECT
100
AcDbLine
 10
5790.429186593274
 20
5742.75030104814
 30
0.0
 11
5790.429186593274
 21
5621.590306873986
 31
0.0
  0
LINE
  5
3BE0
330
18
100
AcDbEntity
  8
OBJECT
100
AcDbLine
 10
5773.427006928979
 20
5742.75027452038
 30
0.0
 11
5773.427006928979
 21
5621.590280346225
 31
0.0
  0
LINE
  5
3BE1
330
18
100
AcDbEntity
  8
OBJECT
100
AcDbLine
 10
5770.811290301732
 20
5742.75027452038
 30
0.0
 11
5770.811290301732
 21
5621.590280346225
 31
0.0
  0
LINE
  5
3BE2
330
18
100
AcDbEntity
  8
OBJECT
100
AcDbLine
 10
5714.573318054355
 20
5749.359006329317
 30
0.0
 11
5714.573318054355
 21
5870.519000503469
 31
0.0
  0
LINE
  5
3BE3
330
18
100
AcDbEntity
  8
OBJECT
100
AcDbLine
 10
5711.957601427106
 20
5749.359006329317
 30
0.0
 11
5711.957601427106
 21
5870.519000503469
 31
0.0
  0
LINE
  5
3BE4
330
18
100
AcDbEntity
  8
OBJECT
100
AcDbLine
 10
5731.575497718647
 20
5749.359015171904
 30
0.0
 11
5731.575497718647
 21
5870.519009346057
 31
0.0
  0
LINE
  5
3BE5
330
18
100
AcDbEntity
  8
OBJECT
100
AcDbLine
 10
5734.191214345898
 20
5749.359015171904
 30
0.0
 11
5734.191214345898
 21
5870.519009346057
 31
0.0
  0
LINE
  5
3BE6
330
18
100
AcDbEntity
  8
OBJECT
100
AcDbLine
 10
5751.19339401019
 20
5749.359015171904
 30
0.0
 11
5751.19339401019
 21
5870.519009346057
 31
0.0
  0
LINE
  5
3BE7
330
18
100
AcDbEntity
  8
OBJECT
100
AcDbLine
 10
5753.809110637438
 20
5749.359015171904
 30
0.0
 11
5753.809110637438
 21
5870.519009346057
 31
0.0
  0
LINE
  5
3BE8
330
18
100
AcDbEntity
  8
OBJECT
100
AcDbLine
 10
5675.337525471272
 20
5749.359017445093
 30
0.0
 11
5675.337525471272
 21
5870.519011619248
 31
0.0
  0
LINE
  5
3BE9
330
18
100
AcDbEntity
  8
OBJECT
100
AcDbLine
 10
5672.721808844023
 20
5749.359017445093
 30
0.0
 11
5672.721808844023
 21
5870.519011619248
 31
0.0
  0
LINE
  5
3BEA
330
18
100
AcDbEntity
  8
OBJECT
100
AcDbLine
 10
5692.339705135566
 20
5749.359026287681
 30
0.0
 11
5692.339705135566
 21
5870.519020461834
 31
0.0
  0
LINE
  5
3BEB
330
18
100
AcDbEntity
  8
OBJECT
100
AcDbLine
 10
5694.955421762814
 20
5749.359026287681
 30
0.0
 11
5694.955421762814
 21
5870.519020461834
 31
0.0
  0
LINE
  5
3BEC
330
18
100
AcDbEntity
  8
OBJECT
100
AcDbLine
 10
5655.71962917973
 20
5749.359017445093
 30
0.0
 11
5655.71962917973
 21
5870.519011619248
 31
0.0
  0
LINE
  5
3BED
330
18
100
AcDbEntity
  8
OBJECT
100
AcDbLine
 10
5653.103912552482
 20
5749.359017445093
 30
0.0
 11
5653.103912552482
 21
5870.519011619248
 31
0.0
  0
LINE
  5
3BEE
330
18
100
AcDbEntity
  8
OBJECT
100
AcDbLine
 10
5793.044903220522
 20
5749.358997486732
 30
0.0
 11
5793.044903220522
 21
5870.518991660885
 31
0.0
  0
LINE
  5
3BEF
330
18
100
AcDbEntity
  8
OBJECT
100
AcDbLine
 10
5790.429186593274
 20
5749.358997486732
 30
0.0
 11
5790.429186593274
 21
5870.518991660885
 31
0.0
  0
LINE
  5
3BF0
330
18
100
AcDbEntity
  8
OBJECT
100
AcDbLine
 10
5773.427006928979
 20
5749.359024014491
 30
0.0
 11
5773.427006928979
 21
5870.519018188645
 31
0.0
  0
LINE
  5
3BF1
330
18
100
AcDbEntity
  8
OBJECT
100
AcDbLine
 10
5770.811290301732
 20
5749.359024014491
 30
0.0
 11
5770.811290301732
 21
5870.519018188645
 31
0.0
  0
LINE
  5
3BF2
330
18
100
AcDbEntity
  8
OBJECT
100
AcDbLine
 10
5633.48601626094
 20
5749.359008602507
 30
0.0
 11
5633.48601626094
 21
5870.51900277666
 31
0.0
  0
LINE
  5
3BF3
330
18
100
AcDbEntity
  8
OBJECT
100
AcDbLine
 10
5636.101732888188
 20
5749.359008602507
 30
0.0
 11
5636.101732888188
 21
5870.51900277666
 31
0.0
  0
LINE
  5
3BF4
330
18
100
AcDbEntity
  8
0
 48
10.0
100
AcDbLine
 10
5408.868131098523
 20
6139.939015364207
 30
0.0
 11
5408.868131098523
 21
6469.939015364207
 31
0.0
  0
LINE
  5
3BF5
330
18
100
AcDbEntity
  8
0
 48
10.0
100
AcDbLine
 10
5378.868141193714
 20
5959.939041186722
 30
0.0
 11
5198.868141193714
 21
5959.939041186722
 31
0.0
  0
LINE
  5
3BF6
330
18
100
AcDbEntity
  8
0
 48
10.0
100
AcDbLine
 10
5378.868131098523
 20
6009.939041186722
 30
0.0
 11
5198.868131098523
 21
6009.939041186722
 31
0.0
  0
SOLID
  5
3BF7
330
18
100
AcDbEntity
  8
0
  6
ByBlock
 62
     0
 48
10.0
100
AcDbTrace
 10
5222.618139861943
 20
6072.43902932759
 30
0.0
 11
5235.118139861945
 21
6072.43902932759
 31
0.0
 12
5228.868139861944
 22
6109.93902932759
 32
0.0
 13
5228.868139861944
 23
6109.93902932759
 33
0.0
  0
MTEXT
  5
3BF8
330
18
100
AcDbEntity
  8
0
  6
ByBlock
 62
     0
 48
10.0
100
AcDbMText
 10
5198.868139861939
 20
6059.939041186723
 30
0.0
 40
37.5
 41
0.0
 71
     5
 72
     1
  1
100
 11
0.0000000000000001
 21
1.0
 31
0.0
 73
     1
 44
1.0
  0
MTEXT
  5
3BF9
330
18
100
AcDbEntity
  8
0
  6
ByBlock
 62
     0
 48
10.0
100
AcDbMText
 10
5168.868139861939
 20
5984.939041186723
 30
0.0
 40
37.5
 41
0.0
 71
     5
 72
     1
  1
50
 11
0.0000000000000001
 21
1.0
 31
0.0
 73
     1
 44
1.0
  0
SOLID
  5
3BFA
330
18
100
AcDbEntity
  8
0
  6
ByBlock
 62
     0
 48
10.0
100
AcDbTrace
 10
5222.618139861943
 20
6047.43906490502
 30
0.0
 11
5235.118139861945
 21
6047.43906490502
 31
0.0
 12
5228.868139861944
 22
6009.93906490502
 32
0.0
 13
5228.868139861944
 23
6009.93906490502
 33
0.0
  0
SOLID
  5
3BFB
330
18
100
AcDbEntity
  8
0
  6
ByBlock
 62
     0
 48
10.0
100
AcDbTrace
 10
5446.368142957677
 20
6283.68900462426
 30
0.0
 11
5446.368142957677
 21
6296.189004624261
 31
0.0
 12
5408.868142957677
 22
6289.939004624261
 32
0.0
 13
5408.868142957677
 23
6289.939004624261
 33
0.0
  0
SOLID
  5
3BFC
330
18
100
AcDbEntity
  8
0
  6
ByBlock
 62
     0
 48
10.0
100
AcDbTrace
 10
5446.368131098545
 20
6433.689015364208
 30
0.0
 11
5446.368131098545
 21
6446.18901536421
 31
0.0
 12
5408.868131098545
 22
6439.93901536421
 32
0.0
 13
5408.868131098545
 23
6439.93901536421
 33
0.0
  0
LINE
  5
3BFD
330
18
100
AcDbEntity
  8
0
 48
10.0
100
AcDbLine
 10
5608.868131098523
 20
6139.939015364207
 30
0.0
 11
5608.868131098523
 21
6319.939015364207
 31
0.0
  0
SOLID
  5
3BFE
330
18
100
AcDbEntity
  8
0
  6
ByBlock
 62
     0
 48
10.0
100
AcDbTrace
 10
5646.368066658828
 20
6283.689015364205
 30
0.0
 11
5646.368066658828
 21
6296.189015364205
 31
0.0
 12
5608.868066658828
 22
6289.939015364208
 32
0.0
 13
5608.868066658828
 23
6289.939015364208
 33
0.0
  0
MTEXT
  5
3BFF
330
18
100
AcDbEntity
  8
0
  6
ByBlock
 62
     0
 48
10.0
100
AcDbMText
 10
5508.868131098523
 20
6319.939006600787
 30
0.0
 40
37.5
 41
0.0
 71
     5
 72
     1
  1
200
 73
     1
 44
1.0
  0
SOLID
  5
3C00
330
18
100
AcDbEntity
  8
0
  6
ByBlock
 62
     0
 48
10.0
100
AcDbTrace
 10
5571.36813109852
 20
6283.689015364205
 30
0.0
 11
5571.36813109852
 21
6296.189015364205
 31
0.0
 12
5608.86813109852
 22
6289.939015364208
 32
0.0
 13
5608.86813109852
 23
6289.939015364208
 33
0.0
  0
MTEXT
  5
3C01
330
18
100
AcDbEntity
  8
0
  6
ByBlock
 62
     0
 48
10.0
100
AcDbMText
 10
5908.868131098523
 20
6469.939015364208
 30
0.0
 40
37.5
 41
0.0
 71
     5
 72
     1
  1
1000
 73
     1
 44
1.0
  0
LINE
  5
3C02
330
18
100
AcDbEntity
  8
OBJECT
 48
10.0
100
AcDbLine
 10
5957.711756032746
 20
5712.251765495761
 30
0.0
 11
6688.917943492803
 21
5712.251765495761
 31
0.0
  0
MTEXT
  5
3C03
330
18
100
AcDbEntity
  8
0
  6
ByBlock
 62
     0
 48
10.0
100
AcDbMText
 10
6561.417943492805
 20
5742.25176549576
 30
0.0
 40
30.0
 41
0.0
 71
     5
 72
     1
  1
グレーチング
 73
     1
 44
1.0
  0
LINE
  5
3C04
330
18
100
AcDbEntity
  8
OBJECT
 48
10.0
100
AcDbLine
 10
6443.917943492803
 20
5803.316998360521
 30
0.0
 11
6548.917943492803
 21
5803.316998360521
 31
0.0
  0
MTEXT
  5
3C05
330
18
100
AcDbEntity
  8
0
  6
ByBlock
 62
     0
 48
10.0
100
AcDbMText
 10
6496.417943492804
 20
5833.316998360523
 30
0.0
 40
30.0
 41
0.0
 71
     5
 72
     1
  1
受枠
 73
     1
 44
1.0
  0
LINE
  5
3C06
330
18
100
AcDbEntity
  8
WUWAGAKI
 48
10.0
100
AcDbLine
 10
6093.031646307875
 20
5952.598673427927
 30
0.0
 11
6443.917943492803
 21
5803.316998360521
 31
0.0
210
0.0
220
0.0
230
-1.0
1001
ACAD
1000
DSTYLE
1002
{
1070
    78
1070
     8
1070
   270
1070
     8
1070
   140
1040
2.5
1070
    74
1070
     0
1070
   172
1070
     1
1070
    73
1070
     0
1070
    77
1070
     1
1070
    40
1040
10.0
1070
   147
1040
0.625
1070
    42
1040
0.625
1070
    44
1040
1.25
1070
    43
1040
3.75
1070
   141
1040
2.5
1070
    41
1040
2.5
1070
   273
1070
     8
1070
   274
1070
     4
1070
   143
1040
0.0394
1070
   171
1070
     4
1002
}
  0
LINE
  5
3C07
330
18
100
AcDbEntity
  8
OBJECT
100
AcDbLine
 10
6408.868131098524
 20
5539.939015364208
 30
0.0
 11
6408.868131098524
 21
6109.939015364207
 31
0.0
  0
LINE
  5
3C08
102
{ACAD_REACTORS
330
3BA6
102
}
330
18
100
AcDbEntity
  8
OBJECT
100
AcDbLine
 10
6208.868131098522
 20
5609.939015364207
 30
0.0
 11
6208.868131098522
 21
6009.939015364206
 31
0.0
  0
LINE
  5
3C09
102
{ACAD_REACTORS
330
3BA6
102
}
330
18
100
AcDbEntity
  8
OBJECT
100
AcDbLine
 10
6214.868131098523
 20
5603.939015364208
 30
0.0
 11
6214.868131098523
 21
6015.939015364207
 31
0.0
  0
LINE
  5
3C0A
330
18
100
AcDbEntity
  8
OBJECT
100
AcDbLine
 10
5832.280695803605
 20
5877.127738522862
 30
0.0
 11
5832.280695803605
 21
5963.113885954043
 31
0.0
  0
LINE
  5
3C0B
330
18
100
AcDbEntity
  8
OBJECT
100
AcDbLine
 10
5829.664979176357
 20
5877.127738522862
 30
0.0
 11
5829.664979176357
 21
5968.345319208538
 31
0.0
  0
SOLID
  5
3C0C
330
18
100
AcDbEntity
  8
0
  6
ByBlock
 62
     0
 48
10.0
100
AcDbTrace
 10
6112.68638452334
 20
5950.823237385737
 30
0.0
 11
6107.734878251088
 21
5939.345755709175
 31
0.0
 12
6075.778186357521
 22
5959.939015364207
 32
0.0
 13
6075.778186357521
 23
5959.939015364207
 33
0.0
  0
LINE
  5
3C0D
330
18
100
AcDbEntity
  8
OBJECT
100
AcDbLine
 10
5812.662799512064
 20
5877.127738522862
 30
0.0
 11
5812.662799512064
 21
5998.287732697014
 31
0.0
  0
LINE
  5
3C0E
330
18
100
AcDbEntity
  8
OBJECT
100
AcDbLine
 10
5810.047082884814
 20
5877.127738522862
 30
0.0
 11
5810.047082884814
 21
5998.287732697014
 31
0.0
  0
LINE
  5
3C0F
330
18
100
AcDbEntity
  8
OBJECT
100
AcDbLine
 10
5811.368134479277
 20
6004.9390086027
 30
0.0
 11
6006.368131098523
 21
5614.939015364207
 31
0.0
  0
LINE
  5
3C10
330
18
100
AcDbEntity
  8
OBJECT
100
AcDbLine
 10
5983.868131098523
 20
5659.939015364207
 30
0.0
 11
6208.868131098522
 21
5659.939015364207
 31
0.0
  0
HATCH
  5
3C11
330
18
100
AcDbEntity
  8
OBJECT
100
AcDbHatch
 10
0.0
 20
0.0
 30
0.0
210
0.0
220
0.0
230
1.0
  2
AR-SAND
 70
     0
 71
     0
 91
        1
 92
        1
 93
        4
 72
     1
 10
6008.868131098523
 20
5609.939015364207
 11
6208.868131098522
 21
5609.939015364207
 72
     1
 10
6208.868131098522
 20
5609.939015364207
 11
6208.868131098522
 21
5659.939015364207
 72
     1
 10
6208.868131098522
 20
5659.939015364207
 11
5983.868131098523
 21
5659.939015364207
 72
     1
 10
5983.868131098523
 20
5659.939015364207
 11
6008.868131098523
 21
5609.939015364207
 97
        0
 75
     0
 76
     1
 52
90.0
 41
1.0
 77
     0
 78
     4
 53
127.5
 43
10367.47488253845
 44
-358.094523234171
 45
-48.94132373293423
 46
-1.600031295984042
 79
     6
 49
0.0
 49
-38.608
 49
0.0
 49
-43.18
 49
0.0
 49
-41.275
 53
97.49999999999985
 43
10367.47488253845
 44
-358.094523234171
 45
-71.68251005683543
 46
44.95232831380027
 79
     6
 49
0.0
 49
-20.82799999999999
 49
0.0
 49
-34.79799999999999
 49
0.0
 49
-13.33499999999999
 53
57.49999999999997
 43
10367.47488253845
 44
-389.3365232341711
 45
-0.1437184678545643
 46
79.09923702414579
 79
     6
 49
0.0
 49
-12.69999999999997
 49
0.0
 49
-45.7199999999999
 49
0.0
 49
-59.6899999999999
 53
47.49999999999999
 43
10367.47488253845
 44
-389.3365232341711
 45
-22.29293232572162
 46
76.35564524722972
 79
     6
 49
0.0
 49
-6.349999999999999
 49
0.0
 49
-29.97199999999999
 49
0.0
 49
-34.29
 98
        1
 10
10367.47488253845
 20
-358.094523234171
  0
LINE
  5
3C12
330
18
100
AcDbEntity
  8
OBJECT
100
AcDbLine
 10
5966.990253217149
 20
5693.694771126955
 30
0.0
 11
5966.990253217149
 21
5621.5902980314
 31
0.0
  0
LINE
  5
3C13
330
18
100
AcDbEntity
  8
OBJECT
100
AcDbLine
 10
5969.605969844397
 20
5688.463337872459
 30
0.0
 11
5969.605969844397
 21
5621.5902980314
 31
0.0
  0
LINE
  5
3C14
330
18
100
AcDbEntity
  8
OBJECT
100
AcDbLine
 10
5868.900771759439
 20
5742.750303321329
 30
0.0
 11
5868.900771759439
 21
5621.590309147176
 31
0.0
  0
LINE
  5
3C15
330
18
100
AcDbEntity
  8
OBJECT
100
AcDbLine
 10
5871.516488386689
 20
5742.750303321329
 30
0.0
 11
5871.516488386689
 21
5621.590309147176
 31
0.0
  0
LINE
  5
3C16
330
18
100
AcDbEntity
  8
OBJECT
100
AcDbLine
 10
5891.134384678231
 20
5742.750294478742
 30
0.0
 11
5891.134384678231
 21
5621.590300304592
 31
0.0
  0
LINE
  5
3C17
330
18
100
AcDbEntity
  8
OBJECT
100
AcDbLine
 10
5888.518668050982
 20
5742.750294478742
 30
0.0
 11
5888.518668050982
 21
5621.590300304592
 31
0.0
  0
LINE
  5
3C18
330
18
100
AcDbEntity
  8
OBJECT
100
AcDbLine
 10
5851.898592095147
 20
5742.750283362966
 30
0.0
 11
5851.898592095147
 21
5621.590289188815
 31
0.0
  0
LINE
  5
3C19
330
18
100
AcDbEntity
  8
OBJECT
100
AcDbLine
 10
5849.282875467897
 20
5742.750283362966
 30
0.0
 11
5849.282875467897
 21
5621.590289188815
 31
0.0
  0
LINE
  5
3C1A
330
18
100
AcDbEntity
  8
OBJECT
100
AcDbLine
 10
5829.664979176357
 20
5742.750292205553
 30
0.0
 11
5829.664979176357
 21
5621.5902980314
 31
0.0
  0
LINE
  5
3C1B
330
18
100
AcDbEntity
  8
OBJECT
100
AcDbLine
 10
5832.280695803605
 20
5742.750292205553
 30
0.0
 11
5832.280695803605
 21
5621.5902980314
 31
0.0
  0
LINE
  5
3C1C
330
18
100
AcDbEntity
  8
OBJECT
100
AcDbLine
 10
5930.370177261313
 20
5742.750285636155
 30
0.0
 11
5930.370177261313
 21
5621.590291462002
 31
0.0
  0
LINE
  5
3C1D
330
18
100
AcDbEntity
  8
OBJECT
100
AcDbLine
 10
5910.752280969774
 20
5742.750294478742
 30
0.0
 11
5910.752280969774
 21
5621.590300304592
 31
0.0
  0
LINE
  5
3C1E
330
18
100
AcDbEntity
  8
OBJECT
100
AcDbLine
 10
5908.136564342523
 20
5742.750294478742
 30
0.0
 11
5908.136564342523
 21
5621.590300304592
 31
0.0
  0
LINE
  5
3C1F
330
18
100
AcDbEntity
  8
OBJECT
100
AcDbLine
 10
5927.754460634066
 20
5742.750285636155
 30
0.0
 11
5927.754460634066
 21
5621.590291462002
 31
0.0
  0
LINE
  5
3C20
330
18
100
AcDbEntity
  8
OBJECT
100
AcDbLine
 10
5947.372356925607
 20
5732.930563710039
 30
0.0
 11
5947.372356925607
 21
5621.590306873986
 31
0.0
  0
LINE
  5
3C21
330
18
100
AcDbEntity
  8
OBJECT
100
AcDbLine
 10
5949.988073552855
 20
5727.699130455543
 30
0.0
 11
5949.988073552855
 21
5621.590306873986
 31
0.0
  0
LINE
  5
3C22
330
18
100
AcDbEntity
  8
OBJECT
100
AcDbLine
 10
5810.047082884814
 20
5742.750292205553
 30
0.0
 11
5810.047082884814
 21
5621.5902980314
 31
0.0
  0
LINE
  5
3C23
330
18
100
AcDbEntity
  8
OBJECT
100
AcDbLine
 10
5812.662799512064
 20
5742.750292205553
 30
0.0
 11
5812.662799512064
 21
5621.5902980314
 31
0.0
  0
LINE
  5
3C24
330
18
100
AcDbEntity
  8
OBJECT
100
AcDbLine
 10
5986.60814950869
 20
5654.458978543873
 30
0.0
 11
5986.60814950869
 21
5621.5902980314
 31
0.0
  0
LINE
  5
3C25
330
18
100
AcDbEntity
  8
OBJECT
100
AcDbLine
 10
5989.223866135938
 20
5649.227545289376
 30
0.0
 11
5989.223866135938
 21
5621.5902980314
 31
0.0
  0
SOLID
  5
3C26
330
18
100
AcDbEntity
  8
0
  6
ByBlock
 62
     0
 48
10.0
100
AcDbTrace
 10
5994.635304089229
 20
5718.223756727596
 30
0.0
 11
5994.575330221814
 21
5705.723900603016
 31
0.0
 12
5957.105748781778
 22
5712.153750267546
 32
0.0
 13
5957.105748781778
 23
5712.153750267546
 33
0.0
  0
LINE
  5
3C27
330
18
100
AcDbEntity
  8
OBJECT
100
AcDbLine
 10
5908.136564342523
 20
5749.359004056127
 30
0.0
 11
5908.136564342523
 21
5811.402148876206
 31
0.0
  0
LINE
  5
3C28
330
18
100
AcDbEntity
  8
OBJECT
100
AcDbLine
 10
5868.900771759439
 20
5749.35899521354
 30
0.0
 11
5868.900771759439
 21
5870.518989387694
 31
0.0
  0
LINE
  5
3C29
330
18
100
AcDbEntity
  8
OBJECT
100
AcDbLine
 10
5871.516488386689
 20
5749.35899521354
 30
0.0
 11
5871.516488386689
 21
5870.518989387694
 31
0.0
  0
LINE
  5
3C2A
330
18
100
AcDbEntity
  8
OBJECT
100
AcDbLine
 10
5851.898592095147
 20
5749.359015171904
 30
0.0
 11
5851.898592095147
 21
5870.519009346057
 31
0.0
  0
LINE
  5
3C2B
330
18
100
AcDbEntity
  8
OBJECT
100
AcDbLine
 10
5849.282875467897
 20
5749.359015171904
 30
0.0
 11
5849.282875467897
 21
5870.519009346057
 31
0.0
  0
LINE
  5
3C2C
330
18
100
AcDbEntity
  8
OBJECT
100
AcDbLine
 10
5829.664979176357
 20
5749.359006329317
 30
0.0
 11
5829.664979176357
 21
5870.519000503469
 31
0.0
  0
LINE
  5
3C2D
330
18
100
AcDbEntity
  8
OBJECT
100
AcDbLine
 10
5832.280695803605
 20
5749.359006329317
 30
0.0
 11
5832.280695803605
 21
5870.519000503469
 31
0.0
  0
LINE
  5
3C2E
330
18
100
AcDbEntity
  8
OBJECT
100
AcDbLine
 10
5888.518668050982
 20
5749.359004056127
 30
0.0
 11
5888.518668050982
 21
5850.63794145929
 31
0.0
  0
LINE
  5
3C2F
330
18
100
AcDbEntity
  8
OBJECT
100
AcDbLine
 10
5891.134384678231
 20
5749.359004056127
 30
0.0
 11
5891.134384678231
 21
5845.406508204791
 31
0.0
  0
LINE
  5
3C30
330
18
100
AcDbEntity
  8
OBJECT
100
AcDbLine
 10
5810.047082884814
 20
5749.359006329317
 30
0.0
 11
5810.047082884814
 21
5870.519000503469
 31
0.0
  0
LINE
  5
3C31
330
18
100
AcDbEntity
  8
OBJECT
100
AcDbLine
 10
5812.662799512064
 20
5749.359006329317
 30
0.0
 11
5812.662799512064
 21
5870.519000503469
 31
0.0
  0
LINE
  5
3C32
330
18
100
AcDbEntity
  8
OBJECT
100
AcDbLine
 10
5910.752280969774
 20
5749.359004056127
 30
0.0
 11
5910.752280969774
 21
5806.170715621707
 31
0.0
  0
LINE
  5
3C33
330
18
100
AcDbEntity
  8
OBJECT
100
AcDbLine
 10
5927.754460634066
 20
5749.359012898715
 30
0.0
 11
5927.754460634066
 21
5772.166356293123
 31
0.0
  0
LINE
  5
3C34
330
18
100
AcDbEntity
  8
OBJECT
100
AcDbLine
 10
5930.370177261313
 20
5749.359012898715
 30
0.0
 11
5930.370177261313
 21
5766.934923038625
 31
0.0
  0
LINE
  5
3C35
330
18
100
AcDbEntity
  8
OBJECT
100
AcDbLine
 10
5849.282875467897
 20
5877.127747365449
 30
0.0
 11
5849.282875467897
 21
5929.109526625456
 31
0.0
  0
LINE
  5
3C36
330
18
100
AcDbEntity
  8
OBJECT
100
AcDbLine
 10
5851.898592095147
 20
5877.127747365449
 30
0.0
 11
5851.898592095147
 21
5923.878093370959
 31
0.0
  0
LINE
  5
3C37
330
18
100
AcDbEntity
  8
OBJECT
100
AcDbLine
 10
5868.900771759439
 20
5877.127727407085
 30
0.0
 11
5868.900771759439
 21
5889.873734042372
 31
0.0
  0
LINE
  5
3C38
330
18
100
AcDbEntity
  8
OBJECT
100
AcDbLine
 10
5871.516488386689
 20
5877.127727407085
 30
0.0
 11
5871.516488386689
 21
5884.642300787874
 31
0.0
  0
LINE
  5
3C39
330
18
100
AcDbEntity
  8
点線
100
AcDbLine
 10
6208.868131098522
 20
5659.939015364207
 30
0.0
 11
6408.868131098524
 21
5659.939015364207
 31
0.0
  0
LINE
  5
3C3A
330
18
100
AcDbEntity
  8
OBJECT
100
AcDbLine
 10
6208.868131098522
 20
5609.939015364207
 30
0.0
 11
6208.868131098522
 21
5659.939015364207
 31
0.0
  0
HATCH
  5
3C3B
330
18
100
AcDbEntity
  8
OBJECT
100
AcDbHatch
 10
0.0
 20
0.0
 30
0.0
210
0.0
220
0.0
230
1.0
  2
AR-SAND
 70
     0
 71
     0
 91
        1
 92
        1
 93
        4
 72
     1
 10
5808.868131098523
 20
6009.939015364206
 11
6208.868131098522
 21
6009.939015364206
 72
     1
 10
6208.868131098522
 20
6009.939015364206
 11
6208.868131098522
 21
5959.939015364207
 72
     1
 10
6208.868131098522
 20
5959.939015364207
 11
5833.868131098522
 21
5959.939015364207
 72
     1
 10
5833.868131098522
 20
5959.939015364207
 11
5808.868131098523
 21
6009.939015364206
 97
        0
 75
     0
 76
     1
 52
90.0
 41
1.0
 77
     0
 78
     4
 53
127.5
 43
10367.47488253845
 44
-358.094523234171
 45
-48.94132373293423
 46
-1.600031295984042
 79
     6
 49
0.0
 49
-38.608
 49
0.0
 49
-43.18
 49
0.0
 49
-41.275
 53
97.49999999999985
 43
10367.47488253845
 44
-358.094523234171
 45
-71.68251005683543
 46
44.95232831380027
 79
     6
 49
0.0
 49
-20.82799999999999
 49
0.0
 49
-34.79799999999999
 49
0.0
 49
-13.33499999999999
 53
57.49999999999997
 43
10367.47488253845
 44
-389.3365232341711
 45
-0.1437184678545643
 46
79.09923702414579
 79
     6
 49
0.0
 49
-12.69999999999997
 49
0.0
 49
-45.7199999999999
 49
0.0
 49
-59.6899999999999
 53
47.49999999999999
 43
10367.47488253845
 44
-389.3365232341711
 45
-22.29293232572162
 46
76.35564524722972
 79
     6
 49
0.0
 49
-6.349999999999999
 49
0.0
 49
-29.97199999999999
 49
0.0
 49
-34.29
 98
        1
 10
10367.47488253845
 20
-358.094523234171
  0
LINE
  5
3C3C
330
18
100
AcDbEntity
  8
OBJECT
100
AcDbLine
 10
5833.868131098522
 20
5959.939015364207
 30
0.0
 11
6208.868131098522
 21
5959.939015364207
 31
0.0
  0
MTEXT
  5
3C3D
330
18
100
AcDbEntity
  8
0
  6
ByBlock
 62
     0
 48
10.0
100
AcDbMText
 10
5908.868131098523
 20
6319.939015364208
 30
0.0
 40
37.5
 41
0.0
 71
     5
 72
     1
  1
600
 73
     1
 44
1.0
  0
LINE
  5
3C3E
330
18
100
AcDbEntity
  8
0
 48
10.0
100
AcDbLine
 10
6208.868131098522
 20
6139.939015364207
 30
0.0
 11
6208.868131098522
 21
6319.939015364207
 31
0.0
  0
LINE
  5
3C3F
330
18
100
AcDbEntity
  8
0
 48
10.0
100
AcDbLine
 10
6408.868131098524
 20
6139.939015364207
 30
0.0
 11
6408.868131098524
 21
6469.939015364207
 31
0.0
  0
LINE
  5
3C40
330
18
100
AcDbEntity
  8
点線
100
AcDbLine
 10
6208.868131098522
 20
5959.939015364207
 30
0.0
 11
6408.868131098524
 21
5959.939015364207
 31
0.0
  0
MTEXT
  5
3C41
330
18
100
AcDbEntity
  8
0
  6
ByBlock
 62
     0
 48
10.0
100
AcDbMText
 10
6308.868131098523
 20
6319.939006600787
 30
0.0
 40
37.5
 41
0.0
 71
     5
 72
     1
  1
200
 73
     1
 44
1.0
  0
SOLID
  5
3C42
330
18
100
AcDbEntity
  8
0
  6
ByBlock
 62
     0
 48
10.0
100
AcDbTrace
 10
6246.368131098526
 20
6283.689015364205
 30
0.0
 11
6246.368131098526
 21
6296.189015364205
 31
0.0
 12
6208.868131098526
 22
6289.939015364208
 32
0.0
 13
6208.868131098526
 23
6289.939015364208
 33
0.0
  0
SOLID
  5
3C43
330
18
100
AcDbEntity
  8
0
  6
ByBlock
 62
     0
 48
10.0
100
AcDbTrace
 10
6171.368195538218
 20
6283.689015364205
 30
0.0
 11
6171.368195538218
 21
6296.189015364205
 31
0.0
 12
6208.868195538219
 22
6289.939015364208
 32
0.0
 13
6208.868195538219
 23
6289.939015364208
 33
0.0
  0
SOLID
  5
3C44
330
18
100
AcDbEntity
  8
0
  6
ByBlock
 62
     0
 48
10.0
100
AcDbTrace
 10
6371.368119239368
 20
6283.68900462426
 30
0.0
 11
6371.368119239368
 21
6296.189004624261
 31
0.0
 12
6408.868119239369
 22
6289.939004624261
 32
0.0
 13
6408.868119239369
 23
6289.939004624261
 33
0.0
  0
SOLID
  5
3C45
330
18
100
AcDbEntity
  8
0
  6
ByBlock
 62
     0
 48
10.0
100
AcDbTrace
 10
6371.368131098502
 20
6433.689015364208
 30
0.0
 11
6371.368131098502
 21
6446.18901536421
 31
0.0
 12
6408.8681310985
 22
6439.93901536421
 32
0.0
 13
6408.8681310985
 23
6439.93901536421
 33
0.0
  0
SOLID
  5
3C46
330
18
100
AcDbEntity
  8
0
  6
ByBlock
 62
     0
 48
10.0
100
AcDbTrace
 10
6866.368156921001
 20
5413.689024127632
 30
0.0
 11
6866.368156921001
 21
5426.18902412763
 31
0.0
 12
6828.868156921001
 22
5419.939024127633
 32
0.0
 13
6828.868156921001
 23
5419.939024127633
 33
0.0
  0
LINE
  5
3C47
330
18
100
AcDbEntity
  8
OBJECT
 48
10.0
100
AcDbLine
 10
6708.868156921017
 20
5419.939006600785
 30
0.0
 11
6596.368156921016
 21
5419.939006600785
 31
0.0
  0
SOLID
  5
3C48
330
18
100
AcDbEntity
  8
0
  6
ByBlock
 62
     0
 48
10.0
100
AcDbTrace
 10
6671.368145061862
 20
5426.189006600782
 30
0.0
 11
6671.368145061862
 21
5413.689006600781
 31
0.0
 12
6708.868145061862
 22
5419.939006600781
 32
0.0
 13
6708.868145061862
 23
5419.939006600781
 33
0.0
  0
MTEXT
  5
3C49
330
18
100
AcDbEntity
  8
0
  6
ByBlock
 62
     0
 48
10.0
100
AcDbMText
 10
6743.868156920995
 20
5449.939006600788
 30
0.0
 40
37.5
 41
0.0
 71
     5
 72
     1
  1
70
 73
     1
 44
1.0
  0
MTEXT
  5
3C4A
330
18
100
AcDbEntity
  8
0
  6
ByBlock
 62
     0
 48
10.0
100
AcDbMText
 10
6803.868156920995
 20
5479.939006600787
 30
0.0
 40
37.5
 41
0.0
 71
     5
 72
     1
  1
50
 73
     1
 44
1.0
  0
LWPOLYLINE
  5
3C4B
330
18
100
AcDbEntity
  8
上線
 48
10.0
100
AcDbPolyline
 90
        2
 70
     1
 43
5.0
 10
6781.368156920994
 20
5419.91706899298
 42
-1.0
 10
6776.368156920995
 20
5419.91706899298
 42
-1.0
  0
SOLID
  5
3C4C
330
18
100
AcDbEntity
  8
0
  6
ByBlock
 62
     0
 48
10.0
100
AcDbTrace
 10
6746.368156921016
 20
5563.68901536421
 30
0.0
 11
6746.368156921016
 21
5576.18901536421
 31
0.0
 12
6708.868156921017
 22
5569.939015364212
 32
0.0
 13
6708.868156921017
 23
5569.939015364212
 33
0.0
  0
MTEXT
  5
3C4D
330
18
100
AcDbEntity
  8
0
  6
ByBlock
 62
     0
 48
10.0
100
AcDbMText
 10
6993.868156921038
 20
5599.939015364211
 30
0.0
 40
37.5
 41
0.0
 71
     5
 72
     1
  1
570
 73
     1
 44
1.0
  0
MTEXT
  5
3C4E
330
18
100
AcDbEntity
  8
0
  6
ByBlock
 62
     0
 48
10.0
100
AcDbMText
 10
6978.868156921038
 20
5449.939015364209
 30
0.0
 40
37.5
 41
0.0
 71
     5
 72
     1
  1
300
 73
     1
 44
1.0
  0
SOLID
  5
3C4F
330
18
100
AcDbEntity
  8
0
  6
ByBlock
 62
     0
 48
10.0
100
AcDbTrace
 10
7091.368262082084
 20
5413.68901536421
 30
0.0
 11
7091.368262082084
 21
5426.189015364208
 31
0.0
 12
7128.868262082083
 22
5419.939015364212
 32
0.0
 13
7128.868262082083
 23
5419.939015364212
 33
0.0
  0
MTEXT
  5
3C50
330
18
100
AcDbEntity
  8
0
  6
ByBlock
 62
     0
 48
10.0
100
AcDbMText
 10
7153.868156921038
 20
5479.93900660079
 30
0.0
 40
37.5
 41
0.0
 71
     5
 72
     1
  1
50
 73
     1
 44
1.0
  0
LINE
  5
3C51
330
18
100
AcDbEntity
  8
0
 48
10.0
100
AcDbLine
 10
7278.868156921038
 20
5269.939015364211
 30
0.0
 11
7278.868156921038
 21
5599.939015364211
 31
0.0
  0
LINE
  5
3C52
330
18
100
AcDbEntity
  8
WUWAGAKI
100
AcDbLine
 10
8884.253193875442
 20
3760.879112217887
 30
0.0
 11
8884.253193875442
 21
6687.028964014011
 31
0.0
  0
LINE
  5
3C5A
330
18
100
AcDbEntity
  8
WUWAGAKI
100
AcDbLine
 10
7724.953605967065
 20
4249.359079289258
 30
0.0
 11
8817.750181067488
 21
4249.359079289258
 31
0.0
  0
LINE
  5
3C5B
330
18
100
AcDbEntity
  8
WUWAGAKI
100
AcDbLine
 10
7724.953605967065
 20
4154.828791344121
 30
0.0
 11
8815.118358731725
 21
4154.828791344121
 31
0.0
  0
LINE
  5
3C5C
330
18
100
AcDbEntity
  8
WUWAGAKI
100
AcDbLine
 10
7724.953605967065
 20
4154.828791344121
 30
0.0
 11
8815.118358731725
 21
4154.828791344121
 31
0.0
  0
LINE
  5
3C5D
330
18
100
AcDbEntity
  8
WUWAGAKI
100
AcDbLine
 10
7724.953605967065
 20
3829.378646659689
 30
0.0
 11
8817.750181067488
 21
3829.378646659689
 31
0.0
  0
LINE
  5
3C5E
330
18
100
AcDbEntity
  8
WUWAGAKI
100
AcDbLine
 10
7724.953605967065
 20
4058.922406379507
 30
0.0
 11
8817.750181067486
 21
4058.922406379507
 31
0.0
  0
LINE
  5
3C5F
330
18
100
AcDbEntity
  8
WUWAGAKI
100
AcDbLine
 10
7724.953605967065
 20
3960.407342214901
 30
0.0
 11
8817.750181067486
 21
3960.407342214901
 31
0.0
  0
TEXT
  5
3C60
330
18
100
AcDbEntity
  8
WUWAGAKI
100
AcDbText
 10
8011.406480898404
 20
4083.346167931192
 30
0.0
 40
38.2725
  1
300×U600×1000×120/150×H
100
AcDbText
  0
TEXT
  5
3C65
330
18
100
AcDbEntity
  8
WUWAGAKI
100
AcDbText
 10
7797.479807490427
 20
3983.477885533174
 30
0.0
 40
45.0
  1
縮尺
100
AcDbText
  0
TEXT
  5
3C66
330
18
100
AcDbEntity
  8
WUWAGAKI
100
AcDbText
 10
7772.487261615765
 20
4181.114678561637
 30
0.0
 40
45.0
  1
種　別
100
AcDbText
  0
TEXT
  5
3C67
330
18
100
AcDbEntity
  8
WUWAGAKI
100
AcDbText
 10
7769.832049729345
 20
4079.975838524656
 30
0.0
 40
45.0
  1
寸　法
100
AcDbText
  0
LINE
  5
3C68
330
18
100
AcDbEntity
  8
WUWAGAKI
100
AcDbLine
 10
7724.953605967065
 20
4249.359079289258
 30
0.0
 11
7724.953605967065
 21
3829.378646659689
 31
0.0
  0
TEXT
  5
3C69
330
18
100
AcDbEntity
  8
WUWAGAKI
100
AcDbText
 10
8011.406480898402
 20
3984.779800962632
 30
0.0
 40
45.0
  1
S＝　1：15
100
AcDbText
  0
TEXT
  5
3C6A
330
18
100
AcDbEntity
  8
WUWAGAKI
100
AcDbText
 10
7963.65903886654
 20
3860.986213466076
 30
0.0
 40
60.0
  1
㈱　ウ　チ　コ　ン
100
AcDbText
  0
LINE
  5
3C6B
330
18
100
AcDbEntity
  8
WUWAGAKI
100
AcDbLine
 10
7977.070077535572
 20
4249.359079289258
 30
0.0
 11
7977.070077535572
 21
3960.407342214901
 31
0.0
  0
TEXT
  5
3C6C
330
18
100
AcDbEntity
  8
WUWAGAKI
100
AcDbText
 10
8011.406480898402
 20
4178.535518365577
 30
0.0
 40
45.0
  1
集水桝
100
AcDbText
  0
TEXT
  5
3C6D
330
18
100
AcDbEntity
  8
WUWAGAKI
100
AcDbText
 10
8398.167339471626
 20
3984.829238474173
 30
0.0
 40
45.0
  1
重量
100
AcDbText
  0
LINE
  5
3C6E
330
18
100
AcDbEntity
  8
WUWAGAKI
100
AcDbLine
 10
8371.239563719482
 20
4058.922406379507
 30
0.0
 11
8371.239563719482
 21
3960.407342214901
 31
0.0
  0
LINE
  5
3C6F
330
18
100
AcDbEntity
  8
WUWAGAKI
100
AcDbLine
 10
8555.467990481799
 20
4058.922406379507
 30
0.0
 11
8555.467990481799
 21
3960.407342214901
 31
0.0
  0
LINE
  5
3C72
330
18
100
AcDbEntity
  8
WUWAGAKI
100
AcDbLine
 10
8817.750181067488
 20
3829.378646659689
 30
0.0
 11
8817.750181067488
 21
4249.359079289258
 31
0.0
  0
SOLID
  5
3C84
330
18
100
AcDbEntity
  8
0
  6
ByBlock
 62
     0
 48
10.0
100
AcDbTrace
 10
7241.368145061906
 20
5426.189006600786
 30
0.0
 11
7241.368145061906
 21
5413.689006600784
 31
0.0
 12
7278.868145061906
 22
5419.939006600785
 32
0.0
 13
7278.868145061906
 23
5419.939006600785
 33
0.0
  0
SOLID
  5
3C85
330
18
100
AcDbEntity
  8
0
  6
ByBlock
 62
     0
 48
10.0
100
AcDbTrace
 10
7241.368156921017
 20
5563.68901536421
 30
0.0
 11
7241.368156921017
 21
5576.18901536421
 31
0.0
 12
7278.868156921017
 22
5569.939015364212
 32
0.0
 13
7278.868156921017
 23
5569.939015364212
 33
0.0
  0
VIEWPORT
  5
298
330
15
100
AcDbEntity
 67
     1
  8
0
100
AcDbViewport
 10
291.7632241813602
 20
148.5
 30
0.0
 40
583.5264483627204
 41
297.0
 68
     1
 69
     1
 12
291.7632241813602
 22
148.5
 13
0.0
 23
0.0
 14
10.0
 24
10.0
 15
10.0
 25
10.0
 16
0.0
 26
0.0
 36
1.0
 17
0.0
 27
0.0
 37
0.0
 42
50.0
 43
0.0
 44
0.0
 45
297.0
 50
0.0
 51
0.0
 72
   100
 90
    32800
  1

281
     0
 71
     1
 74
     0
110
0.0
120
0.0
130
0.0
111
1.0
121
0.0
131
0.0
112
0.0
122
1.0
132
0.0
 79
     0
146
0.0
  0
ENDSEC
  0
SECTION
  2
OBJECTS
  0
DICTIONARY
  5
C
330
0
100
AcDbDictionary
281
     1
  3
ACAD_GROUP
350
D
  3
ACAD_LAYOUT
350
15FE
  3
ACAD_MLINESTYLE
350
1B
  3
ACAD_PLOTSETTINGS
350
15FF
  3
ACAD_PLOTSTYLENAME
350
15FC
  3
ACDBVARIABLEDICTIONARY
350
B2A
  3
DRAWINGVARIABLESDICT
350
1212
  0
DICTIONARY
  5
D
102
{ACAD_REACTORS
330
C
102
}
330
C
100
AcDbDictionary
281
     1
  3
*A1
350
1DE1
  3
*A2
350
2483
  3
*A3
350
2486
  3
*A4
350
2971
  3
*A5
350
3003
  3
*A6
350
34F4
  0
DICTIONARY
  5
15FE
102
{ACAD_REACTORS
330
C
102
}
330
C
100
AcDbDictionary
281
     1
  3
Model
350
1600
  3
ﾚｲｱｳﾄ1
350
1601
  0
DICTIONARY
  5
1B
102
{ACAD_REACTORS
330
C
102
}
330
C
100
AcDbDictionary
281
     1
  3
STANDARD
350
1C
  0
DICTIONARY
  5
15FF
102
{ACAD_REACTORS
330
C
102
}
330
C
100
AcDbDictionary
281
     1
  0
ACDBDICTIONARYWDFLT
  5
15FC
102
{ACAD_REACTORS
330
C
102
}
330
C
100
AcDbDictionary
281
     1
  3
Normal
350
15FD
100
AcDbDictionaryWithDefault
340
15FD
  0
DICTIONARY
  5
B2A
102
{ACAD_REACTORS
330
C
102
}
330
C
100
AcDbDictionary
281
     1
  3
SORTENTS
350
B2B
  0
DICTIONARY
  5
1212
102
{ACAD_REACTORS
330
C
102
}
330
C
100
AcDbDictionary
281
     1
1001
DRAWINGVARIABLESXDATA
1000
POLARANG
1000
0.785398
1000
POLARMODE
1000
0
  0
GROUP
  5
1DE1
102
{ACAD_REACTORS
330
D
102
}
330
D
100
AcDbGroup
300

 70
     1
 71
     1
  0
GROUP
  5
2483
102
{ACAD_REACTORS
330
D
102
}
330
D
100
AcDbGroup
300

 70
     1
 71
     1
  0
GROUP
  5
2486
102
{ACAD_REACTORS
330
D
102
}
330
D
100
AcDbGroup
300

 70
     1
 71
     1
  0
GROUP
  5
2971
102
{ACAD_REACTORS
330
D
102
}
330
D
100
AcDbGroup
300

 70
     1
 71
     1
  0
GROUP
  5
3003
102
{ACAD_REACTORS
330
D
102
}
330
D
100
AcDbGroup
300

 70
     1
 71
     1
  0
GROUP
  5
34F4
102
{ACAD_REACTORS
330
D
102
}
330
D
100
AcDbGroup
300

 70
     1
 71
     1
  0
LAYOUT
  5
1600
102
{ACAD_REACTORS
330
15FE
102
}
330
15FE
100
AcDbPlotSettings
  1

  2
Canon LBP3800 LIPSLX
  4
A4
  6

 40
5.873749732971191
 41
5.873747825622558
 42
5.873748779296875
 43
5.873748779296875
 44
209.9733276367187
 45
296.9259948730469
 46
0.0
 47
0.0
 48
0.0
 49
0.0
140
0.0
141
0.0
142
1.0
143
1.0
 70
 11952
 72
     1
 73
     1
 74
     0
  7

 75
     0
147
1.0
148
-1119.838883806218
149
-2764.341960111367
100
AcDbLayout
  1
Model
 70
     1
 71
     0
 10
0.0
 20
0.0
 11
12.0
 21
9.0
 12
0.0
 22
0.0
 32
0.0
 14
0.0
 24
0.0
 34
0.0
 15
0.0
 25
0.0
 35
0.0
146
0.0
 13
0.0
 23
0.0
 33
0.0
 16
1.0
 26
0.0
 36
0.0
 17
0.0
 27
1.0
 37
0.0
 76
     0
330
18
  0
LAYOUT
  5
1601
102
{ACAD_REACTORS
330
15FE
102
}
330
15FE
100
AcDbPlotSettings
  1

  2
Canon LBP3800 LIPSLX
  4

  6

 40
0.0
 41
0.0
 42
0.0
 43
0.0
 44
0.0
 45
0.0
 46
0.0
 47
0.0
 48
0.0
 49
0.0
140
0.0
141
0.0
142
1.0
143
1.0
 70
   688
 72
     0
 73
     0
 74
     5
  7

 75
    16
147
1.0
148
0.0
149
0.0
100
AcDbLayout
  1
ﾚｲｱｳﾄ1
 70
     1
 71
     1
 10
0.0
 20
0.0
 11
420.0
 21
297.0
 12
0.0
 22
0.0
 32
0.0
 14
1.000000000000000E+20
 24
1.000000000000000E+20
 34
1.000000000000000E+20
 15
-1.000000000000000E+20
 25
-1.000000000000000E+20
 35
-1.000000000000000E+20
146
0.0
 13
0.0
 23
0.0
 33
0.0
 16
1.0
 26
0.0
 36
0.0
 17
0.0
 27
1.0
 37
0.0
 76
     0
330
15
331
298
  0
MLINESTYLE
  5
1C
102
{ACAD_REACTORS
330
1B
102
}
330
1B
100
AcDbMlineStyle
  2
STANDARD
 70
     0
  3

 62
   256
 51
90.0
 52
90.0
 71
     2
 49
0.5
 62
   256
  6
BYLAYER
 49
-0.5
 62
   256
  6
BYLAYER
  0
ACDBPLACEHOLDER
  5
15FD
102
{ACAD_REACTORS
330
15FC
102
}
330
15FC
  0
DICTIONARYVAR
  5
B2B
102
{ACAD_REACTORS
330
B2A
102
}
330
B2A
100
DictionaryVariables
280
     0
  1
96
  0
ENDSEC
  0
EOF
