  0
SECTION
  2
HEADER
  9
$ACADVER
  1
AC1015
  9
$ACADMAINTVER
 70
     6
  9
$DWGCODEPAGE
  3
ANSI_932
  9
$INSBASE
 10
0.0
 20
0.0
 30
0.0
  9
$EXTMIN
 10
710.0813698183028
 20
984.8549298695507
 30
0.0
  9
$EXTMAX
 10
8972.975809051666
 20
6797.703714450671
 30
0.0
  9
$LIMMIN
 10
0.0
 20
0.0
  9
$LIMMAX
 10
4455.0
 20
3150.0
  9
$ORTHOMODE
 70
     0
  9
$REGENMODE
 70
     1
  9
$FILLMODE
 70
     1
  9
$QTEXTMODE
 70
     0
  9
$MIRRTEXT
 70
     1
  9
$LTSCALE
 40
5.0
  9
$ATTMODE
 70
     1
  9
$TEXTSIZE
 40
2.5
  9
$TRACEWID
 40
1.0
  9
$TEXTSTYLE
  7
STANDARD
  9
$CLAYER
  8
OBJECT
  9
$CELTYPE
  6
BYLAYER
  9
$CECOLOR
 62
   256
  9
$CELTSCALE
 40
1.0
  9
$DISPSILH
 70
     0
  9
$DIMSCALE
 40
15.0
  9
$DIMASZ
 40
2.5
  9
$DIMEXO
 40
0.625
  9
$DIMDLI
 40
3.75
  9
$DIMRND
 40
0.0
  9
$DIMDLE
 40
0.0
  9
$DIMEXE
 40
1.25
  9
$DIMTP
 40
0.0
  9
$DIMTM
 40
0.0
  9
$DIMTXT
 40
2.5
  9
$DIMCEN
 40
2.5
  9
$DIMTSZ
 40
0.0
  9
$DIMTOL
 70
     0
  9
$DIMLIM
 70
     0
  9
$DIMTIH
 70
     0
  9
$DIMTOH
 70
     0
  9
$DIMSE1
 70
     0
  9
$DIMSE2
 70
     0
  9
$DIMTAD
 70
     1
  9
$DIMZIN
 70
     8
  9
$DIMBLK
  1

  9
$DIMASO
 70
     1
  9
$DIMSHO
 70
     1
  9
$DIMPOST
  1

  9
$DIMAPOST
  1

  9
$DIMALT
 70
     0
  9
$DIMALTD
 70
     4
  9
$DIMALTF
 40
0.0394
  9
$DIMLFAC
 40
1.0
  9
$DIMTOFL
 70
     1
  9
$DIMTVP
 40
0.0
  9
$DIMTIX
 70
     0
  9
$DIMSOXD
 70
     0
  9
$DIMSAH
 70
     0
  9
$DIMBLK1
  1

  9
$DIMBLK2
  1

  9
$DIMSTYLE
  2
STANDARD
  9
$DIMCLRD
 70
     0
  9
$DIMCLRE
 70
     0
  9
$DIMCLRT
 70
     0
  9
$DIMTFAC
 40
1.0
  9
$DIMGAP
 40
0.625
  9
$DIMJUST
 70
     0
  9
$DIMSD1
 70
     0
  9
$DIMSD2
 70
     0
  9
$DIMTOLJ
 70
     1
  9
$DIMTZIN
 70
     0
  9
$DIMALTZ
 70
     0
  9
$DIMALTTZ
 70
     0
  9
$DIMUPT
 70
     0
  9
$DIMDEC
 70
     4
  9
$DIMTDEC
 70
     4
  9
$DIMALTU
 70
     8
  9
$DIMALTTD
 70
     4
  9
$DIMTXSTY
  7
STANDARD
  9
$DIMAUNIT
 70
     0
  9
$DIMADEC
 70
     0
  9
$DIMALTRND
 40
0.0
  9
$DIMAZIN
 70
     0
  9
$DIMDSEP
 70
    46
  9
$DIMATFIT
 70
     3
  9
$DIMFRAC
 70
     0
  9
$DIMLDRBLK
  1

  9
$DIMLUNIT
 70
     6
  9
$DIMLWD
 70
    -2
  9
$DIMLWE
 70
    -2
  9
$DIMTMOVE
 70
     0
  9
$LUNITS
 70
     2
  9
$LUPREC
 70
     4
  9
$SKETCHINC
 40
1.0
  9
$FILLETRAD
 40
10.0
  9
$AUNITS
 70
     0
  9
$AUPREC
 70
     0
  9
$MENU
  1
acad
  9
$ELEVATION
 40
0.0
  9
$PELEVATION
 40
0.0
  9
$THICKNESS
 40
0.0
  9
$LIMCHECK
 70
     0
  9
$CHAMFERA
 40
10.0
  9
$CHAMFERB
 40
10.0
  9
$CHAMFERC
 40
20.0
  9
$CHAMFERD
 40
0.0
  9
$SKPOLY
 70
     0
  9
$TDCREATE
 40
2452111.335768865
  9
$TDUCREATE
 40
2452110.960768866
  9
$TDUPDATE
 40
2454547.709844224
  9
$TDUUPDATE
 40
2454547.334844224
  9
$TDINDWG
 40
1.2540925926
  9
$TDUSRTIMER
 40
1.2540925926
  9
$USRTIMER
 70
     1
  9
$ANGBASE
 50
0.0
  9
$ANGDIR
 70
     0
  9
$PDMODE
 70
     0
  9
$PDSIZE
 40
0.0
  9
$PLINEWID
 40
0.0
  9
$SPLFRAME
 70
     0
  9
$SPLINETYPE
 70
     6
  9
$SPLINESEGS
 70
     8
  9
$HANDSEED
  5
3CBC
  9
$SURFTAB1
 70
     6
  9
$SURFTAB2
 70
     6
  9
$SURFTYPE
 70
     6
  9
$SURFU
 70
     6
  9
$SURFV
 70
     6
  9
$UCSBASE
  2

  9
$UCSNAME
  2

  9
$UCSORG
 10
0.0
 20
0.0
 30
0.0
  9
$UCSXDIR
 10
1.0
 20
0.0
 30
0.0
  9
$UCSYDIR
 10
0.0
 20
1.0
 30
0.0
  9
$UCSORTHOREF
  2

  9
$UCSORTHOVIEW
 70
     0
  9
$UCSORGTOP
 10
0.0
 20
0.0
 30
0.0
  9
$UCSORGBOTTOM
 10
0.0
 20
0.0
 30
0.0
  9
$UCSORGLEFT
 10
0.0
 20
0.0
 30
0.0
  9
$UCSORGRIGHT
 10
0.0
 20
0.0
 30
0.0
  9
$UCSORGFRONT
 10
0.0
 20
0.0
 30
0.0
  9
$UCSORGBACK
 10
0.0
 20
0.0
 30
0.0
  9
$PUCSBASE
  2

  9
$PUCSNAME
  2

  9
$PUCSORG
 10
0.0
 20
0.0
 30
0.0
  9
$PUCSXDIR
 10
1.0
 20
0.0
 30
0.0
  9
$PUCSYDIR
 10
0.0
 20
1.0
 30
0.0
  9
$PUCSORTHOREF
  2

  9
$PUCSORTHOVIEW
 70
     0
  9
$PUCSORGTOP
 10
0.0
 20
0.0
 30
0.0
  9
$PUCSORGBOTTOM
 10
0.0
 20
0.0
 30
0.0
  9
$PUCSORGLEFT
 10
0.0
 20
0.0
 30
0.0
  9
$PUCSORGRIGHT
 10
0.0
 20
0.0
 30
0.0
  9
$PUCSORGFRONT
 10
0.0
 20
0.0
 30
0.0
  9
$PUCSORGBACK
 10
0.0
 20
0.0
 30
0.0
  9
$USERI1
 70
     0
  9
$USERI2
 70
     0
  9
$USERI3
 70
     0
  9
$USERI4
 70
     0
  9
$USERI5
 70
     0
  9
$USERR1
 40
0.0
  9
$USERR2
 40
0.0
  9
$USERR3
 40
0.0
  9
$USERR4
 40
0.0
  9
$USERR5
 40
0.0
  9
$WORLDVIEW
 70
     1
  9
$SHADEDGE
 70
     3
  9
$SHADEDIF
 70
    70
  9
$TILEMODE
 70
     1
  9
$MAXACTVP
 70
    48
  9
$PINSBASE
 10
0.0
 20
0.0
 30
0.0
  9
$PLIMCHECK
 70
     0
  9
$PEXTMIN
 10
1.000000000000000E+20
 20
1.000000000000000E+20
 30
1.000000000000000E+20
  9
$PEXTMAX
 10
-1.000000000000000E+20
 20
-1.000000000000000E+20
 30
-1.000000000000000E+20
  9
$PLIMMIN
 10
0.0
 20
0.0
  9
$PLIMMAX
 10
420.0
 20
297.0
  9
$UNITMODE
 70
     0
  9
$VISRETAIN
 70
     1
  9
$PLINEGEN
 70
     0
  9
$PSLTSCALE
 70
     1
  9
$TREEDEPTH
 70
  3020
  9
$CMLSTYLE
  2
STANDARD
  9
$CMLJUST
 70
     0
  9
$CMLSCALE
 40
20.0
  9
$PROXYGRAPHICS
 70
     1
  9
$MEASUREMENT
 70
     1
  9
$CELWEIGHT
370
    -1
  9
$ENDCAPS
280
     0
  9
$JOINSTYLE
280
     0
  9
$LWDISPLAY
290
     0
  9
$INSUNITS
 70
     0
  9
$HYPERLINKBASE
  1

  9
$STYLESHEET
  1

  9
$XEDIT
290
     1
  9
$CEPSNTYPE
380
     0
  9
$PSTYLEMODE
290
     1
  9
$FINGERPRINTGUID
  2
{C9668057-E409-4CFD-A4F9-6C0551275C13}
  9
$VERSIONGUID
  2
{6BD93D54-5CE5-466E-8A14-266FE1F9FDCA}
  9
$EXTNAMES
290
     1
  9
$PSVPSCALE
 40
0.0
  9
$OLESTARTUP
290
     0
  0
ENDSEC
  0
SECTION
  2
CLASSES
  0
CLASS
  1
LWPOLYLINE
  2
AcDbPolyline
  3
AutoCAD 2000
 90
    32768
280
     0
281
     1
  0
CLASS
  1
DICTIONARYVAR
  2
AcDbDictionaryVar
  3
AutoCAD 2000
 90
        0
280
     0
281
     0
  0
CLASS
  1
HATCH
  2
AcDbHatch
  3
AutoCAD 2000
 90
    32768
280
     0
281
     1
  0
CLASS
  1
ACDBDICTIONARYWDFLT
  2
AcDbDictionaryWithDefault
  3
AutoCAD 2000
 90
        0
280
     0
281
     0
  0
CLASS
  1
ACDBPLACEHOLDER
  2
AcDbPlaceHolder
  3
AutoCAD 2000
 90
        0
280
     0
281
     0
  0
CLASS
  1
LAYOUT
  2
AcDbLayout
  3
AutoCAD 2000
 90
        0
280
     0
281
     0
  0
ENDSEC
  0
SECTION
  2
TABLES
  0
TABLE
  2
VPORT
  5
8
330
0
100
AcDbSymbolTable
 70
     2
  0
VPORT
  5
3CBB
330
8
100
AcDbSymbolTableRecord
100
AcDbViewportTableRecord
  2
*Active
 70
     0
 10
0.0
 20
0.0
 11
1.0
 21
1.0
 12
7149.159830643282
 22
5385.966203789671
 13
0.0
 23
0.0
 14
10.0
 24
10.0
 15
10.0
 25
10.0
 16
0.0
 26
0.0
 36
1.0
 17
0.0
 27
0.0
 37
0.0
 40
3324.310820627946
 41
1.731203007518796
 42
50.0
 43
0.0
 44
0.0
 50
0.0
 51
0.0
 71
     0
 72
   100
 73
     1
 74
     1
 75
     0
 76
     0
 77
     0
 78
     0
281
     0
 65
     1
110
0.0
120
0.0
130
0.0
111
1.0
121
0.0
131
0.0
112
0.0
122
1.0
132
0.0
 79
     0
146
0.0
  0
ENDTAB
  0
TABLE
  2
LTYPE
  5
5
330
0
100
AcDbSymbolTable
 70
    46
  0
LTYPE
  5
12
330
5
100
AcDbSymbolTableRecord
100
AcDbLinetypeTableRecord
  2
BYBLOCK
 70
     0
  3

 72
    65
 73
     0
 40
0.0
  0
LTYPE
  5
13
330
5
100
AcDbSymbolTableRecord
100
AcDbLinetypeTableRecord
  2
BYLAYER
 70
     0
  3

 72
    65
 73
     0
 40
0.0
  0
LTYPE
  5
14
330
5
100
AcDbSymbolTableRecord
100
AcDbLinetypeTableRecord
  2
CONTINUOUS
 70
     0
  3
Solid line
 72
    65
 73
     0
 40
0.0
  0
LTYPE
  5
128
330
5
100
AcDbSymbolTableRecord
100
AcDbLinetypeTableRecord
  2
ACAD_ISO02W100
 70
     0
  3
ISO dash __ __ __ __ __ __ __ __ __ __ __ __ __
 72
    65
 73
     2
 40
15.0
 49
12.0
 74
     0
 49
-3.0
 74
     0
  0
LTYPE
  5
129
330
5
100
AcDbSymbolTableRecord
100
AcDbLinetypeTableRecord
  2
ACAD_ISO03W100
 70
     0
  3
ISO dash space __    __    __    __    __    __
 72
    65
 73
     2
 40
30.0
 49
12.0
 74
     0
 49
-18.0
 74
     0
  0
LTYPE
  5
12A
330
5
100
AcDbSymbolTableRecord
100
AcDbLinetypeTableRecord
  2
ACAD_ISO04W100
 70
     0
  3
ISO long-dash dot ____ . ____ . ____ . ____ . _
 72
    65
 73
     4
 40
30.5
 49
24.0
 74
     0
 49
-3.0
 74
     0
 49
0.5
 74
     0
 49
-3.0
 74
     0
  0
LTYPE
  5
12B
330
5
100
AcDbSymbolTableRecord
100
AcDbLinetypeTableRecord
  2
ACAD_ISO05W100
 70
     0
  3
ISO long-dash double-dot ____ .. ____ .. ____ .
 72
    65
 73
     8
 40
37.5
 49
24.0
 74
     0
 49
-3.0
 74
     0
 49
0.5
 74
     0
 49
-3.0
 74
     0
 49
0.5
 74
     0
 49
-3.0
 74
     0
 49
0.5
 74
     0
 49
-3.0
 74
     0
  0
LTYPE
  5
12C
330
5
100
AcDbSymbolTableRecord
100
AcDbLinetypeTableRecord
  2
ACAD_ISO06W100
 70
     0
  3
ISO long-dash triple-dot ____ ... ____ ... ____
 72
    65
 73
     8
 40
37.5
 49
24.0
 74
     0
 49
-3.0
 74
     0
 49
0.5
 74
     0
 49
-3.0
 74
     0
 49
0.5
 74
     0
 49
-3.0
 74
     0
 49
0.5
 74
     0
 49
-3.0
 74
     0
  0
LTYPE
  5
12D
330
5
100
AcDbSymbolTableRecord
100
AcDbLinetypeTableRecord
  2
ACAD_ISO07W100
 70
     0
  3
ISO dot . . . . . . . . . . . . . . . . . . . .
 72
    65
 73
     2
 40
3.5
 49
0.5
 74
     0
 49
-3.0
 74
     0
  0
LTYPE
  5
12E
330
5
100
AcDbSymbolTableRecord
100
AcDbLinetypeTableRecord
  2
ACAD_ISO08W100
 70
     0
  3
ISO long-dash short-dash ____ __ ____ __ ____ _
 72
    65
 73
     4
 40
36.0
 49
24.0
 74
     0
 49
-3.0
 74
     0
 49
6.0
 74
     0
 49
-3.0
 74
     0
  0
LTYPE
  5
12F
330
5
100
AcDbSymbolTableRecord
100
AcDbLinetypeTableRecord
  2
ACAD_ISO09W100
 70
     0
  3
ISO long-dash double-short-dash ____ __ __ ____
 72
    65
 73
     6
 40
45.0
 49
24.0
 74
     0
 49
-3.0
 74
     0
 49
6.0
 74
     0
 49
-3.0
 74
     0
 49
6.0
 74
     0
 49
-3.0
 74
     0
  0
LTYPE
  5
130
330
5
100
AcDbSymbolTableRecord
100
AcDbLinetypeTableRecord
  2
ACAD_ISO10W100
 70
     0
  3
ISO dash dot __ . __ . __ . __ . __ . __ . __ .
 72
    65
 73
     4
 40
18.5
 49
12.0
 74
     0
 49
-3.0
 74
     0
 49
0.5
 74
     0
 49
-3.0
 74
     0
  0
LTYPE
  5
131
330
5
100
AcDbSymbolTableRecord
100
AcDbLinetypeTableRecord
  2
ACAD_ISO11W100
 70
     0
  3
ISO double-dash dot __ __ . __ __ . __ __ . __ 
 72
    65
 73
     6
 40
33.5
 49
12.0
 74
     0
 49
-3.0
 74
     0
 49
12.0
 74
     0
 49
-3.0
 74
     0
 49
0.5
 74
     0
 49
-3.0
 74
     0
  0
LTYPE
  5
132
330
5
100
AcDbSymbolTableRecord
100
AcDbLinetypeTableRecord
  2
ACAD_ISO12W100
 70
     0
  3
ISO dash double-dot __ . . __ . . __ . . __ . .
 72
    65
 73
     6
 40
22.0
 49
12.0
 74
     0
 49
-3.0
 74
     0
 49
0.5
 74
     0
 49
-3.0
 74
     0
 49
0.5
 74
     0
 49
-3.0
 74
     0
  0
LTYPE
  5
133
330
5
100
AcDbSymbolTableRecord
100
AcDbLinetypeTableRecord
  2
ACAD_ISO13W100
 70
     0
  3
ISO double-dash double-dot __ __ . . __ __ . . 
 72
    65
 73
     8
 40
37.0
 49
12.0
 74
     0
 49
-3.0
 74
     0
 49
12.0
 74
     0
 49
-3.0
 74
     0
 49
0.5
 74
     0
 49
-3.0
 74
     0
 49
0.5
 74
     0
 49
-3.0
 74
     0
  0
LTYPE
  5
134
330
5
100
AcDbSymbolTableRecord
100
AcDbLinetypeTableRecord
  2
ACAD_ISO14W100
 70
     0
  3
ISO dash triple-dot __ . . . __ . . . __ . . . 
 72
    65
 73
     8
 40
25.5
 49
12.0
 74
     0
 49
-3.0
 74
     0
 49
0.5
 74
     0
 49
-3.0
 74
     0
 49
0.5
 74
     0
 49
-3.0
 74
     0
 49
0.5
 74
     0
 49
-3.0
 74
     0
  0
LTYPE
  5
135
330
5
100
AcDbSymbolTableRecord
100
AcDbLinetypeTableRecord
  2
ACAD_ISO15W100
 70
     0
  3
ISO double-dash triple-dot __ __ . . . __ __ . 
 72
    65
 73
    10
 40
40.49999999999999
 49
12.0
 74
     0
 49
-3.0
 74
     0
 49
12.0
 74
     0
 49
-3.0
 74
     0
 49
0.5
 74
     0
 49
-3.0
 74
     0
 49
0.5
 74
     0
 49
-3.0
 74
     0
 49
0.5
 74
     0
 49
-3.0
 74
     0
  0
LTYPE
  5
136
330
5
100
AcDbSymbolTableRecord
100
AcDbLinetypeTableRecord
  2
BATTING
 70
     0
  3
Batting SSSSSSSSSSSSSSSSSSSSSSSSSSSSSSSSSSSSSSS
 72
    65
 73
     4
 40
10.16253999999999
 49
0.00254
 74
     0
 49
-2.54
 74
     4
 75
   134
340
127
 46
2.54
 50
0.0
 44
-2.54
 45
0.0
 49
-5.08
 74
     4
 75
   134
340
127
 46
2.54
 50
180.0
 44
2.54
 45
0.0
 49
-2.54
 74
     0
  0
LTYPE
  5
137
330
5
100
AcDbSymbolTableRecord
100
AcDbLinetypeTableRecord
  2
BORDER
 70
     0
  3
Border __ __ . __ __ . __ __ . __ __ . __ __ .
 72
    65
 73
     6
 40
44.45
 49
12.7
 74
     0
 49
-6.349999999999999
 74
     0
 49
12.7
 74
     0
 49
-6.349999999999999
 74
     0
 49
0.0
 74
     0
 49
-6.349999999999999
 74
     0
  0
LTYPE
  5
138
330
5
100
AcDbSymbolTableRecord
100
AcDbLinetypeTableRecord
  2
BORDER2
 70
     0
  3
Border (.5x) __.__.__.__.__.__.__.__.__.__.__.
 72
    65
 73
     6
 40
22.225
 49
6.349999999999999
 74
     0
 49
-3.174999999999999
 74
     0
 49
6.349999999999999
 74
     0
 49
-3.174999999999999
 74
     0
 49
0.0
 74
     0
 49
-3.174999999999999
 74
     0
  0
LTYPE
  5
139
330
5
100
AcDbSymbolTableRecord
100
AcDbLinetypeTableRecord
  2
BORDERX2
 70
     0
  3
Border (2x) ____  ____  .  ____  ____  .  ___
 72
    65
 73
     6
 40
88.9
 49
25.4
 74
     0
 49
-12.7
 74
     0
 49
25.4
 74
     0
 49
-12.7
 74
     0
 49
0.0
 74
     0
 49
-12.7
 74
     0
  0
LTYPE
  5
13A
330
5
100
AcDbSymbolTableRecord
100
AcDbLinetypeTableRecord
  2
CENTER
 70
     0
  3
Center ____ _ ____ _ ____ _ ____ _ ____ _ ____
 72
    65
 73
     4
 40
50.8
 49
31.75
 74
     0
 49
-6.349999999999999
 74
     0
 49
6.349999999999999
 74
     0
 49
-6.349999999999999
 74
     0
  0
LTYPE
  5
13B
330
5
100
AcDbSymbolTableRecord
100
AcDbLinetypeTableRecord
  2
CENTER2
 70
     0
  3
Center (.5x) ___ _ ___ _ ___ _ ___ _ ___ _ ___
 72
    65
 73
     4
 40
28.57499999999999
 49
19.05
 74
     0
 49
-3.174999999999999
 74
     0
 49
3.174999999999999
 74
     0
 49
-3.174999999999999
 74
     0
  0
LTYPE
  5
13C
330
5
100
AcDbSymbolTableRecord
100
AcDbLinetypeTableRecord
  2
CENTERX2
 70
     0
  3
Center (2x) ________  __  ________  __  _____
 72
    65
 73
     4
 40
101.6
 49
63.5
 74
     0
 49
-12.7
 74
     0
 49
12.7
 74
     0
 49
-12.7
 74
     0
  0
LTYPE
  5
13D
330
5
100
AcDbSymbolTableRecord
100
AcDbLinetypeTableRecord
  2
DASHDOT
 70
     0
  3
Dash dot __ . __ . __ . __ . __ . __ . __ . __
 72
    65
 73
     4
 40
25.4
 49
12.7
 74
     0
 49
-6.349999999999999
 74
     0
 49
0.0
 74
     0
 49
-6.349999999999999
 74
     0
  0
LTYPE
  5
13E
330
5
100
AcDbSymbolTableRecord
100
AcDbLinetypeTableRecord
  2
DASHDOT2
 70
     0
  3
Dash dot (.5x) _._._._._._._._._._._._._._._.
 72
    65
 73
     4
 40
12.7
 49
6.349999999999999
 74
     0
 49
-3.174999999999999
 74
     0
 49
0.0
 74
     0
 49
-3.174999999999999
 74
     0
  0
LTYPE
  5
13F
330
5
100
AcDbSymbolTableRecord
100
AcDbLinetypeTableRecord
  2
DASHDOTX2
 70
     0
  3
Dash dot (2x) ____  .  ____  .  ____  .  ___
 72
    65
 73
     4
 40
50.8
 49
25.4
 74
     0
 49
-12.7
 74
     0
 49
0.0
 74
     0
 49
-12.7
 74
     0
  0
LTYPE
  5
140
330
5
100
AcDbSymbolTableRecord
100
AcDbLinetypeTableRecord
  2
DASHED
 70
     0
  3
Dashed __ __ __ __ __ __ __ __ __ __ __ __ __ _
 72
    65
 73
     2
 40
19.04999999999999
 49
12.7
 74
     0
 49
-6.349999999999999
 74
     0
  0
LTYPE
  5
141
330
5
100
AcDbSymbolTableRecord
100
AcDbLinetypeTableRecord
  2
DASHED2
 70
     0
  3
Dashed (.5x) _ _ _ _ _ _ _ _ _ _ _ _ _ _ _ _ _
 72
    65
 73
     2
 40
9.524999999999998
 49
6.349999999999999
 74
     0
 49
-3.174999999999999
 74
     0
  0
LTYPE
  5
142
330
5
100
AcDbSymbolTableRecord
100
AcDbLinetypeTableRecord
  2
DASHEDX2
 70
     0
  3
Dashed (2x) ____  ____  ____  ____  ____  ___
 72
    65
 73
     2
 40
38.09999999999999
 49
25.4
 74
     0
 49
-12.7
 74
     0
  0
LTYPE
  5
143
330
5
100
AcDbSymbolTableRecord
100
AcDbLinetypeTableRecord
  2
DIVIDE
 70
     0
  3
Divide ____ . . ____ . . ____ . . ____ . . ____
 72
    65
 73
     6
 40
31.74999999999999
 49
12.7
 74
     0
 49
-6.349999999999999
 74
     0
 49
0.0
 74
     0
 49
-6.349999999999999
 74
     0
 49
0.0
 74
     0
 49
-6.349999999999999
 74
     0
  0
LTYPE
  5
144
330
5
100
AcDbSymbolTableRecord
100
AcDbLinetypeTableRecord
  2
DIVIDE2
 70
     0
  3
Divide (.5x) __..__..__..__..__..__..__..__.._
 72
    65
 73
     6
 40
15.87499999999999
 49
6.349999999999999
 74
     0
 49
-3.174999999999999
 74
     0
 49
0.0
 74
     0
 49
-3.174999999999999
 74
     0
 49
0.0
 74
     0
 49
-3.174999999999999
 74
     0
  0
LTYPE
  5
145
330
5
100
AcDbSymbolTableRecord
100
AcDbLinetypeTableRecord
  2
DIVIDEX2
 70
     0
  3
Divide (2x) ________  .  .  ________  .  .  _
 72
    65
 73
     6
 40
63.49999999999999
 49
25.4
 74
     0
 49
-12.7
 74
     0
 49
0.0
 74
     0
 49
-12.7
 74
     0
 49
0.0
 74
     0
 49
-12.7
 74
     0
  0
LTYPE
  5
146
330
5
100
AcDbSymbolTableRecord
100
AcDbLinetypeTableRecord
  2
DOT
 70
     0
  3
Dot . . . . . . . . . . . . . . . . . . . . . .
 72
    65
 73
     2
 40
6.349999999999999
 49
0.0
 74
     0
 49
-6.349999999999999
 74
     0
  0
LTYPE
  5
147
330
5
100
AcDbSymbolTableRecord
100
AcDbLinetypeTableRecord
  2
DOT2
 70
     0
  3
Dot (.5x) .....................................
 72
    65
 73
     2
 40
3.174999999999999
 49
0.0
 74
     0
 49
-3.174999999999999
 74
     0
  0
LTYPE
  5
148
330
5
100
AcDbSymbolTableRecord
100
AcDbLinetypeTableRecord
  2
DOTX2
 70
     0
  3
Dot (2x) .  .  .  .  .  .  .  .  .  .  .  .  . 
 72
    65
 73
     2
 40
12.7
 49
0.0
 74
     0
 49
-12.7
 74
     0
  0
LTYPE
  5
149
330
5
100
AcDbSymbolTableRecord
100
AcDbLinetypeTableRecord
  2
FENCELINE1
 70
     0
  3
Fenceline circle ----0-----0----0-----0----0---
 72
    65
 73
     4
 40
36.82999999999999
 49
6.349999999999999
 74
     0
 49
-2.54
 74
     4
 75
   133
340
127
 46
2.54
 50
0.0
 44
-2.54
 45
0.0
 49
-2.54
 74
     0
 49
25.4
 74
     0
  0
LTYPE
  5
14A
330
5
100
AcDbSymbolTableRecord
100
AcDbLinetypeTableRecord
  2
FENCELINE2
 70
     0
  3
Fenceline square ----[]-----[]----[]-----[]----
 72
    65
 73
     4
 40
36.82999999999999
 49
6.349999999999999
 74
     0
 49
-2.54
 74
     4
 75
   132
340
127
 46
2.54
 50
0.0
 44
-2.54
 45
0.0
 49
-2.54
 74
     0
 49
25.4
 74
     0
  0
LTYPE
  5
14B
330
5
100
AcDbSymbolTableRecord
100
AcDbLinetypeTableRecord
  2
GAS_LINE
 70
     0
  3
Gas line ----GAS----GAS----GAS----GAS----GAS---
 72
    65
 73
     3
 40
24.13
 49
12.7
 74
     0
 49
-5.08
 74
     2
 75
     0
340
F
 46
2.54
 50
0.0
 44
-2.54
 45
-1.27
  9
GAS
 49
-6.349999999999999
 74
     0
  0
LTYPE
  5
14C
330
5
100
AcDbSymbolTableRecord
100
AcDbLinetypeTableRecord
  2
HIDDEN
 70
     0
  3
Hidden __ __ __ __ __ __ __ __ __ __ __ __ __ _
 72
    65
 73
     2
 40
9.524999999999998
 49
6.349999999999999
 74
     0
 49
-3.174999999999999
 74
     0
  0
LTYPE
  5
14D
330
5
100
AcDbSymbolTableRecord
100
AcDbLinetypeTableRecord
  2
HIDDEN2
 70
     0
  3
Hidden (.5x) _ _ _ _ _ _ _ _ _ _ _ _ _ _ _ _ _
 72
    65
 73
     2
 40
4.762499999999999
 49
3.174999999999999
 74
     0
 49
-1.587499999999999
 74
     0
  0
LTYPE
  5
14E
330
5
100
AcDbSymbolTableRecord
100
AcDbLinetypeTableRecord
  2
HIDDENX2
 70
     0
  3
Hidden (2x) ____ ____ ____ ____ ____ ____ ____
 72
    65
 73
     2
 40
19.04999999999999
 49
12.7
 74
     0
 49
-6.349999999999999
 74
     0
  0
LTYPE
  5
14F
330
5
100
AcDbSymbolTableRecord
100
AcDbLinetypeTableRecord
  2
HOT_WATER_SUPPLY
 70
     0
  3
Hot water supply ---- HW ---- HW ---- HW ----
 72
    65
 73
     3
 40
22.86
 49
12.7
 74
     0
 49
-5.08
 74
     2
 75
     0
340
F
 46
2.54
 50
0.0
 44
-2.54
 45
-1.27
  9
HW
 49
-5.08
 74
     0
  0
LTYPE
  5
150
330
5
100
AcDbSymbolTableRecord
100
AcDbLinetypeTableRecord
  2
PHANTOM
 70
     0
  3
Phantom ______  __  __  ______  __  __  ______
 72
    65
 73
     6
 40
63.5
 49
31.75
 74
     0
 49
-6.349999999999999
 74
     0
 49
6.349999999999999
 74
     0
 49
-6.349999999999999
 74
     0
 49
6.349999999999999
 74
     0
 49
-6.349999999999999
 74
     0
  0
LTYPE
  5
151
330
5
100
AcDbSymbolTableRecord
100
AcDbLinetypeTableRecord
  2
PHANTOM2
 70
     0
  3
Phantom (.5x) ___ _ _ ___ _ _ ___ _ _ ___ _ _
 72
    65
 73
     6
 40
31.75
 49
15.875
 74
     0
 49
-3.174999999999999
 74
     0
 49
3.174999999999999
 74
     0
 49
-3.174999999999999
 74
     0
 49
3.174999999999999
 74
     0
 49
-3.174999999999999
 74
     0
  0
LTYPE
  5
152
330
5
100
AcDbSymbolTableRecord
100
AcDbLinetypeTableRecord
  2
PHANTOMX2
 70
     0
  3
Phantom (2x) ____________    ____    ____   _
 72
    65
 73
     6
 40
127.0
 49
63.5
 74
     0
 49
-12.7
 74
     0
 49
12.7
 74
     0
 49
-12.7
 74
     0
 49
12.7
 74
     0
 49
-12.7
 74
     0
  0
LTYPE
  5
153
330
5
100
AcDbSymbolTableRecord
100
AcDbLinetypeTableRecord
  2
TRACKS
 70
     0
  3
Tracks -|-|-|-|-|-|-|-|-|-|-|-|-|-|-|-|-|-|-|-|
 72
    65
 73
     2
 40
7.62
 49
3.81
 74
     4
 75
   130
340
127
 46
6.349999999999999
 50
0.0
 44
0.0
 45
0.0
 49
3.81
 74
     0
  0
LTYPE
  5
154
330
5
100
AcDbSymbolTableRecord
100
AcDbLinetypeTableRecord
  2
ZIGZAG
 70
     0
  3
Zig zag /\/\/\/\/\/\/\/\/\/\/\/\/\/\/\/\/\/\/\/
 72
    65
 73
     4
 40
20.32254
 49
0.00254
 74
     0
 49
-5.08
 74
     4
 75
   131
340
127
 46
5.08
 50
0.0
 44
-5.08
 45
0.0
 49
-10.16
 74
     4
 75
   131
340
127
 46
5.08
 50
180.0
 44
5.08
 45
0.0
 49
-5.08
 74
     0
  0
ENDTAB
  0
TABLE
  2
LAYER
  5
2
330
0
100
AcDbSymbolTable
 70
    10
  0
LAYER
  5
E
330
2
100
AcDbSymbolTableRecord
100
AcDbLayerTableRecord
  2
0
 70
     0
 62
     7
  6
CONTINUOUS
370
    -3
390
15FD
  0
LAYER
  5
20
330
2
100
AcDbSymbolTableRecord
100
AcDbLayerTableRecord
  2
DEFPOINTS
 70
     0
 62
     7
  6
CONTINUOUS
290
     0
370
    -3
390
15FD
  0
LAYER
  5
21
330
2
100
AcDbSymbolTableRecord
100
AcDbLayerTableRecord
  2
OBJECT
 70
     0
 62
     7
  6
CONTINUOUS
370
    -3
390
15FD
  0
LAYER
  5
155
330
2
100
AcDbSymbolTableRecord
100
AcDbLayerTableRecord
  2
上書線
 70
     0
 62
     7
  6
CONTINUOUS
370
    -3
390
15FD
  0
LAYER
  5
156
330
2
100
AcDbSymbolTableRecord
100
AcDbLayerTableRecord
  2
基準線
 70
     0
 62
    -1
  6
CONTINUOUS
370
    -3
390
15FD
  0
LAYER
  5
157
330
2
100
AcDbSymbolTableRecord
100
AcDbLayerTableRecord
  2
点線
 70
     0
 62
     5
  6
HIDDEN
370
    -3
390
15FD
  0
LAYER
  5
158
330
2
100
AcDbSymbolTableRecord
100
AcDbLayerTableRecord
  2
寸法線
 70
     0
 62
     2
  6
CONTINUOUS
370
    -3
390
15FD
  0
LAYER
  5
19D7
330
2
100
AcDbSymbolTableRecord
100
AcDbLayerTableRecord
  2
上線
 70
     0
 62
     7
  6
CONTINUOUS
370
    -3
390
15FD
  0
LAYER
  5
2EB9
330
2
100
AcDbSymbolTableRecord
100
AcDbLayerTableRecord
  2
中心線
 70
     0
 62
     6
  6
CENTER
370
    -3
390
15FD
  0
LAYER
  5
3A03
330
2
100
AcDbSymbolTableRecord
100
AcDbLayerTableRecord
  2
WUWAGAKI
 70
     0
 62
     7
  6
CONTINUOUS
370
    -3
390
15FD
  0
ENDTAB
  0
TABLE
  2
STYLE
  5
3
330
0
100
AcDbSymbolTable
 70
     3
  0
STYLE
  5
F
330
3
100
AcDbSymbolTableRecord
100
AcDbTextStyleTableRecord
  2
STANDARD
 70
     0
 40
0.0
 41
1.0
 50
0.0
 71
     0
 42
2.5
  3
MS PMincho.ttf
  4

1001
ACAD
1000
MS PMincho
1071
    32786
  0
STYLE
  5
22
330
3
100
AcDbSymbolTableRecord
100
AcDbTextStyleTableRecord
  2
ADESK1
 70
     0
 40
0.0
 41
1.0
 50
0.0
 71
     0
 42
5.0
  3
romans
  4
bigfont
  0
STYLE
  5
127
330
3
100
AcDbSymbolTableRecord
100
AcDbTextStyleTableRecord
  2

 70
     1
 40
0.0
 41
1.0
 50
0.0
 71
     0
 42
2.5
  3
ltypeshp.shx
  4

  0
ENDTAB
  0
TABLE
  2
VIEW
  5
6
330
0
100
AcDbSymbolTable
 70
     0
  0
ENDTAB
  0
TABLE
  2
UCS
  5
7
330
0
100
AcDbSymbolTable
 70
     0
  0
ENDTAB
  0
TABLE
  2
APPID
  5
9
330
0
100
AcDbSymbolTable
 70
     2
  0
APPID
  5
10
330
9
100
AcDbSymbolTableRecord
100
AcDbRegAppTableRecord
  2
ACAD
 70
     0
  0
APPID
  5
1213
330
9
100
AcDbSymbolTableRecord
100
AcDbRegAppTableRecord
  2
DRAWINGVARIABLESXDATA
 70
     0
  0
ENDTAB
  0
TABLE
  2
DIMSTYLE
  5
A
330
0
100
AcDbSymbolTable
 70
     2
100
AcDbDimStyleTable
 71
     1
340
1D
  0
DIMSTYLE
105
1D
330
A
100
AcDbSymbolTableRecord
100
AcDbDimStyleTableRecord
  2
STANDARD
 70
     0
340
F
  0
DIMSTYLE
105
23
330
A
100
AcDbSymbolTableRecord
100
AcDbDimStyleTableRecord
  2
JIS
 70
     0
 41
2.5
 42
1.0
 43
7.0
 44
1.0
 73
     0
 74
     0
 77
     1
 78
     8
140
2.5
141
0.0
143
0.0394
147
0.0
172
     1
174
     1
175
     1
340
F
  0
ENDTAB
  0
TABLE
  2
BLOCK_RECORD
  5
1
330
0
100
AcDbSymbolTable
 70
     3
  0
BLOCK_RECORD
  5
18
330
1
100
AcDbSymbolTableRecord
100
AcDbBlockTableRecord
  2
*MODEL_SPACE
340
1600
  0
BLOCK_RECORD
  5
15
330
1
100
AcDbSymbolTableRecord
100
AcDbBlockTableRecord
  2
*PAPER_SPACE
340
1601
  0
BLOCK_RECORD
  5
24
330
1
100
AcDbSymbolTableRecord
100
AcDbBlockTableRecord
  2
JIS_A4L
340
0
  0
BLOCK_RECORD
  5
3437
330
1
100
AcDbSymbolTableRecord
100
AcDbBlockTableRecord
  2
*D1
340
0
  0
BLOCK_RECORD
  5
3445
330
1
100
AcDbSymbolTableRecord
100
AcDbBlockTableRecord
  2
A$C23BB6A77
340
0
  0
ENDTAB
  0
ENDSEC
  0
SECTION
  2
BLOCKS
  0
BLOCK
  5
19
330
18
100
AcDbEntity
  8
0
100
AcDbBlockBegin
  2
*MODEL_SPACE
 70
     2
 10
0.0
 20
0.0
 30
0.0
  3
*MODEL_SPACE
  1

  0
ENDBLK
  5
1A
330
18
100
AcDbEntity
  8
0
100
AcDbBlockEnd
  0
BLOCK
  5
16
330
15
100
AcDbEntity
 67
     1
  8
0
100
AcDbBlockBegin
  2
*PAPER_SPACE
 70
     0
 10
0.0
 20
0.0
 30
0.0
  3
*PAPER_SPACE
  1

  0
ENDBLK
  5
17
330
15
100
AcDbEntity
 67
     1
  8
0
100
AcDbBlockEnd
  0
BLOCK
  5
A1
330
24
100
AcDbEntity
  8
0
100
AcDbBlockBegin
  2
JIS_A4L
 70
     2
 10
0.0
 20
0.0
 30
0.0
  3
JIS_A4L
  1

  0
LINE
  5
25
330
24
100
AcDbEntity
  8
0
100
AcDbLine
 10
0.0
 20
0.0
 30
0.0
 11
0.0
 21
10.0
 31
0.0
  0
LINE
  5
26
330
24
100
AcDbEntity
  8
0
100
AcDbLine
 10
0.0
 20
210.0
 30
0.0
 11
25.0
 21
210.0
 31
0.0
  0
LINE
  5
27
330
24
100
AcDbEntity
  8
0
100
AcDbLine
 10
297.0
 20
210.0
 30
0.0
 11
297.0
 21
200.0
 31
0.0
  0
LINE
  5
28
330
24
100
AcDbEntity
  8
0
100
AcDbLine
 10
297.0
 20
0.0
 30
0.0
 11
287.0
 21
0.0
 31
0.0
  0
LINE
  5
29
330
24
100
AcDbEntity
  8
0
100
AcDbLine
 10
25.0
 20
10.0
 30
0.0
 11
25.0
 21
200.0
 31
0.0
  0
LINE
  5
2A
330
24
100
AcDbEntity
  8
0
100
AcDbLine
 10
287.0
 20
10.0
 30
0.0
 11
25.0
 21
10.0
 31
0.0
  0
LINE
  5
2B
330
24
100
AcDbEntity
  8
0
100
AcDbLine
 10
287.0
 20
200.0
 30
0.0
 11
287.0
 21
10.0
 31
0.0
  0
LINE
  5
2C
330
24
100
AcDbEntity
  8
0
100
AcDbLine
 10
25.0
 20
200.0
 30
0.0
 11
287.0
 21
200.0
 31
0.0
  0
LINE
  5
2D
330
24
100
AcDbEntity
  8
0
100
AcDbLine
 10
0.0
 20
200.0
 30
0.0
 11
0.0
 21
210.0
 31
0.0
  0
LINE
  5
2E
330
24
100
AcDbEntity
  8
0
100
AcDbLine
 10
25.0
 20
0.0
 30
0.0
 11
0.0
 21
0.0
 31
0.0
  0
LINE
  5
2F
330
24
100
AcDbEntity
  8
0
100
AcDbLine
 10
297.0
 20
10.0
 30
0.0
 11
297.0
 21
0.0
 31
0.0
  0
LINE
  5
30
330
24
100
AcDbEntity
  8
0
100
AcDbLine
 10
287.0
 20
210.0
 30
0.0
 11
297.0
 21
210.0
 31
0.0
  0
ATTDEF
  5
31
330
24
100
AcDbEntity
  8
0
 62
     0
100
AcDbText
 10
19.0
 20
10.0
 30
0.0
 40
3.0
  1

 50
90.0
  7
ADESK1
100
AcDbAttributeDefinition
  3

  2
USER
 70
     8
  0
ATTDEF
  5
32
330
24
100
AcDbEntity
  8
0
 62
     0
100
AcDbText
 10
19.0
 20
70.0
 30
0.0
 40
3.0
  1

 50
90.0
  7
ADESK1
100
AcDbAttributeDefinition
  3

  2
REVDATE
 70
     8
  0
ATTDEF
  5
33
330
24
100
AcDbEntity
  8
0
 62
     0
100
AcDbText
 10
19.0
 20
118.0
 30
0.0
 40
3.0
  1

 50
90.0
  7
ADESK1
100
AcDbAttributeDefinition
  3

  2
FNAME
 70
     8
  0
LINE
  5
34
330
24
100
AcDbEntity
  8
OBJECT
100
AcDbLine
 10
130.0
 20
16.0
 30
0.0
 11
25.0
 21
16.0
 31
0.0
  0
LINE
  5
35
330
24
100
AcDbEntity
  8
OBJECT
100
AcDbLine
 10
130.0
 20
22.0
 30
0.0
 11
25.0
 21
22.0
 31
0.0
  0
LINE
  5
36
330
24
100
AcDbEntity
  8
OBJECT
100
AcDbLine
 10
130.0
 20
28.0
 30
0.0
 11
25.0
 21
28.0
 31
0.0
  0
LINE
  5
37
330
24
100
AcDbEntity
  8
OBJECT
100
AcDbLine
 10
130.0
 20
34.0
 30
0.0
 11
25.0
 21
34.0
 31
0.0
  0
LINE
  5
38
330
24
100
AcDbEntity
  8
OBJECT
100
AcDbLine
 10
130.0
 20
40.0
 30
0.0
 11
25.0
 21
40.0
 31
0.0
  0
LINE
  5
39
330
24
100
AcDbEntity
  8
OBJECT
100
AcDbLine
 10
28.0
 20
11.53589799999999
 30
0.0
 11
30.0
 21
15.0
 31
0.0
  0
LINE
  5
3A
330
24
100
AcDbEntity
  8
OBJECT
100
AcDbLine
 10
32.0
 20
11.53589799999999
 30
0.0
 11
30.0
 21
15.0
 31
0.0
  0
LINE
  5
3B
330
24
100
AcDbEntity
  8
OBJECT
100
AcDbLine
 10
35.0
 20
10.0
 30
0.0
 11
35.0
 21
40.0
 31
0.0
  0
LINE
  5
3C
330
24
100
AcDbEntity
  8
OBJECT
100
AcDbLine
 10
50.0
 20
10.0
 30
0.0
 11
50.0
 21
40.0
 31
0.0
  0
LINE
  5
3D
330
24
100
AcDbEntity
  8
OBJECT
100
AcDbLine
 10
80.0
 20
10.0
 30
0.0
 11
80.0
 21
40.0
 31
0.0
  0
LINE
  5
3E
330
24
100
AcDbEntity
  8
OBJECT
100
AcDbLine
 10
28.0
 20
11.53589799999999
 30
0.0
 11
32.0
 21
11.53589799999999
 31
0.0
  0
LINE
  5
3F
330
24
100
AcDbEntity
  8
OBJECT
100
AcDbLine
 10
39.5
 20
13.0
 30
0.0
 11
40.49999999999999
 21
13.0
 31
0.0
  0
LINE
  5
40
330
24
100
AcDbEntity
  8
OBJECT
100
AcDbLine
 10
44.5
 20
13.0
 30
0.0
 11
45.49999999999999
 21
13.0
 31
0.0
  0
LINE
  5
41
330
24
100
AcDbEntity
  8
OBJECT
100
AcDbLine
 10
32.0
 20
17.535898
 30
0.0
 11
30.0
 21
20.99999999999999
 31
0.0
  0
LINE
  5
42
330
24
100
AcDbEntity
  8
OBJECT
100
AcDbLine
 10
28.0
 20
17.535898
 30
0.0
 11
32.0
 21
17.535898
 31
0.0
  0
LINE
  5
43
330
24
100
AcDbEntity
  8
OBJECT
100
AcDbLine
 10
28.0
 20
17.535898
 30
0.0
 11
30.0
 21
20.99999999999999
 31
0.0
  0
LINE
  5
44
330
24
100
AcDbEntity
  8
OBJECT
100
AcDbLine
 10
32.0
 20
23.53589799999999
 30
0.0
 11
30.0
 21
26.99999999999999
 31
0.0
  0
LINE
  5
45
330
24
100
AcDbEntity
  8
OBJECT
100
AcDbLine
 10
28.0
 20
23.53589799999999
 30
0.0
 11
32.0
 21
23.53589799999999
 31
0.0
  0
LINE
  5
46
330
24
100
AcDbEntity
  8
OBJECT
100
AcDbLine
 10
28.0
 20
23.53589799999999
 30
0.0
 11
30.0
 21
26.99999999999999
 31
0.0
  0
LINE
  5
47
330
24
100
AcDbEntity
  8
OBJECT
100
AcDbLine
 10
28.0
 20
35.53589799999999
 30
0.0
 11
30.0
 21
39.0
 31
0.0
  0
LINE
  5
48
330
24
100
AcDbEntity
  8
OBJECT
100
AcDbLine
 10
32.0
 20
35.53589799999999
 30
0.0
 11
30.0
 21
39.0
 31
0.0
  0
LINE
  5
49
330
24
100
AcDbEntity
  8
OBJECT
100
AcDbLine
 10
28.0
 20
35.53589799999999
 30
0.0
 11
32.0
 21
35.53589799999999
 31
0.0
  0
LINE
  5
4A
330
24
100
AcDbEntity
  8
OBJECT
100
AcDbLine
 10
32.0
 20
29.53589799999999
 30
0.0
 11
30.0
 21
33.0
 31
0.0
  0
LINE
  5
4B
330
24
100
AcDbEntity
  8
OBJECT
100
AcDbLine
 10
28.0
 20
29.53589799999999
 30
0.0
 11
32.0
 21
29.53589799999999
 31
0.0
  0
LINE
  5
4C
330
24
100
AcDbEntity
  8
OBJECT
100
AcDbLine
 10
28.0
 20
29.53589799999999
 30
0.0
 11
30.0
 21
33.0
 31
0.0
  0
LINE
  5
4D
330
24
100
AcDbEntity
  8
OBJECT
100
AcDbLine
 10
39.5
 20
19.0
 30
0.0
 11
40.49999999999999
 21
19.0
 31
0.0
  0
LINE
  5
4E
330
24
100
AcDbEntity
  8
OBJECT
100
AcDbLine
 10
44.5
 20
19.0
 30
0.0
 11
45.49999999999999
 21
19.0
 31
0.0
  0
LINE
  5
4F
330
24
100
AcDbEntity
  8
OBJECT
100
AcDbLine
 10
39.5
 20
25.0
 30
0.0
 11
40.49999999999999
 21
25.0
 31
0.0
  0
LINE
  5
50
330
24
100
AcDbEntity
  8
OBJECT
100
AcDbLine
 10
44.5
 20
25.0
 30
0.0
 11
45.49999999999999
 21
25.0
 31
0.0
  0
LINE
  5
51
330
24
100
AcDbEntity
  8
OBJECT
100
AcDbLine
 10
39.5
 20
31.0
 30
0.0
 11
40.49999999999999
 21
31.0
 31
0.0
  0
LINE
  5
52
330
24
100
AcDbEntity
  8
OBJECT
100
AcDbLine
 10
39.5
 20
37.0
 30
0.0
 11
40.49999999999999
 21
37.0
 31
0.0
  0
LINE
  5
53
330
24
100
AcDbEntity
  8
OBJECT
100
AcDbLine
 10
44.5
 20
31.0
 30
0.0
 11
45.49999999999999
 21
31.0
 31
0.0
  0
LINE
  5
54
330
24
100
AcDbEntity
  8
OBJECT
100
AcDbLine
 10
44.5
 20
37.0
 30
0.0
 11
45.49999999999999
 21
37.0
 31
0.0
  0
LINE
  5
55
330
24
100
AcDbEntity
  8
OBJECT
100
AcDbLine
 10
120.0
 20
10.0
 30
0.0
 11
120.0
 21
40.0
 31
0.0
  0
LINE
  5
56
330
24
100
AcDbEntity
  8
OBJECT
100
AcDbLine
 10
130.0
 20
40.0
 30
0.0
 11
130.0
 21
10.0
 31
0.0
  0
LINE
  5
57
330
24
100
AcDbEntity
  8
0
100
AcDbLine
 10
156.0
 20
10.0
 30
0.0
 11
156.0
 21
0.0
 31
0.0
  0
LINE
  5
58
330
24
100
AcDbEntity
  8
0
100
AcDbLine
 10
156.0
 20
200.0
 30
0.0
 11
156.0
 21
210.0
 31
0.0
  0
LINE
  5
59
330
24
100
AcDbEntity
  8
0
100
AcDbLine
 10
287.0
 20
105.0
 30
0.0
 11
297.0
 21
105.0
 31
0.0
  0
LINE
  5
5A
330
24
100
AcDbEntity
  8
0
100
AcDbLine
 10
25.0
 20
105.0
 30
0.0
 11
0.0
 21
105.0
 31
0.0
  0
TEXT
  5
5B
330
24
100
AcDbEntity
  8
0
100
AcDbText
 10
1.0
 20
1.0
 30
0.0
 40
3.0
  1
この図枠はサンプルです。社内の規格やプロッタの出力範囲に合わせて適当に変更してご利用ください。
  7
ADESK1
100
AcDbText
  0
LINE
  5
5C
330
24
100
AcDbEntity
  8
0
100
AcDbLine
 10
25.0
 20
152.5
 30
0.0
 11
20.0
 21
152.5
 31
0.0
  0
LINE
  5
5D
330
24
100
AcDbEntity
  8
0
100
AcDbLine
 10
25.0
 20
105.0
 30
0.0
 11
20.0
 21
105.0
 31
0.0
  0
LINE
  5
5E
330
24
100
AcDbEntity
  8
0
100
AcDbLine
 10
25.0
 20
57.5
 30
0.0
 11
20.0
 21
57.5
 31
0.0
  0
LINE
  5
5F
330
24
100
AcDbEntity
  8
0
100
AcDbLine
 10
68.66666666666668
 20
10.0
 30
0.0
 11
68.66666666666668
 21
5.0
 31
0.0
  0
LINE
  5
60
330
24
100
AcDbEntity
  8
0
100
AcDbLine
 10
112.3333333333333
 20
10.0
 30
0.0
 11
112.3333333333333
 21
5.0
 31
0.0
  0
LINE
  5
61
330
24
100
AcDbEntity
  8
0
100
AcDbLine
 10
156.0
 20
10.0
 30
0.0
 11
156.0
 21
5.0
 31
0.0
  0
LINE
  5
62
330
24
100
AcDbEntity
  8
0
100
AcDbLine
 10
199.6666666666666
 20
10.0
 30
0.0
 11
199.6666666666666
 21
5.0
 31
0.0
  0
LINE
  5
63
330
24
100
AcDbEntity
  8
0
100
AcDbLine
 10
243.3333333333333
 20
10.0
 30
0.0
 11
243.3333333333333
 21
5.0
 31
0.0
  0
LINE
  5
64
330
24
100
AcDbEntity
  8
0
100
AcDbLine
 10
287.0
 20
57.5
 30
0.0
 11
292.0
 21
57.5
 31
0.0
  0
LINE
  5
65
330
24
100
AcDbEntity
  8
0
100
AcDbLine
 10
287.0
 20
105.0
 30
0.0
 11
292.0
 21
105.0
 31
0.0
  0
LINE
  5
66
330
24
100
AcDbEntity
  8
0
100
AcDbLine
 10
287.0
 20
152.5
 30
0.0
 11
292.0
 21
152.5
 31
0.0
  0
LINE
  5
67
330
24
100
AcDbEntity
  8
0
100
AcDbLine
 10
243.3333333333333
 20
200.0
 30
0.0
 11
243.3333333333333
 21
205.0
 31
0.0
  0
LINE
  5
68
330
24
100
AcDbEntity
  8
0
100
AcDbLine
 10
199.6666666666666
 20
200.0
 30
0.0
 11
199.6666666666666
 21
205.0
 31
0.0
  0
LINE
  5
69
330
24
100
AcDbEntity
  8
0
100
AcDbLine
 10
156.0
 20
200.0
 30
0.0
 11
156.0
 21
205.0
 31
0.0
  0
LINE
  5
6A
330
24
100
AcDbEntity
  8
0
100
AcDbLine
 10
112.3333333333333
 20
200.0
 30
0.0
 11
112.3333333333333
 21
205.0
 31
0.0
  0
LINE
  5
6B
330
24
100
AcDbEntity
  8
0
100
AcDbLine
 10
68.66666666666666
 20
200.0
 30
0.0
 11
68.66666666666666
 21
205.0
 31
0.0
  0
TEXT
  5
6C
330
24
100
AcDbEntity
  8
0
100
AcDbText
 10
45.61904761904761
 20
201.0
 30
0.0
 40
3.0
  1
1
  7
ADESK1
 72
     1
 11
46.83333333333332
 21
201.0
 31
0.0
100
AcDbText
  0
TEXT
  5
6D
330
24
100
AcDbEntity
  8
0
100
AcDbText
 10
21.66139736003921
 20
176.25
 30
0.0
 40
3.0
  1
A
  7
ADESK1
 72
     1
 11
22.94711164575349
 21
176.25
 31
0.0
100
AcDbText
  0
TEXT
  5
6E
330
24
100
AcDbEntity
  8
0
100
AcDbText
 10
89.07142857142856
 20
201.0
 30
0.0
 40
3.0
  1
2
  7
ADESK1
 72
     1
 11
90.5
 21
201.0
 31
0.0
100
AcDbText
  0
TEXT
  5
6F
330
24
100
AcDbEntity
  8
0
100
AcDbText
 10
132.7380952380952
 20
201.0
 30
0.0
 40
3.0
  1
3
  7
ADESK1
 72
     1
 11
134.1666666666666
 21
201.0
 31
0.0
100
AcDbText
  0
TEXT
  5
70
330
24
100
AcDbEntity
  8
0
100
AcDbText
 10
176.3333333333333
 20
201.0
 30
0.0
 40
3.0
  1
4
  7
ADESK1
 72
     1
 11
177.8333333333333
 21
201.0
 31
0.0
100
AcDbText
  0
TEXT
  5
71
330
24
100
AcDbEntity
  8
0
100
AcDbText
 10
220.0714285714286
 20
201.0
 30
0.0
 40
3.0
  1
5
  7
ADESK1
 72
     1
 11
221.4999999999999
 21
201.0
 31
0.0
100
AcDbText
  0
TEXT
  5
72
330
24
100
AcDbEntity
  8
0
100
AcDbText
 10
263.6666666666666
 20
201.0
 30
0.0
 40
3.0
  1
6
  7
ADESK1
 72
     1
 11
265.1666666666666
 21
201.0
 31
0.0
100
AcDbText
  0
TEXT
  5
73
330
24
100
AcDbEntity
  8
0
100
AcDbText
 10
21.37568307432492
 20
128.75
 30
0.0
 40
3.0
  1
B
  7
ADESK1
 72
     1
 11
22.94711164575349
 21
128.75
 31
0.0
100
AcDbText
  0
TEXT
  5
74
330
24
100
AcDbEntity
  8
0
100
AcDbText
 10
21.44711164575349
 20
81.25
 30
0.0
 40
3.0
  1
C
  7
ADESK1
 72
     1
 11
22.94711164575349
 21
81.25
 31
0.0
100
AcDbText
  0
TEXT
  5
75
330
24
100
AcDbEntity
  8
0
100
AcDbText
 10
21.37568307432492
 20
33.75
 30
0.0
 40
3.0
  1
D
  7
ADESK1
 72
     1
 11
22.94711164575349
 21
33.75
 31
0.0
100
AcDbText
  0
TEXT
  5
76
330
24
100
AcDbEntity
  8
0
100
AcDbText
 10
45.61904761904759
 20
6.230338100985607
 30
0.0
 40
3.0
  1
1
  7
ADESK1
 72
     1
 11
46.83333333333331
 21
6.230338100985607
 31
0.0
100
AcDbText
  0
TEXT
  5
77
330
24
100
AcDbEntity
  8
0
100
AcDbText
 10
89.07142857142856
 20
6.230338100985607
 30
0.0
 40
3.0
  1
2
  7
ADESK1
 72
     1
 11
90.5
 21
6.230338100985607
 31
0.0
100
AcDbText
  0
TEXT
  5
78
330
24
100
AcDbEntity
  8
0
100
AcDbText
 10
132.7380952380952
 20
6.230338100985607
 30
0.0
 40
3.0
  1
3
  7
ADESK1
 72
     1
 11
134.1666666666666
 21
6.230338100985607
 31
0.0
100
AcDbText
  0
TEXT
  5
79
330
24
100
AcDbEntity
  8
0
100
AcDbText
 10
176.3333333333333
 20
6.230338100985607
 30
0.0
 40
3.0
  1
4
  7
ADESK1
 72
     1
 11
177.8333333333333
 21
6.230338100985607
 31
0.0
100
AcDbText
  0
TEXT
  5
7A
330
24
100
AcDbEntity
  8
0
100
AcDbText
 10
220.0714285714286
 20
6.230338100985607
 30
0.0
 40
3.0
  1
5
  7
ADESK1
 72
     1
 11
221.4999999999999
 21
6.230338100985607
 31
0.0
100
AcDbText
  0
TEXT
  5
7B
330
24
100
AcDbEntity
  8
0
100
AcDbText
 10
263.6666666666666
 20
6.230338100985607
 30
0.0
 40
3.0
  1
6
  7
ADESK1
 72
     1
 11
265.1666666666666
 21
6.230338100985607
 31
0.0
100
AcDbText
  0
TEXT
  5
7C
330
24
100
AcDbEntity
  8
0
100
AcDbText
 10
287.9530581679809
 20
176.25
 30
0.0
 40
3.0
  1
A
  7
ADESK1
 72
     1
 11
289.2387724536952
 21
176.25
 31
0.0
100
AcDbText
  0
TEXT
  5
7D
330
24
100
AcDbEntity
  8
0
100
AcDbText
 10
287.6673438822666
 20
128.75
 30
0.0
 40
3.0
  1
B
  7
ADESK1
 72
     1
 11
289.2387724536952
 21
128.75
 31
0.0
100
AcDbText
  0
TEXT
  5
7E
330
24
100
AcDbEntity
  8
0
100
AcDbText
 10
287.7387724536952
 20
81.25
 30
0.0
 40
3.0
  1
C
  7
ADESK1
 72
     1
 11
289.2387724536952
 21
81.25
 31
0.0
100
AcDbText
  0
TEXT
  5
7F
330
24
100
AcDbEntity
  8
0
100
AcDbText
 10
287.6673438822666
 20
33.75
 30
0.0
 40
3.0
  1
D
  7
ADESK1
 72
     1
 11
289.2387724536952
 21
33.75
 31
0.0
100
AcDbText
  0
LINE
  5
80
330
24
100
AcDbEntity
  8
0
 62
     0
100
AcDbLine
 10
157.2978723404242
 20
49.00000000000036
 30
0.0
 11
287.0
 21
49.00000000000036
 31
0.0
  0
LINE
  5
81
330
24
100
AcDbEntity
  8
0
 62
     0
100
AcDbLine
 10
157.2978723404242
 20
13.00000000000004
 30
0.0
 11
287.0
 21
13.00000000000004
 31
0.0
  0
LINE
  5
82
330
24
100
AcDbEntity
  8
0
 62
     0
100
AcDbLine
 10
157.2978723404242
 20
37.00000000000024
 30
0.0
 11
287.0
 21
37.00000000000024
 31
0.0
  0
LINE
  5
83
330
24
100
AcDbEntity
  8
0
 62
     0
100
AcDbLine
 10
195.1276595744673
 20
22.00000000000012
 30
0.0
 11
287.0
 21
22.00000000000012
 31
0.0
  0
LINE
  5
84
330
24
100
AcDbEntity
  8
0
 62
     0
100
AcDbLine
 10
157.2978723404242
 20
10.0
 30
0.0
 11
287.0
 21
10.0
 31
0.0
  0
LINE
  5
85
330
24
100
AcDbEntity
  8
0
 62
     0
100
AcDbLine
 10
287.0
 20
49.00000000000036
 30
0.0
 11
157.2978723404242
 21
49.00000000000036
 31
0.0
  0
LINE
  5
86
330
24
100
AcDbEntity
  8
0
 62
     0
100
AcDbLine
 10
180.7163120567365
 20
37.00000000000024
 30
0.0
 11
180.7163120567365
 21
10.0
 31
0.0
  0
LINE
  5
87
330
24
100
AcDbEntity
  8
0
 62
     0
100
AcDbLine
 10
162.702127659573
 20
37.00000000000024
 30
0.0
 11
162.702127659573
 21
10.0
 31
0.0
  0
LINE
  5
88
330
24
100
AcDbEntity
  8
0
 62
     0
100
AcDbLine
 10
189.7234042553184
 20
37.00000000000024
 30
0.0
 11
189.7234042553184
 21
10.0
 31
0.0
  0
LINE
  5
89
330
24
100
AcDbEntity
  8
0
 62
     0
100
AcDbLine
 10
195.1276595744673
 20
25.00000000000012
 30
0.0
 11
195.1276595744673
 21
10.0
 31
0.0
  0
LINE
  5
8A
330
24
100
AcDbEntity
  8
0
 62
     0
100
AcDbLine
 10
157.2978723404242
 20
49.00000000000036
 30
0.0
 11
157.2978723404242
 21
10.0
 31
0.0
  0
LINE
  5
8B
330
24
100
AcDbEntity
  8
0
 62
     0
100
AcDbLine
 10
225.7517730496447
 20
49.00000000000036
 30
0.0
 11
225.7517730496447
 21
10.0
 31
0.0
  0
LINE
  5
8C
330
24
100
AcDbEntity
  8
0
 62
     0
100
AcDbLine
 10
205.7659574468077
 20
22.00000000000007
 30
0.0
 11
205.7659574468077
 21
10.0
 31
0.0
  0
LINE
  5
8D
330
24
100
AcDbEntity
  8
0
 62
     0
100
AcDbLine
 10
216.4042553191484
 20
22.00000000000007
 30
0.0
 11
216.4042553191484
 21
10.0
 31
0.0
  0
LINE
  5
8E
330
24
100
AcDbEntity
  8
0
 62
     0
100
AcDbLine
 10
157.2978723404242
 20
16.00000000000008
 30
0.0
 11
195.1276595744673
 21
16.00000000000008
 31
0.0
  0
LINE
  5
8F
330
24
100
AcDbEntity
  8
0
 62
     0
100
AcDbLine
 10
157.2978723404242
 20
10.0
 30
0.0
 11
157.2978723404242
 21
13.00000000000004
 31
0.0
  0
TEXT
  5
90
330
24
100
AcDbEntity
  8
0
 62
     0
100
AcDbText
 10
198.7174935280942
 20
10.48329012996929
 30
0.0
 40
1.791674070777747
  1
製図
  7
ADESK1
 72
     1
 11
200.5688900678978
 21
10.48329012996929
 31
0.0
100
AcDbText
  0
TEXT
  5
91
330
24
100
AcDbEntity
  8
0
 62
     0
100
AcDbText
 10
209.2960689314087
 20
10.48329012996929
 30
0.0
 40
1.791674070777747
  1
設計
  7
ADESK1
 72
     1
 11
211.2071879402383
 21
10.48329012996929
 31
0.0
100
AcDbText
  0
TEXT
  5
92
330
24
100
AcDbEntity
  8
0
 62
     0
100
AcDbText
 10
219.2447163844405
 20
10.55220101068186
 30
0.0
 40
1.791674070777747
  1
照査
  7
ADESK1
 72
     1
 11
221.1558353932701
 21
10.55220101068186
 31
0.0
100
AcDbText
  0
LINE
  5
93
330
24
100
AcDbEntity
  8
0
 62
     0
100
AcDbLine
 10
157.2978723404242
 20
25.00000000000012
 30
0.0
 11
195.1276595744673
 21
25.00000000000012
 31
0.0
  0
LINE
  5
94
330
24
100
AcDbEntity
  8
0
 62
     0
100
AcDbLine
 10
157.2978723404242
 20
22.00000000000007
 30
0.0
 11
195.1276595744673
 21
22.00000000000012
 31
0.0
  0
LINE
  5
95
330
24
100
AcDbEntity
  8
0
 62
     0
100
AcDbLine
 10
157.2978723404242
 20
19.00000000000007
 30
0.0
 11
195.1276595744673
 21
19.00000000000012
 31
0.0
  0
LINE
  5
96
330
24
100
AcDbEntity
  8
0
 62
     0
100
AcDbLine
 10
157.2978723404242
 20
34.00000000000024
 30
0.0
 11
225.7517730496447
 21
34.00000000000024
 31
0.0
  0
LINE
  5
97
330
24
100
AcDbEntity
  8
0
 62
     0
100
AcDbLine
 10
157.2978723404242
 20
31.0000000000002
 30
0.0
 11
225.7517730496447
 21
31.0000000000002
 31
0.0
  0
LINE
  5
98
330
24
100
AcDbEntity
  8
0
 62
     0
100
AcDbLine
 10
157.2978723404242
 20
28.00000000000015
 30
0.0
 11
225.7517730496447
 21
28.00000000000015
 31
0.0
  0
LINE
  5
99
330
24
100
AcDbEntity
  8
0
 62
     0
100
AcDbLine
 10
195.1276595744673
 20
25.00000000000012
 30
0.0
 11
225.7517730496447
 21
25.00000000000012
 31
0.0
  0
LINE
  5
9A
330
24
100
AcDbEntity
  8
0
 62
     0
100
AcDbLine
 10
195.1276595744673
 20
49.00000000000036
 30
0.0
 11
195.1276595744673
 21
25.00000000000012
 31
0.0
  0
LINE
  5
9B
330
24
100
AcDbEntity
  8
0
 62
     0
100
AcDbLine
 10
202.3333333333325
 20
37.00000000000024
 30
0.0
 11
202.3333333333325
 21
25.00000000000012
 31
0.0
  0
LINE
  5
9C
330
24
100
AcDbEntity
  8
0
 62
     0
100
AcDbLine
 10
213.1418439716305
 20
49.00000000000036
 30
0.0
 11
213.1418439716305
 21
22.00000000000012
 31
0.0
  0
LINE
  5
9D
330
24
100
AcDbEntity
  8
0
 62
     0
100
AcDbLine
 10
279.7943262411347
 20
22.00000000000012
 30
0.0
 11
279.7943262411347
 21
10.0
 31
0.0
  0
LINE
  5
9E
330
24
100
AcDbEntity
  8
0
 62
     0
100
AcDbLine
 10
287.0
 20
49.00000000000036
 30
0.0
 11
287.0
 21
10.0
 31
0.0
  0
LINE
  5
9F
330
24
100
AcDbEntity
  8
0
 62
     0
100
AcDbLine
 10
287.0
 20
10.0
 30
0.0
 11
287.0
 21
49.00000000000036
 31
0.0
  0
LINE
  5
A0
330
24
100
AcDbEntity
  8
0
 62
     0
100
AcDbLine
 10
279.7943262411347
 20
16.00000000000008
 30
0.0
 11
287.0
 21
16.00000000000008
 31
0.0
  0
ENDBLK
  5
A2
330
24
100
AcDbEntity
  8
0
100
AcDbBlockEnd
  0
BLOCK
  5
3443
330
3437
100
AcDbEntity
  8
0
100
AcDbBlockBegin
  2
*D1
 70
     1
 10
0.0
 20
0.0
 30
0.0
  3
*D1
  1

  0
LINE
  5
3438
330
3437
100
AcDbEntity
  8
OBJECT
 62
     0
370
    -2
100
AcDbLine
 10
-8068.568047744786
 20
3998.303038975791
 30
0.0
 11
-7757.422052324407
 21
3998.303038975791
 31
0.0
  0
LINE
  5
3439
330
3437
100
AcDbEntity
  8
OBJECT
 62
     0
370
    -2
100
AcDbLine
 10
-8068.568047744786
 20
4078.303038975791
 30
0.0
 11
-7757.422052324407
 21
4078.303038975791
 31
0.0
  0
LINE
  5
343A
330
3437
100
AcDbEntity
  8
OBJECT
 62
     0
370
    -2
100
AcDbLine
 10
-7776.172052324408
 20
3960.803038975791
 30
0.0
 11
-7776.172052324408
 21
3923.303038975791
 31
0.0
  0
LINE
  5
343B
330
3437
100
AcDbEntity
  8
OBJECT
 62
     0
370
    -2
100
AcDbLine
 10
-7776.172052324408
 20
4115.803038975792
 30
0.0
 11
-7776.172052324408
 21
4153.303038975791
 31
0.0
  0
LINE
  5
343C
330
3437
100
AcDbEntity
  8
OBJECT
 62
     0
370
    -2
100
AcDbLine
 10
-7776.172052324408
 20
3998.303038975791
 30
0.0
 11
-7776.172052324408
 21
4078.303038975791
 31
0.0
  0
SOLID
  5
343D
330
3437
100
AcDbEntity
  8
OBJECT
 62
     0
100
AcDbTrace
 10
-7782.422052324408
 20
3960.803038975791
 30
0.0
 11
-7769.922052324408
 21
3960.803038975791
 31
0.0
 12
-7776.172052324408
 22
3998.303038975791
 32
0.0
 13
-7776.172052324408
 23
3998.303038975791
 33
0.0
  0
SOLID
  5
343E
330
3437
100
AcDbEntity
  8
OBJECT
 62
     0
100
AcDbTrace
 10
-7782.422052324408
 20
4115.803038975792
 30
0.0
 11
-7769.922052324408
 21
4115.803038975792
 31
0.0
 12
-7776.172052324408
 22
4078.303038975791
 32
0.0
 13
-7776.172052324408
 23
4078.303038975791
 33
0.0
  0
MTEXT
  5
343F
330
3437
100
AcDbEntity
  8
OBJECT
 62
     0
100
AcDbMText
 10
-7804.297052324407
 20
4038.303038975789
 30
0.0
 40
37.5
 41
0.0
 71
     5
 72
     1
  1
\A1;80
 11
0.0000000000000001
 21
1.0
 31
0.0
 73
     1
 44
1.0
  0
POINT
  5
3440
330
3437
100
AcDbEntity
  8
DEFPOINTS
 62
     0
100
AcDbPoint
 10
-8077.943047744787
 20
3998.303038975791
 30
0.0
  0
POINT
  5
3441
330
3437
100
AcDbEntity
  8
DEFPOINTS
 62
     0
100
AcDbPoint
 10
-8077.943047744787
 20
4078.303038975791
 30
0.0
  0
POINT
  5
3442
330
3437
100
AcDbEntity
  8
DEFPOINTS
 62
     0
100
AcDbPoint
 10
-7776.172052324408
 20
4078.303038975791
 30
0.0
  0
ENDBLK
  5
3444
330
3437
100
AcDbEntity
  8
0
100
AcDbBlockEnd
  0
BLOCK
  5
3447
330
3445
100
AcDbEntity
  8
0
100
AcDbBlockBegin
  2
A$C23BB6A77
 70
     0
 10
0.0
 20
0.0
 30
0.0
  3
A$C23BB6A77
  1

  0
DIMENSION
  5
3446
330
3445
100
AcDbEntity
  8
OBJECT
100
AcDbDimension
  2
*D1
 10
301.7709854312124
 20
154.9999934708971
 30
0.0
 11
273.6459854312115
 21
114.9999934708962
 31
0.0
 12
8077.94303775562
 22
-3923.303045504894
 32
0.0
 71
     5
 42
79.99999999999954
  3
STANDARD
100
AcDbAlignedDimension
 13
-0.0000099891658465
 23
74.99999347089761
 33
0.0
 14
-0.0000099891658465
 24
154.9999934708971
 34
0.0
 50
90.0
100
AcDbRotatedDimension
1001
ACAD
1000
DSTYLE
1002
{
1070
    40
1040
15.0
1070
    41
1040
2.5
1070
    42
1040
0.625
1070
    43
1040
3.75
1070
    44
1040
1.25
1070
    73
1070
     0
1070
    74
1070
     0
1070
    77
1070
     1
1070
    78
1070
     8
1070
   140
1040
2.5
1070
   141
1040
2.5
1070
   143
1040
0.0394
1070
   147
1040
0.625
1070
   171
1070
     4
1070
   172
1070
     1
1070
   273
1070
     8
1070
   274
1070
     4
1070
   277
1070
     6
1002
}
  0
ENDBLK
  5
3448
330
3445
100
AcDbEntity
  8
0
100
AcDbBlockEnd
  0
ENDSEC
  0
SECTION
  2
ENTITIES
  0
MTEXT
  5
938
330
18
100
AcDbEntity
  8
上書線
100
AcDbMText
 10
1865.739761775792
 20
499.0283937835011
 30
0.0
 40
37.5
 41
0.0
 71
     4
 72
     1
  1
\A1;
 73
     1
 44
1.0
  0
LINE
  5
123E
330
18
100
AcDbEntity
  8
基準線
100
AcDbLine
 10
710.0813698183028
 20
2117.506972677286
 30
0.0
 11
731.0813698183028
 21
2117.506972677286
 31
0.0
  0
LINE
  5
14BB
330
18
100
AcDbEntity
  8
基準線
100
AcDbLine
 10
1281.296189060135
 20
2744.451732006984
 30
0.0
 11
1631.12377476475
 21
2744.451732006984
 31
0.0
  0
LINE
  5
14BC
330
18
100
AcDbEntity
  8
基準線
100
AcDbLine
 10
1131.296189060135
 20
2594.451732006984
 30
0.0
 11
1604.134047986604
 21
2594.451732006984
 31
0.0
  0
LINE
  5
1546
330
18
100
AcDbEntity
  8
基準線
100
AcDbLine
 10
2000.40772718317
 20
1104.126411816217
 30
0.0
 11
2000.40772718317
 21
1262.163674897728
 31
0.0
  0
LINE
  5
154B
330
18
100
AcDbEntity
  8
基準線
100
AcDbLine
 10
2550.40772718317
 20
1049.126411816217
 30
0.0
 11
2550.40772718317
 21
1211.614819254876
 31
0.0
  0
LINE
  5
154C
330
18
100
AcDbEntity
  8
基準線
100
AcDbLine
 10
2150.40772718317
 20
1049.126411816217
 30
0.0
 11
2150.40772718317
 21
1226.779475202555
 31
0.0
  0
LINE
  5
15CA
330
18
100
AcDbEntity
  8
基準線
100
AcDbLine
 10
3419.935833980378
 20
2804.85492986955
 30
0.0
 11
3776.432100616551
 21
2804.85492986955
 31
0.0
  0
LINE
  5
15CC
330
18
100
AcDbEntity
  8
基準線
100
AcDbLine
 10
3776.432100616551
 20
2804.85492986955
 30
0.0
 11
4171.357345948922
 21
2804.85492986955
 31
0.0
  0
LINE
  5
15D0
330
18
100
AcDbEntity
  8
基準線
100
AcDbLine
 10
3419.935833980378
 20
2684.85492986955
 30
0.0
 11
3776.432100616551
 21
2684.85492986955
 31
0.0
  0
LINE
  5
15D1
330
18
100
AcDbEntity
  8
基準線
100
AcDbLine
 10
3598.183967298465
 20
2684.85492986955
 30
0.0
 11
3598.183967298465
 21
984.8549298695507
 31
0.0
  0
LINE
  5
15D2
330
18
100
AcDbEntity
  8
基準線
100
AcDbLine
 10
3776.432100616551
 20
2484.854929869551
 30
0.0
 11
4171.357345948921
 21
2484.85492986955
 31
0.0
  0
LINE
  5
15D3
330
18
100
AcDbEntity
  8
基準線
100
AcDbLine
 10
3973.894723282737
 20
2684.854929869551
 30
0.0
 11
3973.894723282734
 21
984.8549298695507
 31
0.0
  0
LINE
  5
15D4
330
18
100
AcDbEntity
  8
基準線
100
AcDbLine
 10
3419.935833980378
 20
2684.85492986955
 30
0.0
 11
3419.935833980378
 21
2584.85492986955
 31
0.0
  0
LINE
  5
15D5
330
18
100
AcDbEntity
  8
基準線
100
AcDbLine
 10
3419.935833980378
 20
2634.85492986955
 30
0.0
 11
4114.659436953616
 21
2634.85492986955
 31
0.0
  0
MTEXT
  5
2600
330
18
100
AcDbEntity
  8
上書線
100
AcDbMText
 10
8260.938257495178
 20
6542.638765901848
 30
0.0
 40
60.0
 41
956.9129999999999
 71
     1
 72
     5
  1
重量表
 73
     1
 44
1.0
  0
MTEXT
  5
283E
330
18
100
AcDbEntity
  8
上線
100
AcDbMText
 10
8360.770191796071
 20
6367.796856320427
 30
0.0
 40
49.968
 41
197.7879999999999
 71
     1
 72
     5
  1
Ｈ
 73
     1
 44
1.0
  0
LINE
  5
283F
330
18
100
AcDbEntity
  8
上線
100
AcDbLine
 10
7984.714912601925
 20
5805.04722047282
 30
0.0
 11
8802.445420248169
 21
5805.04722047282
 31
0.0
  0
LINE
  5
2840
330
18
100
AcDbEntity
  8
上線
100
AcDbLine
 10
7984.714912601925
 20
5902.962578147889
 30
0.0
 11
8802.445420248169
 21
5902.962578147889
 31
0.0
  0
LINE
  5
2841
330
18
100
AcDbEntity
  8
上線
100
AcDbLine
 10
7984.714912601925
 20
6000.877935822956
 30
0.0
 11
8802.445420248169
 21
6000.877935822956
 31
0.0
  0
LINE
  5
2842
330
18
100
AcDbEntity
  8
上線
100
AcDbLine
 10
7984.714912601925
 20
6098.793293498022
 30
0.0
 11
8802.445420248169
 21
6098.793293498022
 31
0.0
  0
LINE
  5
2843
330
18
100
AcDbEntity
  8
上線
100
AcDbLine
 10
7984.714912601925
 20
6196.708651173089
 30
0.0
 11
8802.445420248169
 21
6196.708651173089
 31
0.0
  0
LINE
  5
2844
330
18
100
AcDbEntity
  8
上線
100
AcDbLine
 10
7984.714912601925
 20
6294.544008961921
 30
0.0
 11
8803.080079079641
 21
6294.544008961921
 31
0.0
  0
LINE
  5
2845
330
18
100
AcDbEntity
  8
上線
100
AcDbLine
 10
8802.445420248169
 20
6392.539366523225
 30
0.0
 11
7984.714912601925
 21
6392.539366523225
 31
0.0
  0
LINE
  5
284A
330
18
100
AcDbEntity
  8
上線
100
AcDbLine
 10
8257.291748484005
 20
6392.539366523225
 30
0.0
 11
8257.291748484005
 21
5413.385789772551
 31
0.0
  0
LINE
  5
284B
330
18
100
AcDbEntity
  8
上線
100
AcDbLine
 10
7984.714912601925
 20
6392.539366523225
 30
0.0
 11
7984.714912601925
 21
5413.385789772551
 31
0.0
  0
MTEXT
  5
285C
330
18
100
AcDbEntity
  8
上線
100
AcDbMText
 10
8079.302277627048
 20
6367.796856320427
 30
0.0
 40
49.968
 41
197.7879999999999
 71
     1
 72
     5
  1
h1
 73
     1
 44
1.0
  0
LINE
  5
285F
330
18
100
AcDbEntity
  8
上線
100
AcDbLine
 10
8529.868584366086
 20
6392.539366523225
 30
0.0
 11
8529.868584366086
 21
5413.385789772551
 31
0.0
  0
LINE
  5
2860
330
18
100
AcDbEntity
  8
上線
100
AcDbLine
 10
8802.445420248169
 20
5413.385789772551
 30
0.0
 11
8802.445420248169
 21
6392.539366523225
 31
0.0
  0
MTEXT
  5
2866
330
18
100
AcDbEntity
  8
上線
100
AcDbMText
 10
8572.992459791942
 20
6350.983445562828
 30
0.0
 40
24.984
 41
247.78800162
 71
     1
 72
     5
  1
\fＭＳ Ｐ明朝|b0|i0|c128|p18;参考重量（㎏）
 73
     1
 44
1.0
  0
LINE
  5
34F5
330
18
100
AcDbEntity
  8
上線
100
AcDbLine
 10
7984.714912601925
 20
5707.131862797752
 30
0.0
 11
8802.445420248169
 21
5707.131862797752
 31
0.0
  0
LINE
  5
34F6
330
18
100
AcDbEntity
  8
上線
100
AcDbLine
 10
7984.714912601925
 20
5609.216505122685
 30
0.0
 11
8802.445420248169
 21
5609.216505122685
 31
0.0
  0
MTEXT
  5
355D
330
18
100
AcDbEntity
  8
上線
100
AcDbMText
 10
8097.182180515735
 20
5679.504240949093
 30
0.0
 40
49.968
 41
247.7879999999999
 71
     1
 72
     5
  1
600
 73
     1
 44
1.0
  0
MTEXT
  5
355E
330
18
100
AcDbEntity
  8
上線
100
AcDbMText
 10
8097.182180515735
 20
5483.673525598959
 30
0.0
 40
49.968
 41
247.7879999999999
 71
     1
 72
     5
  1
700
 73
     1
 44
1.0
  0
MTEXT
  5
355F
330
18
100
AcDbEntity
  8
上線
100
AcDbMText
 10
8097.182180515735
 20
5875.334956299229
 30
0.0
 40
49.968
 41
247.7879999999999
 71
     1
 72
     5
  1
500
 73
     1
 44
1.0
  0
MTEXT
  5
3560
330
18
100
AcDbEntity
  8
上線
100
AcDbMText
 10
8099.056628349238
 20
6266.916387113262
 30
0.0
 40
49.968
 41
247.7879999999999
 71
     1
 72
     5
  1
300
 73
     1
 44
1.0
  0
MTEXT
  5
3561
330
18
100
AcDbEntity
  8
上線
100
AcDbMText
 10
8097.182180515735
 20
6071.165671649363
 30
0.0
 40
49.968
 41
247.7879999999999
 71
     1
 72
     5
  1
400
 73
     1
 44
1.0
  0
MTEXT
  5
3572
330
18
100
AcDbEntity
  8
上線
100
AcDbMText
 10
8337.791016397815
 20
5483.513525826488
 30
0.0
 40
49.968
 41
279.7559999999999
 71
     1
 72
     5
  1
1300
 73
     1
 44
1.0
  0
MTEXT
  5
3575
330
18
100
AcDbEntity
  8
上線
100
AcDbMText
 10
8369.759016397816
 20
6266.836387227026
 30
0.0
 40
49.968
 41
247.7879999999999
 71
     1
 72
     5
  1
900
 73
     1
 44
1.0
  0
MTEXT
  5
358B
330
18
100
AcDbEntity
  8
上線
100
AcDbMText
 10
8642.335852279897
 20
5875.334956299229
 30
0.0
 40
49.968
 41
247.7879999999999
 71
     1
 72
     5
  1
915
 73
     1
 44
1.0
  0
MTEXT
  5
358C
330
18
100
AcDbEntity
  8
上線
100
AcDbMText
 10
8644.2103001134
 20
6266.916387113262
 30
0.0
 40
49.968
 41
247.7879999999999
 71
     1
 72
     5
  1
720
 73
     1
 44
1.0
  0
MTEXT
  5
358D
330
18
100
AcDbEntity
  8
上線
100
AcDbMText
 10
8642.335852279897
 20
6071.165671649363
 30
0.0
 40
49.968
 41
247.7879999999999
 71
     1
 72
     5
  1
817
 73
     1
 44
1.0
  0
MTEXT
  5
3599
330
18
100
AcDbEntity
  8
上線
100
AcDbMText
 10
8337.791016397815
 20
5679.344241176622
 30
0.0
 40
49.968
 41
279.7559999999999
 71
     1
 72
     5
  1
1200
 73
     1
 44
1.0
  0
MTEXT
  5
35A3
330
18
100
AcDbEntity
  8
上線
100
AcDbMText
 10
8337.791016397815
 20
5875.174956526757
 30
0.0
 40
49.968
 41
279.7559999999999
 71
     1
 72
     5
  1
1100
 73
     1
 44
1.0
  0
MTEXT
  5
35AD
330
18
100
AcDbEntity
  8
上線
100
AcDbMText
 10
8337.791016397815
 20
6071.005671876892
 30
0.0
 40
49.968
 41
279.7559999999999
 71
     1
 72
     5
  1
1000
 73
     1
 44
1.0
  0
ARC
  5
36D1
330
18
100
AcDbEntity
  8
上線
100
AcDbCircle
 10
7163.299930208497
 20
4800.613765800867
 30
0.0
 40
50.0
100
AcDbArc
 50
270.0
 51
359.1815445383053
  0
LINE
  5
36D2
330
18
100
AcDbEntity
  8
点線
100
AcDbLine
 10
6868.305031989031
 20
5300.613765800867
 30
0.0
 11
7268.305031989031
 21
5300.613765800867
 31
0.0
  0
LINE
  5
36D3
330
18
100
AcDbEntity
  8
上線
100
AcDbLine
 10
7367.590746274746
 20
5350.613765800867
 30
0.0
 11
6797.590746274746
 21
5350.613765800867
 31
0.0
  0
LINE
  5
36D4
330
18
100
AcDbEntity
  8
OBJECT
100
AcDbLine
 10
7367.590746274746
 20
4050.613765800865
 30
0.0
 11
6797.590746274746
 21
4050.613765800867
 31
0.0
  0
LINE
  5
3700
330
18
100
AcDbEntity
  8
上線
 48
10.0
100
AcDbLine
 10
7216.87646056046
 20
5250.613765800867
 30
0.0
 11
7213.294828948471
 21
4799.899552961718
 31
0.0
  0
LINE
  5
3701
330
18
100
AcDbEntity
  8
上線
 48
10.0
100
AcDbLine
 10
6918.305031989032
 20
5250.613765800867
 30
0.0
 11
6921.886663601019
 21
4799.899552961718
 31
0.0
  0
LINE
  5
3705
330
18
100
AcDbEntity
  8
OBJECT
100
AcDbLine
 10
6797.590746274746
 20
4050.613765800867
 30
0.0
 11
6797.590746274746
 21
5350.613765800867
 31
0.0
  0
LINE
  5
3706
330
18
100
AcDbEntity
  8
点線
100
AcDbLine
 10
6918.305031989032
 20
5300.613765800867
 30
0.0
 11
6918.305031989032
 21
4050.613765800866
 31
0.0
  0
LINE
  5
3707
330
18
100
AcDbEntity
  8
点線
100
AcDbLine
 10
7216.87646056046
 20
5300.613765800867
 30
0.0
 11
7216.87646056046
 21
4050.613765800866
 31
0.0
  0
ARC
  5
370D
330
18
100
AcDbEntity
  8
上線
100
AcDbCircle
 10
6971.881562340993
 20
4800.613765800867
 30
0.0
 40
50.0
100
AcDbArc
 50
180.8184554616945
 51
270.0
  0
LINE
  5
3713
330
18
100
AcDbEntity
  8
上線
100
AcDbLine
 10
7163.299930208497
 20
4750.613765800866
 30
0.0
 11
6971.881562340993
 21
4750.613765800866
 31
0.0
  0
LINE
  5
3721
330
18
100
AcDbEntity
  8
上線
 48
10.0
100
AcDbLine
 10
6918.305031989032
 20
5250.613765800867
 30
0.0
 11
7216.87646056046
 21
5250.613765800867
 31
0.0
  0
LINE
  5
3722
330
18
100
AcDbEntity
  8
点線
100
AcDbLine
 10
6868.305031989031
 20
5300.613765800867
 30
0.0
 11
6868.305031989031
 21
5350.613765800867
 31
0.0
  0
LINE
  5
378D
330
18
100
AcDbEntity
  8
OBJECT
100
AcDbLine
 10
6497.590746274745
 20
4050.613765800866
 30
0.0
 11
6497.590746274745
 21
5350.613765800867
 31
0.0
  0
LINE
  5
378E
330
18
100
AcDbEntity
  8
点線
100
AcDbLine
 10
6297.590746274746
 20
5300.613765800867
 30
0.0
 11
6297.590746274746
 21
4050.613765800866
 31
0.0
  0
LINE
  5
378F
330
18
100
AcDbEntity
  8
OBJECT
100
AcDbLine
 10
7367.590746274746
 20
5350.613765800867
 30
0.0
 11
7367.590746274746
 21
4050.613765800865
 31
0.0
  0
LINE
  5
3790
330
18
100
AcDbEntity
  8
OBJECT
100
AcDbLine
 10
5497.590746274745
 20
5350.613765800867
 30
0.0
 11
5497.590746274745
 21
4050.613765800866
 31
0.0
  0
LINE
  5
3791
330
18
100
AcDbEntity
  8
点線
100
AcDbLine
 10
5697.590746274745
 20
5300.613765800867
 30
0.0
 11
5697.590746274745
 21
4050.613765800866
 31
0.0
  0
LINE
  5
3792
330
18
100
AcDbEntity
  8
OBJECT
100
AcDbLine
 10
5497.590746274745
 20
4050.613765800866
 30
0.0
 11
6497.590746274745
 21
4050.613765800866
 31
0.0
  0
LINE
  5
3793
330
18
100
AcDbEntity
  8
点線
100
AcDbLine
 10
5697.590746274745
 20
4750.613765800864
 30
0.0
 11
5497.590746274745
 21
4750.613765800864
 31
0.0
  0
LINE
  5
3794
330
18
100
AcDbEntity
  8
点線
100
AcDbLine
 10
6297.590746274746
 20
4750.613765800864
 30
0.0
 11
6497.590746274745
 21
4750.613765800864
 31
0.0
  0
LINE
  5
3797
330
18
100
AcDbEntity
  8
OBJECT
100
AcDbLine
 10
5497.590746274745
 20
5350.613765800867
 30
0.0
 11
6497.590746274745
 21
5350.613765800867
 31
0.0
  0
LINE
  5
3798
330
18
100
AcDbEntity
  8
点線
100
AcDbLine
 10
5697.590746274745
 20
5300.613765800867
 30
0.0
 11
6297.590746274746
 21
5300.613765800867
 31
0.0
  0
LINE
  5
379D
330
18
100
AcDbEntity
  8
点線
100
AcDbLine
 10
5697.590746274745
 20
5250.613765800864
 30
0.0
 11
5497.590746274745
 21
5250.613765800864
 31
0.0
  0
LINE
  5
379E
330
18
100
AcDbEntity
  8
点線
100
AcDbLine
 10
7268.305031989031
 20
5300.613765800867
 30
0.0
 11
7268.305031989031
 21
5350.613765800867
 31
0.0
  0
LINE
  5
379F
330
18
100
AcDbEntity
  8
点線
100
AcDbLine
 10
5697.590746274745
 20
5350.613765800867
 30
0.0
 11
5697.590746274745
 21
5300.613765800867
 31
0.0
  0
LINE
  5
37A7
330
18
100
AcDbEntity
  8
点線
100
AcDbLine
 10
6297.590746274746
 20
5250.613765800864
 30
0.0
 11
6497.590746274745
 21
5250.613765800864
 31
0.0
  0
LINE
  5
37A8
330
18
100
AcDbEntity
  8
点線
100
AcDbLine
 10
6297.590746274746
 20
5300.613765800867
 30
0.0
 11
6297.590746274746
 21
5350.613765800867
 31
0.0
  0
LINE
  5
38E9
330
18
100
AcDbEntity
  8
上線
100
AcDbLine
 10
7984.714912601925
 20
5511.301147447619
 30
0.0
 11
8802.445420248169
 21
5511.301147447619
 31
0.0
  0
LINE
  5
38EA
330
18
100
AcDbEntity
  8
上線
100
AcDbLine
 10
7984.714912601925
 20
5413.385789772551
 30
0.0
 11
8802.445420248169
 21
5413.385789772551
 31
0.0
  0
MTEXT
  5
3908
330
18
100
AcDbEntity
  8
上線
100
AcDbMText
 10
8099.056628349238
 20
6169.081029324431
 30
0.0
 40
49.968
 41
247.7879999999999
 71
     1
 72
     5
  1
350
 73
     1
 44
1.0
  0
MTEXT
  5
3909
330
18
100
AcDbEntity
  8
上線
100
AcDbMText
 10
8097.182180515735
 20
5973.330313860532
 30
0.0
 40
49.968
 41
247.7879999999999
 71
     1
 72
     5
  1
450
 73
     1
 44
1.0
  0
MTEXT
  5
390A
330
18
100
AcDbEntity
  8
上線
100
AcDbMText
 10
8097.182180515735
 20
5777.499598510398
 30
0.0
 40
49.968
 41
247.7879999999999
 71
     1
 72
     5
  1
550
 73
     1
 44
1.0
  0
MTEXT
  5
390B
330
18
100
AcDbEntity
  8
上線
100
AcDbMText
 10
8097.182180515735
 20
5581.668883160262
 30
0.0
 40
49.968
 41
247.7879999999999
 71
     1
 72
     5
  1
650
 73
     1
 44
1.0
  0
MTEXT
  5
3910
330
18
100
AcDbEntity
  8
上線
100
AcDbMText
 10
8369.759016397816
 20
6169.001029438195
 30
0.0
 40
49.968
 41
247.7879999999999
 71
     1
 72
     5
  1
950
 73
     1
 44
1.0
  0
MTEXT
  5
3911
330
18
100
AcDbEntity
  8
上線
100
AcDbMText
 10
8337.791016397815
 20
5973.170314088061
 30
0.0
 40
49.968
 41
279.7559999999999
 71
     1
 72
     5
  1
1050
 73
     1
 44
1.0
  0
MTEXT
  5
3912
330
18
100
AcDbEntity
  8
上線
100
AcDbMText
 10
8337.791016397815
 20
5777.339598737927
 30
0.0
 40
49.968
 41
279.7559999999999
 71
     1
 72
     5
  1
1150
 73
     1
 44
1.0
  0
MTEXT
  5
3913
330
18
100
AcDbEntity
  8
上線
100
AcDbMText
 10
8337.791016397815
 20
5581.50888338779
 30
0.0
 40
49.968
 41
279.7559999999999
 71
     1
 72
     5
  1
1250
 73
     1
 44
1.0
  0
MTEXT
  5
3914
330
18
100
AcDbEntity
  8
上線
100
AcDbMText
 10
8644.2103001134
 20
6169.081029324431
 30
0.0
 40
49.968
 41
247.7879999999999
 71
     1
 72
     5
  1
768
 73
     1
 44
1.0
  0
MTEXT
  5
3915
330
18
100
AcDbEntity
  8
上線
100
AcDbMText
 10
8642.335852279897
 20
5973.330313860532
 30
0.0
 40
49.968
 41
247.7879999999999
 71
     1
 72
     5
  1
866
 73
     1
 44
1.0
  0
MTEXT
  5
3916
330
18
100
AcDbEntity
  8
上線
100
AcDbMText
 10
8642.335852279897
 20
5777.499598510398
 30
0.0
 40
49.968
 41
247.7879999999999
 71
     1
 72
     5
  1
963
 73
     1
 44
1.0
  0
MTEXT
  5
39DF
330
18
100
AcDbEntity
  8
上線
100
AcDbMText
 10
8610.367852279898
 20
5581.588883274026
 30
0.0
 40
49.968
 41
279.7559999999999
 71
     1
 72
     5
  1
1061
 73
     1
 44
1.0
  0
MTEXT
  5
39E0
330
18
100
AcDbEntity
  8
上線
100
AcDbMText
 10
8610.367852279898
 20
5679.504240949093
 30
0.0
 40
49.968
 41
279.7559999999999
 71
     1
 72
     5
  1
1012
 73
     1
 44
1.0
  0
MTEXT
  5
39E1
330
18
100
AcDbEntity
  8
上線
100
AcDbMText
 10
8610.367852279898
 20
5483.673525598959
 30
0.0
 40
49.968
 41
279.7559999999999
 71
     1
 72
     5
  1
1110
 73
     1
 44
1.0
  0
MTEXT
  5
3B57
330
18
100
AcDbEntity
  8
0
  6
ByBlock
 62
     0
 48
10.0
100
AcDbMText
 10
7317.590772097261
 20
5560.613757037451
 30
0.0
 40
37.5
 41
0.0
 71
     5
 72
     1
  1
100
 73
     1
 44
1.0
  0
SOLID
  5
3B58
330
18
100
AcDbEntity
  8
0
  6
ByBlock
 62
     0
 48
10.0
100
AcDbTrace
 10
7305.090795815559
 20
5536.863757037446
 30
0.0
 11
7305.090795815559
 21
5524.363757037444
 31
0.0
 12
7267.590795815559
 22
5530.613757037444
 32
0.0
 13
7267.590795815559
 23
5530.613757037444
 33
0.0
  0
LINE
  5
3B59
330
18
100
AcDbEntity
  8
WUWAGAKI
100
AcDbLine
 10
4702.256890424748
 20
3871.553862654547
 30
0.0
 11
8972.975809051666
 21
3871.553862654547
 31
0.0
  0
LINE
  5
3B5A
330
18
100
AcDbEntity
  8
WUWAGAKI
100
AcDbLine
 10
8972.975809051666
 20
6797.703714450671
 30
0.0
 11
4702.256890424748
 21
6797.703714450671
 31
0.0
  0
LINE
  5
3B5B
330
18
100
AcDbEntity
  8
OBJECT
 48
10.0
100
AcDbLine
 10
6797.590772097217
 20
5680.613765800872
 30
0.0
 11
7367.590772097239
 21
5680.613765800872
 31
0.0
  0
LINE
  5
3B5C
330
18
100
AcDbEntity
  8
OBJECT
 48
10.0
100
AcDbLine
 10
6797.590772097217
 20
5530.613757037449
 30
0.0
 11
7367.590772097262
 21
5530.61375703745
 31
0.0
  0
LINE
  5
3B5F
330
18
100
AcDbEntity
  8
0
 48
10.0
100
AcDbLine
 10
7267.590772097261
 20
5380.613765800866
 30
0.0
 11
7267.590772097261
 21
5560.613765800866
 31
0.0
  0
LINE
  5
3B60
330
18
100
AcDbEntity
  8
0
 48
10.0
100
AcDbLine
 10
7217.590772097262
 20
5380.613755705676
 30
0.0
 11
7217.590772097262
 21
5560.613755705675
 31
0.0
  0
LINE
  5
3B61
330
18
100
AcDbEntity
  8
0
 48
10.0
100
AcDbLine
 10
6917.590772097217
 20
5380.613755705676
 30
0.0
 11
6917.590772097217
 21
5560.613755705675
 31
0.0
  0
LINE
  5
3B62
330
18
100
AcDbEntity
  8
0
 48
10.0
100
AcDbLine
 10
6867.590772097218
 20
5380.613765800863
 30
0.0
 11
6867.590772097218
 21
5560.613765800862
 31
0.0
  0
LINE
  5
3B63
330
18
100
AcDbEntity
  8
0
 48
10.0
100
AcDbLine
 10
6917.590772097217
 20
5380.613755705672
 30
0.0
 11
6917.590772097217
 21
5560.613755705672
 31
0.0
  0
MTEXT
  5
3B64
330
18
100
AcDbEntity
  8
0
  6
ByBlock
 62
     0
 48
10.0
100
AcDbMText
 10
7067.590772097261
 20
5560.613765800868
 30
0.0
 40
37.5
 41
0.0
 71
     5
 72
     1
  1
300
 73
     1
 44
1.0
  0
LINE
  5
3B65
330
18
100
AcDbEntity
  8
WUWAGAKI
100
AcDbLine
 10
4702.256890424748
 20
6797.703714450671
 30
0.0
 11
4702.256890424748
 21
3871.553862654547
 31
0.0
  0
LINE
  5
3B66
330
18
100
AcDbEntity
  8
OBJECT
 48
10.0
100
AcDbLine
 10
5317.590755038168
 20
5650.61379162336
 30
0.0
 11
5317.590755038168
 21
5538.11379162336
 31
0.0
  0
LINE
  5
3B67
330
18
100
AcDbEntity
  8
0
 48
10.0
100
AcDbLine
 10
6797.590772097217
 20
5380.613765800866
 30
0.0
 11
6797.590772097217
 21
5710.613765800866
 31
0.0
  0
MTEXT
  5
3B68
330
18
100
AcDbEntity
  8
0
  6
ByBlock
 62
     0
 48
10.0
100
AcDbMText
 10
6832.590772097216
 20
5560.613757037447
 30
0.0
 40
37.5
 41
0.0
 71
     5
 72
     1
  1
70
 73
     1
 44
1.0
  0
LINE
  5
3B6C
330
18
100
AcDbEntity
  8
OBJECT
 48
10.0
100
AcDbLine
 10
5317.590757014695
 20
4050.613765800865
 30
0.0
 11
5317.590757014695
 21
5350.613765800867
 31
0.0
  0
LINE
  5
3B6D
330
18
100
AcDbEntity
  8
OBJECT
 48
10.0
100
AcDbLine
 10
5167.590755038167
 20
5350.613765800867
 30
0.0
 11
5167.590755038164
 21
4050.613765800865
 31
0.0
  0
LINE
  5
3B70
330
18
100
AcDbEntity
  8
0
 48
10.0
100
AcDbLine
 10
5467.590746274745
 20
4050.613765800865
 30
0.0
 11
5137.590746274746
 21
4050.613765800865
 31
0.0
  0
SOLID
  5
3B71
330
18
100
AcDbEntity
  8
0
  6
ByBlock
 62
     0
 48
10.0
100
AcDbTrace
 10
5173.840746274745
 20
4088.113765800887
 30
0.0
 11
5161.340746274743
 21
4088.113765800887
 31
0.0
 12
5167.590746274743
 22
4050.613765800887
 32
0.0
 13
5167.590746274743
 23
4050.613765800887
 33
0.0
  0
SOLID
  5
3B72
330
18
100
AcDbEntity
  8
0
  6
ByBlock
 62
     0
 48
10.0
100
AcDbTrace
 10
5323.840757014693
 20
4088.113777660019
 30
0.0
 11
5311.340757014693
 21
4088.113777660019
 31
0.0
 12
5317.590757014693
 22
4050.61377766002
 32
0.0
 13
5317.590757014693
 23
4050.61377766002
 33
0.0
  0
MTEXT
  5
3B73
330
18
100
AcDbEntity
  8
0
  6
ByBlock
 62
     0
 48
10.0
100
AcDbMText
 10
5287.590755038166
 20
4400.613765800867
 30
0.0
 40
37.5
 41
0.0
 71
     5
 72
     1
  1
h1
 11
0.0000000000000001
 21
1.0
 31
0.0
 73
     1
 44
1.0
  0
LINE
  5
3B74
330
18
100
AcDbEntity
  8
0
 48
10.0
100
AcDbLine
 10
5467.590746274745
 20
5350.613765800867
 30
0.0
 11
5137.590746274746
 21
5350.613765800867
 31
0.0
  0
MTEXT
  5
3B75
330
18
100
AcDbEntity
  8
0
  6
ByBlock
 62
     0
 48
10.0
100
AcDbMText
 10
5137.590746274745
 20
4700.613765800865
 30
0.0
 40
37.5
 41
0.0
 71
     5
 72
     1
  1
H
 11
0.0000000000000001
 21
1.0
 31
0.0
 73
     1
 44
1.0
  0
SOLID
  5
3B76
330
18
100
AcDbEntity
  8
0
  6
ByBlock
 62
     0
 48
10.0
100
AcDbTrace
 10
5173.840746274745
 20
5313.113765800845
 30
0.0
 11
5161.340746274743
 21
5313.113765800845
 31
0.0
 12
5167.590746274743
 22
5350.613765800845
 32
0.0
 13
5167.590746274743
 23
5350.613765800845
 33
0.0
  0
MTEXT
  5
3B77
330
18
100
AcDbEntity
  8
0
  6
ByBlock
 62
     0
 48
10.0
100
AcDbMText
 10
5287.590746274744
 20
5000.613765800867
 30
0.0
 40
37.5
 41
0.0
 71
     5
 72
     1
  1
500
 11
0.0000000000000001
 21
1.0
 31
0.0
 73
     1
 44
1.0
  0
LINE
  5
3B79
330
18
100
AcDbEntity
  8
0
 48
10.0
100
AcDbLine
 10
5467.590746274745
 20
4750.613765800866
 30
0.0
 11
5287.590746274745
 21
4750.613765800866
 31
0.0
  0
SOLID
  5
3B7A
330
18
100
AcDbEntity
  8
0
  6
ByBlock
 62
     0
 48
10.0
100
AcDbTrace
 10
5323.840746274748
 20
4713.113765800867
 30
0.0
 11
5311.340746274748
 21
4713.113765800867
 31
0.0
 12
5317.590746274746
 22
4750.613765800866
 32
0.0
 13
5317.590746274746
 23
4750.613765800866
 33
0.0
  0
SOLID
  5
3B7B
330
18
100
AcDbEntity
  8
0
  6
ByBlock
 62
     0
 48
10.0
100
AcDbTrace
 10
5323.840746274748
 20
4788.113765800867
 30
0.0
 11
5311.340746274748
 21
4788.113765800867
 31
0.0
 12
5317.590746274746
 22
4750.613765800866
 32
0.0
 13
5317.590746274746
 23
4750.613765800866
 33
0.0
  0
SOLID
  5
3B7D
330
18
100
AcDbEntity
  8
0
  6
ByBlock
 62
     0
 48
10.0
100
AcDbTrace
 10
5323.840746274748
 20
5288.113765800869
 30
0.0
 11
5311.340746274748
 21
5288.113765800869
 31
0.0
 12
5317.590746274746
 22
5250.61376580087
 32
0.0
 13
5317.590746274746
 23
5250.61376580087
 33
0.0
  0
MTEXT
  5
3B7E
330
18
100
AcDbEntity
  8
0
  6
ByBlock
 62
     0
 48
10.0
100
AcDbMText
 10
5287.590755038166
 20
5300.613765800867
 30
0.0
 40
37.5
 41
0.0
 71
     5
 72
     1
  1
100
 11
0.0000000000000001
 21
1.0
 31
0.0
 73
     1
 44
1.0
  0
LINE
  5
3B7F
330
18
100
AcDbEntity
  8
0
 48
10.0
100
AcDbLine
 10
5467.590746274745
 20
5250.613765800867
 30
0.0
 11
5287.590746274745
 21
5250.613765800867
 31
0.0
  0
SOLID
  5
3B80
330
18
100
AcDbEntity
  8
0
  6
ByBlock
 62
     0
 48
10.0
100
AcDbTrace
 10
5323.840746274748
 20
5213.113830240562
 30
0.0
 11
5311.340746274748
 21
5213.113830240562
 31
0.0
 12
5317.590746274746
 22
5250.613830240562
 32
0.0
 13
5317.590746274746
 23
5250.613830240562
 33
0.0
  0
SOLID
  5
3B81
330
18
100
AcDbEntity
  8
0
  6
ByBlock
 62
     0
 48
10.0
100
AcDbTrace
 10
5323.840757014693
 20
5313.113753941713
 30
0.0
 11
5311.340757014693
 21
5313.113753941713
 31
0.0
 12
5317.590757014693
 22
5350.613753941712
 32
0.0
 13
5317.590757014693
 23
5350.613753941712
 33
0.0
  0
LINE
  5
3B8D
330
18
100
AcDbEntity
  8
WUWAGAKI
 48
10.0
100
AcDbLine
 10
6951.84437554341
 20
4776.169979533757
 30
0.0
 11
7027.996110332091
 21
4832.599444469354
 31
0.0
210
0.0
220
0.0
230
-1.0
1001
ACAD
1000
DSTYLE
1002
{
1070
    78
1070
     8
1070
   270
1070
     8
1070
   140
1040
2.5
1070
    74
1070
     0
1070
   172
1070
     1
1070
    73
1070
     0
1070
    77
1070
     1
1070
    40
1040
10.0
1070
   147
1040
0.625
1070
    42
1040
0.625
1070
    44
1040
1.25
1070
    43
1040
3.75
1070
   141
1040
2.5
1070
    41
1040
2.5
1070
   273
1070
     8
1070
   274
1070
     4
1070
   143
1040
0.0394
1070
   171
1070
     4
1002
}
  0
SOLID
  5
3B8E
330
18
100
AcDbEntity
  8
0
  6
ByBlock
 62
     0
 48
10.0
100
AcDbTrace
 10
6963.325632880622
 20
4792.221198721565
 30
0.0
 11
6970.717002879903
 21
4782.140640724424
 31
0.0
 12
6936.779643888846
 22
4765.00680972514
 32
0.0
 13
6936.779643888846
 23
4765.00680972514
 33
0.0
  0
LINE
  5
3B90
330
18
100
AcDbEntity
  8
OBJECT
 48
10.0
100
AcDbLine
 10
7027.996110332091
 20
4832.599444469354
 30
0.0
 11
7132.996110332091
 21
4832.599444469354
 31
0.0
  0
MTEXT
  5
3B92
330
18
100
AcDbEntity
  8
0
  6
ByBlock
 62
     0
 48
10.0
100
AcDbMText
 10
7080.496110332091
 20
4862.599444469354
 30
0.0
 40
30.0
 41
0.0
 71
     5
 72
     1
  1
50R
 73
     1
 44
1.0
  0
SOLID
  5
3B94
330
18
100
AcDbEntity
  8
0
  6
ByBlock
 62
     0
 48
10.0
100
AcDbTrace
 10
6960.090772097224
 20
5174.363774564291
 30
0.0
 11
6960.090772097224
 21
5186.863774564289
 31
0.0
 12
6922.590772097224
 22
5180.613774564292
 32
0.0
 13
6922.590772097224
 23
5180.613774564292
 33
0.0
  0
LINE
  5
3B95
330
18
100
AcDbEntity
  8
OBJECT
 48
10.0
100
AcDbLine
 10
6922.590772097217
 20
5180.613757037448
 30
0.0
 11
7212.590772097261
 21
5180.61375703745
 31
0.0
  0
LINE
  5
3B98
330
18
100
AcDbEntity
  8
0
 48
10.0
100
AcDbLine
 10
6922.590772097217
 20
5030.613755705676
 30
0.0
 11
6922.590772097217
 21
5210.613755705676
 31
0.0
  0
SOLID
  5
3B99
330
18
100
AcDbEntity
  8
0
  6
ByBlock
 62
     0
 48
10.0
100
AcDbTrace
 10
6760.090760238084
 20
5536.863757037442
 30
0.0
 11
6760.090760238084
 21
5524.36375703744
 31
0.0
 12
6797.590760238084
 22
5530.61375703744
 32
0.0
 13
6797.590760238084
 23
5530.61375703744
 33
0.0
  0
LINE
  5
3B9A
330
18
100
AcDbEntity
  8
OBJECT
 48
10.0
100
AcDbLine
 10
6797.590772097239
 20
5530.613757037445
 30
0.0
 11
6685.090772097239
 21
5530.613757037445
 31
0.0
  0
LWPOLYLINE
  5
3B9C
330
18
100
AcDbEntity
  8
上線
 48
10.0
100
AcDbPolyline
 90
        2
 70
     1
 43
5.0
 10
6870.090772097217
 20
5530.591819429639
 42
-1.0
 10
6865.090772097217
 20
5530.591819429639
 42
-1.0
  0
SOLID
  5
3B9D
330
18
100
AcDbEntity
  8
0
  6
ByBlock
 62
     0
 48
10.0
100
AcDbTrace
 10
6955.090772097223
 20
5524.363774564291
 30
0.0
 11
6955.090772097223
 21
5536.863774564289
 31
0.0
 12
6917.590772097224
 22
5530.613774564293
 32
0.0
 13
6917.590772097224
 23
5530.613774564293
 33
0.0
  0
MTEXT
  5
3B9E
330
18
100
AcDbEntity
  8
0
  6
ByBlock
 62
     0
 48
10.0
100
AcDbMText
 10
7067.590772097261
 20
5210.613765800868
 30
0.0
 40
37.5
 41
0.0
 71
     5
 72
     1
  1
290
 73
     1
 44
1.0
  0
LINE
  5
3B9F
330
18
100
AcDbEntity
  8
0
 48
10.0
100
AcDbLine
 10
7212.590772097261
 20
5030.613755705676
 30
0.0
 11
7212.590772097261
 21
5210.613755705676
 31
0.0
  0
SOLID
  5
3BA0
330
18
100
AcDbEntity
  8
0
  6
ByBlock
 62
     0
 48
10.0
100
AcDbTrace
 10
7175.090877258305
 20
5174.36376580087
 30
0.0
 11
7175.090877258305
 21
5186.863765800868
 31
0.0
 12
7212.590877258306
 22
5180.613765800872
 32
0.0
 13
7212.590877258306
 23
5180.613765800872
 33
0.0
  0
SOLID
  5
3BA2
330
18
100
AcDbEntity
  8
0
  6
ByBlock
 62
     0
 48
10.0
100
AcDbTrace
 10
7180.090877258305
 20
5524.363765800869
 30
0.0
 11
7180.090877258305
 21
5536.863765800867
 31
0.0
 12
7217.590877258306
 22
5530.613765800871
 32
0.0
 13
7217.590877258306
 23
5530.613765800871
 33
0.0
  0
LINE
  5
3BA3
330
18
100
AcDbEntity
  8
OBJECT
100
AcDbLine
 10
5900.090749655499
 20
6115.613759039359
 30
0.0
 11
6095.090746274745
 21
5725.613765800867
 31
0.0
  0
HATCH
  5
3BA4
330
18
100
AcDbEntity
  8
OBJECT
100
AcDbHatch
 10
0.0
 20
0.0
 30
0.0
210
0.0
220
0.0
230
1.0
  2
AR-SAND
 70
     0
 71
     1
 91
        2
 92
        1
 93
        4
 72
     1
 10
5691.590746274745
 20
5714.613765800867
 11
6303.590746274745
 21
5714.613765800867
 72
     1
 10
6303.590746274745
 20
5714.613765800867
 11
6303.590746274745
 21
6126.613765800867
 72
     1
 10
6303.590746274745
 20
6126.613765800867
 11
5691.590746274745
 21
6126.613765800867
 72
     1
 10
5691.590746274745
 20
6126.613765800867
 11
5691.590746274745
 21
5714.613765800867
 97
        4
330
3BA7
330
3C1E
330
3BB0
330
3BBE
 92
       16
 93
        4
 72
     1
 10
5697.590746274745
 20
5720.613765800866
 11
6297.590746274746
 21
5720.613765800866
 72
     1
 10
6297.590746274746
 20
5720.613765800866
 11
6297.590746274746
 21
6120.613765800866
 72
     1
 10
6297.590746274746
 20
6120.613765800866
 11
5697.590746274745
 21
6120.613765800866
 72
     1
 10
5697.590746274745
 20
6120.613765800866
 11
5697.590746274745
 21
5720.613765800866
 97
        4
330
3BA8
330
3C1F
330
3BB1
330
3BBF
 75
     0
 76
     1
 52
90.0
 41
1.0
 77
     0
 78
     4
 53
127.5
 43
10456.19749771467
 44
-247.4197727975115
 45
-48.94132373293423
 46
-1.600031295984042
 79
     6
 49
0.0
 49
-38.608
 49
0.0
 49
-43.18
 49
0.0
 49
-41.275
 53
97.49999999999985
 43
10456.19749771467
 44
-247.4197727975115
 45
-71.68251005683543
 46
44.95232831380027
 79
     6
 49
0.0
 49
-20.82799999999999
 49
0.0
 49
-34.79799999999999
 49
0.0
 49
-13.33499999999999
 53
57.49999999999997
 43
10456.19749771467
 44
-278.6617727975117
 45
-0.1437184678545643
 46
79.09923702414579
 79
     6
 49
0.0
 49
-12.69999999999998
 49
0.0
 49
-45.71999999999992
 49
0.0
 49
-59.68999999999993
 53
47.49999999999999
 43
10456.19749771467
 44
-278.6617727975117
 45
-22.29293232572162
 46
76.35564524722972
 79
     6
 49
0.0
 49
-6.349999999999999
 49
0.0
 49
-29.97199999999999
 49
0.0
 49
-34.29
 98
        1
 10
10456.19749771467
 20
-247.4197727975115
  0
LINE
  5
3BA5
330
18
100
AcDbEntity
  8
点線
100
AcDbLine
 10
5497.590746274745
 20
6070.613765800866
 30
0.0
 11
5922.590746274746
 21
6070.613765800866
 31
0.0
  0
LINE
  5
3BA6
330
18
100
AcDbEntity
  8
点線
100
AcDbLine
 10
5497.590746274745
 20
5770.613765800867
 30
0.0
 11
6072.590746274745
 21
5770.613765800867
 31
0.0
  0
LINE
  5
3BA7
102
{ACAD_REACTORS
330
3BA4
102
}
330
18
100
AcDbEntity
  8
OBJECT
100
AcDbLine
 10
5691.590746274745
 20
5714.613765800867
 30
0.0
 11
6303.590746274745
 21
5714.613765800867
 31
0.0
  0
LINE
  5
3BA8
102
{ACAD_REACTORS
330
3BA4
102
}
330
18
100
AcDbEntity
  8
OBJECT
100
AcDbLine
 10
5697.590746274745
 20
5720.613765800866
 30
0.0
 11
6297.590746274746
 21
5720.613765800866
 31
0.0
  0
LINE
  5
3BA9
330
18
100
AcDbEntity
  8
OBJECT
100
AcDbLine
 10
5497.590746274745
 20
5650.613765800867
 30
0.0
 11
6497.590746274745
 21
5650.613765800867
 31
0.0
  0
LINE
  5
3BAA
330
18
100
AcDbEntity
  8
OBJECT
100
AcDbLine
 10
6031.185111138771
 20
5853.425036072815
 30
0.0
 11
5705.206462901993
 21
5853.425036072815
 31
0.0
  0
LINE
  5
3BAB
330
18
100
AcDbEntity
  8
OBJECT
100
AcDbLine
 10
6027.880747507492
 20
5860.033763335374
 30
0.0
 11
5705.206462901993
 21
5860.033763335374
 31
0.0
  0
LINE
  5
3BAC
330
18
100
AcDbEntity
  8
OBJECT
100
AcDbLine
 10
5967.300748147225
 20
5981.193762055908
 30
0.0
 11
5705.206462901993
 21
5981.193762055908
 31
0.0
  0
LINE
  5
3BAD
330
18
100
AcDbEntity
  8
OBJECT
100
AcDbLine
 10
5963.996381410719
 20
5987.802495528918
 30
0.0
 11
5705.206462901993
 21
5987.802495528918
 31
0.0
  0
LINE
  5
3BAE
330
18
100
AcDbEntity
  8
OBJECT
100
AcDbLine
 10
6095.090744584368
 20
5725.61376918162
 30
0.0
 11
5702.590746274745
 21
5725.613769181622
 31
0.0
  0
LINE
  5
3BAF
330
18
100
AcDbEntity
  8
OBJECT
100
AcDbLine
 10
6091.765108225849
 20
5732.26504189866
 30
0.0
 11
5705.206462901993
 21
5732.265041898661
 31
0.0
  0
LINE
  5
3BB0
102
{ACAD_REACTORS
330
3BA4
102
}
330
18
100
AcDbEntity
  8
OBJECT
100
AcDbLine
 10
5691.590746274745
 20
6126.613765800867
 30
0.0
 11
6303.590746274745
 21
6126.613765800867
 31
0.0
  0
LINE
  5
3BB1
102
{ACAD_REACTORS
330
3BA4
102
}
330
18
100
AcDbEntity
  8
OBJECT
100
AcDbLine
 10
5697.590746274745
 20
6120.613765800866
 30
0.0
 11
6297.590746274746
 21
6120.613765800866
 31
0.0
  0
LINE
  5
3BB2
330
18
100
AcDbEntity
  8
OBJECT
100
AcDbLine
 10
6497.590746274745
 20
6220.613765800866
 30
0.0
 11
5497.590746274745
 21
6220.613765800866
 31
0.0
  0
LINE
  5
3BB3
330
18
100
AcDbEntity
  8
OBJECT
 48
10.0
100
AcDbLine
 10
6497.590746274745
 20
6550.613757037445
 30
0.0
 11
5497.590746274745
 21
6550.613757037446
 31
0.0
  0
LINE
  5
3BB4
330
18
100
AcDbEntity
  8
OBJECT
 48
10.0
100
AcDbLine
 10
5497.590746274745
 20
6400.613755060916
 30
0.0
 11
6497.590746274745
 21
6400.613755060916
 31
0.0
  0
LINE
  5
3BB5
330
18
100
AcDbEntity
  8
0
 48
10.0
100
AcDbLine
 10
5467.590746274741
 20
6220.613791623382
 30
0.0
 11
5137.590746274742
 21
6220.613791623382
 31
0.0
  0
LINE
  5
3BB6
330
18
100
AcDbEntity
  8
0
 48
10.0
100
AcDbLine
 10
5467.590746274745
 20
5650.613791623339
 30
0.0
 11
5137.590746274746
 21
5650.613791623339
 31
0.0
  0
LINE
  5
3BB7
330
18
100
AcDbEntity
  8
OBJECT
 48
10.0
100
AcDbLine
 10
5167.59074627474
 20
5650.613791623339
 30
0.0
 11
5167.59074627474
 21
6220.61379162336
 31
0.0
  0
SOLID
  5
3BB8
330
18
100
AcDbEntity
  8
0
  6
ByBlock
 62
     0
 48
10.0
100
AcDbTrace
 10
5173.840746274741
 20
5688.113791623361
 30
0.0
 11
5161.340746274742
 21
5688.113791623361
 31
0.0
 12
5167.59074627474
 22
5650.61379162336
 32
0.0
 13
5167.59074627474
 23
5650.61379162336
 33
0.0
  0
MTEXT
  5
3BB9
330
18
100
AcDbEntity
  8
0
  6
ByBlock
 62
     0
 48
10.0
100
AcDbMText
 10
5137.590746274742
 20
5935.613791623381
 30
0.0
 40
37.5
 41
0.0
 71
     5
 72
     1
  1
570
 11
0.0000000000000001
 21
1.0
 31
0.0
 73
     1
 44
1.0
  0
SOLID
  5
3BBA
330
18
100
AcDbEntity
  8
0
  6
ByBlock
 62
     0
 48
10.0
100
AcDbTrace
 10
5173.840746274741
 20
6183.11379162336
 30
0.0
 11
5161.340746274742
 21
6183.11379162336
 31
0.0
 12
5167.59074627474
 22
6220.61379162336
 32
0.0
 13
5167.59074627474
 23
6220.61379162336
 33
0.0
  0
LINE
  5
3BBB
330
18
100
AcDbEntity
  8
OBJECT
100
AcDbLine
 10
5898.769698061037
 20
5987.802488959522
 30
0.0
 11
5898.769698061037
 21
6108.962483133673
 31
0.0
  0
LINE
  5
3BBC
330
18
100
AcDbEntity
  8
OBJECT
100
AcDbLine
 10
5901.385414688286
 20
5987.802488959522
 30
0.0
 11
5901.385414688286
 21
6108.962483133673
 31
0.0
  0
SOLID
  5
3BBD
330
18
100
AcDbEntity
  8
0
  6
ByBlock
 62
     0
 48
10.0
100
AcDbTrace
 10
5323.840746274742
 20
6033.113896784428
 30
0.0
 11
5311.340746274744
 21
6033.113896784428
 31
0.0
 12
5317.59074627474
 22
6070.613896784427
 32
0.0
 13
5317.59074627474
 23
6070.613896784427
 33
0.0
  0
LINE
  5
3BBE
102
{ACAD_REACTORS
330
3BA4
102
}
330
18
100
AcDbEntity
  8
OBJECT
100
AcDbLine
 10
5691.590746274745
 20
5714.613765800867
 30
0.0
 11
5691.590746274745
 21
6126.613765800867
 31
0.0
  0
LINE
  5
3BBF
102
{ACAD_REACTORS
330
3BA4
102
}
330
18
100
AcDbEntity
  8
OBJECT
100
AcDbLine
 10
5697.590746274745
 20
5720.613765800866
 30
0.0
 11
5697.590746274745
 21
6120.613765800866
 31
0.0
  0
LINE
  5
3BC0
330
18
100
AcDbEntity
  8
OBJECT
100
AcDbLine
 10
5497.590746274745
 20
6220.613765800866
 30
0.0
 11
5497.590746274745
 21
5650.613765800867
 31
0.0
  0
LINE
  5
3BC1
330
18
100
AcDbEntity
  8
OBJECT
100
AcDbLine
 10
5764.060140647494
 20
5987.802500075297
 30
0.0
 11
5764.060140647494
 21
6108.96249424945
 31
0.0
  0
LINE
  5
3BC2
330
18
100
AcDbEntity
  8
OBJECT
100
AcDbLine
 10
5761.444424020247
 20
5987.802500075297
 30
0.0
 11
5761.444424020247
 21
6108.96249424945
 31
0.0
  0
LINE
  5
3BC3
330
18
100
AcDbEntity
  8
OBJECT
100
AcDbLine
 10
5744.442244355952
 20
5987.802500075297
 30
0.0
 11
5744.442244355952
 21
6108.96249424945
 31
0.0
  0
LINE
  5
3BC4
330
18
100
AcDbEntity
  8
OBJECT
100
AcDbLine
 10
5879.151801769496
 20
5987.802480116934
 30
0.0
 11
5879.151801769496
 21
6108.962474291087
 31
0.0
  0
LINE
  5
3BC5
330
18
100
AcDbEntity
  8
OBJECT
100
AcDbLine
 10
5803.295933230578
 20
5987.802488959522
 30
0.0
 11
5803.295933230578
 21
6108.962483133673
 31
0.0
  0
LINE
  5
3BC6
330
18
100
AcDbEntity
  8
OBJECT
100
AcDbLine
 10
5800.680216603328
 20
5987.802488959522
 30
0.0
 11
5800.680216603328
 21
6108.962483133673
 31
0.0
  0
LINE
  5
3BC7
330
18
100
AcDbEntity
  8
OBJECT
100
AcDbLine
 10
5820.298112894871
 20
5987.802497802107
 30
0.0
 11
5820.298112894871
 21
6108.962491976259
 31
0.0
  0
LINE
  5
3BC8
330
18
100
AcDbEntity
  8
OBJECT
100
AcDbLine
 10
5822.91382952212
 20
5987.802497802107
 30
0.0
 11
5822.91382952212
 21
6108.962491976259
 31
0.0
  0
LINE
  5
3BC9
330
18
100
AcDbEntity
  8
OBJECT
100
AcDbLine
 10
5862.149622105202
 20
5987.802506644694
 30
0.0
 11
5862.149622105202
 21
6108.962500818848
 31
0.0
  0
LINE
  5
3BCA
330
18
100
AcDbEntity
  8
OBJECT
100
AcDbLine
 10
5859.533905477954
 20
5987.802506644694
 30
0.0
 11
5859.533905477954
 21
6108.962500818848
 31
0.0
  0
LINE
  5
3BCB
330
18
100
AcDbEntity
  8
OBJECT
100
AcDbLine
 10
5839.916009186413
 20
5987.802497802107
 30
0.0
 11
5839.916009186413
 21
6108.962491976259
 31
0.0
  0
LINE
  5
3BCC
330
18
100
AcDbEntity
  8
OBJECT
100
AcDbLine
 10
5842.53172581366
 20
5987.802497802107
 30
0.0
 11
5842.53172581366
 21
6108.962491976259
 31
0.0
  0
LINE
  5
3BCD
330
18
100
AcDbEntity
  8
OBJECT
100
AcDbLine
 10
5781.062320311789
 20
5987.802508917885
 30
0.0
 11
5781.062320311789
 21
6108.962503092038
 31
0.0
  0
LINE
  5
3BCE
330
18
100
AcDbEntity
  8
OBJECT
100
AcDbLine
 10
5783.678036939036
 20
5987.802508917885
 30
0.0
 11
5783.678036939036
 21
6108.962503092038
 31
0.0
  0
LINE
  5
3BCF
330
18
100
AcDbEntity
  8
OBJECT
100
AcDbLine
 10
5741.826527728704
 20
5987.802500075297
 30
0.0
 11
5741.826527728704
 21
6108.96249424945
 31
0.0
  0
LINE
  5
3BD0
330
18
100
AcDbEntity
  8
OBJECT
100
AcDbLine
 10
5722.208631437163
 20
5987.802491232709
 30
0.0
 11
5722.208631437163
 21
6108.962485406864
 31
0.0
  0
LINE
  5
3BD1
330
18
100
AcDbEntity
  8
OBJECT
100
AcDbLine
 10
5724.82434806441
 20
5987.802491232709
 30
0.0
 11
5724.82434806441
 21
6108.962485406864
 31
0.0
  0
LINE
  5
3BD2
330
18
100
AcDbEntity
  8
OBJECT
100
AcDbLine
 10
5881.767518396744
 20
5987.802480116934
 30
0.0
 11
5881.767518396744
 21
6108.962474291087
 31
0.0
  0
LINE
  5
3BD3
330
18
100
AcDbEntity
  8
OBJECT
100
AcDbLine
 10
5705.206462901993
 20
6108.962489703071
 30
0.0
 11
5705.206462901993
 21
5732.265037352283
 31
0.0
  0
LINE
  5
3BD4
330
18
100
AcDbEntity
  8
OBJECT
100
AcDbLine
 10
5702.590746274745
 20
6115.613762420113
 30
0.0
 11
5702.590746274745
 21
5725.613769181622
 31
0.0
  0
LINE
  5
3BD5
330
18
100
AcDbEntity
  8
OBJECT
 48
10.0
100
AcDbLine
 10
5317.590755038164
 20
5650.613791623339
 30
0.0
 11
5317.590755038161
 21
6220.613791623382
 31
0.0
  0
SOLID
  5
3BD6
330
18
100
AcDbEntity
  8
0
  6
ByBlock
 62
     0
 48
10.0
100
AcDbTrace
 10
5323.840737511321
 20
5808.113791623345
 30
0.0
 11
5311.340737511323
 21
5808.113791623345
 31
0.0
 12
5317.590737511319
 22
5770.613791623344
 32
0.0
 13
5317.590737511319
 23
5770.613791623344
 33
0.0
  0
LINE
  5
3BD7
330
18
100
AcDbEntity
  8
0
 48
10.0
100
AcDbLine
 10
5467.590756369936
 20
5770.613791623339
 30
0.0
 11
5287.590756369937
 21
5770.613791623339
 31
0.0
  0
LINE
  5
3BD8
330
18
100
AcDbEntity
  8
0
 48
10.0
100
AcDbLine
 10
5467.59075636994
 20
5770.613791623339
 30
0.0
 11
5287.59075636994
 21
5770.613791623339
 31
0.0
  0
LINE
  5
3BD9
330
18
100
AcDbEntity
  8
0
 48
10.0
100
AcDbLine
 10
5467.590746274749
 20
5720.613791623339
 30
0.0
 11
5287.590746274749
 21
5720.613791623339
 31
0.0
  0
MTEXT
  5
3BDA
330
18
100
AcDbEntity
  8
0
  6
ByBlock
 62
     0
 48
10.0
100
AcDbMText
 10
5287.590755038166
 20
5685.613791623339
 30
0.0
 40
37.5
 41
0.0
 71
     5
 72
     1
  1
70
 11
0.0000000000000001
 21
1.0
 31
0.0
 73
     1
 44
1.0
  0
SOLID
  5
3BDB
330
18
100
AcDbEntity
  8
0
  6
ByBlock
 62
     0
 48
10.0
100
AcDbTrace
 10
5311.340755038169
 20
5613.113779764206
 30
0.0
 11
5323.840755038171
 21
5613.113779764206
 31
0.0
 12
5317.590755038171
 22
5650.613779764206
 32
0.0
 13
5317.590755038171
 23
5650.613779764206
 33
0.0
  0
MTEXT
  5
3BDC
330
18
100
AcDbEntity
  8
0
  6
ByBlock
 62
     0
 48
10.0
100
AcDbMText
 10
5257.590755038165
 20
5745.613791623338
 30
0.0
 40
37.5
 41
0.0
 71
     5
 72
     1
  1
50
 11
0.0000000000000001
 21
1.0
 31
0.0
 73
     1
 44
1.0
  0
LWPOLYLINE
  5
3BDD
330
18
100
AcDbEntity
  8
上線
 48
10.0
100
AcDbPolyline
 90
        2
 70
     1
 43
5.0
 10
5317.612692645973
 20
5723.113791623338
 42
-1.0
 10
5317.612692645973
 20
5718.113791623338
 42
-1.0
  0
MTEXT
  5
3BDE
330
18
100
AcDbEntity
  8
0
  6
ByBlock
 62
     0
 48
10.0
100
AcDbMText
 10
5287.590746274744
 20
5920.613791623382
 30
0.0
 40
37.5
 41
0.0
 71
     5
 72
     1
  1
300
 11
0.0000000000000001
 21
1.0
 31
0.0
 73
     1
 44
1.0
  0
LINE
  5
3BDF
330
18
100
AcDbEntity
  8
OBJECT
100
AcDbLine
 10
5901.385414688286
 20
5853.425042642213
 30
0.0
 11
5901.385414688286
 21
5732.26504846806
 31
0.0
  0
LINE
  5
3BE0
330
18
100
AcDbEntity
  8
OBJECT
100
AcDbLine
 10
5898.769698061037
 20
5853.425042642213
 30
0.0
 11
5898.769698061037
 21
5732.26504846806
 31
0.0
  0
LINE
  5
3BE1
330
18
100
AcDbEntity
  8
OBJECT
100
AcDbLine
 10
5859.533905477954
 20
5853.42502495704
 30
0.0
 11
5859.533905477954
 21
5732.265030782884
 31
0.0
  0
LINE
  5
3BE2
330
18
100
AcDbEntity
  8
OBJECT
100
AcDbLine
 10
5862.149622105202
 20
5853.42502495704
 30
0.0
 11
5862.149622105202
 21
5732.265030782884
 31
0.0
  0
LINE
  5
3BE3
330
18
100
AcDbEntity
  8
OBJECT
100
AcDbLine
 10
5879.151801769496
 20
5853.425051484799
 30
0.0
 11
5879.151801769496
 21
5732.265057310645
 31
0.0
  0
LINE
  5
3BE4
330
18
100
AcDbEntity
  8
OBJECT
100
AcDbLine
 10
5881.767518396744
 20
5853.425051484799
 30
0.0
 11
5881.767518396744
 21
5732.265057310645
 31
0.0
  0
LINE
  5
3BE5
330
18
100
AcDbEntity
  8
OBJECT
100
AcDbLine
 10
5724.82434806441
 20
5853.425040369024
 30
0.0
 11
5724.82434806441
 21
5732.265046194869
 31
0.0
  0
LINE
  5
3BE6
330
18
100
AcDbEntity
  8
OBJECT
100
AcDbLine
 10
5741.826527728704
 20
5853.425031526437
 30
0.0
 11
5741.826527728704
 21
5732.265037352283
 31
0.0
  0
LINE
  5
3BE7
330
18
100
AcDbEntity
  8
OBJECT
100
AcDbLine
 10
5783.678036939036
 20
5853.425022683849
 30
0.0
 11
5783.678036939036
 21
5732.265028509695
 31
0.0
  0
LINE
  5
3BE8
330
18
100
AcDbEntity
  8
OBJECT
100
AcDbLine
 10
5781.062320311789
 20
5853.425022683849
 30
0.0
 11
5781.062320311789
 21
5732.265028509695
 31
0.0
  0
LINE
  5
3BE9
330
18
100
AcDbEntity
  8
OBJECT
100
AcDbLine
 10
5842.53172581366
 20
5853.425033799625
 30
0.0
 11
5842.53172581366
 21
5732.265039625474
 31
0.0
  0
LINE
  5
3BEA
330
18
100
AcDbEntity
  8
OBJECT
100
AcDbLine
 10
5839.916009186413
 20
5853.425033799625
 30
0.0
 11
5839.916009186413
 21
5732.265039625474
 31
0.0
  0
LINE
  5
3BEB
330
18
100
AcDbEntity
  8
OBJECT
100
AcDbLine
 10
5822.91382952212
 20
5853.425033799625
 30
0.0
 11
5822.91382952212
 21
5732.265039625474
 31
0.0
  0
LINE
  5
3BEC
330
18
100
AcDbEntity
  8
OBJECT
100
AcDbLine
 10
5820.298112894871
 20
5853.425033799625
 30
0.0
 11
5820.298112894871
 21
5732.265039625474
 31
0.0
  0
LINE
  5
3BED
330
18
100
AcDbEntity
  8
OBJECT
100
AcDbLine
 10
5800.680216603328
 20
5853.425042642213
 30
0.0
 11
5800.680216603328
 21
5732.26504846806
 31
0.0
  0
LINE
  5
3BEE
330
18
100
AcDbEntity
  8
OBJECT
100
AcDbLine
 10
5803.295933230578
 20
5853.425042642213
 30
0.0
 11
5803.295933230578
 21
5732.26504846806
 31
0.0
  0
LINE
  5
3BEF
330
18
100
AcDbEntity
  8
OBJECT
100
AcDbLine
 10
5744.442244355952
 20
5853.425031526437
 30
0.0
 11
5744.442244355952
 21
5732.265037352283
 31
0.0
  0
LINE
  5
3BF0
330
18
100
AcDbEntity
  8
OBJECT
100
AcDbLine
 10
5761.444424020247
 20
5853.425031526437
 30
0.0
 11
5761.444424020247
 21
5732.265037352283
 31
0.0
  0
LINE
  5
3BF1
330
18
100
AcDbEntity
  8
OBJECT
100
AcDbLine
 10
5764.060140647494
 20
5853.425031526437
 30
0.0
 11
5764.060140647494
 21
5732.265037352283
 31
0.0
  0
LINE
  5
3BF2
330
18
100
AcDbEntity
  8
OBJECT
100
AcDbLine
 10
5722.208631437163
 20
5853.425040369024
 30
0.0
 11
5722.208631437163
 21
5732.265046194869
 31
0.0
  0
LINE
  5
3BF3
330
18
100
AcDbEntity
  8
OBJECT
100
AcDbLine
 10
5724.82434806441
 20
5860.033759039167
 30
0.0
 11
5724.82434806441
 21
5981.19375321332
 31
0.0
  0
LINE
  5
3BF4
330
18
100
AcDbEntity
  8
OBJECT
100
AcDbLine
 10
5722.208631437163
 20
5860.033759039167
 30
0.0
 11
5722.208631437163
 21
5981.19375321332
 31
0.0
  0
LINE
  5
3BF5
330
18
100
AcDbEntity
  8
OBJECT
100
AcDbLine
 10
5901.385414688286
 20
5860.033756765977
 30
0.0
 11
5901.385414688286
 21
5981.193750940128
 31
0.0
  0
LINE
  5
3BF6
330
18
100
AcDbEntity
  8
OBJECT
100
AcDbLine
 10
5898.769698061037
 20
5860.033756765977
 30
0.0
 11
5898.769698061037
 21
5981.193750940128
 31
0.0
  0
LINE
  5
3BF7
330
18
100
AcDbEntity
  8
OBJECT
100
AcDbLine
 10
5859.533905477954
 20
5860.03377445115
 30
0.0
 11
5859.533905477954
 21
5981.193768625304
 31
0.0
  0
LINE
  5
3BF8
330
18
100
AcDbEntity
  8
OBJECT
100
AcDbLine
 10
5862.149622105202
 20
5860.03377445115
 30
0.0
 11
5862.149622105202
 21
5981.193768625304
 31
0.0
  0
LINE
  5
3BF9
330
18
100
AcDbEntity
  8
OBJECT
100
AcDbLine
 10
5879.151801769496
 20
5860.033747923392
 30
0.0
 11
5879.151801769496
 21
5981.193742097545
 31
0.0
  0
LINE
  5
3BFA
330
18
100
AcDbEntity
  8
OBJECT
100
AcDbLine
 10
5881.767518396744
 20
5860.033747923392
 30
0.0
 11
5881.767518396744
 21
5981.193742097545
 31
0.0
  0
LINE
  5
3BFB
330
18
100
AcDbEntity
  8
OBJECT
100
AcDbLine
 10
5741.826527728704
 20
5860.033767881752
 30
0.0
 11
5741.826527728704
 21
5981.193762055908
 31
0.0
  0
LINE
  5
3BFC
330
18
100
AcDbEntity
  8
OBJECT
100
AcDbLine
 10
5744.442244355952
 20
5860.033767881752
 30
0.0
 11
5744.442244355952
 21
5981.193762055908
 31
0.0
  0
LINE
  5
3BFD
330
18
100
AcDbEntity
  8
OBJECT
100
AcDbLine
 10
5783.678036939036
 20
5860.03377672434
 30
0.0
 11
5783.678036939036
 21
5981.193770898493
 31
0.0
  0
LINE
  5
3BFE
330
18
100
AcDbEntity
  8
OBJECT
100
AcDbLine
 10
5781.062320311789
 20
5860.03377672434
 30
0.0
 11
5781.062320311789
 21
5981.193770898493
 31
0.0
  0
LINE
  5
3BFF
330
18
100
AcDbEntity
  8
OBJECT
100
AcDbLine
 10
5761.444424020247
 20
5860.033767881752
 30
0.0
 11
5761.444424020247
 21
5981.193762055908
 31
0.0
  0
LINE
  5
3C00
330
18
100
AcDbEntity
  8
OBJECT
100
AcDbLine
 10
5764.060140647494
 20
5860.033767881752
 30
0.0
 11
5764.060140647494
 21
5981.193762055908
 31
0.0
  0
LINE
  5
3C01
330
18
100
AcDbEntity
  8
OBJECT
100
AcDbLine
 10
5842.53172581366
 20
5860.033765608562
 30
0.0
 11
5842.53172581366
 21
5981.193759782716
 31
0.0
  0
LINE
  5
3C02
330
18
100
AcDbEntity
  8
OBJECT
100
AcDbLine
 10
5839.916009186413
 20
5860.033765608562
 30
0.0
 11
5839.916009186413
 21
5981.193759782716
 31
0.0
  0
LINE
  5
3C03
330
18
100
AcDbEntity
  8
OBJECT
100
AcDbLine
 10
5822.91382952212
 20
5860.033765608562
 30
0.0
 11
5822.91382952212
 21
5981.193759782716
 31
0.0
  0
LINE
  5
3C04
330
18
100
AcDbEntity
  8
OBJECT
100
AcDbLine
 10
5820.298112894871
 20
5860.033765608562
 30
0.0
 11
5820.298112894871
 21
5981.193759782716
 31
0.0
  0
LINE
  5
3C05
330
18
100
AcDbEntity
  8
OBJECT
100
AcDbLine
 10
5800.680216603328
 20
5860.033756765977
 30
0.0
 11
5800.680216603328
 21
5981.193750940128
 31
0.0
  0
LINE
  5
3C06
330
18
100
AcDbEntity
  8
OBJECT
100
AcDbLine
 10
5803.295933230578
 20
5860.033756765977
 30
0.0
 11
5803.295933230578
 21
5981.193750940128
 31
0.0
  0
MTEXT
  5
3C07
330
18
100
AcDbEntity
  8
0
  6
ByBlock
 62
     0
 48
10.0
100
AcDbMText
 10
5597.590746274746
 20
6430.613757037447
 30
0.0
 40
37.5
 41
0.0
 71
     5
 72
     1
  1
200
 73
     1
 44
1.0
  0
LINE
  5
3C08
330
18
100
AcDbEntity
  8
0
 48
10.0
100
AcDbLine
 10
5497.590746274745
 20
6250.613765800867
 30
0.0
 11
5497.590746274745
 21
6580.613765800866
 31
0.0
  0
LINE
  5
3C09
330
18
100
AcDbEntity
  8
0
 48
10.0
100
AcDbLine
 10
5467.590746274745
 20
6120.613791623382
 30
0.0
 11
5287.590746274745
 21
6120.613791623382
 31
0.0
  0
LINE
  5
3C0A
330
18
100
AcDbEntity
  8
0
 48
10.0
100
AcDbLine
 10
5467.590756369936
 20
6070.613791623382
 30
0.0
 11
5287.590756369937
 21
6070.613791623382
 31
0.0
  0
MTEXT
  5
3C0B
330
18
100
AcDbEntity
  8
0
  6
ByBlock
 62
     0
 48
10.0
100
AcDbMText
 10
5287.590755038162
 20
6170.613791623382
 30
0.0
 40
37.5
 41
0.0
 71
     5
 72
     1
  1
100
 11
0.0000000000000001
 21
1.0
 31
0.0
 73
     1
 44
1.0
  0
SOLID
  5
3C0C
330
18
100
AcDbEntity
  8
0
  6
ByBlock
 62
     0
 48
10.0
100
AcDbTrace
 10
5311.340755038165
 20
6183.11377976425
 30
0.0
 11
5323.840755038167
 21
6183.11377976425
 31
0.0
 12
5317.590755038168
 22
6220.613779764249
 32
0.0
 13
5317.590755038168
 23
6220.613779764249
 33
0.0
  0
MTEXT
  5
3C0D
330
18
100
AcDbEntity
  8
0
  6
ByBlock
 62
     0
 48
10.0
100
AcDbMText
 10
5257.590755038162
 20
6095.613791623382
 30
0.0
 40
37.5
 41
0.0
 71
     5
 72
     1
  1
50
 11
0.0000000000000001
 21
1.0
 31
0.0
 73
     1
 44
1.0
  0
SOLID
  5
3C0E
330
18
100
AcDbEntity
  8
0
  6
ByBlock
 62
     0
 48
10.0
100
AcDbTrace
 10
5311.340755038165
 20
6158.113815341679
 30
0.0
 11
5323.840755038167
 21
6158.113815341679
 31
0.0
 12
5317.590755038168
 22
6120.61381534168
 32
0.0
 13
5317.590755038168
 23
6120.61381534168
 33
0.0
  0
SOLID
  5
3C0F
330
18
100
AcDbEntity
  8
0
  6
ByBlock
 62
     0
 48
10.0
100
AcDbTrace
 10
5535.0907581339
 20
6394.363755060919
 30
0.0
 11
5535.0907581339
 21
6406.863755060919
 31
0.0
 12
5497.5907581339
 22
6400.61375506092
 32
0.0
 13
5497.5907581339
 23
6400.61375506092
 33
0.0
  0
SOLID
  5
3C10
330
18
100
AcDbEntity
  8
0
  6
ByBlock
 62
     0
 48
10.0
100
AcDbTrace
 10
5535.090746274767
 20
6544.363765800868
 30
0.0
 11
5535.090746274767
 21
6556.863765800869
 31
0.0
 12
5497.590746274767
 22
6550.61376580087
 32
0.0
 13
5497.590746274767
 23
6550.61376580087
 33
0.0
  0
LINE
  5
3C11
330
18
100
AcDbEntity
  8
0
 48
10.0
100
AcDbLine
 10
5697.590746274745
 20
6250.613765800867
 30
0.0
 11
5697.590746274745
 21
6430.613765800867
 31
0.0
  0
LINE
  5
3C12
330
18
100
AcDbEntity
  8
OBJECT
100
AcDbLine
 10
5903.416384323642
 20
6108.962489703074
 30
0.0
 11
5705.206462901993
 21
6108.962489703071
 31
0.0
  0
LINE
  5
3C13
330
18
100
AcDbEntity
  8
OBJECT
100
AcDbLine
 10
5900.090747965122
 20
6115.613762420113
 30
0.0
 11
5702.590746274745
 21
6115.613762420113
 31
0.0
  0
SOLID
  5
3C14
330
18
100
AcDbEntity
  8
0
  6
ByBlock
 62
     0
 48
10.0
100
AcDbTrace
 10
5735.09068183505
 20
6394.363765800864
 30
0.0
 11
5735.09068183505
 21
6406.863765800865
 31
0.0
 12
5697.59068183505
 22
6400.613765800867
 32
0.0
 13
5697.59068183505
 23
6400.613765800867
 33
0.0
  0
SOLID
  5
3C15
330
18
100
AcDbEntity
  8
0
  6
ByBlock
 62
     0
 48
10.0
100
AcDbTrace
 10
5660.090746274743
 20
6394.363765800864
 30
0.0
 11
5660.090746274743
 21
6406.863765800865
 31
0.0
 12
5697.590746274743
 22
6400.613765800867
 32
0.0
 13
5697.590746274743
 23
6400.613765800867
 33
0.0
  0
MTEXT
  5
3C16
330
18
100
AcDbEntity
  8
0
  6
ByBlock
 62
     0
 48
10.0
100
AcDbMText
 10
5997.590746274745
 20
6580.613765800868
 30
0.0
 40
37.5
 41
0.0
 71
     5
 72
     1
  1
1000
 73
     1
 44
1.0
  0
MTEXT
  5
3C17
330
18
100
AcDbEntity
  8
0
  6
ByBlock
 62
     0
 48
10.0
100
AcDbMText
 10
6585.140558669028
 20
5943.991748797182
 30
0.0
 40
30.0
 41
0.0
 71
     5
 72
     1
  1
受枠
 73
     1
 44
1.0
  0
LINE
  5
3C18
330
18
100
AcDbEntity
  8
OBJECT
 48
10.0
100
AcDbLine
 10
6532.640558669026
 20
5913.991748797181
 30
0.0
 11
6637.640558669026
 21
5913.991748797181
 31
0.0
  0
MTEXT
  5
3C19
330
18
100
AcDbEntity
  8
0
  6
ByBlock
 62
     0
 48
10.0
100
AcDbMText
 10
6650.140558669026
 20
5852.92651593242
 30
0.0
 40
30.0
 41
0.0
 71
     5
 72
     1
  1
グレーチング
 73
     1
 44
1.0
  0
LINE
  5
3C1A
330
18
100
AcDbEntity
  8
OBJECT
 48
10.0
100
AcDbLine
 10
6046.434371208968
 20
5822.92651593242
 30
0.0
 11
6777.640558669026
 21
5822.92651593242
 31
0.0
  0
SOLID
  5
3C1B
330
18
100
AcDbEntity
  8
0
  6
ByBlock
 62
     0
 48
10.0
100
AcDbTrace
 10
6201.408999699562
 20
6061.497987822397
 30
0.0
 11
6196.457493427311
 21
6050.020506145834
 31
0.0
 12
6164.500801533744
 22
6070.613765800866
 32
0.0
 13
6164.500801533744
 23
6070.613765800866
 33
0.0
  0
LINE
  5
3C1C
330
18
100
AcDbEntity
  8
OBJECT
100
AcDbLine
 10
5918.38759435258
 20
5987.802488959522
 30
0.0
 11
5918.38759435258
 21
6079.020069645197
 31
0.0
  0
LINE
  5
3C1D
330
18
100
AcDbEntity
  8
OBJECT
100
AcDbLine
 10
5921.003310979828
 20
5987.802488959522
 30
0.0
 11
5921.003310979828
 21
6073.788636390702
 31
0.0
  0
LINE
  5
3C1E
102
{ACAD_REACTORS
330
3BA4
102
}
330
18
100
AcDbEntity
  8
OBJECT
100
AcDbLine
 10
6303.590746274745
 20
5714.613765800867
 30
0.0
 11
6303.590746274745
 21
6126.613765800867
 31
0.0
  0
LINE
  5
3C1F
102
{ACAD_REACTORS
330
3BA4
102
}
330
18
100
AcDbEntity
  8
OBJECT
100
AcDbLine
 10
6297.590746274746
 20
5720.613765800866
 30
0.0
 11
6297.590746274746
 21
6120.613765800866
 31
0.0
  0
LINE
  5
3C20
330
18
100
AcDbEntity
  8
OBJECT
100
AcDbLine
 10
6497.590746274745
 20
5650.613765800867
 30
0.0
 11
6497.590746274745
 21
6220.613765800866
 31
0.0
  0
HATCH
  5
3C21
330
18
100
AcDbEntity
  8
OBJECT
100
AcDbHatch
 10
0.0
 20
0.0
 30
0.0
210
0.0
220
0.0
230
1.0
  2
AR-SAND
 70
     0
 71
     0
 91
        1
 92
        1
 93
        4
 72
     1
 10
6097.590746274746
 20
5720.613765800866
 11
6297.590746274746
 21
5720.613765800866
 72
     1
 10
6297.590746274746
 20
5720.613765800866
 11
6297.590746274746
 21
5770.613765800867
 72
     1
 10
6297.590746274746
 20
5770.613765800867
 11
6072.590746274745
 21
5770.613765800867
 72
     1
 10
6072.590746274745
 20
5770.613765800867
 11
6097.590746274746
 21
5720.613765800866
 97
        0
 75
     0
 76
     1
 52
90.0
 41
1.0
 77
     0
 78
     4
 53
127.5
 43
10456.19749771467
 44
-247.4197727975115
 45
-48.94132373293423
 46
-1.600031295984042
 79
     6
 49
0.0
 49
-38.608
 49
0.0
 49
-43.18
 49
0.0
 49
-41.275
 53
97.49999999999985
 43
10456.19749771467
 44
-247.4197727975115
 45
-71.68251005683543
 46
44.95232831380027
 79
     6
 49
0.0
 49
-20.82799999999999
 49
0.0
 49
-34.79799999999999
 49
0.0
 49
-13.33499999999999
 53
57.49999999999997
 43
10456.19749771467
 44
-278.6617727975117
 45
-0.1437184678545643
 46
79.09923702414579
 79
     6
 49
0.0
 49
-12.69999999999998
 49
0.0
 49
-45.71999999999992
 49
0.0
 49
-59.68999999999993
 53
47.49999999999999
 43
10456.19749771467
 44
-278.6617727975117
 45
-22.29293232572162
 46
76.35564524722972
 79
     6
 49
0.0
 49
-6.349999999999999
 49
0.0
 49
-29.97199999999999
 49
0.0
 49
-34.29
 98
        1
 10
10456.19749771467
 20
-247.4197727975115
  0
LINE
  5
3C22
330
18
100
AcDbEntity
  8
OBJECT
100
AcDbLine
 10
6072.590746274745
 20
5770.613765800867
 30
0.0
 11
6297.590746274746
 21
5770.613765800867
 31
0.0
  0
LINE
  5
3C23
330
18
100
AcDbEntity
  8
WUWAGAKI
 48
10.0
100
AcDbLine
 10
6181.754261484098
 20
6063.273423864586
 30
0.0
 11
6532.640558669026
 21
5913.991748797181
 31
0.0
210
0.0
220
0.0
230
-1.0
1001
ACAD
1000
DSTYLE
1002
{
1070
    78
1070
     8
1070
   270
1070
     8
1070
   140
1040
2.5
1070
    74
1070
     0
1070
   172
1070
     1
1070
    73
1070
     0
1070
    77
1070
     1
1070
    40
1040
10.0
1070
   147
1040
0.625
1070
    42
1040
0.625
1070
    44
1040
1.25
1070
    43
1040
3.75
1070
   141
1040
2.5
1070
    41
1040
2.5
1070
   273
1070
     8
1070
   274
1070
     4
1070
   143
1040
0.0394
1070
   171
1070
     4
1002
}
  0
LINE
  5
3C24
330
18
100
AcDbEntity
  8
OBJECT
100
AcDbLine
 10
6038.710688729078
 20
5838.373880892202
 30
0.0
 11
6038.710688729078
 21
5732.265057310645
 31
0.0
  0
LINE
  5
3C25
330
18
100
AcDbEntity
  8
OBJECT
100
AcDbLine
 10
6036.09497210183
 20
5843.605314146699
 30
0.0
 11
6036.09497210183
 21
5732.265057310645
 31
0.0
  0
LINE
  5
3C26
330
18
100
AcDbEntity
  8
OBJECT
100
AcDbLine
 10
6016.477075810287
 20
5853.425036072815
 30
0.0
 11
6016.477075810287
 21
5732.265041898661
 31
0.0
  0
LINE
  5
3C27
330
18
100
AcDbEntity
  8
OBJECT
100
AcDbLine
 10
5996.859179518746
 20
5853.425044915402
 30
0.0
 11
5996.859179518746
 21
5732.265050741251
 31
0.0
  0
LINE
  5
3C28
330
18
100
AcDbEntity
  8
OBJECT
100
AcDbLine
 10
5999.474896145995
 20
5853.425044915402
 30
0.0
 11
5999.474896145995
 21
5732.265050741251
 31
0.0
  0
LINE
  5
3C29
330
18
100
AcDbEntity
  8
OBJECT
100
AcDbLine
 10
6019.092792437536
 20
5853.425036072815
 30
0.0
 11
6019.092792437536
 21
5732.265041898661
 31
0.0
  0
LINE
  5
3C2A
330
18
100
AcDbEntity
  8
OBJECT
100
AcDbLine
 10
5921.003310979828
 20
5853.425042642213
 30
0.0
 11
5921.003310979828
 21
5732.26504846806
 31
0.0
  0
LINE
  5
3C2B
330
18
100
AcDbEntity
  8
OBJECT
100
AcDbLine
 10
5918.38759435258
 20
5853.425042642213
 30
0.0
 11
5918.38759435258
 21
5732.26504846806
 31
0.0
  0
LINE
  5
3C2C
330
18
100
AcDbEntity
  8
OBJECT
100
AcDbLine
 10
5938.00549064412
 20
5853.425033799625
 30
0.0
 11
5938.00549064412
 21
5732.265039625474
 31
0.0
  0
LINE
  5
3C2D
330
18
100
AcDbEntity
  8
OBJECT
100
AcDbLine
 10
5940.621207271369
 20
5853.425033799625
 30
0.0
 11
5940.621207271369
 21
5732.265039625474
 31
0.0
  0
LINE
  5
3C2E
330
18
100
AcDbEntity
  8
OBJECT
100
AcDbLine
 10
5977.241283227204
 20
5853.425044915402
 30
0.0
 11
5977.241283227204
 21
5732.265050741251
 31
0.0
  0
LINE
  5
3C2F
330
18
100
AcDbEntity
  8
OBJECT
100
AcDbLine
 10
5979.856999854454
 20
5853.425044915402
 30
0.0
 11
5979.856999854454
 21
5732.265050741251
 31
0.0
  0
LINE
  5
3C30
330
18
100
AcDbEntity
  8
OBJECT
100
AcDbLine
 10
5960.239103562912
 20
5853.425053757988
 30
0.0
 11
5960.239103562912
 21
5732.265059583835
 31
0.0
  0
LINE
  5
3C31
330
18
100
AcDbEntity
  8
OBJECT
100
AcDbLine
 10
5957.623386935662
 20
5853.425053757988
 30
0.0
 11
5957.623386935662
 21
5732.265059583835
 31
0.0
  0
LINE
  5
3C32
330
18
100
AcDbEntity
  8
OBJECT
100
AcDbLine
 10
6077.946481312161
 20
5759.902295726035
 30
0.0
 11
6077.946481312161
 21
5732.26504846806
 31
0.0
  0
LINE
  5
3C33
330
18
100
AcDbEntity
  8
OBJECT
100
AcDbLine
 10
6075.330764684911
 20
5765.133728980533
 30
0.0
 11
6075.330764684911
 21
5732.26504846806
 31
0.0
  0
LINE
  5
3C34
330
18
100
AcDbEntity
  8
OBJECT
100
AcDbLine
 10
6058.328585020619
 20
5799.138088309119
 30
0.0
 11
6058.328585020619
 21
5732.26504846806
 31
0.0
  0
LINE
  5
3C35
330
18
100
AcDbEntity
  8
OBJECT
100
AcDbLine
 10
6055.712868393372
 20
5804.369521563614
 30
0.0
 11
6055.712868393372
 21
5732.26504846806
 31
0.0
  0
LINE
  5
3C36
330
18
100
AcDbEntity
  8
OBJECT
100
AcDbLine
 10
5979.856999854454
 20
5860.033754492786
 30
0.0
 11
5979.856999854454
 21
5956.08125864145
 31
0.0
  0
LINE
  5
3C37
330
18
100
AcDbEntity
  8
OBJECT
100
AcDbLine
 10
5977.241283227204
 20
5860.033754492786
 30
0.0
 11
5977.241283227204
 21
5961.312691895949
 31
0.0
  0
LINE
  5
3C38
330
18
100
AcDbEntity
  8
OBJECT
100
AcDbLine
 10
5921.003310979828
 20
5860.033756765977
 30
0.0
 11
5921.003310979828
 21
5981.193750940128
 31
0.0
  0
LINE
  5
3C39
330
18
100
AcDbEntity
  8
OBJECT
100
AcDbLine
 10
5918.38759435258
 20
5860.033756765977
 30
0.0
 11
5918.38759435258
 21
5981.193750940128
 31
0.0
  0
LINE
  5
3C3A
330
18
100
AcDbEntity
  8
OBJECT
100
AcDbLine
 10
5938.00549064412
 20
5860.033765608562
 30
0.0
 11
5938.00549064412
 21
5981.193759782716
 31
0.0
  0
LINE
  5
3C3B
330
18
100
AcDbEntity
  8
OBJECT
100
AcDbLine
 10
5940.621207271369
 20
5860.033765608562
 30
0.0
 11
5940.621207271369
 21
5981.193759782716
 31
0.0
  0
LINE
  5
3C3C
330
18
100
AcDbEntity
  8
OBJECT
100
AcDbLine
 10
5960.239103562912
 20
5860.0337456502
 30
0.0
 11
5960.239103562912
 21
5981.193739824353
 31
0.0
  0
LINE
  5
3C3D
330
18
100
AcDbEntity
  8
OBJECT
100
AcDbLine
 10
5957.623386935662
 20
5860.0337456502
 30
0.0
 11
5957.623386935662
 21
5981.193739824353
 31
0.0
  0
LINE
  5
3C3E
330
18
100
AcDbEntity
  8
OBJECT
100
AcDbLine
 10
5996.859179518746
 20
5860.033754492786
 30
0.0
 11
5996.859179518746
 21
5922.076899312866
 31
0.0
  0
LINE
  5
3C3F
330
18
100
AcDbEntity
  8
OBJECT
100
AcDbLine
 10
6019.092792437536
 20
5860.033763335374
 30
0.0
 11
6019.092792437536
 21
5877.609673475284
 31
0.0
  0
LINE
  5
3C40
330
18
100
AcDbEntity
  8
OBJECT
100
AcDbLine
 10
6016.477075810287
 20
5860.033763335374
 30
0.0
 11
6016.477075810287
 21
5882.841106729782
 31
0.0
  0
LINE
  5
3C41
330
18
100
AcDbEntity
  8
OBJECT
100
AcDbLine
 10
5999.474896145995
 20
5860.033754492786
 30
0.0
 11
5999.474896145995
 21
5916.845466058367
 31
0.0
  0
SOLID
  5
3C42
330
18
100
AcDbEntity
  8
0
  6
ByBlock
 62
     0
 48
10.0
100
AcDbTrace
 10
6083.357919265452
 20
5828.898507164256
 30
0.0
 11
6083.297945398037
 21
5816.398651039675
 31
0.0
 12
6045.828363958
 22
5822.828500704206
 32
0.0
 13
6045.828363958
 23
5822.828500704206
 33
0.0
  0
LINE
  5
3C43
330
18
100
AcDbEntity
  8
OBJECT
100
AcDbLine
 10
5960.239103562912
 20
5987.802477843745
 30
0.0
 11
5960.239103562912
 21
5995.317051224534
 31
0.0
  0
LINE
  5
3C44
330
18
100
AcDbEntity
  8
OBJECT
100
AcDbLine
 10
5957.623386935662
 20
5987.802477843745
 30
0.0
 11
5957.623386935662
 21
6000.548484479032
 31
0.0
  0
LINE
  5
3C45
330
18
100
AcDbEntity
  8
OBJECT
100
AcDbLine
 10
5940.621207271369
 20
5987.802497802107
 30
0.0
 11
5940.621207271369
 21
6034.552843807618
 31
0.0
  0
LINE
  5
3C46
330
18
100
AcDbEntity
  8
OBJECT
100
AcDbLine
 10
5938.00549064412
 20
5987.802497802107
 30
0.0
 11
5938.00549064412
 21
6039.784277062115
 31
0.0
  0
LINE
  5
3C47
330
18
100
AcDbEntity
  8
点線
100
AcDbLine
 10
6297.590746274746
 20
5770.613765800867
 30
0.0
 11
6497.590746274745
 21
5770.613765800867
 31
0.0
  0
LINE
  5
3C48
330
18
100
AcDbEntity
  8
OBJECT
100
AcDbLine
 10
6297.590746274746
 20
5720.613765800866
 30
0.0
 11
6297.590746274746
 21
5770.613765800867
 31
0.0
  0
LINE
  5
3C49
330
18
100
AcDbEntity
  8
OBJECT
100
AcDbLine
 10
5922.590746274746
 20
6070.613765800866
 30
0.0
 11
6297.590746274746
 21
6070.613765800866
 31
0.0
  0
HATCH
  5
3C4A
330
18
100
AcDbEntity
  8
OBJECT
100
AcDbHatch
 10
0.0
 20
0.0
 30
0.0
210
0.0
220
0.0
230
1.0
  2
AR-SAND
 70
     0
 71
     0
 91
        1
 92
        1
 93
        4
 72
     1
 10
5897.590746274746
 20
6120.613765800866
 11
6297.590746274746
 21
6120.613765800866
 72
     1
 10
6297.590746274746
 20
6120.613765800866
 11
6297.590746274746
 21
6070.613765800866
 72
     1
 10
6297.590746274746
 20
6070.613765800866
 11
5922.590746274746
 21
6070.613765800866
 72
     1
 10
5922.590746274746
 20
6070.613765800866
 11
5897.590746274746
 21
6120.613765800866
 97
        0
 75
     0
 76
     1
 52
90.0
 41
1.0
 77
     0
 78
     4
 53
127.5
 43
10456.19749771467
 44
-247.4197727975115
 45
-48.94132373293423
 46
-1.600031295984042
 79
     6
 49
0.0
 49
-38.608
 49
0.0
 49
-43.18
 49
0.0
 49
-41.275
 53
97.49999999999985
 43
10456.19749771467
 44
-247.4197727975115
 45
-71.68251005683543
 46
44.95232831380027
 79
     6
 49
0.0
 49
-20.82799999999999
 49
0.0
 49
-34.79799999999999
 49
0.0
 49
-13.33499999999999
 53
57.49999999999997
 43
10456.19749771467
 44
-278.6617727975117
 45
-0.1437184678545643
 46
79.09923702414579
 79
     6
 49
0.0
 49
-12.69999999999998
 49
0.0
 49
-45.71999999999992
 49
0.0
 49
-59.68999999999993
 53
47.49999999999999
 43
10456.19749771467
 44
-278.6617727975117
 45
-22.29293232572162
 46
76.35564524722972
 79
     6
 49
0.0
 49
-6.349999999999999
 49
0.0
 49
-29.97199999999999
 49
0.0
 49
-34.29
 98
        1
 10
10456.19749771467
 20
-247.4197727975115
  0
MTEXT
  5
3C4B
330
18
100
AcDbEntity
  8
0
  6
ByBlock
 62
     0
 48
10.0
100
AcDbMText
 10
5997.590746274745
 20
6430.613765800868
 30
0.0
 40
37.5
 41
0.0
 71
     5
 72
     1
  1
600
 73
     1
 44
1.0
  0
LINE
  5
3C4C
330
18
100
AcDbEntity
  8
0
 48
10.0
100
AcDbLine
 10
6497.590746274745
 20
6250.613765800867
 30
0.0
 11
6497.590746274745
 21
6580.613765800866
 31
0.0
  0
LINE
  5
3C4D
330
18
100
AcDbEntity
  8
0
 48
10.0
100
AcDbLine
 10
6297.590746274746
 20
6250.613765800867
 30
0.0
 11
6297.590746274746
 21
6430.613765800867
 31
0.0
  0
LINE
  5
3C4E
330
18
100
AcDbEntity
  8
点線
100
AcDbLine
 10
6297.590746274746
 20
6070.613765800866
 30
0.0
 11
6497.590746274745
 21
6070.613765800866
 31
0.0
  0
MTEXT
  5
3C4F
330
18
100
AcDbEntity
  8
0
  6
ByBlock
 62
     0
 48
10.0
100
AcDbMText
 10
6397.590746274746
 20
6430.613757037447
 30
0.0
 40
37.5
 41
0.0
 71
     5
 72
     1
  1
200
 73
     1
 44
1.0
  0
SOLID
  5
3C50
330
18
100
AcDbEntity
  8
0
  6
ByBlock
 62
     0
 48
10.0
100
AcDbTrace
 10
6260.090810714441
 20
6394.363765800864
 30
0.0
 11
6260.090810714441
 21
6406.863765800865
 31
0.0
 12
6297.59081071444
 22
6400.613765800867
 32
0.0
 13
6297.59081071444
 23
6400.613765800867
 33
0.0
  0
SOLID
  5
3C51
330
18
100
AcDbEntity
  8
0
  6
ByBlock
 62
     0
 48
10.0
100
AcDbTrace
 10
6335.090746274748
 20
6394.363765800864
 30
0.0
 11
6335.090746274748
 21
6406.863765800865
 31
0.0
 12
6297.590746274749
 22
6400.613765800867
 32
0.0
 13
6297.590746274749
 23
6400.613765800867
 33
0.0
  0
SOLID
  5
3C52
330
18
100
AcDbEntity
  8
0
  6
ByBlock
 62
     0
 48
10.0
100
AcDbTrace
 10
6460.090734415591
 20
6394.363755060919
 30
0.0
 11
6460.090734415591
 21
6406.863755060919
 31
0.0
 12
6497.590734415592
 22
6400.61375506092
 32
0.0
 13
6497.590734415592
 23
6400.61375506092
 33
0.0
  0
SOLID
  5
3C53
330
18
100
AcDbEntity
  8
0
  6
ByBlock
 62
     0
 48
10.0
100
AcDbTrace
 10
6460.090746274724
 20
6544.363765800868
 30
0.0
 11
6460.090746274724
 21
6556.863765800869
 31
0.0
 12
6497.590746274724
 22
6550.61376580087
 32
0.0
 13
6497.590746274724
 23
6550.61376580087
 33
0.0
  0
SOLID
  5
3C54
330
18
100
AcDbEntity
  8
0
  6
ByBlock
 62
     0
 48
10.0
100
AcDbTrace
 10
6835.090772097238
 20
5674.363765800869
 30
0.0
 11
6835.090772097238
 21
5686.863765800869
 31
0.0
 12
6797.590772097239
 22
5680.61376580087
 32
0.0
 13
6797.590772097239
 23
5680.61376580087
 33
0.0
  0
MTEXT
  5
3C55
330
18
100
AcDbEntity
  8
0
  6
ByBlock
 62
     0
 48
10.0
100
AcDbMText
 10
6892.590772097218
 20
5590.613757037447
 30
0.0
 40
37.5
 41
0.0
 71
     5
 72
     1
  1
50
 73
     1
 44
1.0
  0
MTEXT
  5
3C56
330
18
100
AcDbEntity
  8
0
  6
ByBlock
 62
     0
 48
10.0
100
AcDbMText
 10
7082.590772097261
 20
5710.613765800871
 30
0.0
 40
37.5
 41
0.0
 71
     5
 72
     1
  1
570
 73
     1
 44
1.0
  0
MTEXT
  5
3C57
330
18
100
AcDbEntity
  8
0
  6
ByBlock
 62
     0
 48
10.0
100
AcDbMText
 10
7242.590772097262
 20
5590.61375703745
 30
0.0
 40
37.5
 41
0.0
 71
     5
 72
     1
  1
50
 73
     1
 44
1.0
  0
LINE
  5
3C58
330
18
100
AcDbEntity
  8
WUWAGAKI
100
AcDbLine
 10
8972.975809051666
 20
3871.553862654547
 30
0.0
 11
8972.975809051666
 21
6797.703714450671
 31
0.0
  0
LINE
  5
3C59
330
18
100
AcDbEntity
  8
0
 48
10.0
100
AcDbLine
 10
7367.590772097262
 20
5380.61376580087
 30
0.0
 11
7367.590772097262
 21
5710.613765800871
 31
0.0
  0
TEXT
  5
3C61
330
18
100
AcDbEntity
  8
WUWAGAKI
100
AcDbText
 10
8100.129096074626
 20
4194.020918367852
 30
0.0
 40
38.2725
  1
300×U500×1000×120/150×H
100
AcDbText
  0
LINE
  5
3C62
330
18
100
AcDbEntity
  8
WUWAGAKI
100
AcDbLine
 10
7813.676221143286
 20
4071.08209265156
 30
0.0
 11
8906.47279624371
 21
4071.08209265156
 31
0.0
  0
LINE
  5
3C63
330
18
100
AcDbEntity
  8
WUWAGAKI
100
AcDbLine
 10
7813.676221143286
 20
4169.597156816166
 30
0.0
 11
8906.47279624371
 21
4169.597156816166
 31
0.0
  0
LINE
  5
3C64
330
18
100
AcDbEntity
  8
WUWAGAKI
100
AcDbLine
 10
7813.676221143286
 20
3940.053397096349
 30
0.0
 11
8906.47279624371
 21
3940.053397096349
 31
0.0
  0
LINE
  5
3C65
330
18
100
AcDbEntity
  8
WUWAGAKI
100
AcDbLine
 10
7813.676221143286
 20
4265.503541780781
 30
0.0
 11
8903.840973907946
 21
4265.503541780781
 31
0.0
  0
LINE
  5
3C66
330
18
100
AcDbEntity
  8
WUWAGAKI
100
AcDbLine
 10
7813.676221143286
 20
4265.503541780781
 30
0.0
 11
8903.840973907946
 21
4265.503541780781
 31
0.0
  0
LINE
  5
3C67
330
18
100
AcDbEntity
  8
WUWAGAKI
100
AcDbLine
 10
7813.676221143286
 20
4360.033829725918
 30
0.0
 11
8906.47279624371
 21
4360.033829725918
 31
0.0
  0
TEXT
  5
3C70
330
18
100
AcDbEntity
  8
WUWAGAKI
100
AcDbText
 10
7858.554664905567
 20
4190.650588961315
 30
0.0
 40
45.0
  1
寸　法
100
AcDbText
  0
TEXT
  5
3C71
330
18
100
AcDbEntity
  8
WUWAGAKI
100
AcDbText
 10
7861.209876791988
 20
4291.789428998296
 30
0.0
 40
45.0
  1
種　別
100
AcDbText
  0
TEXT
  5
3C72
330
18
100
AcDbEntity
  8
WUWAGAKI
100
AcDbText
 10
7886.202422666649
 20
4094.152635969834
 30
0.0
 40
45.0
  1
縮尺
100
AcDbText
  0
LINE
  5
3C73
330
18
100
AcDbEntity
  8
WUWAGAKI
100
AcDbLine
 10
7813.676221143286
 20
4360.033829725918
 30
0.0
 11
7813.676221143286
 21
3940.053397096349
 31
0.0
  0
TEXT
  5
3C74
330
18
100
AcDbEntity
  8
WUWAGAKI
100
AcDbText
 10
8052.381654042761
 20
3971.660963902735
 30
0.0
 40
60.0
  1
㈱　ウ　チ　コ　ン
100
AcDbText
  0
TEXT
  5
3C75
330
18
100
AcDbEntity
  8
WUWAGAKI
100
AcDbText
 10
8100.129096074626
 20
4095.454551399291
 30
0.0
 40
45.0
  1
S＝　1：15
100
AcDbText
  0
LINE
  5
3C76
330
18
100
AcDbEntity
  8
WUWAGAKI
100
AcDbLine
 10
8065.792692711793
 20
4360.033829725918
 30
0.0
 11
8065.792692711793
 21
4071.08209265156
 31
0.0
  0
TEXT
  5
3C77
330
18
100
AcDbEntity
  8
WUWAGAKI
100
AcDbText
 10
8100.129096074626
 20
4289.210268802237
 30
0.0
 40
45.0
  1
集水桝
100
AcDbText
  0
TEXT
  5
3C78
330
18
100
AcDbEntity
  8
WUWAGAKI
100
AcDbText
 10
8486.88995464785
 20
4095.503988910833
 30
0.0
 40
45.0
  1
重量
100
AcDbText
  0
LINE
  5
3C79
330
18
100
AcDbEntity
  8
WUWAGAKI
100
AcDbLine
 10
8459.962178895706
 20
4169.597156816166
 30
0.0
 11
8459.962178895706
 21
4071.08209265156
 31
0.0
  0
LINE
  5
3C7A
330
18
100
AcDbEntity
  8
WUWAGAKI
100
AcDbLine
 10
8644.190605658023
 20
4169.597156816166
 30
0.0
 11
8644.190605658023
 21
4071.08209265156
 31
0.0
  0
SOLID
  5
3C7B
330
18
100
AcDbEntity
  8
0
  6
ByBlock
 62
     0
 48
10.0
100
AcDbTrace
 10
7330.090760238128
 20
5536.863757037446
 30
0.0
 11
7330.090760238128
 21
5524.363757037444
 31
0.0
 12
7367.590760238129
 22
5530.613757037444
 32
0.0
 13
7367.590760238129
 23
5530.613757037444
 33
0.0
  0
LINE
  5
3C82
330
18
100
AcDbEntity
  8
WUWAGAKI
100
AcDbLine
 10
8906.47279624371
 20
3940.053397096349
 30
0.0
 11
8906.47279624371
 21
4360.033829725918
 31
0.0
  0
SOLID
  5
3C94
330
18
100
AcDbEntity
  8
0
  6
ByBlock
 62
     0
 48
10.0
100
AcDbTrace
 10
7330.090772097239
 20
5674.363765800869
 30
0.0
 11
7330.090772097239
 21
5686.863765800869
 31
0.0
 12
7367.590772097239
 22
5680.61376580087
 32
0.0
 13
7367.590772097239
 23
5680.61376580087
 33
0.0
  0
VIEWPORT
  5
298
330
15
100
AcDbEntity
 67
     1
  8
0
100
AcDbViewport
 10
291.7632241813602
 20
148.5
 30
0.0
 40
583.5264483627204
 41
297.0
 68
     1
 69
     1
 12
291.7632241813602
 22
148.5
 13
0.0
 23
0.0
 14
10.0
 24
10.0
 15
10.0
 25
10.0
 16
0.0
 26
0.0
 36
1.0
 17
0.0
 27
0.0
 37
0.0
 42
50.0
 43
0.0
 44
0.0
 45
297.0
 50
0.0
 51
0.0
 72
   100
 90
    32800
  1

281
     0
 71
     1
 74
     0
110
0.0
120
0.0
130
0.0
111
1.0
121
0.0
131
0.0
112
0.0
122
1.0
132
0.0
 79
     0
146
0.0
  0
ENDSEC
  0
SECTION
  2
OBJECTS
  0
DICTIONARY
  5
C
330
0
100
AcDbDictionary
281
     1
  3
ACAD_GROUP
350
D
  3
ACAD_LAYOUT
350
15FE
  3
ACAD_MLINESTYLE
350
1B
  3
ACAD_PLOTSETTINGS
350
15FF
  3
ACAD_PLOTSTYLENAME
350
15FC
  3
ACDBVARIABLEDICTIONARY
350
B2A
  3
DRAWINGVARIABLESDICT
350
1212
  0
DICTIONARY
  5
D
102
{ACAD_REACTORS
330
C
102
}
330
C
100
AcDbDictionary
281
     1
  3
*A1
350
1DE1
  3
*A2
350
2483
  3
*A3
350
2486
  3
*A4
350
2971
  3
*A5
350
3003
  3
*A6
350
34F4
  0
DICTIONARY
  5
15FE
102
{ACAD_REACTORS
330
C
102
}
330
C
100
AcDbDictionary
281
     1
  3
Model
350
1600
  3
ﾚｲｱｳﾄ1
350
1601
  0
DICTIONARY
  5
1B
102
{ACAD_REACTORS
330
C
102
}
330
C
100
AcDbDictionary
281
     1
  3
STANDARD
350
1C
  0
DICTIONARY
  5
15FF
102
{ACAD_REACTORS
330
C
102
}
330
C
100
AcDbDictionary
281
     1
  0
ACDBDICTIONARYWDFLT
  5
15FC
102
{ACAD_REACTORS
330
C
102
}
330
C
100
AcDbDictionary
281
     1
  3
Normal
350
15FD
100
AcDbDictionaryWithDefault
340
15FD
  0
DICTIONARY
  5
B2A
102
{ACAD_REACTORS
330
C
102
}
330
C
100
AcDbDictionary
281
     1
  3
SORTENTS
350
B2B
  0
DICTIONARY
  5
1212
102
{ACAD_REACTORS
330
C
102
}
330
C
100
AcDbDictionary
281
     1
1001
DRAWINGVARIABLESXDATA
1000
POLARANG
1000
0.785398
1000
POLARMODE
1000
0
  0
GROUP
  5
1DE1
102
{ACAD_REACTORS
330
D
102
}
330
D
100
AcDbGroup
300

 70
     1
 71
     1
  0
GROUP
  5
2483
102
{ACAD_REACTORS
330
D
102
}
330
D
100
AcDbGroup
300

 70
     1
 71
     1
  0
GROUP
  5
2486
102
{ACAD_REACTORS
330
D
102
}
330
D
100
AcDbGroup
300

 70
     1
 71
     1
  0
GROUP
  5
2971
102
{ACAD_REACTORS
330
D
102
}
330
D
100
AcDbGroup
300

 70
     1
 71
     1
  0
GROUP
  5
3003
102
{ACAD_REACTORS
330
D
102
}
330
D
100
AcDbGroup
300

 70
     1
 71
     1
  0
GROUP
  5
34F4
102
{ACAD_REACTORS
330
D
102
}
330
D
100
AcDbGroup
300

 70
     1
 71
     1
  0
LAYOUT
  5
1600
102
{ACAD_REACTORS
330
15FE
102
}
330
15FE
100
AcDbPlotSettings
  1

  2
Canon LBP3800 LIPSLX
  4
A4
  6

 40
5.873749732971191
 41
5.873747825622558
 42
5.873748779296875
 43
5.873748779296875
 44
209.9733276367187
 45
296.9259948730469
 46
0.0
 47
0.0
 48
0.0
 49
0.0
140
0.0
141
0.0
142
1.0
143
1.0
 70
 11952
 72
     1
 73
     1
 74
     0
  7

 75
     0
147
1.0
148
-1119.838883806218
149
-2764.341960111367
100
AcDbLayout
  1
Model
 70
     1
 71
     0
 10
0.0
 20
0.0
 11
12.0
 21
9.0
 12
0.0
 22
0.0
 32
0.0
 14
0.0
 24
0.0
 34
0.0
 15
0.0
 25
0.0
 35
0.0
146
0.0
 13
0.0
 23
0.0
 33
0.0
 16
1.0
 26
0.0
 36
0.0
 17
0.0
 27
1.0
 37
0.0
 76
     0
330
18
  0
LAYOUT
  5
1601
102
{ACAD_REACTORS
330
15FE
102
}
330
15FE
100
AcDbPlotSettings
  1

  2
Canon LBP3800 LIPSLX
  4

  6

 40
0.0
 41
0.0
 42
0.0
 43
0.0
 44
0.0
 45
0.0
 46
0.0
 47
0.0
 48
0.0
 49
0.0
140
0.0
141
0.0
142
1.0
143
1.0
 70
   688
 72
     0
 73
     0
 74
     5
  7

 75
    16
147
1.0
148
0.0
149
0.0
100
AcDbLayout
  1
ﾚｲｱｳﾄ1
 70
     1
 71
     1
 10
0.0
 20
0.0
 11
420.0
 21
297.0
 12
0.0
 22
0.0
 32
0.0
 14
1.000000000000000E+20
 24
1.000000000000000E+20
 34
1.000000000000000E+20
 15
-1.000000000000000E+20
 25
-1.000000000000000E+20
 35
-1.000000000000000E+20
146
0.0
 13
0.0
 23
0.0
 33
0.0
 16
1.0
 26
0.0
 36
0.0
 17
0.0
 27
1.0
 37
0.0
 76
     0
330
15
331
298
  0
MLINESTYLE
  5
1C
102
{ACAD_REACTORS
330
1B
102
}
330
1B
100
AcDbMlineStyle
  2
STANDARD
 70
     0
  3

 62
   256
 51
90.0
 52
90.0
 71
     2
 49
0.5
 62
   256
  6
BYLAYER
 49
-0.5
 62
   256
  6
BYLAYER
  0
ACDBPLACEHOLDER
  5
15FD
102
{ACAD_REACTORS
330
15FC
102
}
330
15FC
  0
DICTIONARYVAR
  5
B2B
102
{ACAD_REACTORS
330
B2A
102
}
330
B2A
100
DictionaryVariables
280
     0
  1
96
  0
ENDSEC
  0
EOF
