  0
SECTION
  2
HEADER
  9
$ACADVER
  1
AC1015
  9
$ACADMAINTVER
 70
     6
  9
$DWGCODEPAGE
  3
ANSI_932
  9
$INSBASE
 10
0.0
 20
0.0
 30
0.0
  9
$EXTMIN
 10
710.0813698183028
 20
984.8549298695507
 30
0.0
  9
$EXTMAX
 10
8905.67473496314
 20
6678.303937321476
 30
0.0
  9
$LIMMIN
 10
0.0
 20
0.0
  9
$LIMMAX
 10
4455.0
 20
3150.0
  9
$ORTHOMODE
 70
     0
  9
$REGENMODE
 70
     1
  9
$FILLMODE
 70
     1
  9
$QTEXTMODE
 70
     0
  9
$MIRRTEXT
 70
     1
  9
$LTSCALE
 40
5.0
  9
$ATTMODE
 70
     1
  9
$TEXTSIZE
 40
2.5
  9
$TRACEWID
 40
1.0
  9
$TEXTSTYLE
  7
STANDARD
  9
$CLAYER
  8
OBJECT
  9
$CELTYPE
  6
BYLAYER
  9
$CECOLOR
 62
   256
  9
$CELTSCALE
 40
1.0
  9
$DISPSILH
 70
     0
  9
$DIMSCALE
 40
15.0
  9
$DIMASZ
 40
2.5
  9
$DIMEXO
 40
0.625
  9
$DIMDLI
 40
3.75
  9
$DIMRND
 40
0.0
  9
$DIMDLE
 40
0.0
  9
$DIMEXE
 40
1.25
  9
$DIMTP
 40
0.0
  9
$DIMTM
 40
0.0
  9
$DIMTXT
 40
2.5
  9
$DIMCEN
 40
2.5
  9
$DIMTSZ
 40
0.0
  9
$DIMTOL
 70
     0
  9
$DIMLIM
 70
     0
  9
$DIMTIH
 70
     0
  9
$DIMTOH
 70
     0
  9
$DIMSE1
 70
     0
  9
$DIMSE2
 70
     0
  9
$DIMTAD
 70
     1
  9
$DIMZIN
 70
     8
  9
$DIMBLK
  1

  9
$DIMASO
 70
     1
  9
$DIMSHO
 70
     1
  9
$DIMPOST
  1

  9
$DIMAPOST
  1

  9
$DIMALT
 70
     0
  9
$DIMALTD
 70
     4
  9
$DIMALTF
 40
0.0394
  9
$DIMLFAC
 40
1.0
  9
$DIMTOFL
 70
     1
  9
$DIMTVP
 40
0.0
  9
$DIMTIX
 70
     0
  9
$DIMSOXD
 70
     0
  9
$DIMSAH
 70
     0
  9
$DIMBLK1
  1

  9
$DIMBLK2
  1

  9
$DIMSTYLE
  2
STANDARD
  9
$DIMCLRD
 70
     0
  9
$DIMCLRE
 70
     0
  9
$DIMCLRT
 70
     0
  9
$DIMTFAC
 40
1.0
  9
$DIMGAP
 40
0.625
  9
$DIMJUST
 70
     0
  9
$DIMSD1
 70
     0
  9
$DIMSD2
 70
     0
  9
$DIMTOLJ
 70
     1
  9
$DIMTZIN
 70
     0
  9
$DIMALTZ
 70
     0
  9
$DIMALTTZ
 70
     0
  9
$DIMUPT
 70
     0
  9
$DIMDEC
 70
     4
  9
$DIMTDEC
 70
     4
  9
$DIMALTU
 70
     8
  9
$DIMALTTD
 70
     4
  9
$DIMTXSTY
  7
STANDARD
  9
$DIMAUNIT
 70
     0
  9
$DIMADEC
 70
     0
  9
$DIMALTRND
 40
0.0
  9
$DIMAZIN
 70
     0
  9
$DIMDSEP
 70
    46
  9
$DIMATFIT
 70
     3
  9
$DIMFRAC
 70
     0
  9
$DIMLDRBLK
  1

  9
$DIMLUNIT
 70
     6
  9
$DIMLWD
 70
    -2
  9
$DIMLWE
 70
    -2
  9
$DIMTMOVE
 70
     0
  9
$LUNITS
 70
     2
  9
$LUPREC
 70
     4
  9
$SKETCHINC
 40
1.0
  9
$FILLETRAD
 40
10.0
  9
$AUNITS
 70
     0
  9
$AUPREC
 70
     0
  9
$MENU
  1
acad
  9
$ELEVATION
 40
0.0
  9
$PELEVATION
 40
0.0
  9
$THICKNESS
 40
0.0
  9
$LIMCHECK
 70
     0
  9
$CHAMFERA
 40
10.0
  9
$CHAMFERB
 40
10.0
  9
$CHAMFERC
 40
20.0
  9
$CHAMFERD
 40
0.0
  9
$SKPOLY
 70
     0
  9
$TDCREATE
 40
2452111.335768865
  9
$TDUCREATE
 40
2452110.960768866
  9
$TDUPDATE
 40
2454547.709716863
  9
$TDUUPDATE
 40
2454547.334716863
  9
$TDINDWG
 40
1.2503121759
  9
$TDUSRTIMER
 40
1.2503121759
  9
$USRTIMER
 70
     1
  9
$ANGBASE
 50
0.0
  9
$ANGDIR
 70
     0
  9
$PDMODE
 70
     0
  9
$PDSIZE
 40
0.0
  9
$PLINEWID
 40
0.0
  9
$SPLFRAME
 70
     0
  9
$SPLINETYPE
 70
     6
  9
$SPLINESEGS
 70
     8
  9
$HANDSEED
  5
3CCB
  9
$SURFTAB1
 70
     6
  9
$SURFTAB2
 70
     6
  9
$SURFTYPE
 70
     6
  9
$SURFU
 70
     6
  9
$SURFV
 70
     6
  9
$UCSBASE
  2

  9
$UCSNAME
  2

  9
$UCSORG
 10
0.0
 20
0.0
 30
0.0
  9
$UCSXDIR
 10
1.0
 20
0.0
 30
0.0
  9
$UCSYDIR
 10
0.0
 20
1.0
 30
0.0
  9
$UCSORTHOREF
  2

  9
$UCSORTHOVIEW
 70
     0
  9
$UCSORGTOP
 10
0.0
 20
0.0
 30
0.0
  9
$UCSORGBOTTOM
 10
0.0
 20
0.0
 30
0.0
  9
$UCSORGLEFT
 10
0.0
 20
0.0
 30
0.0
  9
$UCSORGRIGHT
 10
0.0
 20
0.0
 30
0.0
  9
$UCSORGFRONT
 10
0.0
 20
0.0
 30
0.0
  9
$UCSORGBACK
 10
0.0
 20
0.0
 30
0.0
  9
$PUCSBASE
  2

  9
$PUCSNAME
  2

  9
$PUCSORG
 10
0.0
 20
0.0
 30
0.0
  9
$PUCSXDIR
 10
1.0
 20
0.0
 30
0.0
  9
$PUCSYDIR
 10
0.0
 20
1.0
 30
0.0
  9
$PUCSORTHOREF
  2

  9
$PUCSORTHOVIEW
 70
     0
  9
$PUCSORGTOP
 10
0.0
 20
0.0
 30
0.0
  9
$PUCSORGBOTTOM
 10
0.0
 20
0.0
 30
0.0
  9
$PUCSORGLEFT
 10
0.0
 20
0.0
 30
0.0
  9
$PUCSORGRIGHT
 10
0.0
 20
0.0
 30
0.0
  9
$PUCSORGFRONT
 10
0.0
 20
0.0
 30
0.0
  9
$PUCSORGBACK
 10
0.0
 20
0.0
 30
0.0
  9
$USERI1
 70
     0
  9
$USERI2
 70
     0
  9
$USERI3
 70
     0
  9
$USERI4
 70
     0
  9
$USERI5
 70
     0
  9
$USERR1
 40
0.0
  9
$USERR2
 40
0.0
  9
$USERR3
 40
0.0
  9
$USERR4
 40
0.0
  9
$USERR5
 40
0.0
  9
$WORLDVIEW
 70
     1
  9
$SHADEDGE
 70
     3
  9
$SHADEDIF
 70
    70
  9
$TILEMODE
 70
     1
  9
$MAXACTVP
 70
    48
  9
$PINSBASE
 10
0.0
 20
0.0
 30
0.0
  9
$PLIMCHECK
 70
     0
  9
$PEXTMIN
 10
1.000000000000000E+20
 20
1.000000000000000E+20
 30
1.000000000000000E+20
  9
$PEXTMAX
 10
-1.000000000000000E+20
 20
-1.000000000000000E+20
 30
-1.000000000000000E+20
  9
$PLIMMIN
 10
0.0
 20
0.0
  9
$PLIMMAX
 10
420.0
 20
297.0
  9
$UNITMODE
 70
     0
  9
$VISRETAIN
 70
     1
  9
$PLINEGEN
 70
     0
  9
$PSLTSCALE
 70
     1
  9
$TREEDEPTH
 70
  3020
  9
$CMLSTYLE
  2
STANDARD
  9
$CMLJUST
 70
     0
  9
$CMLSCALE
 40
20.0
  9
$PROXYGRAPHICS
 70
     1
  9
$MEASUREMENT
 70
     1
  9
$CELWEIGHT
370
    -1
  9
$ENDCAPS
280
     0
  9
$JOINSTYLE
280
     0
  9
$LWDISPLAY
290
     0
  9
$INSUNITS
 70
     0
  9
$HYPERLINKBASE
  1

  9
$STYLESHEET
  1

  9
$XEDIT
290
     1
  9
$CEPSNTYPE
380
     0
  9
$PSTYLEMODE
290
     1
  9
$FINGERPRINTGUID
  2
{C9668057-E409-4CFD-A4F9-6C0551275C13}
  9
$VERSIONGUID
  2
{078BA852-1E7D-4BC4-953B-76990886B643}
  9
$EXTNAMES
290
     1
  9
$PSVPSCALE
 40
0.0
  9
$OLESTARTUP
290
     0
  0
ENDSEC
  0
SECTION
  2
CLASSES
  0
CLASS
  1
LWPOLYLINE
  2
AcDbPolyline
  3
AutoCAD 2000
 90
    32768
280
     0
281
     1
  0
CLASS
  1
DICTIONARYVAR
  2
AcDbDictionaryVar
  3
AutoCAD 2000
 90
        0
280
     0
281
     0
  0
CLASS
  1
HATCH
  2
AcDbHatch
  3
AutoCAD 2000
 90
    32768
280
     0
281
     1
  0
CLASS
  1
ACDBDICTIONARYWDFLT
  2
AcDbDictionaryWithDefault
  3
AutoCAD 2000
 90
        0
280
     0
281
     0
  0
CLASS
  1
ACDBPLACEHOLDER
  2
AcDbPlaceHolder
  3
AutoCAD 2000
 90
        0
280
     0
281
     0
  0
CLASS
  1
LAYOUT
  2
AcDbLayout
  3
AutoCAD 2000
 90
        0
280
     0
281
     0
  0
ENDSEC
  0
SECTION
  2
TABLES
  0
TABLE
  2
VPORT
  5
8
330
0
100
AcDbSymbolTable
 70
     2
  0
VPORT
  5
3CCA
330
8
100
AcDbSymbolTableRecord
100
AcDbViewportTableRecord
  2
*Active
 70
     0
 10
0.0
 20
0.0
 11
1.0
 21
1.0
 12
6809.270240866512
 22
5189.125846721601
 13
0.0
 23
0.0
 14
10.0
 24
10.0
 15
10.0
 25
10.0
 16
0.0
 26
0.0
 36
1.0
 17
0.0
 27
0.0
 37
0.0
 40
3269.39527777707
 41
1.731203007518796
 42
50.0
 43
0.0
 44
0.0
 50
0.0
 51
0.0
 71
     0
 72
   100
 73
     1
 74
     1
 75
     0
 76
     0
 77
     0
 78
     0
281
     0
 65
     1
110
0.0
120
0.0
130
0.0
111
1.0
121
0.0
131
0.0
112
0.0
122
1.0
132
0.0
 79
     0
146
0.0
  0
ENDTAB
  0
TABLE
  2
LTYPE
  5
5
330
0
100
AcDbSymbolTable
 70
    46
  0
LTYPE
  5
12
330
5
100
AcDbSymbolTableRecord
100
AcDbLinetypeTableRecord
  2
BYBLOCK
 70
     0
  3

 72
    65
 73
     0
 40
0.0
  0
LTYPE
  5
13
330
5
100
AcDbSymbolTableRecord
100
AcDbLinetypeTableRecord
  2
BYLAYER
 70
     0
  3

 72
    65
 73
     0
 40
0.0
  0
LTYPE
  5
14
330
5
100
AcDbSymbolTableRecord
100
AcDbLinetypeTableRecord
  2
CONTINUOUS
 70
     0
  3
Solid line
 72
    65
 73
     0
 40
0.0
  0
LTYPE
  5
128
330
5
100
AcDbSymbolTableRecord
100
AcDbLinetypeTableRecord
  2
ACAD_ISO02W100
 70
     0
  3
ISO dash __ __ __ __ __ __ __ __ __ __ __ __ __
 72
    65
 73
     2
 40
15.0
 49
12.0
 74
     0
 49
-3.0
 74
     0
  0
LTYPE
  5
129
330
5
100
AcDbSymbolTableRecord
100
AcDbLinetypeTableRecord
  2
ACAD_ISO03W100
 70
     0
  3
ISO dash space __    __    __    __    __    __
 72
    65
 73
     2
 40
30.0
 49
12.0
 74
     0
 49
-18.0
 74
     0
  0
LTYPE
  5
12A
330
5
100
AcDbSymbolTableRecord
100
AcDbLinetypeTableRecord
  2
ACAD_ISO04W100
 70
     0
  3
ISO long-dash dot ____ . ____ . ____ . ____ . _
 72
    65
 73
     4
 40
30.5
 49
24.0
 74
     0
 49
-3.0
 74
     0
 49
0.5
 74
     0
 49
-3.0
 74
     0
  0
LTYPE
  5
12B
330
5
100
AcDbSymbolTableRecord
100
AcDbLinetypeTableRecord
  2
ACAD_ISO05W100
 70
     0
  3
ISO long-dash double-dot ____ .. ____ .. ____ .
 72
    65
 73
     8
 40
37.5
 49
24.0
 74
     0
 49
-3.0
 74
     0
 49
0.5
 74
     0
 49
-3.0
 74
     0
 49
0.5
 74
     0
 49
-3.0
 74
     0
 49
0.5
 74
     0
 49
-3.0
 74
     0
  0
LTYPE
  5
12C
330
5
100
AcDbSymbolTableRecord
100
AcDbLinetypeTableRecord
  2
ACAD_ISO06W100
 70
     0
  3
ISO long-dash triple-dot ____ ... ____ ... ____
 72
    65
 73
     8
 40
37.5
 49
24.0
 74
     0
 49
-3.0
 74
     0
 49
0.5
 74
     0
 49
-3.0
 74
     0
 49
0.5
 74
     0
 49
-3.0
 74
     0
 49
0.5
 74
     0
 49
-3.0
 74
     0
  0
LTYPE
  5
12D
330
5
100
AcDbSymbolTableRecord
100
AcDbLinetypeTableRecord
  2
ACAD_ISO07W100
 70
     0
  3
ISO dot . . . . . . . . . . . . . . . . . . . .
 72
    65
 73
     2
 40
3.5
 49
0.5
 74
     0
 49
-3.0
 74
     0
  0
LTYPE
  5
12E
330
5
100
AcDbSymbolTableRecord
100
AcDbLinetypeTableRecord
  2
ACAD_ISO08W100
 70
     0
  3
ISO long-dash short-dash ____ __ ____ __ ____ _
 72
    65
 73
     4
 40
36.0
 49
24.0
 74
     0
 49
-3.0
 74
     0
 49
6.0
 74
     0
 49
-3.0
 74
     0
  0
LTYPE
  5
12F
330
5
100
AcDbSymbolTableRecord
100
AcDbLinetypeTableRecord
  2
ACAD_ISO09W100
 70
     0
  3
ISO long-dash double-short-dash ____ __ __ ____
 72
    65
 73
     6
 40
45.0
 49
24.0
 74
     0
 49
-3.0
 74
     0
 49
6.0
 74
     0
 49
-3.0
 74
     0
 49
6.0
 74
     0
 49
-3.0
 74
     0
  0
LTYPE
  5
130
330
5
100
AcDbSymbolTableRecord
100
AcDbLinetypeTableRecord
  2
ACAD_ISO10W100
 70
     0
  3
ISO dash dot __ . __ . __ . __ . __ . __ . __ .
 72
    65
 73
     4
 40
18.5
 49
12.0
 74
     0
 49
-3.0
 74
     0
 49
0.5
 74
     0
 49
-3.0
 74
     0
  0
LTYPE
  5
131
330
5
100
AcDbSymbolTableRecord
100
AcDbLinetypeTableRecord
  2
ACAD_ISO11W100
 70
     0
  3
ISO double-dash dot __ __ . __ __ . __ __ . __ 
 72
    65
 73
     6
 40
33.5
 49
12.0
 74
     0
 49
-3.0
 74
     0
 49
12.0
 74
     0
 49
-3.0
 74
     0
 49
0.5
 74
     0
 49
-3.0
 74
     0
  0
LTYPE
  5
132
330
5
100
AcDbSymbolTableRecord
100
AcDbLinetypeTableRecord
  2
ACAD_ISO12W100
 70
     0
  3
ISO dash double-dot __ . . __ . . __ . . __ . .
 72
    65
 73
     6
 40
22.0
 49
12.0
 74
     0
 49
-3.0
 74
     0
 49
0.5
 74
     0
 49
-3.0
 74
     0
 49
0.5
 74
     0
 49
-3.0
 74
     0
  0
LTYPE
  5
133
330
5
100
AcDbSymbolTableRecord
100
AcDbLinetypeTableRecord
  2
ACAD_ISO13W100
 70
     0
  3
ISO double-dash double-dot __ __ . . __ __ . . 
 72
    65
 73
     8
 40
37.0
 49
12.0
 74
     0
 49
-3.0
 74
     0
 49
12.0
 74
     0
 49
-3.0
 74
     0
 49
0.5
 74
     0
 49
-3.0
 74
     0
 49
0.5
 74
     0
 49
-3.0
 74
     0
  0
LTYPE
  5
134
330
5
100
AcDbSymbolTableRecord
100
AcDbLinetypeTableRecord
  2
ACAD_ISO14W100
 70
     0
  3
ISO dash triple-dot __ . . . __ . . . __ . . . 
 72
    65
 73
     8
 40
25.5
 49
12.0
 74
     0
 49
-3.0
 74
     0
 49
0.5
 74
     0
 49
-3.0
 74
     0
 49
0.5
 74
     0
 49
-3.0
 74
     0
 49
0.5
 74
     0
 49
-3.0
 74
     0
  0
LTYPE
  5
135
330
5
100
AcDbSymbolTableRecord
100
AcDbLinetypeTableRecord
  2
ACAD_ISO15W100
 70
     0
  3
ISO double-dash triple-dot __ __ . . . __ __ . 
 72
    65
 73
    10
 40
40.49999999999999
 49
12.0
 74
     0
 49
-3.0
 74
     0
 49
12.0
 74
     0
 49
-3.0
 74
     0
 49
0.5
 74
     0
 49
-3.0
 74
     0
 49
0.5
 74
     0
 49
-3.0
 74
     0
 49
0.5
 74
     0
 49
-3.0
 74
     0
  0
LTYPE
  5
136
330
5
100
AcDbSymbolTableRecord
100
AcDbLinetypeTableRecord
  2
BATTING
 70
     0
  3
Batting SSSSSSSSSSSSSSSSSSSSSSSSSSSSSSSSSSSSSSS
 72
    65
 73
     4
 40
10.16253999999999
 49
0.00254
 74
     0
 49
-2.54
 74
     4
 75
   134
340
127
 46
2.54
 50
0.0
 44
-2.54
 45
0.0
 49
-5.08
 74
     4
 75
   134
340
127
 46
2.54
 50
180.0
 44
2.54
 45
0.0
 49
-2.54
 74
     0
  0
LTYPE
  5
137
330
5
100
AcDbSymbolTableRecord
100
AcDbLinetypeTableRecord
  2
BORDER
 70
     0
  3
Border __ __ . __ __ . __ __ . __ __ . __ __ .
 72
    65
 73
     6
 40
44.45
 49
12.7
 74
     0
 49
-6.349999999999999
 74
     0
 49
12.7
 74
     0
 49
-6.349999999999999
 74
     0
 49
0.0
 74
     0
 49
-6.349999999999999
 74
     0
  0
LTYPE
  5
138
330
5
100
AcDbSymbolTableRecord
100
AcDbLinetypeTableRecord
  2
BORDER2
 70
     0
  3
Border (.5x) __.__.__.__.__.__.__.__.__.__.__.
 72
    65
 73
     6
 40
22.225
 49
6.349999999999999
 74
     0
 49
-3.174999999999999
 74
     0
 49
6.349999999999999
 74
     0
 49
-3.174999999999999
 74
     0
 49
0.0
 74
     0
 49
-3.174999999999999
 74
     0
  0
LTYPE
  5
139
330
5
100
AcDbSymbolTableRecord
100
AcDbLinetypeTableRecord
  2
BORDERX2
 70
     0
  3
Border (2x) ____  ____  .  ____  ____  .  ___
 72
    65
 73
     6
 40
88.9
 49
25.4
 74
     0
 49
-12.7
 74
     0
 49
25.4
 74
     0
 49
-12.7
 74
     0
 49
0.0
 74
     0
 49
-12.7
 74
     0
  0
LTYPE
  5
13A
330
5
100
AcDbSymbolTableRecord
100
AcDbLinetypeTableRecord
  2
CENTER
 70
     0
  3
Center ____ _ ____ _ ____ _ ____ _ ____ _ ____
 72
    65
 73
     4
 40
50.8
 49
31.75
 74
     0
 49
-6.349999999999999
 74
     0
 49
6.349999999999999
 74
     0
 49
-6.349999999999999
 74
     0
  0
LTYPE
  5
13B
330
5
100
AcDbSymbolTableRecord
100
AcDbLinetypeTableRecord
  2
CENTER2
 70
     0
  3
Center (.5x) ___ _ ___ _ ___ _ ___ _ ___ _ ___
 72
    65
 73
     4
 40
28.57499999999999
 49
19.05
 74
     0
 49
-3.174999999999999
 74
     0
 49
3.174999999999999
 74
     0
 49
-3.174999999999999
 74
     0
  0
LTYPE
  5
13C
330
5
100
AcDbSymbolTableRecord
100
AcDbLinetypeTableRecord
  2
CENTERX2
 70
     0
  3
Center (2x) ________  __  ________  __  _____
 72
    65
 73
     4
 40
101.6
 49
63.5
 74
     0
 49
-12.7
 74
     0
 49
12.7
 74
     0
 49
-12.7
 74
     0
  0
LTYPE
  5
13D
330
5
100
AcDbSymbolTableRecord
100
AcDbLinetypeTableRecord
  2
DASHDOT
 70
     0
  3
Dash dot __ . __ . __ . __ . __ . __ . __ . __
 72
    65
 73
     4
 40
25.4
 49
12.7
 74
     0
 49
-6.349999999999999
 74
     0
 49
0.0
 74
     0
 49
-6.349999999999999
 74
     0
  0
LTYPE
  5
13E
330
5
100
AcDbSymbolTableRecord
100
AcDbLinetypeTableRecord
  2
DASHDOT2
 70
     0
  3
Dash dot (.5x) _._._._._._._._._._._._._._._.
 72
    65
 73
     4
 40
12.7
 49
6.349999999999999
 74
     0
 49
-3.174999999999999
 74
     0
 49
0.0
 74
     0
 49
-3.174999999999999
 74
     0
  0
LTYPE
  5
13F
330
5
100
AcDbSymbolTableRecord
100
AcDbLinetypeTableRecord
  2
DASHDOTX2
 70
     0
  3
Dash dot (2x) ____  .  ____  .  ____  .  ___
 72
    65
 73
     4
 40
50.8
 49
25.4
 74
     0
 49
-12.7
 74
     0
 49
0.0
 74
     0
 49
-12.7
 74
     0
  0
LTYPE
  5
140
330
5
100
AcDbSymbolTableRecord
100
AcDbLinetypeTableRecord
  2
DASHED
 70
     0
  3
Dashed __ __ __ __ __ __ __ __ __ __ __ __ __ _
 72
    65
 73
     2
 40
19.04999999999999
 49
12.7
 74
     0
 49
-6.349999999999999
 74
     0
  0
LTYPE
  5
141
330
5
100
AcDbSymbolTableRecord
100
AcDbLinetypeTableRecord
  2
DASHED2
 70
     0
  3
Dashed (.5x) _ _ _ _ _ _ _ _ _ _ _ _ _ _ _ _ _
 72
    65
 73
     2
 40
9.524999999999998
 49
6.349999999999999
 74
     0
 49
-3.174999999999999
 74
     0
  0
LTYPE
  5
142
330
5
100
AcDbSymbolTableRecord
100
AcDbLinetypeTableRecord
  2
DASHEDX2
 70
     0
  3
Dashed (2x) ____  ____  ____  ____  ____  ___
 72
    65
 73
     2
 40
38.09999999999999
 49
25.4
 74
     0
 49
-12.7
 74
     0
  0
LTYPE
  5
143
330
5
100
AcDbSymbolTableRecord
100
AcDbLinetypeTableRecord
  2
DIVIDE
 70
     0
  3
Divide ____ . . ____ . . ____ . . ____ . . ____
 72
    65
 73
     6
 40
31.74999999999999
 49
12.7
 74
     0
 49
-6.349999999999999
 74
     0
 49
0.0
 74
     0
 49
-6.349999999999999
 74
     0
 49
0.0
 74
     0
 49
-6.349999999999999
 74
     0
  0
LTYPE
  5
144
330
5
100
AcDbSymbolTableRecord
100
AcDbLinetypeTableRecord
  2
DIVIDE2
 70
     0
  3
Divide (.5x) __..__..__..__..__..__..__..__.._
 72
    65
 73
     6
 40
15.87499999999999
 49
6.349999999999999
 74
     0
 49
-3.174999999999999
 74
     0
 49
0.0
 74
     0
 49
-3.174999999999999
 74
     0
 49
0.0
 74
     0
 49
-3.174999999999999
 74
     0
  0
LTYPE
  5
145
330
5
100
AcDbSymbolTableRecord
100
AcDbLinetypeTableRecord
  2
DIVIDEX2
 70
     0
  3
Divide (2x) ________  .  .  ________  .  .  _
 72
    65
 73
     6
 40
63.49999999999999
 49
25.4
 74
     0
 49
-12.7
 74
     0
 49
0.0
 74
     0
 49
-12.7
 74
     0
 49
0.0
 74
     0
 49
-12.7
 74
     0
  0
LTYPE
  5
146
330
5
100
AcDbSymbolTableRecord
100
AcDbLinetypeTableRecord
  2
DOT
 70
     0
  3
Dot . . . . . . . . . . . . . . . . . . . . . .
 72
    65
 73
     2
 40
6.349999999999999
 49
0.0
 74
     0
 49
-6.349999999999999
 74
     0
  0
LTYPE
  5
147
330
5
100
AcDbSymbolTableRecord
100
AcDbLinetypeTableRecord
  2
DOT2
 70
     0
  3
Dot (.5x) .....................................
 72
    65
 73
     2
 40
3.174999999999999
 49
0.0
 74
     0
 49
-3.174999999999999
 74
     0
  0
LTYPE
  5
148
330
5
100
AcDbSymbolTableRecord
100
AcDbLinetypeTableRecord
  2
DOTX2
 70
     0
  3
Dot (2x) .  .  .  .  .  .  .  .  .  .  .  .  . 
 72
    65
 73
     2
 40
12.7
 49
0.0
 74
     0
 49
-12.7
 74
     0
  0
LTYPE
  5
149
330
5
100
AcDbSymbolTableRecord
100
AcDbLinetypeTableRecord
  2
FENCELINE1
 70
     0
  3
Fenceline circle ----0-----0----0-----0----0---
 72
    65
 73
     4
 40
36.82999999999999
 49
6.349999999999999
 74
     0
 49
-2.54
 74
     4
 75
   133
340
127
 46
2.54
 50
0.0
 44
-2.54
 45
0.0
 49
-2.54
 74
     0
 49
25.4
 74
     0
  0
LTYPE
  5
14A
330
5
100
AcDbSymbolTableRecord
100
AcDbLinetypeTableRecord
  2
FENCELINE2
 70
     0
  3
Fenceline square ----[]-----[]----[]-----[]----
 72
    65
 73
     4
 40
36.82999999999999
 49
6.349999999999999
 74
     0
 49
-2.54
 74
     4
 75
   132
340
127
 46
2.54
 50
0.0
 44
-2.54
 45
0.0
 49
-2.54
 74
     0
 49
25.4
 74
     0
  0
LTYPE
  5
14B
330
5
100
AcDbSymbolTableRecord
100
AcDbLinetypeTableRecord
  2
GAS_LINE
 70
     0
  3
Gas line ----GAS----GAS----GAS----GAS----GAS---
 72
    65
 73
     3
 40
24.13
 49
12.7
 74
     0
 49
-5.08
 74
     2
 75
     0
340
F
 46
2.54
 50
0.0
 44
-2.54
 45
-1.27
  9
GAS
 49
-6.349999999999999
 74
     0
  0
LTYPE
  5
14C
330
5
100
AcDbSymbolTableRecord
100
AcDbLinetypeTableRecord
  2
HIDDEN
 70
     0
  3
Hidden __ __ __ __ __ __ __ __ __ __ __ __ __ _
 72
    65
 73
     2
 40
9.524999999999998
 49
6.349999999999999
 74
     0
 49
-3.174999999999999
 74
     0
  0
LTYPE
  5
14D
330
5
100
AcDbSymbolTableRecord
100
AcDbLinetypeTableRecord
  2
HIDDEN2
 70
     0
  3
Hidden (.5x) _ _ _ _ _ _ _ _ _ _ _ _ _ _ _ _ _
 72
    65
 73
     2
 40
4.762499999999999
 49
3.174999999999999
 74
     0
 49
-1.587499999999999
 74
     0
  0
LTYPE
  5
14E
330
5
100
AcDbSymbolTableRecord
100
AcDbLinetypeTableRecord
  2
HIDDENX2
 70
     0
  3
Hidden (2x) ____ ____ ____ ____ ____ ____ ____
 72
    65
 73
     2
 40
19.04999999999999
 49
12.7
 74
     0
 49
-6.349999999999999
 74
     0
  0
LTYPE
  5
14F
330
5
100
AcDbSymbolTableRecord
100
AcDbLinetypeTableRecord
  2
HOT_WATER_SUPPLY
 70
     0
  3
Hot water supply ---- HW ---- HW ---- HW ----
 72
    65
 73
     3
 40
22.86
 49
12.7
 74
     0
 49
-5.08
 74
     2
 75
     0
340
F
 46
2.54
 50
0.0
 44
-2.54
 45
-1.27
  9
HW
 49
-5.08
 74
     0
  0
LTYPE
  5
150
330
5
100
AcDbSymbolTableRecord
100
AcDbLinetypeTableRecord
  2
PHANTOM
 70
     0
  3
Phantom ______  __  __  ______  __  __  ______
 72
    65
 73
     6
 40
63.5
 49
31.75
 74
     0
 49
-6.349999999999999
 74
     0
 49
6.349999999999999
 74
     0
 49
-6.349999999999999
 74
     0
 49
6.349999999999999
 74
     0
 49
-6.349999999999999
 74
     0
  0
LTYPE
  5
151
330
5
100
AcDbSymbolTableRecord
100
AcDbLinetypeTableRecord
  2
PHANTOM2
 70
     0
  3
Phantom (.5x) ___ _ _ ___ _ _ ___ _ _ ___ _ _
 72
    65
 73
     6
 40
31.75
 49
15.875
 74
     0
 49
-3.174999999999999
 74
     0
 49
3.174999999999999
 74
     0
 49
-3.174999999999999
 74
     0
 49
3.174999999999999
 74
     0
 49
-3.174999999999999
 74
     0
  0
LTYPE
  5
152
330
5
100
AcDbSymbolTableRecord
100
AcDbLinetypeTableRecord
  2
PHANTOMX2
 70
     0
  3
Phantom (2x) ____________    ____    ____   _
 72
    65
 73
     6
 40
127.0
 49
63.5
 74
     0
 49
-12.7
 74
     0
 49
12.7
 74
     0
 49
-12.7
 74
     0
 49
12.7
 74
     0
 49
-12.7
 74
     0
  0
LTYPE
  5
153
330
5
100
AcDbSymbolTableRecord
100
AcDbLinetypeTableRecord
  2
TRACKS
 70
     0
  3
Tracks -|-|-|-|-|-|-|-|-|-|-|-|-|-|-|-|-|-|-|-|
 72
    65
 73
     2
 40
7.62
 49
3.81
 74
     4
 75
   130
340
127
 46
6.349999999999999
 50
0.0
 44
0.0
 45
0.0
 49
3.81
 74
     0
  0
LTYPE
  5
154
330
5
100
AcDbSymbolTableRecord
100
AcDbLinetypeTableRecord
  2
ZIGZAG
 70
     0
  3
Zig zag /\/\/\/\/\/\/\/\/\/\/\/\/\/\/\/\/\/\/\/
 72
    65
 73
     4
 40
20.32254
 49
0.00254
 74
     0
 49
-5.08
 74
     4
 75
   131
340
127
 46
5.08
 50
0.0
 44
-5.08
 45
0.0
 49
-10.16
 74
     4
 75
   131
340
127
 46
5.08
 50
180.0
 44
5.08
 45
0.0
 49
-5.08
 74
     0
  0
ENDTAB
  0
TABLE
  2
LAYER
  5
2
330
0
100
AcDbSymbolTable
 70
    10
  0
LAYER
  5
E
330
2
100
AcDbSymbolTableRecord
100
AcDbLayerTableRecord
  2
0
 70
     0
 62
     7
  6
CONTINUOUS
370
    -3
390
15FD
  0
LAYER
  5
20
330
2
100
AcDbSymbolTableRecord
100
AcDbLayerTableRecord
  2
DEFPOINTS
 70
     0
 62
     7
  6
CONTINUOUS
290
     0
370
    -3
390
15FD
  0
LAYER
  5
21
330
2
100
AcDbSymbolTableRecord
100
AcDbLayerTableRecord
  2
OBJECT
 70
     0
 62
     7
  6
CONTINUOUS
370
    -3
390
15FD
  0
LAYER
  5
155
330
2
100
AcDbSymbolTableRecord
100
AcDbLayerTableRecord
  2
上書線
 70
     0
 62
     7
  6
CONTINUOUS
370
    -3
390
15FD
  0
LAYER
  5
156
330
2
100
AcDbSymbolTableRecord
100
AcDbLayerTableRecord
  2
基準線
 70
     0
 62
    -1
  6
CONTINUOUS
370
    -3
390
15FD
  0
LAYER
  5
157
330
2
100
AcDbSymbolTableRecord
100
AcDbLayerTableRecord
  2
点線
 70
     0
 62
     5
  6
HIDDEN
370
    -3
390
15FD
  0
LAYER
  5
158
330
2
100
AcDbSymbolTableRecord
100
AcDbLayerTableRecord
  2
寸法線
 70
     0
 62
     2
  6
CONTINUOUS
370
    -3
390
15FD
  0
LAYER
  5
19D7
330
2
100
AcDbSymbolTableRecord
100
AcDbLayerTableRecord
  2
上線
 70
     0
 62
     7
  6
CONTINUOUS
370
    -3
390
15FD
  0
LAYER
  5
2EB9
330
2
100
AcDbSymbolTableRecord
100
AcDbLayerTableRecord
  2
中心線
 70
     0
 62
     6
  6
CENTER
370
    -3
390
15FD
  0
LAYER
  5
3A02
330
2
100
AcDbSymbolTableRecord
100
AcDbLayerTableRecord
  2
WUWAGAKI
 70
     0
 62
     7
  6
CONTINUOUS
370
    -3
390
15FD
  0
ENDTAB
  0
TABLE
  2
STYLE
  5
3
330
0
100
AcDbSymbolTable
 70
     3
  0
STYLE
  5
F
330
3
100
AcDbSymbolTableRecord
100
AcDbTextStyleTableRecord
  2
STANDARD
 70
     0
 40
0.0
 41
1.0
 50
0.0
 71
     0
 42
2.5
  3
MS PMincho.ttf
  4

1001
ACAD
1000
MS PMincho
1071
    32786
  0
STYLE
  5
22
330
3
100
AcDbSymbolTableRecord
100
AcDbTextStyleTableRecord
  2
ADESK1
 70
     0
 40
0.0
 41
1.0
 50
0.0
 71
     0
 42
5.0
  3
romans
  4
bigfont
  0
STYLE
  5
127
330
3
100
AcDbSymbolTableRecord
100
AcDbTextStyleTableRecord
  2

 70
     1
 40
0.0
 41
1.0
 50
0.0
 71
     0
 42
2.5
  3
ltypeshp.shx
  4

  0
ENDTAB
  0
TABLE
  2
VIEW
  5
6
330
0
100
AcDbSymbolTable
 70
     0
  0
ENDTAB
  0
TABLE
  2
UCS
  5
7
330
0
100
AcDbSymbolTable
 70
     0
  0
ENDTAB
  0
TABLE
  2
APPID
  5
9
330
0
100
AcDbSymbolTable
 70
     2
  0
APPID
  5
10
330
9
100
AcDbSymbolTableRecord
100
AcDbRegAppTableRecord
  2
ACAD
 70
     0
  0
APPID
  5
1213
330
9
100
AcDbSymbolTableRecord
100
AcDbRegAppTableRecord
  2
DRAWINGVARIABLESXDATA
 70
     0
  0
ENDTAB
  0
TABLE
  2
DIMSTYLE
  5
A
330
0
100
AcDbSymbolTable
 70
     2
100
AcDbDimStyleTable
 71
     1
340
1D
  0
DIMSTYLE
105
1D
330
A
100
AcDbSymbolTableRecord
100
AcDbDimStyleTableRecord
  2
STANDARD
 70
     0
340
F
  0
DIMSTYLE
105
23
330
A
100
AcDbSymbolTableRecord
100
AcDbDimStyleTableRecord
  2
JIS
 70
     0
 41
2.5
 42
1.0
 43
7.0
 44
1.0
 73
     0
 74
     0
 77
     1
 78
     8
140
2.5
141
0.0
143
0.0394
147
0.0
172
     1
174
     1
175
     1
340
F
  0
ENDTAB
  0
TABLE
  2
BLOCK_RECORD
  5
1
330
0
100
AcDbSymbolTable
 70
     3
  0
BLOCK_RECORD
  5
18
330
1
100
AcDbSymbolTableRecord
100
AcDbBlockTableRecord
  2
*MODEL_SPACE
340
1600
  0
BLOCK_RECORD
  5
15
330
1
100
AcDbSymbolTableRecord
100
AcDbBlockTableRecord
  2
*PAPER_SPACE
340
1601
  0
BLOCK_RECORD
  5
24
330
1
100
AcDbSymbolTableRecord
100
AcDbBlockTableRecord
  2
JIS_A4L
340
0
  0
BLOCK_RECORD
  5
3437
330
1
100
AcDbSymbolTableRecord
100
AcDbBlockTableRecord
  2
*D1
340
0
  0
BLOCK_RECORD
  5
3445
330
1
100
AcDbSymbolTableRecord
100
AcDbBlockTableRecord
  2
A$C23BB6A77
340
0
  0
ENDTAB
  0
ENDSEC
  0
SECTION
  2
BLOCKS
  0
BLOCK
  5
19
330
18
100
AcDbEntity
  8
0
100
AcDbBlockBegin
  2
*MODEL_SPACE
 70
     2
 10
0.0
 20
0.0
 30
0.0
  3
*MODEL_SPACE
  1

  0
ENDBLK
  5
1A
330
18
100
AcDbEntity
  8
0
100
AcDbBlockEnd
  0
BLOCK
  5
16
330
15
100
AcDbEntity
 67
     1
  8
0
100
AcDbBlockBegin
  2
*PAPER_SPACE
 70
     0
 10
0.0
 20
0.0
 30
0.0
  3
*PAPER_SPACE
  1

  0
ENDBLK
  5
17
330
15
100
AcDbEntity
 67
     1
  8
0
100
AcDbBlockEnd
  0
BLOCK
  5
A1
330
24
100
AcDbEntity
  8
0
100
AcDbBlockBegin
  2
JIS_A4L
 70
     2
 10
0.0
 20
0.0
 30
0.0
  3
JIS_A4L
  1

  0
LINE
  5
25
330
24
100
AcDbEntity
  8
0
100
AcDbLine
 10
0.0
 20
0.0
 30
0.0
 11
0.0
 21
10.0
 31
0.0
  0
LINE
  5
26
330
24
100
AcDbEntity
  8
0
100
AcDbLine
 10
0.0
 20
210.0
 30
0.0
 11
25.0
 21
210.0
 31
0.0
  0
LINE
  5
27
330
24
100
AcDbEntity
  8
0
100
AcDbLine
 10
297.0
 20
210.0
 30
0.0
 11
297.0
 21
200.0
 31
0.0
  0
LINE
  5
28
330
24
100
AcDbEntity
  8
0
100
AcDbLine
 10
297.0
 20
0.0
 30
0.0
 11
287.0
 21
0.0
 31
0.0
  0
LINE
  5
29
330
24
100
AcDbEntity
  8
0
100
AcDbLine
 10
25.0
 20
10.0
 30
0.0
 11
25.0
 21
200.0
 31
0.0
  0
LINE
  5
2A
330
24
100
AcDbEntity
  8
0
100
AcDbLine
 10
287.0
 20
10.0
 30
0.0
 11
25.0
 21
10.0
 31
0.0
  0
LINE
  5
2B
330
24
100
AcDbEntity
  8
0
100
AcDbLine
 10
287.0
 20
200.0
 30
0.0
 11
287.0
 21
10.0
 31
0.0
  0
LINE
  5
2C
330
24
100
AcDbEntity
  8
0
100
AcDbLine
 10
25.0
 20
200.0
 30
0.0
 11
287.0
 21
200.0
 31
0.0
  0
LINE
  5
2D
330
24
100
AcDbEntity
  8
0
100
AcDbLine
 10
0.0
 20
200.0
 30
0.0
 11
0.0
 21
210.0
 31
0.0
  0
LINE
  5
2E
330
24
100
AcDbEntity
  8
0
100
AcDbLine
 10
25.0
 20
0.0
 30
0.0
 11
0.0
 21
0.0
 31
0.0
  0
LINE
  5
2F
330
24
100
AcDbEntity
  8
0
100
AcDbLine
 10
297.0
 20
10.0
 30
0.0
 11
297.0
 21
0.0
 31
0.0
  0
LINE
  5
30
330
24
100
AcDbEntity
  8
0
100
AcDbLine
 10
287.0
 20
210.0
 30
0.0
 11
297.0
 21
210.0
 31
0.0
  0
ATTDEF
  5
31
330
24
100
AcDbEntity
  8
0
 62
     0
100
AcDbText
 10
19.0
 20
10.0
 30
0.0
 40
3.0
  1

 50
90.0
  7
ADESK1
100
AcDbAttributeDefinition
  3

  2
USER
 70
     8
  0
ATTDEF
  5
32
330
24
100
AcDbEntity
  8
0
 62
     0
100
AcDbText
 10
19.0
 20
70.0
 30
0.0
 40
3.0
  1

 50
90.0
  7
ADESK1
100
AcDbAttributeDefinition
  3

  2
REVDATE
 70
     8
  0
ATTDEF
  5
33
330
24
100
AcDbEntity
  8
0
 62
     0
100
AcDbText
 10
19.0
 20
118.0
 30
0.0
 40
3.0
  1

 50
90.0
  7
ADESK1
100
AcDbAttributeDefinition
  3

  2
FNAME
 70
     8
  0
LINE
  5
34
330
24
100
AcDbEntity
  8
OBJECT
100
AcDbLine
 10
130.0
 20
16.0
 30
0.0
 11
25.0
 21
16.0
 31
0.0
  0
LINE
  5
35
330
24
100
AcDbEntity
  8
OBJECT
100
AcDbLine
 10
130.0
 20
22.0
 30
0.0
 11
25.0
 21
22.0
 31
0.0
  0
LINE
  5
36
330
24
100
AcDbEntity
  8
OBJECT
100
AcDbLine
 10
130.0
 20
28.0
 30
0.0
 11
25.0
 21
28.0
 31
0.0
  0
LINE
  5
37
330
24
100
AcDbEntity
  8
OBJECT
100
AcDbLine
 10
130.0
 20
34.0
 30
0.0
 11
25.0
 21
34.0
 31
0.0
  0
LINE
  5
38
330
24
100
AcDbEntity
  8
OBJECT
100
AcDbLine
 10
130.0
 20
40.0
 30
0.0
 11
25.0
 21
40.0
 31
0.0
  0
LINE
  5
39
330
24
100
AcDbEntity
  8
OBJECT
100
AcDbLine
 10
28.0
 20
11.53589799999999
 30
0.0
 11
30.0
 21
15.0
 31
0.0
  0
LINE
  5
3A
330
24
100
AcDbEntity
  8
OBJECT
100
AcDbLine
 10
32.0
 20
11.53589799999999
 30
0.0
 11
30.0
 21
15.0
 31
0.0
  0
LINE
  5
3B
330
24
100
AcDbEntity
  8
OBJECT
100
AcDbLine
 10
35.0
 20
10.0
 30
0.0
 11
35.0
 21
40.0
 31
0.0
  0
LINE
  5
3C
330
24
100
AcDbEntity
  8
OBJECT
100
AcDbLine
 10
50.0
 20
10.0
 30
0.0
 11
50.0
 21
40.0
 31
0.0
  0
LINE
  5
3D
330
24
100
AcDbEntity
  8
OBJECT
100
AcDbLine
 10
80.0
 20
10.0
 30
0.0
 11
80.0
 21
40.0
 31
0.0
  0
LINE
  5
3E
330
24
100
AcDbEntity
  8
OBJECT
100
AcDbLine
 10
28.0
 20
11.53589799999999
 30
0.0
 11
32.0
 21
11.53589799999999
 31
0.0
  0
LINE
  5
3F
330
24
100
AcDbEntity
  8
OBJECT
100
AcDbLine
 10
39.5
 20
13.0
 30
0.0
 11
40.49999999999999
 21
13.0
 31
0.0
  0
LINE
  5
40
330
24
100
AcDbEntity
  8
OBJECT
100
AcDbLine
 10
44.5
 20
13.0
 30
0.0
 11
45.49999999999999
 21
13.0
 31
0.0
  0
LINE
  5
41
330
24
100
AcDbEntity
  8
OBJECT
100
AcDbLine
 10
32.0
 20
17.535898
 30
0.0
 11
30.0
 21
20.99999999999999
 31
0.0
  0
LINE
  5
42
330
24
100
AcDbEntity
  8
OBJECT
100
AcDbLine
 10
28.0
 20
17.535898
 30
0.0
 11
32.0
 21
17.535898
 31
0.0
  0
LINE
  5
43
330
24
100
AcDbEntity
  8
OBJECT
100
AcDbLine
 10
28.0
 20
17.535898
 30
0.0
 11
30.0
 21
20.99999999999999
 31
0.0
  0
LINE
  5
44
330
24
100
AcDbEntity
  8
OBJECT
100
AcDbLine
 10
32.0
 20
23.53589799999999
 30
0.0
 11
30.0
 21
26.99999999999999
 31
0.0
  0
LINE
  5
45
330
24
100
AcDbEntity
  8
OBJECT
100
AcDbLine
 10
28.0
 20
23.53589799999999
 30
0.0
 11
32.0
 21
23.53589799999999
 31
0.0
  0
LINE
  5
46
330
24
100
AcDbEntity
  8
OBJECT
100
AcDbLine
 10
28.0
 20
23.53589799999999
 30
0.0
 11
30.0
 21
26.99999999999999
 31
0.0
  0
LINE
  5
47
330
24
100
AcDbEntity
  8
OBJECT
100
AcDbLine
 10
28.0
 20
35.53589799999999
 30
0.0
 11
30.0
 21
39.0
 31
0.0
  0
LINE
  5
48
330
24
100
AcDbEntity
  8
OBJECT
100
AcDbLine
 10
32.0
 20
35.53589799999999
 30
0.0
 11
30.0
 21
39.0
 31
0.0
  0
LINE
  5
49
330
24
100
AcDbEntity
  8
OBJECT
100
AcDbLine
 10
28.0
 20
35.53589799999999
 30
0.0
 11
32.0
 21
35.53589799999999
 31
0.0
  0
LINE
  5
4A
330
24
100
AcDbEntity
  8
OBJECT
100
AcDbLine
 10
32.0
 20
29.53589799999999
 30
0.0
 11
30.0
 21
33.0
 31
0.0
  0
LINE
  5
4B
330
24
100
AcDbEntity
  8
OBJECT
100
AcDbLine
 10
28.0
 20
29.53589799999999
 30
0.0
 11
32.0
 21
29.53589799999999
 31
0.0
  0
LINE
  5
4C
330
24
100
AcDbEntity
  8
OBJECT
100
AcDbLine
 10
28.0
 20
29.53589799999999
 30
0.0
 11
30.0
 21
33.0
 31
0.0
  0
LINE
  5
4D
330
24
100
AcDbEntity
  8
OBJECT
100
AcDbLine
 10
39.5
 20
19.0
 30
0.0
 11
40.49999999999999
 21
19.0
 31
0.0
  0
LINE
  5
4E
330
24
100
AcDbEntity
  8
OBJECT
100
AcDbLine
 10
44.5
 20
19.0
 30
0.0
 11
45.49999999999999
 21
19.0
 31
0.0
  0
LINE
  5
4F
330
24
100
AcDbEntity
  8
OBJECT
100
AcDbLine
 10
39.5
 20
25.0
 30
0.0
 11
40.49999999999999
 21
25.0
 31
0.0
  0
LINE
  5
50
330
24
100
AcDbEntity
  8
OBJECT
100
AcDbLine
 10
44.5
 20
25.0
 30
0.0
 11
45.49999999999999
 21
25.0
 31
0.0
  0
LINE
  5
51
330
24
100
AcDbEntity
  8
OBJECT
100
AcDbLine
 10
39.5
 20
31.0
 30
0.0
 11
40.49999999999999
 21
31.0
 31
0.0
  0
LINE
  5
52
330
24
100
AcDbEntity
  8
OBJECT
100
AcDbLine
 10
39.5
 20
37.0
 30
0.0
 11
40.49999999999999
 21
37.0
 31
0.0
  0
LINE
  5
53
330
24
100
AcDbEntity
  8
OBJECT
100
AcDbLine
 10
44.5
 20
31.0
 30
0.0
 11
45.49999999999999
 21
31.0
 31
0.0
  0
LINE
  5
54
330
24
100
AcDbEntity
  8
OBJECT
100
AcDbLine
 10
44.5
 20
37.0
 30
0.0
 11
45.49999999999999
 21
37.0
 31
0.0
  0
LINE
  5
55
330
24
100
AcDbEntity
  8
OBJECT
100
AcDbLine
 10
120.0
 20
10.0
 30
0.0
 11
120.0
 21
40.0
 31
0.0
  0
LINE
  5
56
330
24
100
AcDbEntity
  8
OBJECT
100
AcDbLine
 10
130.0
 20
40.0
 30
0.0
 11
130.0
 21
10.0
 31
0.0
  0
LINE
  5
57
330
24
100
AcDbEntity
  8
0
100
AcDbLine
 10
156.0
 20
10.0
 30
0.0
 11
156.0
 21
0.0
 31
0.0
  0
LINE
  5
58
330
24
100
AcDbEntity
  8
0
100
AcDbLine
 10
156.0
 20
200.0
 30
0.0
 11
156.0
 21
210.0
 31
0.0
  0
LINE
  5
59
330
24
100
AcDbEntity
  8
0
100
AcDbLine
 10
287.0
 20
105.0
 30
0.0
 11
297.0
 21
105.0
 31
0.0
  0
LINE
  5
5A
330
24
100
AcDbEntity
  8
0
100
AcDbLine
 10
25.0
 20
105.0
 30
0.0
 11
0.0
 21
105.0
 31
0.0
  0
TEXT
  5
5B
330
24
100
AcDbEntity
  8
0
100
AcDbText
 10
1.0
 20
1.0
 30
0.0
 40
3.0
  1
この図枠はサンプルです。社内の規格やプロッタの出力範囲に合わせて適当に変更してご利用ください。
  7
ADESK1
100
AcDbText
  0
LINE
  5
5C
330
24
100
AcDbEntity
  8
0
100
AcDbLine
 10
25.0
 20
152.5
 30
0.0
 11
20.0
 21
152.5
 31
0.0
  0
LINE
  5
5D
330
24
100
AcDbEntity
  8
0
100
AcDbLine
 10
25.0
 20
105.0
 30
0.0
 11
20.0
 21
105.0
 31
0.0
  0
LINE
  5
5E
330
24
100
AcDbEntity
  8
0
100
AcDbLine
 10
25.0
 20
57.5
 30
0.0
 11
20.0
 21
57.5
 31
0.0
  0
LINE
  5
5F
330
24
100
AcDbEntity
  8
0
100
AcDbLine
 10
68.66666666666668
 20
10.0
 30
0.0
 11
68.66666666666668
 21
5.0
 31
0.0
  0
LINE
  5
60
330
24
100
AcDbEntity
  8
0
100
AcDbLine
 10
112.3333333333333
 20
10.0
 30
0.0
 11
112.3333333333333
 21
5.0
 31
0.0
  0
LINE
  5
61
330
24
100
AcDbEntity
  8
0
100
AcDbLine
 10
156.0
 20
10.0
 30
0.0
 11
156.0
 21
5.0
 31
0.0
  0
LINE
  5
62
330
24
100
AcDbEntity
  8
0
100
AcDbLine
 10
199.6666666666666
 20
10.0
 30
0.0
 11
199.6666666666666
 21
5.0
 31
0.0
  0
LINE
  5
63
330
24
100
AcDbEntity
  8
0
100
AcDbLine
 10
243.3333333333333
 20
10.0
 30
0.0
 11
243.3333333333333
 21
5.0
 31
0.0
  0
LINE
  5
64
330
24
100
AcDbEntity
  8
0
100
AcDbLine
 10
287.0
 20
57.5
 30
0.0
 11
292.0
 21
57.5
 31
0.0
  0
LINE
  5
65
330
24
100
AcDbEntity
  8
0
100
AcDbLine
 10
287.0
 20
105.0
 30
0.0
 11
292.0
 21
105.0
 31
0.0
  0
LINE
  5
66
330
24
100
AcDbEntity
  8
0
100
AcDbLine
 10
287.0
 20
152.5
 30
0.0
 11
292.0
 21
152.5
 31
0.0
  0
LINE
  5
67
330
24
100
AcDbEntity
  8
0
100
AcDbLine
 10
243.3333333333333
 20
200.0
 30
0.0
 11
243.3333333333333
 21
205.0
 31
0.0
  0
LINE
  5
68
330
24
100
AcDbEntity
  8
0
100
AcDbLine
 10
199.6666666666666
 20
200.0
 30
0.0
 11
199.6666666666666
 21
205.0
 31
0.0
  0
LINE
  5
69
330
24
100
AcDbEntity
  8
0
100
AcDbLine
 10
156.0
 20
200.0
 30
0.0
 11
156.0
 21
205.0
 31
0.0
  0
LINE
  5
6A
330
24
100
AcDbEntity
  8
0
100
AcDbLine
 10
112.3333333333333
 20
200.0
 30
0.0
 11
112.3333333333333
 21
205.0
 31
0.0
  0
LINE
  5
6B
330
24
100
AcDbEntity
  8
0
100
AcDbLine
 10
68.66666666666666
 20
200.0
 30
0.0
 11
68.66666666666666
 21
205.0
 31
0.0
  0
TEXT
  5
6C
330
24
100
AcDbEntity
  8
0
100
AcDbText
 10
45.61904761904761
 20
201.0
 30
0.0
 40
3.0
  1
1
  7
ADESK1
 72
     1
 11
46.83333333333332
 21
201.0
 31
0.0
100
AcDbText
  0
TEXT
  5
6D
330
24
100
AcDbEntity
  8
0
100
AcDbText
 10
21.66139736003921
 20
176.25
 30
0.0
 40
3.0
  1
A
  7
ADESK1
 72
     1
 11
22.94711164575349
 21
176.25
 31
0.0
100
AcDbText
  0
TEXT
  5
6E
330
24
100
AcDbEntity
  8
0
100
AcDbText
 10
89.07142857142856
 20
201.0
 30
0.0
 40
3.0
  1
2
  7
ADESK1
 72
     1
 11
90.5
 21
201.0
 31
0.0
100
AcDbText
  0
TEXT
  5
6F
330
24
100
AcDbEntity
  8
0
100
AcDbText
 10
132.7380952380952
 20
201.0
 30
0.0
 40
3.0
  1
3
  7
ADESK1
 72
     1
 11
134.1666666666666
 21
201.0
 31
0.0
100
AcDbText
  0
TEXT
  5
70
330
24
100
AcDbEntity
  8
0
100
AcDbText
 10
176.3333333333333
 20
201.0
 30
0.0
 40
3.0
  1
4
  7
ADESK1
 72
     1
 11
177.8333333333333
 21
201.0
 31
0.0
100
AcDbText
  0
TEXT
  5
71
330
24
100
AcDbEntity
  8
0
100
AcDbText
 10
220.0714285714286
 20
201.0
 30
0.0
 40
3.0
  1
5
  7
ADESK1
 72
     1
 11
221.4999999999999
 21
201.0
 31
0.0
100
AcDbText
  0
TEXT
  5
72
330
24
100
AcDbEntity
  8
0
100
AcDbText
 10
263.6666666666666
 20
201.0
 30
0.0
 40
3.0
  1
6
  7
ADESK1
 72
     1
 11
265.1666666666666
 21
201.0
 31
0.0
100
AcDbText
  0
TEXT
  5
73
330
24
100
AcDbEntity
  8
0
100
AcDbText
 10
21.37568307432492
 20
128.75
 30
0.0
 40
3.0
  1
B
  7
ADESK1
 72
     1
 11
22.94711164575349
 21
128.75
 31
0.0
100
AcDbText
  0
TEXT
  5
74
330
24
100
AcDbEntity
  8
0
100
AcDbText
 10
21.44711164575349
 20
81.25
 30
0.0
 40
3.0
  1
C
  7
ADESK1
 72
     1
 11
22.94711164575349
 21
81.25
 31
0.0
100
AcDbText
  0
TEXT
  5
75
330
24
100
AcDbEntity
  8
0
100
AcDbText
 10
21.37568307432492
 20
33.75
 30
0.0
 40
3.0
  1
D
  7
ADESK1
 72
     1
 11
22.94711164575349
 21
33.75
 31
0.0
100
AcDbText
  0
TEXT
  5
76
330
24
100
AcDbEntity
  8
0
100
AcDbText
 10
45.61904761904759
 20
6.230338100985607
 30
0.0
 40
3.0
  1
1
  7
ADESK1
 72
     1
 11
46.83333333333331
 21
6.230338100985607
 31
0.0
100
AcDbText
  0
TEXT
  5
77
330
24
100
AcDbEntity
  8
0
100
AcDbText
 10
89.07142857142856
 20
6.230338100985607
 30
0.0
 40
3.0
  1
2
  7
ADESK1
 72
     1
 11
90.5
 21
6.230338100985607
 31
0.0
100
AcDbText
  0
TEXT
  5
78
330
24
100
AcDbEntity
  8
0
100
AcDbText
 10
132.7380952380952
 20
6.230338100985607
 30
0.0
 40
3.0
  1
3
  7
ADESK1
 72
     1
 11
134.1666666666666
 21
6.230338100985607
 31
0.0
100
AcDbText
  0
TEXT
  5
79
330
24
100
AcDbEntity
  8
0
100
AcDbText
 10
176.3333333333333
 20
6.230338100985607
 30
0.0
 40
3.0
  1
4
  7
ADESK1
 72
     1
 11
177.8333333333333
 21
6.230338100985607
 31
0.0
100
AcDbText
  0
TEXT
  5
7A
330
24
100
AcDbEntity
  8
0
100
AcDbText
 10
220.0714285714286
 20
6.230338100985607
 30
0.0
 40
3.0
  1
5
  7
ADESK1
 72
     1
 11
221.4999999999999
 21
6.230338100985607
 31
0.0
100
AcDbText
  0
TEXT
  5
7B
330
24
100
AcDbEntity
  8
0
100
AcDbText
 10
263.6666666666666
 20
6.230338100985607
 30
0.0
 40
3.0
  1
6
  7
ADESK1
 72
     1
 11
265.1666666666666
 21
6.230338100985607
 31
0.0
100
AcDbText
  0
TEXT
  5
7C
330
24
100
AcDbEntity
  8
0
100
AcDbText
 10
287.9530581679809
 20
176.25
 30
0.0
 40
3.0
  1
A
  7
ADESK1
 72
     1
 11
289.2387724536952
 21
176.25
 31
0.0
100
AcDbText
  0
TEXT
  5
7D
330
24
100
AcDbEntity
  8
0
100
AcDbText
 10
287.6673438822666
 20
128.75
 30
0.0
 40
3.0
  1
B
  7
ADESK1
 72
     1
 11
289.2387724536952
 21
128.75
 31
0.0
100
AcDbText
  0
TEXT
  5
7E
330
24
100
AcDbEntity
  8
0
100
AcDbText
 10
287.7387724536952
 20
81.25
 30
0.0
 40
3.0
  1
C
  7
ADESK1
 72
     1
 11
289.2387724536952
 21
81.25
 31
0.0
100
AcDbText
  0
TEXT
  5
7F
330
24
100
AcDbEntity
  8
0
100
AcDbText
 10
287.6673438822666
 20
33.75
 30
0.0
 40
3.0
  1
D
  7
ADESK1
 72
     1
 11
289.2387724536952
 21
33.75
 31
0.0
100
AcDbText
  0
LINE
  5
80
330
24
100
AcDbEntity
  8
0
 62
     0
100
AcDbLine
 10
157.2978723404242
 20
49.00000000000036
 30
0.0
 11
287.0
 21
49.00000000000036
 31
0.0
  0
LINE
  5
81
330
24
100
AcDbEntity
  8
0
 62
     0
100
AcDbLine
 10
157.2978723404242
 20
13.00000000000004
 30
0.0
 11
287.0
 21
13.00000000000004
 31
0.0
  0
LINE
  5
82
330
24
100
AcDbEntity
  8
0
 62
     0
100
AcDbLine
 10
157.2978723404242
 20
37.00000000000024
 30
0.0
 11
287.0
 21
37.00000000000024
 31
0.0
  0
LINE
  5
83
330
24
100
AcDbEntity
  8
0
 62
     0
100
AcDbLine
 10
195.1276595744673
 20
22.00000000000012
 30
0.0
 11
287.0
 21
22.00000000000012
 31
0.0
  0
LINE
  5
84
330
24
100
AcDbEntity
  8
0
 62
     0
100
AcDbLine
 10
157.2978723404242
 20
10.0
 30
0.0
 11
287.0
 21
10.0
 31
0.0
  0
LINE
  5
85
330
24
100
AcDbEntity
  8
0
 62
     0
100
AcDbLine
 10
287.0
 20
49.00000000000036
 30
0.0
 11
157.2978723404242
 21
49.00000000000036
 31
0.0
  0
LINE
  5
86
330
24
100
AcDbEntity
  8
0
 62
     0
100
AcDbLine
 10
180.7163120567365
 20
37.00000000000024
 30
0.0
 11
180.7163120567365
 21
10.0
 31
0.0
  0
LINE
  5
87
330
24
100
AcDbEntity
  8
0
 62
     0
100
AcDbLine
 10
162.702127659573
 20
37.00000000000024
 30
0.0
 11
162.702127659573
 21
10.0
 31
0.0
  0
LINE
  5
88
330
24
100
AcDbEntity
  8
0
 62
     0
100
AcDbLine
 10
189.7234042553184
 20
37.00000000000024
 30
0.0
 11
189.7234042553184
 21
10.0
 31
0.0
  0
LINE
  5
89
330
24
100
AcDbEntity
  8
0
 62
     0
100
AcDbLine
 10
195.1276595744673
 20
25.00000000000012
 30
0.0
 11
195.1276595744673
 21
10.0
 31
0.0
  0
LINE
  5
8A
330
24
100
AcDbEntity
  8
0
 62
     0
100
AcDbLine
 10
157.2978723404242
 20
49.00000000000036
 30
0.0
 11
157.2978723404242
 21
10.0
 31
0.0
  0
LINE
  5
8B
330
24
100
AcDbEntity
  8
0
 62
     0
100
AcDbLine
 10
225.7517730496447
 20
49.00000000000036
 30
0.0
 11
225.7517730496447
 21
10.0
 31
0.0
  0
LINE
  5
8C
330
24
100
AcDbEntity
  8
0
 62
     0
100
AcDbLine
 10
205.7659574468077
 20
22.00000000000007
 30
0.0
 11
205.7659574468077
 21
10.0
 31
0.0
  0
LINE
  5
8D
330
24
100
AcDbEntity
  8
0
 62
     0
100
AcDbLine
 10
216.4042553191484
 20
22.00000000000007
 30
0.0
 11
216.4042553191484
 21
10.0
 31
0.0
  0
LINE
  5
8E
330
24
100
AcDbEntity
  8
0
 62
     0
100
AcDbLine
 10
157.2978723404242
 20
16.00000000000008
 30
0.0
 11
195.1276595744673
 21
16.00000000000008
 31
0.0
  0
LINE
  5
8F
330
24
100
AcDbEntity
  8
0
 62
     0
100
AcDbLine
 10
157.2978723404242
 20
10.0
 30
0.0
 11
157.2978723404242
 21
13.00000000000004
 31
0.0
  0
TEXT
  5
90
330
24
100
AcDbEntity
  8
0
 62
     0
100
AcDbText
 10
198.7174935280942
 20
10.48329012996929
 30
0.0
 40
1.791674070777747
  1
製図
  7
ADESK1
 72
     1
 11
200.5688900678978
 21
10.48329012996929
 31
0.0
100
AcDbText
  0
TEXT
  5
91
330
24
100
AcDbEntity
  8
0
 62
     0
100
AcDbText
 10
209.2960689314087
 20
10.48329012996929
 30
0.0
 40
1.791674070777747
  1
設計
  7
ADESK1
 72
     1
 11
211.2071879402383
 21
10.48329012996929
 31
0.0
100
AcDbText
  0
TEXT
  5
92
330
24
100
AcDbEntity
  8
0
 62
     0
100
AcDbText
 10
219.2447163844405
 20
10.55220101068186
 30
0.0
 40
1.791674070777747
  1
照査
  7
ADESK1
 72
     1
 11
221.1558353932701
 21
10.55220101068186
 31
0.0
100
AcDbText
  0
LINE
  5
93
330
24
100
AcDbEntity
  8
0
 62
     0
100
AcDbLine
 10
157.2978723404242
 20
25.00000000000012
 30
0.0
 11
195.1276595744673
 21
25.00000000000012
 31
0.0
  0
LINE
  5
94
330
24
100
AcDbEntity
  8
0
 62
     0
100
AcDbLine
 10
157.2978723404242
 20
22.00000000000007
 30
0.0
 11
195.1276595744673
 21
22.00000000000012
 31
0.0
  0
LINE
  5
95
330
24
100
AcDbEntity
  8
0
 62
     0
100
AcDbLine
 10
157.2978723404242
 20
19.00000000000007
 30
0.0
 11
195.1276595744673
 21
19.00000000000012
 31
0.0
  0
LINE
  5
96
330
24
100
AcDbEntity
  8
0
 62
     0
100
AcDbLine
 10
157.2978723404242
 20
34.00000000000024
 30
0.0
 11
225.7517730496447
 21
34.00000000000024
 31
0.0
  0
LINE
  5
97
330
24
100
AcDbEntity
  8
0
 62
     0
100
AcDbLine
 10
157.2978723404242
 20
31.0000000000002
 30
0.0
 11
225.7517730496447
 21
31.0000000000002
 31
0.0
  0
LINE
  5
98
330
24
100
AcDbEntity
  8
0
 62
     0
100
AcDbLine
 10
157.2978723404242
 20
28.00000000000015
 30
0.0
 11
225.7517730496447
 21
28.00000000000015
 31
0.0
  0
LINE
  5
99
330
24
100
AcDbEntity
  8
0
 62
     0
100
AcDbLine
 10
195.1276595744673
 20
25.00000000000012
 30
0.0
 11
225.7517730496447
 21
25.00000000000012
 31
0.0
  0
LINE
  5
9A
330
24
100
AcDbEntity
  8
0
 62
     0
100
AcDbLine
 10
195.1276595744673
 20
49.00000000000036
 30
0.0
 11
195.1276595744673
 21
25.00000000000012
 31
0.0
  0
LINE
  5
9B
330
24
100
AcDbEntity
  8
0
 62
     0
100
AcDbLine
 10
202.3333333333325
 20
37.00000000000024
 30
0.0
 11
202.3333333333325
 21
25.00000000000012
 31
0.0
  0
LINE
  5
9C
330
24
100
AcDbEntity
  8
0
 62
     0
100
AcDbLine
 10
213.1418439716305
 20
49.00000000000036
 30
0.0
 11
213.1418439716305
 21
22.00000000000012
 31
0.0
  0
LINE
  5
9D
330
24
100
AcDbEntity
  8
0
 62
     0
100
AcDbLine
 10
279.7943262411347
 20
22.00000000000012
 30
0.0
 11
279.7943262411347
 21
10.0
 31
0.0
  0
LINE
  5
9E
330
24
100
AcDbEntity
  8
0
 62
     0
100
AcDbLine
 10
287.0
 20
49.00000000000036
 30
0.0
 11
287.0
 21
10.0
 31
0.0
  0
LINE
  5
9F
330
24
100
AcDbEntity
  8
0
 62
     0
100
AcDbLine
 10
287.0
 20
10.0
 30
0.0
 11
287.0
 21
49.00000000000036
 31
0.0
  0
LINE
  5
A0
330
24
100
AcDbEntity
  8
0
 62
     0
100
AcDbLine
 10
279.7943262411347
 20
16.00000000000008
 30
0.0
 11
287.0
 21
16.00000000000008
 31
0.0
  0
ENDBLK
  5
A2
330
24
100
AcDbEntity
  8
0
100
AcDbBlockEnd
  0
BLOCK
  5
3443
330
3437
100
AcDbEntity
  8
0
100
AcDbBlockBegin
  2
*D1
 70
     1
 10
0.0
 20
0.0
 30
0.0
  3
*D1
  1

  0
LINE
  5
3438
330
3437
100
AcDbEntity
  8
OBJECT
 62
     0
370
    -2
100
AcDbLine
 10
-8068.568047744786
 20
3998.303038975791
 30
0.0
 11
-7757.422052324407
 21
3998.303038975791
 31
0.0
  0
LINE
  5
3439
330
3437
100
AcDbEntity
  8
OBJECT
 62
     0
370
    -2
100
AcDbLine
 10
-8068.568047744786
 20
4078.303038975791
 30
0.0
 11
-7757.422052324407
 21
4078.303038975791
 31
0.0
  0
LINE
  5
343A
330
3437
100
AcDbEntity
  8
OBJECT
 62
     0
370
    -2
100
AcDbLine
 10
-7776.172052324408
 20
3960.803038975791
 30
0.0
 11
-7776.172052324408
 21
3923.303038975791
 31
0.0
  0
LINE
  5
343B
330
3437
100
AcDbEntity
  8
OBJECT
 62
     0
370
    -2
100
AcDbLine
 10
-7776.172052324408
 20
4115.803038975792
 30
0.0
 11
-7776.172052324408
 21
4153.303038975791
 31
0.0
  0
LINE
  5
343C
330
3437
100
AcDbEntity
  8
OBJECT
 62
     0
370
    -2
100
AcDbLine
 10
-7776.172052324408
 20
3998.303038975791
 30
0.0
 11
-7776.172052324408
 21
4078.303038975791
 31
0.0
  0
SOLID
  5
343D
330
3437
100
AcDbEntity
  8
OBJECT
 62
     0
100
AcDbTrace
 10
-7782.422052324408
 20
3960.803038975791
 30
0.0
 11
-7769.922052324408
 21
3960.803038975791
 31
0.0
 12
-7776.172052324408
 22
3998.303038975791
 32
0.0
 13
-7776.172052324408
 23
3998.303038975791
 33
0.0
  0
SOLID
  5
343E
330
3437
100
AcDbEntity
  8
OBJECT
 62
     0
100
AcDbTrace
 10
-7782.422052324408
 20
4115.803038975792
 30
0.0
 11
-7769.922052324408
 21
4115.803038975792
 31
0.0
 12
-7776.172052324408
 22
4078.303038975791
 32
0.0
 13
-7776.172052324408
 23
4078.303038975791
 33
0.0
  0
MTEXT
  5
343F
330
3437
100
AcDbEntity
  8
OBJECT
 62
     0
100
AcDbMText
 10
-7804.297052324407
 20
4038.303038975789
 30
0.0
 40
37.5
 41
0.0
 71
     5
 72
     1
  1
\A1;80
 11
0.0000000000000001
 21
1.0
 31
0.0
 73
     1
 44
1.0
  0
POINT
  5
3440
330
3437
100
AcDbEntity
  8
DEFPOINTS
 62
     0
100
AcDbPoint
 10
-8077.943047744787
 20
3998.303038975791
 30
0.0
  0
POINT
  5
3441
330
3437
100
AcDbEntity
  8
DEFPOINTS
 62
     0
100
AcDbPoint
 10
-8077.943047744787
 20
4078.303038975791
 30
0.0
  0
POINT
  5
3442
330
3437
100
AcDbEntity
  8
DEFPOINTS
 62
     0
100
AcDbPoint
 10
-7776.172052324408
 20
4078.303038975791
 30
0.0
  0
ENDBLK
  5
3444
330
3437
100
AcDbEntity
  8
0
100
AcDbBlockEnd
  0
BLOCK
  5
3447
330
3445
100
AcDbEntity
  8
0
100
AcDbBlockBegin
  2
A$C23BB6A77
 70
     0
 10
0.0
 20
0.0
 30
0.0
  3
A$C23BB6A77
  1

  0
DIMENSION
  5
3446
330
3445
100
AcDbEntity
  8
OBJECT
100
AcDbDimension
  2
*D1
 10
301.7709854312124
 20
154.9999934708971
 30
0.0
 11
273.6459854312115
 21
114.9999934708962
 31
0.0
 12
8077.94303775562
 22
-3923.303045504894
 32
0.0
 71
     5
 42
79.99999999999954
  3
STANDARD
100
AcDbAlignedDimension
 13
-0.0000099891658465
 23
74.99999347089761
 33
0.0
 14
-0.0000099891658465
 24
154.9999934708971
 34
0.0
 50
90.0
100
AcDbRotatedDimension
1001
ACAD
1000
DSTYLE
1002
{
1070
    40
1040
15.0
1070
    41
1040
2.5
1070
    42
1040
0.625
1070
    43
1040
3.75
1070
    44
1040
1.25
1070
    73
1070
     0
1070
    74
1070
     0
1070
    77
1070
     1
1070
    78
1070
     8
1070
   140
1040
2.5
1070
   141
1040
2.5
1070
   143
1040
0.0394
1070
   147
1040
0.625
1070
   171
1070
     4
1070
   172
1070
     1
1070
   273
1070
     8
1070
   274
1070
     4
1070
   277
1070
     6
1002
}
  0
ENDBLK
  5
3448
330
3445
100
AcDbEntity
  8
0
100
AcDbBlockEnd
  0
ENDSEC
  0
SECTION
  2
ENTITIES
  0
MTEXT
  5
938
330
18
100
AcDbEntity
  8
上書線
100
AcDbMText
 10
1865.739761775792
 20
499.0283937835011
 30
0.0
 40
37.5
 41
0.0
 71
     4
 72
     1
  1
\A1;
 73
     1
 44
1.0
  0
LINE
  5
123E
330
18
100
AcDbEntity
  8
基準線
100
AcDbLine
 10
710.0813698183028
 20
2117.506972677286
 30
0.0
 11
731.0813698183028
 21
2117.506972677286
 31
0.0
  0
LINE
  5
14BB
330
18
100
AcDbEntity
  8
基準線
100
AcDbLine
 10
1281.296189060135
 20
2744.451732006984
 30
0.0
 11
1631.12377476475
 21
2744.451732006984
 31
0.0
  0
LINE
  5
14BC
330
18
100
AcDbEntity
  8
基準線
100
AcDbLine
 10
1131.296189060135
 20
2594.451732006984
 30
0.0
 11
1604.134047986604
 21
2594.451732006984
 31
0.0
  0
LINE
  5
1546
330
18
100
AcDbEntity
  8
基準線
100
AcDbLine
 10
2000.40772718317
 20
1104.126411816217
 30
0.0
 11
2000.40772718317
 21
1262.163674897728
 31
0.0
  0
LINE
  5
154B
330
18
100
AcDbEntity
  8
基準線
100
AcDbLine
 10
2550.40772718317
 20
1049.126411816217
 30
0.0
 11
2550.40772718317
 21
1211.614819254876
 31
0.0
  0
LINE
  5
154C
330
18
100
AcDbEntity
  8
基準線
100
AcDbLine
 10
2150.40772718317
 20
1049.126411816217
 30
0.0
 11
2150.40772718317
 21
1226.779475202555
 31
0.0
  0
LINE
  5
15CA
330
18
100
AcDbEntity
  8
基準線
100
AcDbLine
 10
3419.935833980378
 20
2804.85492986955
 30
0.0
 11
3776.432100616551
 21
2804.85492986955
 31
0.0
  0
LINE
  5
15CC
330
18
100
AcDbEntity
  8
基準線
100
AcDbLine
 10
3776.432100616551
 20
2804.85492986955
 30
0.0
 11
4171.357345948922
 21
2804.85492986955
 31
0.0
  0
LINE
  5
15D0
330
18
100
AcDbEntity
  8
基準線
100
AcDbLine
 10
3419.935833980378
 20
2684.85492986955
 30
0.0
 11
3776.432100616551
 21
2684.85492986955
 31
0.0
  0
LINE
  5
15D1
330
18
100
AcDbEntity
  8
基準線
100
AcDbLine
 10
3598.183967298465
 20
2684.85492986955
 30
0.0
 11
3598.183967298465
 21
984.8549298695507
 31
0.0
  0
LINE
  5
15D2
330
18
100
AcDbEntity
  8
基準線
100
AcDbLine
 10
3776.432100616551
 20
2484.854929869551
 30
0.0
 11
4171.357345948921
 21
2484.85492986955
 31
0.0
  0
LINE
  5
15D3
330
18
100
AcDbEntity
  8
基準線
100
AcDbLine
 10
3973.894723282737
 20
2684.854929869551
 30
0.0
 11
3973.894723282734
 21
984.8549298695507
 31
0.0
  0
LINE
  5
15D4
330
18
100
AcDbEntity
  8
基準線
100
AcDbLine
 10
3419.935833980378
 20
2684.85492986955
 30
0.0
 11
3419.935833980378
 21
2584.85492986955
 31
0.0
  0
LINE
  5
15D5
330
18
100
AcDbEntity
  8
基準線
100
AcDbLine
 10
3419.935833980378
 20
2634.85492986955
 30
0.0
 11
4114.659436953616
 21
2634.85492986955
 31
0.0
  0
MTEXT
  5
2600
330
18
100
AcDbEntity
  8
上書線
100
AcDbMText
 10
8193.637183406652
 20
6423.238988772654
 30
0.0
 40
60.0
 41
956.9129999999999
 71
     1
 72
     5
  1
重量表
 73
     1
 44
1.0
  0
MTEXT
  5
283E
330
18
100
AcDbEntity
  8
上線
100
AcDbMText
 10
8293.469117707546
 20
6248.397079191232
 30
0.0
 40
49.968
 41
197.7879999999999
 71
     1
 72
     5
  1
Ｈ
 73
     1
 44
1.0
  0
LINE
  5
283F
330
18
100
AcDbEntity
  8
上線
100
AcDbLine
 10
7917.4138385134
 20
5685.647443343626
 30
0.0
 11
8735.144346159643
 21
5685.647443343626
 31
0.0
  0
LINE
  5
2840
330
18
100
AcDbEntity
  8
上線
100
AcDbLine
 10
7917.4138385134
 20
5783.562801018693
 30
0.0
 11
8735.144346159643
 21
5783.562801018693
 31
0.0
  0
LINE
  5
2841
330
18
100
AcDbEntity
  8
上線
100
AcDbLine
 10
7917.4138385134
 20
5881.47815869376
 30
0.0
 11
8735.144346159643
 21
5881.47815869376
 31
0.0
  0
LINE
  5
2842
330
18
100
AcDbEntity
  8
上線
100
AcDbLine
 10
7917.4138385134
 20
5979.393516368827
 30
0.0
 11
8735.144346159643
 21
5979.393516368827
 31
0.0
  0
LINE
  5
2843
330
18
100
AcDbEntity
  8
上線
100
AcDbLine
 10
7917.4138385134
 20
6077.308874043895
 30
0.0
 11
8735.144346159643
 21
6077.308874043895
 31
0.0
  0
LINE
  5
2844
330
18
100
AcDbEntity
  8
上線
100
AcDbLine
 10
7917.4138385134
 20
6175.144231832726
 30
0.0
 11
8735.779004991115
 21
6175.144231832726
 31
0.0
  0
LINE
  5
2845
330
18
100
AcDbEntity
  8
上線
100
AcDbLine
 10
8735.144346159643
 20
6273.13958939403
 30
0.0
 11
7917.4138385134
 21
6273.13958939403
 31
0.0
  0
LINE
  5
284A
330
18
100
AcDbEntity
  8
上線
100
AcDbLine
 10
8189.990674395479
 20
6273.13958939403
 30
0.0
 11
8189.990674395479
 21
5098.155297293222
 31
0.0
  0
LINE
  5
284B
330
18
100
AcDbEntity
  8
上線
100
AcDbLine
 10
7917.4138385134
 20
6273.13958939403
 30
0.0
 11
7917.4138385134
 21
5098.155297293222
 31
0.0
  0
MTEXT
  5
285C
330
18
100
AcDbEntity
  8
上線
100
AcDbMText
 10
8012.001203538522
 20
6248.397079191232
 30
0.0
 40
49.968
 41
197.7879999999999
 71
     1
 72
     5
  1
h1
 73
     1
 44
1.0
  0
LINE
  5
285F
330
18
100
AcDbEntity
  8
上線
100
AcDbLine
 10
8462.56751027756
 20
6273.13958939403
 30
0.0
 11
8462.56751027756
 21
5098.155297293222
 31
0.0
  0
LINE
  5
2860
330
18
100
AcDbEntity
  8
上線
100
AcDbLine
 10
8735.144346159643
 20
5098.155297293222
 30
0.0
 11
8735.144346159643
 21
6273.13958939403
 31
0.0
  0
MTEXT
  5
2866
330
18
100
AcDbEntity
  8
上線
100
AcDbMText
 10
8505.691385703416
 20
6231.583668433634
 30
0.0
 40
24.984
 41
247.78800162
 71
     1
 72
     5
  1
\fＭＳ Ｐ明朝|b0|i0|c128|p18;参考重量（㎏）
 73
     1
 44
1.0
  0
LINE
  5
34F5
330
18
100
AcDbEntity
  8
上線
100
AcDbLine
 10
7917.4138385134
 20
5587.732085668559
 30
0.0
 11
8735.144346159643
 21
5587.732085668559
 31
0.0
  0
LINE
  5
34F6
330
18
100
AcDbEntity
  8
上線
100
AcDbLine
 10
7917.4138385134
 20
5489.816727993492
 30
0.0
 11
8735.144346159643
 21
5489.816727993492
 31
0.0
  0
MTEXT
  5
355B
330
18
100
AcDbEntity
  8
上線
100
AcDbMText
 10
8029.881106427209
 20
5168.44303311963
 30
0.0
 40
49.968
 41
247.7879999999999
 71
     1
 72
     5
  1
800
 73
     1
 44
1.0
  0
MTEXT
  5
355D
330
18
100
AcDbEntity
  8
上線
100
AcDbMText
 10
8029.881106427209
 20
5560.104463819899
 30
0.0
 40
49.968
 41
247.7879999999999
 71
     1
 72
     5
  1
600
 73
     1
 44
1.0
  0
MTEXT
  5
355E
330
18
100
AcDbEntity
  8
上線
100
AcDbMText
 10
8029.881106427209
 20
5364.273748469766
 30
0.0
 40
49.968
 41
247.7879999999999
 71
     1
 72
     5
  1
700
 73
     1
 44
1.0
  0
MTEXT
  5
355F
330
18
100
AcDbEntity
  8
上線
100
AcDbMText
 10
8029.881106427209
 20
5755.935179170035
 30
0.0
 40
49.968
 41
247.7879999999999
 71
     1
 72
     5
  1
500
 73
     1
 44
1.0
  0
MTEXT
  5
3560
330
18
100
AcDbEntity
  8
上線
100
AcDbMText
 10
8031.755554260714
 20
6147.516609984067
 30
0.0
 40
49.968
 41
247.7879999999999
 71
     1
 72
     5
  1
300
 73
     1
 44
1.0
  0
MTEXT
  5
3561
330
18
100
AcDbEntity
  8
上線
100
AcDbMText
 10
8029.881106427209
 20
5951.765894520168
 30
0.0
 40
49.968
 41
247.7879999999999
 71
     1
 72
     5
  1
400
 73
     1
 44
1.0
  0
MTEXT
  5
3572
330
18
100
AcDbEntity
  8
上線
100
AcDbMText
 10
8270.489942309289
 20
5168.363033233395
 30
0.0
 40
49.968
 41
279.7559999999999
 71
     1
 72
     5
  1
1300
 73
     1
 44
1.0
  0
MTEXT
  5
3575
330
18
100
AcDbEntity
  8
上線
100
AcDbMText
 10
8302.457942309292
 20
5951.685894633933
 30
0.0
 40
49.968
 41
247.7879999999999
 71
     1
 72
     5
  1
900
 73
     1
 44
1.0
  0
MTEXT
  5
3577
330
18
100
AcDbEntity
  8
上線
100
AcDbMText
 10
8302.457942309292
 20
6147.516609984067
 30
0.0
 40
49.968
 41
247.7879999999999
 71
     1
 72
     5
  1
800
 73
     1
 44
1.0
  0
MTEXT
  5
3589
330
18
100
AcDbEntity
  8
上線
100
AcDbMText
 10
8575.034778191371
 20
5560.104463819899
 30
0.0
 40
49.968
 41
247.7879999999999
 71
     1
 72
     5
  1
943
 73
     1
 44
1.0
  0
MTEXT
  5
358B
330
18
100
AcDbEntity
  8
上線
100
AcDbMText
 10
8575.034778191371
 20
5755.935179170035
 30
0.0
 40
49.968
 41
247.7879999999999
 71
     1
 72
     5
  1
846
 73
     1
 44
1.0
  0
MTEXT
  5
358C
330
18
100
AcDbEntity
  8
上線
100
AcDbMText
 10
8576.909226024874
 20
6147.516609984067
 30
0.0
 40
49.968
 41
247.7879999999999
 71
     1
 72
     5
  1
651
 73
     1
 44
1.0
  0
MTEXT
  5
358D
330
18
100
AcDbEntity
  8
上線
100
AcDbMText
 10
8575.034778191371
 20
5951.765894520168
 30
0.0
 40
49.968
 41
247.7879999999999
 71
     1
 72
     5
  1
748
 73
     1
 44
1.0
  0
MTEXT
  5
3599
330
18
100
AcDbEntity
  8
上線
100
AcDbMText
 10
8270.489942309289
 20
5364.193748583528
 30
0.0
 40
49.968
 41
279.7559999999999
 71
     1
 72
     5
  1
1200
 73
     1
 44
1.0
  0
MTEXT
  5
35A3
330
18
100
AcDbEntity
  8
上線
100
AcDbMText
 10
8270.489942309289
 20
5560.024463933665
 30
0.0
 40
49.968
 41
279.7559999999999
 71
     1
 72
     5
  1
1100
 73
     1
 44
1.0
  0
MTEXT
  5
35AD
330
18
100
AcDbEntity
  8
上線
100
AcDbMText
 10
8270.489942309289
 20
5755.855179283798
 30
0.0
 40
49.968
 41
279.7559999999999
 71
     1
 72
     5
  1
1000
 73
     1
 44
1.0
  0
ARC
  5
36D1
330
18
100
AcDbEntity
  8
上線
100
AcDbCircle
 10
7095.998856119972
 20
4781.213988671672
 30
0.0
 40
50.0
100
AcDbArc
 50
270.0
 51
359.1815445383053
  0
LINE
  5
36D2
330
18
100
AcDbEntity
  8
点線
100
AcDbLine
 10
6801.003957900507
 20
5181.213988671672
 30
0.0
 11
7201.003957900507
 21
5181.213988671672
 31
0.0
  0
LINE
  5
36D3
330
18
100
AcDbEntity
  8
上線
100
AcDbLine
 10
7300.28967218622
 20
5231.213988671672
 30
0.0
 11
6730.28967218622
 21
5231.213988671672
 31
0.0
  0
LINE
  5
36D4
330
18
100
AcDbEntity
  8
OBJECT
100
AcDbLine
 10
7300.28967218622
 20
3931.213988671671
 30
0.0
 11
6730.28967218622
 21
3931.213988671672
 31
0.0
  0
LINE
  5
3700
330
18
100
AcDbEntity
  8
上線
 48
10.0
100
AcDbLine
 10
7149.575386471934
 20
5131.213988671672
 30
0.0
 11
7145.993754859947
 21
4780.499775832524
 31
0.0
  0
LINE
  5
3701
330
18
100
AcDbEntity
  8
上線
 48
10.0
100
AcDbLine
 10
6851.003957900506
 20
5131.213988671672
 30
0.0
 11
6854.585589512493
 21
4780.499775832524
 31
0.0
  0
LINE
  5
3705
330
18
100
AcDbEntity
  8
OBJECT
100
AcDbLine
 10
6730.28967218622
 20
3931.213988671672
 30
0.0
 11
6730.28967218622
 21
5231.213988671672
 31
0.0
  0
LINE
  5
3706
330
18
100
AcDbEntity
  8
点線
100
AcDbLine
 10
6851.003957900506
 20
5181.213988671672
 30
0.0
 11
6851.003957900505
 21
3931.213988671672
 31
0.0
  0
LINE
  5
3707
330
18
100
AcDbEntity
  8
点線
100
AcDbLine
 10
7149.575386471934
 20
5181.213988671672
 30
0.0
 11
7149.575386471934
 21
3931.213988671672
 31
0.0
  0
ARC
  5
370D
330
18
100
AcDbEntity
  8
上線
100
AcDbCircle
 10
6904.580488252467
 20
4781.213988671672
 30
0.0
 40
50.0
100
AcDbArc
 50
180.8184554616945
 51
270.0
  0
LINE
  5
3713
330
18
100
AcDbEntity
  8
上線
100
AcDbLine
 10
7095.998856119972
 20
4731.213988671671
 30
0.0
 11
6904.580488252467
 21
4731.213988671671
 31
0.0
  0
LINE
  5
3721
330
18
100
AcDbEntity
  8
上線
 48
10.0
100
AcDbLine
 10
6851.003957900506
 20
5131.213988671672
 30
0.0
 11
7149.575386471934
 21
5131.213988671672
 31
0.0
  0
LINE
  5
3722
330
18
100
AcDbEntity
  8
点線
100
AcDbLine
 10
6801.003957900507
 20
5181.213988671672
 30
0.0
 11
6801.003957900507
 21
5231.213988671672
 31
0.0
  0
LINE
  5
378D
330
18
100
AcDbEntity
  8
OBJECT
100
AcDbLine
 10
6430.289672186219
 20
3931.213988671672
 30
0.0
 11
6430.289672186219
 21
5231.213988671672
 31
0.0
  0
LINE
  5
378E
330
18
100
AcDbEntity
  8
点線
100
AcDbLine
 10
6230.28967218622
 20
5181.213988671672
 30
0.0
 11
6230.28967218622
 21
3931.213988671672
 31
0.0
  0
LINE
  5
378F
330
18
100
AcDbEntity
  8
OBJECT
100
AcDbLine
 10
7300.28967218622
 20
5231.213988671672
 30
0.0
 11
7300.28967218622
 21
3931.213988671671
 31
0.0
  0
LINE
  5
3790
330
18
100
AcDbEntity
  8
OBJECT
100
AcDbLine
 10
5430.289672186219
 20
5231.213988671672
 30
0.0
 11
5430.289672186219
 21
3931.213988671672
 31
0.0
  0
LINE
  5
3791
330
18
100
AcDbEntity
  8
点線
100
AcDbLine
 10
5630.289672186219
 20
5181.213988671672
 30
0.0
 11
5630.289672186219
 21
3931.213988671672
 31
0.0
  0
LINE
  5
3792
330
18
100
AcDbEntity
  8
OBJECT
100
AcDbLine
 10
5430.289672186219
 20
3931.213988671672
 30
0.0
 11
6430.289672186219
 21
3931.213988671672
 31
0.0
  0
LINE
  5
3793
330
18
100
AcDbEntity
  8
点線
100
AcDbLine
 10
5630.289672186219
 20
4731.213988671671
 30
0.0
 11
5430.289672186219
 21
4731.213988671671
 31
0.0
  0
LINE
  5
3794
330
18
100
AcDbEntity
  8
点線
100
AcDbLine
 10
6230.28967218622
 20
4731.213988671671
 30
0.0
 11
6430.289672186219
 21
4731.213988671671
 31
0.0
  0
LINE
  5
3797
330
18
100
AcDbEntity
  8
OBJECT
100
AcDbLine
 10
5430.289672186219
 20
5231.213988671672
 30
0.0
 11
6430.289672186219
 21
5231.213988671672
 31
0.0
  0
LINE
  5
3798
330
18
100
AcDbEntity
  8
点線
100
AcDbLine
 10
5630.289672186219
 20
5181.213988671672
 30
0.0
 11
6230.28967218622
 21
5181.213988671672
 31
0.0
  0
LINE
  5
379D
330
18
100
AcDbEntity
  8
点線
100
AcDbLine
 10
5630.289672186219
 20
5131.213988671671
 30
0.0
 11
5430.289672186219
 21
5131.213988671671
 31
0.0
  0
LINE
  5
379E
330
18
100
AcDbEntity
  8
点線
100
AcDbLine
 10
7201.003957900507
 20
5181.213988671672
 30
0.0
 11
7201.003957900507
 21
5231.213988671672
 31
0.0
  0
LINE
  5
379F
330
18
100
AcDbEntity
  8
点線
100
AcDbLine
 10
5630.289672186219
 20
5231.213988671672
 30
0.0
 11
5630.289672186219
 21
5181.213988671672
 31
0.0
  0
LINE
  5
37A7
330
18
100
AcDbEntity
  8
点線
100
AcDbLine
 10
6230.28967218622
 20
5131.213988671671
 30
0.0
 11
6430.289672186219
 21
5131.213988671671
 31
0.0
  0
LINE
  5
37A8
330
18
100
AcDbEntity
  8
点線
100
AcDbLine
 10
6230.28967218622
 20
5181.213988671672
 30
0.0
 11
6230.28967218622
 21
5231.213988671672
 31
0.0
  0
LINE
  5
38E9
330
18
100
AcDbEntity
  8
上線
100
AcDbLine
 10
7917.4138385134
 20
5391.901370318425
 30
0.0
 11
8735.144346159643
 21
5391.901370318425
 31
0.0
  0
LINE
  5
38EA
330
18
100
AcDbEntity
  8
上線
100
AcDbLine
 10
7917.4138385134
 20
5293.986012643357
 30
0.0
 11
8735.144346159643
 21
5293.986012643357
 31
0.0
  0
LINE
  5
38EB
330
18
100
AcDbEntity
  8
上線
100
AcDbLine
 10
7917.4138385134
 20
5196.070654968289
 30
0.0
 11
8735.144346159643
 21
5196.070654968289
 31
0.0
  0
LINE
  5
38EC
330
18
100
AcDbEntity
  8
上線
100
AcDbLine
 10
7917.4138385134
 20
5098.155297293222
 30
0.0
 11
8735.144346159643
 21
5098.155297293222
 31
0.0
  0
MTEXT
  5
3908
330
18
100
AcDbEntity
  8
上線
100
AcDbMText
 10
8031.755554260714
 20
6049.681252195236
 30
0.0
 40
49.968
 41
247.7879999999999
 71
     1
 72
     5
  1
350
 73
     1
 44
1.0
  0
MTEXT
  5
3909
330
18
100
AcDbEntity
  8
上線
100
AcDbMText
 10
8029.881106427209
 20
5853.930536731337
 30
0.0
 40
49.968
 41
247.7879999999999
 71
     1
 72
     5
  1
450
 73
     1
 44
1.0
  0
MTEXT
  5
390A
330
18
100
AcDbEntity
  8
上線
100
AcDbMText
 10
8029.881106427209
 20
5658.099821381203
 30
0.0
 40
49.968
 41
247.7879999999999
 71
     1
 72
     5
  1
550
 73
     1
 44
1.0
  0
MTEXT
  5
390B
330
18
100
AcDbEntity
  8
上線
100
AcDbMText
 10
8029.881106427209
 20
5462.269106031068
 30
0.0
 40
49.968
 41
247.7879999999999
 71
     1
 72
     5
  1
650
 73
     1
 44
1.0
  0
MTEXT
  5
390C
330
18
100
AcDbEntity
  8
上線
100
AcDbMText
 10
8029.881106427209
 20
5266.438390680935
 30
0.0
 40
49.968
 41
247.7879999999999
 71
     1
 72
     5
  1
750
 73
     1
 44
1.0
  0
MTEXT
  5
390F
330
18
100
AcDbEntity
  8
上線
100
AcDbMText
 10
8302.457942309292
 20
6049.681252195236
 30
0.0
 40
49.968
 41
247.7879999999999
 71
     1
 72
     5
  1
850
 73
     1
 44
1.0
  0
MTEXT
  5
3910
330
18
100
AcDbEntity
  8
上線
100
AcDbMText
 10
8302.457942309292
 20
5853.850536845103
 30
0.0
 40
49.968
 41
247.7879999999999
 71
     1
 72
     5
  1
950
 73
     1
 44
1.0
  0
MTEXT
  5
3911
330
18
100
AcDbEntity
  8
上線
100
AcDbMText
 10
8270.489942309289
 20
5658.019821494968
 30
0.0
 40
49.968
 41
279.7559999999999
 71
     1
 72
     5
  1
1050
 73
     1
 44
1.0
  0
MTEXT
  5
3912
330
18
100
AcDbEntity
  8
上線
100
AcDbMText
 10
8270.489942309289
 20
5462.189106144833
 30
0.0
 40
49.968
 41
279.7559999999999
 71
     1
 72
     5
  1
1150
 73
     1
 44
1.0
  0
MTEXT
  5
3913
330
18
100
AcDbEntity
  8
上線
100
AcDbMText
 10
8270.489942309289
 20
5266.358390794698
 30
0.0
 40
49.968
 41
279.7559999999999
 71
     1
 72
     5
  1
1250
 73
     1
 44
1.0
  0
MTEXT
  5
3914
330
18
100
AcDbEntity
  8
上線
100
AcDbMText
 10
8576.909226024874
 20
6049.681252195236
 30
0.0
 40
49.968
 41
247.7879999999999
 71
     1
 72
     5
  1
699
 73
     1
 44
1.0
  0
MTEXT
  5
3915
330
18
100
AcDbEntity
  8
上線
100
AcDbMText
 10
8575.034778191371
 20
5853.930536731337
 30
0.0
 40
49.968
 41
247.7879999999999
 71
     1
 72
     5
  1
797
 73
     1
 44
1.0
  0
MTEXT
  5
3916
330
18
100
AcDbEntity
  8
上線
100
AcDbMText
 10
8575.034778191371
 20
5658.099821381203
 30
0.0
 40
49.968
 41
247.7879999999999
 71
     1
 72
     5
  1
894
 73
     1
 44
1.0
  0
MTEXT
  5
3917
330
18
100
AcDbEntity
  8
上線
100
AcDbMText
 10
8575.034778191371
 20
5462.269106031068
 30
0.0
 40
49.968
 41
247.7879999999999
 71
     1
 72
     5
  1
992
 73
     1
 44
1.0
  0
MTEXT
  5
396F
330
18
100
AcDbEntity
  8
上線
100
AcDbMText
 10
8543.066778191372
 20
5168.443033119631
 30
0.0
 40
49.968
 41
279.7559999999999
 71
     1
 72
     5
  1
1138
 73
     1
 44
1.0
  0
MTEXT
  5
39DE
330
18
100
AcDbEntity
  8
上線
100
AcDbMText
 10
8543.066778191372
 20
5266.358390794699
 30
0.0
 40
49.968
 41
279.7559999999999
 71
     1
 72
     5
  1
1089
 73
     1
 44
1.0
  0
MTEXT
  5
39DF
330
18
100
AcDbEntity
  8
上線
100
AcDbMText
 10
8543.066778191372
 20
5364.273748469766
 30
0.0
 40
49.968
 41
279.7559999999999
 71
     1
 72
     5
  1
1041
 73
     1
 44
1.0
  0
LINE
  5
3B5E
330
18
100
AcDbEntity
  8
OBJECT
 48
10.0
100
AcDbLine
 10
6730.289698008691
 20
5411.213979908254
 30
0.0
 11
7300.289698008736
 21
5411.213979908256
 31
0.0
  0
SOLID
  5
3B5F
330
18
100
AcDbEntity
  8
0
  6
ByBlock
 62
     0
 48
10.0
100
AcDbTrace
 10
6767.789698008714
 20
5554.963988671675
 30
0.0
 11
6767.789698008714
 21
5567.463988671676
 31
0.0
 12
6730.289698008714
 22
5561.213988671677
 32
0.0
 13
6730.289698008714
 23
5561.213988671677
 33
0.0
  0
LINE
  5
3B60
330
18
100
AcDbEntity
  8
OBJECT
 48
10.0
100
AcDbLine
 10
6730.289698008691
 20
5561.213988671678
 30
0.0
 11
7300.289698008713
 21
5561.213988671678
 31
0.0
  0
MTEXT
  5
3B61
330
18
100
AcDbEntity
  8
0
  6
ByBlock
 62
     0
 48
10.0
100
AcDbMText
 10
6765.289698008692
 20
5441.213979908252
 30
0.0
 40
37.5
 41
0.0
 71
     5
 72
     1
  1
70
 73
     1
 44
1.0
  0
LINE
  5
3B62
330
18
100
AcDbEntity
  8
WUWAGAKI
100
AcDbLine
 10
8905.67473496314
 20
6678.303937321476
 30
0.0
 11
4634.955816336222
 21
6678.303937321476
 31
0.0
  0
LINE
  5
3B63
330
18
100
AcDbEntity
  8
WUWAGAKI
100
AcDbLine
 10
4634.955816336222
 20
3752.154085525353
 30
0.0
 11
8905.67473496314
 21
3752.154085525353
 31
0.0
  0
LINE
  5
3B66
330
18
100
AcDbEntity
  8
0
 48
10.0
100
AcDbLine
 10
6730.289698008691
 20
5261.213988671673
 30
0.0
 11
6730.289698008691
 21
5591.213988671672
 31
0.0
  0
LINE
  5
3B67
330
18
100
AcDbEntity
  8
OBJECT
 48
10.0
100
AcDbLine
 10
5250.289680949641
 20
5531.214014494166
 30
0.0
 11
5250.289680949641
 21
5418.714014494166
 31
0.0
  0
LINE
  5
3B68
330
18
100
AcDbEntity
  8
WUWAGAKI
100
AcDbLine
 10
4634.955816336222
 20
6678.303937321476
 30
0.0
 11
4634.955816336222
 21
3752.154085525353
 31
0.0
  0
LINE
  5
3B69
330
18
100
AcDbEntity
  8
OBJECT
 48
10.0
100
AcDbLine
 10
5100.289680949641
 20
5231.213988671672
 30
0.0
 11
5100.289680949638
 21
3931.213988671671
 31
0.0
  0
LINE
  5
3B6A
330
18
100
AcDbEntity
  8
OBJECT
 48
10.0
100
AcDbLine
 10
5250.28968292617
 20
3931.213988671671
 30
0.0
 11
5250.28968292617
 21
5231.213988671672
 31
0.0
  0
LINE
  5
3B71
330
18
100
AcDbEntity
  8
0
 48
10.0
100
AcDbLine
 10
5400.28967218622
 20
3931.213988671671
 30
0.0
 11
5070.28967218622
 21
3931.213988671671
 31
0.0
  0
SOLID
  5
3B72
330
18
100
AcDbEntity
  8
0
  6
ByBlock
 62
     0
 48
10.0
100
AcDbTrace
 10
5106.539672186219
 20
3968.713988671693
 30
0.0
 11
5094.039672186217
 21
3968.713988671693
 31
0.0
 12
5100.289672186217
 22
3931.213988671693
 32
0.0
 13
5100.289672186217
 23
3931.213988671693
 33
0.0
  0
SOLID
  5
3B73
330
18
100
AcDbEntity
  8
0
  6
ByBlock
 62
     0
 48
10.0
100
AcDbTrace
 10
5256.539682926167
 20
3968.714000530825
 30
0.0
 11
5244.039682926167
 21
3968.714000530825
 31
0.0
 12
5250.289682926167
 22
3931.214000530825
 32
0.0
 13
5250.289682926167
 23
3931.214000530825
 33
0.0
  0
MTEXT
  5
3B74
330
18
100
AcDbEntity
  8
0
  6
ByBlock
 62
     0
 48
10.0
100
AcDbMText
 10
5220.289680949639
 20
4331.213988671672
 30
0.0
 40
37.5
 41
0.0
 71
     5
 72
     1
  1
h1
 11
0.0000000000000001
 21
1.0
 31
0.0
 73
     1
 44
1.0
  0
MTEXT
  5
3B77
330
18
100
AcDbEntity
  8
0
  6
ByBlock
 62
     0
 48
10.0
100
AcDbMText
 10
5220.289672186218
 20
4931.213988671672
 30
0.0
 40
37.5
 41
0.0
 71
     5
 72
     1
  1
400
 11
0.0000000000000001
 21
1.0
 31
0.0
 73
     1
 44
1.0
  0
LINE
  5
3B78
330
18
100
AcDbEntity
  8
0
 48
10.0
100
AcDbLine
 10
5400.28967218622
 20
4731.213988671671
 30
0.0
 11
5220.28967218622
 21
4731.213988671671
 31
0.0
  0
MTEXT
  5
3B79
330
18
100
AcDbEntity
  8
0
  6
ByBlock
 62
     0
 48
10.0
100
AcDbMText
 10
5070.289672186219
 20
4581.213988671671
 30
0.0
 40
37.5
 41
0.0
 71
     5
 72
     1
  1
H
 11
0.0000000000000001
 21
1.0
 31
0.0
 73
     1
 44
1.0
  0
SOLID
  5
3B7A
330
18
100
AcDbEntity
  8
0
  6
ByBlock
 62
     0
 48
10.0
100
AcDbTrace
 10
5256.539672186223
 20
4768.713988671672
 30
0.0
 11
5244.039672186223
 21
4768.713988671672
 31
0.0
 12
5250.28967218622
 22
4731.213988671671
 32
0.0
 13
5250.28967218622
 23
4731.213988671671
 33
0.0
  0
SOLID
  5
3B7B
330
18
100
AcDbEntity
  8
0
  6
ByBlock
 62
     0
 48
10.0
100
AcDbTrace
 10
5256.539672186223
 20
4693.713988671672
 30
0.0
 11
5244.039672186223
 21
4693.713988671672
 31
0.0
 12
5250.28967218622
 22
4731.213988671671
 32
0.0
 13
5250.28967218622
 23
4731.213988671671
 33
0.0
  0
LINE
  5
3B7D
330
18
100
AcDbEntity
  8
0
 48
10.0
100
AcDbLine
 10
5400.28967218622
 20
5231.213988671672
 30
0.0
 11
5070.28967218622
 21
5231.213988671672
 31
0.0
  0
LINE
  5
3B7E
330
18
100
AcDbEntity
  8
0
 48
10.0
100
AcDbLine
 10
5400.28967218622
 20
5131.213988671672
 30
0.0
 11
5220.28967218622
 21
5131.213988671672
 31
0.0
  0
SOLID
  5
3B7F
330
18
100
AcDbEntity
  8
0
  6
ByBlock
 62
     0
 48
10.0
100
AcDbTrace
 10
5106.539672186219
 20
5193.713988671651
 30
0.0
 11
5094.039672186217
 21
5193.713988671651
 31
0.0
 12
5100.289672186217
 22
5231.213988671651
 32
0.0
 13
5100.289672186217
 23
5231.213988671651
 33
0.0
  0
SOLID
  5
3B80
330
18
100
AcDbEntity
  8
0
  6
ByBlock
 62
     0
 48
10.0
100
AcDbTrace
 10
5256.539672186223
 20
5093.714053111368
 30
0.0
 11
5244.039672186223
 21
5093.714053111368
 31
0.0
 12
5250.28967218622
 22
5131.214053111367
 32
0.0
 13
5250.28967218622
 23
5131.214053111367
 33
0.0
  0
SOLID
  5
3B81
330
18
100
AcDbEntity
  8
0
  6
ByBlock
 62
     0
 48
10.0
100
AcDbTrace
 10
5256.539682926167
 20
5193.713976812517
 30
0.0
 11
5244.039682926167
 21
5193.713976812517
 31
0.0
 12
5250.289682926167
 22
5231.213976812518
 32
0.0
 13
5250.289682926167
 23
5231.213976812518
 33
0.0
  0
MTEXT
  5
3B82
330
18
100
AcDbEntity
  8
0
  6
ByBlock
 62
     0
 48
10.0
100
AcDbMText
 10
5220.289680949639
 20
5181.213988671672
 30
0.0
 40
37.5
 41
0.0
 71
     5
 72
     1
  1
100
 11
0.0000000000000001
 21
1.0
 31
0.0
 73
     1
 44
1.0
  0
SOLID
  5
3B83
330
18
100
AcDbEntity
  8
0
  6
ByBlock
 62
     0
 48
10.0
100
AcDbTrace
 10
5256.539672186223
 20
5168.713988671675
 30
0.0
 11
5244.039672186223
 21
5168.713988671675
 31
0.0
 12
5250.28967218622
 22
5131.213988671674
 32
0.0
 13
5250.28967218622
 23
5131.213988671674
 33
0.0
  0
LINE
  5
3B89
330
18
100
AcDbEntity
  8
OBJECT
 48
10.0
100
AcDbLine
 10
6730.289698008714
 20
5411.21397990825
 30
0.0
 11
6617.789698008714
 21
5411.21397990825
 31
0.0
  0
SOLID
  5
3B8A
330
18
100
AcDbEntity
  8
0
  6
ByBlock
 62
     0
 48
10.0
100
AcDbTrace
 10
6692.789686149559
 20
5417.463979908248
 30
0.0
 11
6692.789686149559
 21
5404.963979908246
 31
0.0
 12
6730.28968614956
 22
5411.213979908247
 32
0.0
 13
6730.28968614956
 23
5411.213979908247
 33
0.0
  0
MTEXT
  5
3B8B
330
18
100
AcDbEntity
  8
0
  6
ByBlock
 62
     0
 48
10.0
100
AcDbMText
 10
5930.289672186219
 20
6461.213988671673
 30
0.0
 40
37.5
 41
0.0
 71
     5
 72
     1
  1
1000
 73
     1
 44
1.0
  0
LINE
  5
3B8C
330
18
100
AcDbEntity
  8
OBJECT
 48
10.0
100
AcDbLine
 10
5430.289672186219
 20
6281.213977931722
 30
0.0
 11
6430.289672186219
 21
6281.213977931722
 31
0.0
  0
LINE
  5
3B8D
330
18
100
AcDbEntity
  8
OBJECT
 48
10.0
100
AcDbLine
 10
6430.289672186219
 20
6431.21397990825
 30
0.0
 11
5430.289672186219
 21
6431.213979908253
 31
0.0
  0
LINE
  5
3B8E
330
18
100
AcDbEntity
  8
OBJECT
100
AcDbLine
 10
5832.789673876596
 20
5996.213985290919
 30
0.0
 11
5635.28967218622
 21
5996.213985290919
 31
0.0
  0
LINE
  5
3B8F
330
18
100
AcDbEntity
  8
OBJECT
100
AcDbLine
 10
5836.115310235117
 20
5989.562712573879
 30
0.0
 11
5637.905388813468
 21
5989.562712573878
 31
0.0
  0
LINE
  5
3B90
330
18
100
AcDbEntity
  8
OBJECT
100
AcDbLine
 10
6430.289672186219
 20
6101.213988671672
 30
0.0
 11
5430.289672186219
 21
6101.213988671672
 31
0.0
  0
LINE
  5
3B91
102
{ACAD_REACTORS
330
3B9E
102
}
330
18
100
AcDbEntity
  8
OBJECT
100
AcDbLine
 10
5630.289672186219
 20
6001.213988671672
 30
0.0
 11
6230.28967218622
 21
6001.213988671672
 31
0.0
  0
LINE
  5
3B92
102
{ACAD_REACTORS
330
3B9E
102
}
330
18
100
AcDbEntity
  8
OBJECT
100
AcDbLine
 10
5624.28967218622
 20
6007.213988671672
 30
0.0
 11
6236.28967218622
 21
6007.213988671672
 31
0.0
  0
LINE
  5
3B93
330
18
100
AcDbEntity
  8
OBJECT
100
AcDbLine
 10
6024.464034137324
 20
5612.865264769465
 30
0.0
 11
5637.905388813468
 21
5612.865264769467
 31
0.0
  0
LINE
  5
3B94
330
18
100
AcDbEntity
  8
OBJECT
100
AcDbLine
 10
6027.789670495842
 20
5606.213992052426
 30
0.0
 11
5635.28967218622
 21
5606.213992052428
 31
0.0
  0
LINE
  5
3B95
330
18
100
AcDbEntity
  8
OBJECT
100
AcDbLine
 10
5896.695307322193
 20
5868.402718399725
 30
0.0
 11
5637.905388813468
 21
5868.402718399725
 31
0.0
  0
LINE
  5
3B96
330
18
100
AcDbEntity
  8
OBJECT
100
AcDbLine
 10
5899.999674058699
 20
5861.793984926713
 30
0.0
 11
5637.905388813468
 21
5861.793984926713
 31
0.0
  0
LINE
  5
3B97
330
18
100
AcDbEntity
  8
OBJECT
100
AcDbLine
 10
5960.579673418965
 20
5740.63398620618
 30
0.0
 11
5637.905388813468
 21
5740.63398620618
 31
0.0
  0
LINE
  5
3B98
330
18
100
AcDbEntity
  8
OBJECT
100
AcDbLine
 10
5963.884037050245
 20
5734.025258943621
 30
0.0
 11
5637.905388813468
 21
5734.025258943621
 31
0.0
  0
LINE
  5
3B99
330
18
100
AcDbEntity
  8
OBJECT
100
AcDbLine
 10
5430.289672186219
 20
5531.213988671672
 30
0.0
 11
6430.289672186219
 21
5531.213988671672
 31
0.0
  0
LINE
  5
3B9A
102
{ACAD_REACTORS
330
3B9E
102
}
330
18
100
AcDbEntity
  8
OBJECT
100
AcDbLine
 10
5630.289672186219
 20
5601.213988671672
 30
0.0
 11
6230.28967218622
 21
5601.213988671672
 31
0.0
  0
LINE
  5
3B9B
102
{ACAD_REACTORS
330
3B9E
102
}
330
18
100
AcDbEntity
  8
OBJECT
100
AcDbLine
 10
5624.28967218622
 20
5595.213988671672
 30
0.0
 11
6236.28967218622
 21
5595.213988671672
 31
0.0
  0
LINE
  5
3B9C
330
18
100
AcDbEntity
  8
点線
100
AcDbLine
 10
5430.289672186219
 20
5651.213988671672
 30
0.0
 11
6005.289672186219
 21
5651.213988671672
 31
0.0
  0
LINE
  5
3B9D
330
18
100
AcDbEntity
  8
点線
100
AcDbLine
 10
5430.289672186219
 20
5951.213988671672
 30
0.0
 11
5855.28967218622
 21
5951.213988671672
 31
0.0
  0
HATCH
  5
3B9E
330
18
100
AcDbEntity
  8
OBJECT
100
AcDbHatch
 10
0.0
 20
0.0
 30
0.0
210
0.0
220
0.0
230
1.0
  2
AR-SAND
 70
     0
 71
     1
 91
        2
 92
        1
 93
        4
 72
     1
 10
5624.28967218622
 20
5595.213988671672
 11
6236.28967218622
 21
5595.213988671672
 72
     1
 10
6236.28967218622
 20
5595.213988671672
 11
6236.28967218622
 21
6007.213988671672
 72
     1
 10
6236.28967218622
 20
6007.213988671672
 11
5624.28967218622
 21
6007.213988671672
 72
     1
 10
5624.28967218622
 20
6007.213988671672
 11
5624.28967218622
 21
5595.213988671672
 97
        4
330
3B9B
330
3BFC
330
3B92
330
3BB8
 92
       16
 93
        4
 72
     1
 10
5630.289672186219
 20
5601.213988671672
 11
6230.28967218622
 21
5601.213988671672
 72
     1
 10
6230.28967218622
 20
5601.213988671672
 11
6230.28967218622
 21
6001.213988671672
 72
     1
 10
6230.28967218622
 20
6001.213988671672
 11
5630.289672186219
 21
6001.213988671672
 72
     1
 10
5630.289672186219
 20
6001.213988671672
 11
5630.289672186219
 21
5601.213988671672
 97
        4
330
3B9A
330
3BFB
330
3B91
330
3BB7
 75
     0
 76
     1
 52
90.0
 41
1.0
 77
     0
 78
     4
 53
127.5
 43
10388.89642362615
 44
-366.8195499267058
 45
-48.94132373293423
 46
-1.600031295984042
 79
     6
 49
0.0
 49
-38.608
 49
0.0
 49
-43.18
 49
0.0
 49
-41.275
 53
97.49999999999992
 43
10388.89642362615
 44
-366.8195499267058
 45
-71.68251005683543
 46
44.95232831380027
 79
     6
 49
0.0
 49
-20.828
 49
0.0
 49
-34.79799999999999
 49
0.0
 49
-13.33499999999999
 53
57.49999999999997
 43
10388.89642362615
 44
-398.0615499267059
 45
-0.1437184678545643
 46
79.09923702414579
 79
     6
 49
0.0
 49
-12.69999999999998
 49
0.0
 49
-45.71999999999995
 49
0.0
 49
-59.68999999999995
 53
47.49999999999999
 43
10388.89642362615
 44
-398.0615499267059
 45
-22.29293232572162
 46
76.35564524722972
 79
     6
 49
0.0
 49
-6.349999999999999
 49
0.0
 49
-29.97199999999999
 49
0.0
 49
-34.29
 98
        1
 10
10388.89642362615
 20
-366.8195499267058
  0
MTEXT
  5
3B9F
330
18
100
AcDbEntity
  8
0
  6
ByBlock
 62
     0
 48
10.0
100
AcDbMText
 10
5190.289680949636
 20
5976.214014494188
 30
0.0
 40
37.5
 41
0.0
 71
     5
 72
     1
  1
50
 11
0.0000000000000001
 21
1.0
 31
0.0
 73
     1
 44
1.0
  0
LINE
  5
3BA0
330
18
100
AcDbEntity
  8
OBJECT
 48
10.0
100
AcDbLine
 10
5250.289680949638
 20
5531.214014494144
 30
0.0
 11
5250.289680949636
 21
6101.214014494188
 31
0.0
  0
LINE
  5
3BA1
330
18
100
AcDbEntity
  8
OBJECT
 48
10.0
100
AcDbLine
 10
5100.289672186214
 20
5531.214014494144
 30
0.0
 11
5100.289672186214
 21
6101.214014494166
 31
0.0
  0
LINE
  5
3BA2
330
18
100
AcDbEntity
  8
OBJECT
100
AcDbLine
 10
5635.28967218622
 20
5996.213985290919
 30
0.0
 11
5635.28967218622
 21
5606.213992052428
 31
0.0
  0
LINE
  5
3BA3
330
18
100
AcDbEntity
  8
OBJECT
100
AcDbLine
 10
5637.905388813468
 20
5989.562712573878
 30
0.0
 11
5637.905388813468
 21
5612.865260223088
 31
0.0
  0
LINE
  5
3BA4
330
18
100
AcDbEntity
  8
OBJECT
100
AcDbLine
 10
5814.466444308219
 20
5868.40270298774
 30
0.0
 11
5814.466444308219
 21
5989.562697161893
 31
0.0
  0
LINE
  5
3BA5
330
18
100
AcDbEntity
  8
OBJECT
100
AcDbLine
 10
5657.523273975885
 20
5868.402714103515
 30
0.0
 11
5657.523273975885
 21
5989.56270827767
 31
0.0
  0
LINE
  5
3BA6
330
18
100
AcDbEntity
  8
OBJECT
100
AcDbLine
 10
5654.907557348637
 20
5868.402714103515
 30
0.0
 11
5654.907557348637
 21
5989.56270827767
 31
0.0
  0
LINE
  5
3BA7
330
18
100
AcDbEntity
  8
OBJECT
100
AcDbLine
 10
5674.525453640178
 20
5868.402722946103
 30
0.0
 11
5674.525453640178
 21
5989.562717120256
 31
0.0
  0
LINE
  5
3BA8
330
18
100
AcDbEntity
  8
OBJECT
100
AcDbLine
 10
5716.37696285051
 20
5868.40273178869
 30
0.0
 11
5716.37696285051
 21
5989.562725962844
 31
0.0
  0
LINE
  5
3BA9
330
18
100
AcDbEntity
  8
OBJECT
100
AcDbLine
 10
5713.761246223263
 20
5868.40273178869
 30
0.0
 11
5713.761246223263
 21
5989.562725962844
 31
0.0
  0
LINE
  5
3BAA
330
18
100
AcDbEntity
  8
OBJECT
100
AcDbLine
 10
5775.230651725134
 20
5868.402720672913
 30
0.0
 11
5775.230651725134
 21
5989.562714847065
 31
0.0
  0
LINE
  5
3BAB
330
18
100
AcDbEntity
  8
OBJECT
100
AcDbLine
 10
5772.614935097887
 20
5868.402720672913
 30
0.0
 11
5772.614935097887
 21
5989.562714847065
 31
0.0
  0
LINE
  5
3BAC
330
18
100
AcDbEntity
  8
OBJECT
100
AcDbLine
 10
5792.232831389429
 20
5868.402729515499
 30
0.0
 11
5792.232831389429
 21
5989.562723689655
 31
0.0
  0
LINE
  5
3BAD
330
18
100
AcDbEntity
  8
OBJECT
100
AcDbLine
 10
5794.848548016677
 20
5868.402729515499
 30
0.0
 11
5794.848548016677
 21
5989.562723689655
 31
0.0
  0
LINE
  5
3BAE
330
18
100
AcDbEntity
  8
OBJECT
100
AcDbLine
 10
5755.612755433594
 20
5868.402720672913
 30
0.0
 11
5755.612755433594
 21
5989.562714847065
 31
0.0
  0
LINE
  5
3BAF
330
18
100
AcDbEntity
  8
OBJECT
100
AcDbLine
 10
5752.997038806345
 20
5868.402720672913
 30
0.0
 11
5752.997038806345
 21
5989.562714847065
 31
0.0
  0
LINE
  5
3BB0
330
18
100
AcDbEntity
  8
OBJECT
100
AcDbLine
 10
5733.379142514802
 20
5868.402711830327
 30
0.0
 11
5733.379142514802
 21
5989.562706004479
 31
0.0
  0
LINE
  5
3BB1
330
18
100
AcDbEntity
  8
OBJECT
100
AcDbLine
 10
5735.994859142053
 20
5868.402711830327
 30
0.0
 11
5735.994859142053
 21
5989.562706004479
 31
0.0
  0
LINE
  5
3BB2
330
18
100
AcDbEntity
  8
OBJECT
100
AcDbLine
 10
5811.850727680971
 20
5868.40270298774
 30
0.0
 11
5811.850727680971
 21
5989.562697161893
 31
0.0
  0
LINE
  5
3BB3
330
18
100
AcDbEntity
  8
OBJECT
100
AcDbLine
 10
5677.141170267427
 20
5868.402722946103
 30
0.0
 11
5677.141170267427
 21
5989.562717120256
 31
0.0
  0
LINE
  5
3BB4
330
18
100
AcDbEntity
  8
OBJECT
100
AcDbLine
 10
5694.143349931721
 20
5868.402722946103
 30
0.0
 11
5694.143349931721
 21
5989.562717120256
 31
0.0
  0
LINE
  5
3BB5
330
18
100
AcDbEntity
  8
OBJECT
100
AcDbLine
 10
5696.759066558969
 20
5868.402722946103
 30
0.0
 11
5696.759066558969
 21
5989.562717120256
 31
0.0
  0
LINE
  5
3BB6
330
18
100
AcDbEntity
  8
OBJECT
100
AcDbLine
 10
5430.289672186219
 20
6101.213988671672
 30
0.0
 11
5430.289672186219
 21
5531.213988671672
 31
0.0
  0
LINE
  5
3BB7
102
{ACAD_REACTORS
330
3B9E
102
}
330
18
100
AcDbEntity
  8
OBJECT
100
AcDbLine
 10
5630.289672186219
 20
5601.213988671672
 30
0.0
 11
5630.289672186219
 21
6001.213988671672
 31
0.0
  0
LINE
  5
3BB8
102
{ACAD_REACTORS
330
3B9E
102
}
330
18
100
AcDbEntity
  8
OBJECT
100
AcDbLine
 10
5624.28967218622
 20
5595.213988671672
 30
0.0
 11
5624.28967218622
 21
6007.213988671672
 31
0.0
  0
LINE
  5
3BB9
330
18
100
AcDbEntity
  8
0
 48
10.0
100
AcDbLine
 10
5400.289672186223
 20
5601.214014494144
 30
0.0
 11
5220.289672186224
 21
5601.214014494144
 31
0.0
  0
LINE
  5
3BBA
330
18
100
AcDbEntity
  8
0
 48
10.0
100
AcDbLine
 10
5400.289682281414
 20
5651.214014494144
 30
0.0
 11
5220.289682281414
 21
5651.214014494144
 31
0.0
  0
LINE
  5
3BBB
330
18
100
AcDbEntity
  8
0
 48
10.0
100
AcDbLine
 10
5400.28968228141
 20
5951.214014494188
 30
0.0
 11
5220.289682281411
 21
5951.214014494188
 31
0.0
  0
LINE
  5
3BBC
330
18
100
AcDbEntity
  8
0
 48
10.0
100
AcDbLine
 10
5400.28967218622
 20
5531.214014494144
 30
0.0
 11
5070.28967218622
 21
5531.214014494144
 31
0.0
  0
LINE
  5
3BBD
330
18
100
AcDbEntity
  8
0
 48
10.0
100
AcDbLine
 10
5400.28968228141
 20
5651.214014494144
 30
0.0
 11
5220.289682281411
 21
5651.214014494144
 31
0.0
  0
SOLID
  5
3BBE
330
18
100
AcDbEntity
  8
0
  6
ByBlock
 62
     0
 48
10.0
100
AcDbTrace
 10
5106.539672186216
 20
5568.714014494165
 30
0.0
 11
5094.039672186216
 21
5568.714014494165
 31
0.0
 12
5100.289672186214
 22
5531.214014494166
 32
0.0
 13
5100.289672186214
 23
5531.214014494166
 33
0.0
  0
MTEXT
  5
3BBF
330
18
100
AcDbEntity
  8
0
  6
ByBlock
 62
     0
 48
10.0
100
AcDbMText
 10
5190.289680949639
 20
5626.214014494144
 30
0.0
 40
37.5
 41
0.0
 71
     5
 72
     1
  1
50
 11
0.0000000000000001
 21
1.0
 31
0.0
 73
     1
 44
1.0
  0
LWPOLYLINE
  5
3BC0
330
18
100
AcDbEntity
  8
上線
 48
10.0
100
AcDbPolyline
 90
        2
 70
     1
 43
5.0
 10
5250.311618557446
 20
5603.714014494144
 42
-1.0
 10
5250.311618557446
 20
5598.714014494144
 42
-1.0
  0
SOLID
  5
3BC1
330
18
100
AcDbEntity
  8
0
  6
ByBlock
 62
     0
 48
10.0
100
AcDbTrace
 10
5244.039680949644
 20
5493.714002635011
 30
0.0
 11
5256.539680949646
 21
5493.714002635011
 31
0.0
 12
5250.289680949645
 22
5531.214002635011
 32
0.0
 13
5250.289680949645
 23
5531.214002635011
 33
0.0
  0
MTEXT
  5
3BC2
330
18
100
AcDbEntity
  8
0
  6
ByBlock
 62
     0
 48
10.0
100
AcDbMText
 10
5220.289680949639
 20
5566.214014494144
 30
0.0
 40
37.5
 41
0.0
 71
     5
 72
     1
  1
70
 11
0.0000000000000001
 21
1.0
 31
0.0
 73
     1
 44
1.0
  0
SOLID
  5
3BC3
330
18
100
AcDbEntity
  8
0
  6
ByBlock
 62
     0
 48
10.0
100
AcDbTrace
 10
5256.539663422795
 20
5688.71401449415
 30
0.0
 11
5244.039663422797
 21
5688.71401449415
 31
0.0
 12
5250.289663422794
 22
5651.214014494151
 32
0.0
 13
5250.289663422794
 23
5651.214014494151
 33
0.0
  0
MTEXT
  5
3BC4
330
18
100
AcDbEntity
  8
0
  6
ByBlock
 62
     0
 48
10.0
100
AcDbMText
 10
5070.289672186216
 20
5816.214014494188
 30
0.0
 40
37.5
 41
0.0
 71
     5
 72
     1
  1
570
 11
0.0000000000000001
 21
1.0
 31
0.0
 73
     1
 44
1.0
  0
MTEXT
  5
3BC5
330
18
100
AcDbEntity
  8
0
  6
ByBlock
 62
     0
 48
10.0
100
AcDbMText
 10
5220.289672186218
 20
5801.214014494188
 30
0.0
 40
37.5
 41
0.0
 71
     5
 72
     1
  1
300
 11
0.0000000000000001
 21
1.0
 31
0.0
 73
     1
 44
1.0
  0
SOLID
  5
3BC6
330
18
100
AcDbEntity
  8
0
  6
ByBlock
 62
     0
 48
10.0
100
AcDbTrace
 10
5256.539672186216
 20
5913.714119655232
 30
0.0
 11
5244.039672186218
 21
5913.714119655232
 31
0.0
 12
5250.289672186214
 22
5951.214119655233
 32
0.0
 13
5250.289672186214
 23
5951.214119655233
 33
0.0
  0
LINE
  5
3BC7
330
18
100
AcDbEntity
  8
OBJECT
100
AcDbLine
 10
5654.907557348637
 20
5734.025263239829
 30
0.0
 11
5654.907557348637
 21
5612.865269065674
 31
0.0
  0
LINE
  5
3BC8
330
18
100
AcDbEntity
  8
OBJECT
100
AcDbLine
 10
5696.759066558969
 20
5734.025254397241
 30
0.0
 11
5696.759066558969
 21
5612.865260223088
 31
0.0
  0
LINE
  5
3BC9
330
18
100
AcDbEntity
  8
OBJECT
100
AcDbLine
 10
5694.143349931721
 20
5734.025254397241
 30
0.0
 11
5694.143349931721
 21
5612.865260223088
 31
0.0
  0
LINE
  5
3BCA
330
18
100
AcDbEntity
  8
OBJECT
100
AcDbLine
 10
5677.141170267427
 20
5734.025254397241
 30
0.0
 11
5677.141170267427
 21
5612.865260223088
 31
0.0
  0
LINE
  5
3BCB
330
18
100
AcDbEntity
  8
OBJECT
100
AcDbLine
 10
5735.994859142053
 20
5734.025265513019
 30
0.0
 11
5735.994859142053
 21
5612.865271338865
 31
0.0
  0
LINE
  5
3BCC
330
18
100
AcDbEntity
  8
OBJECT
100
AcDbLine
 10
5733.379142514802
 20
5734.025265513019
 30
0.0
 11
5733.379142514802
 21
5612.865271338865
 31
0.0
  0
LINE
  5
3BCD
330
18
100
AcDbEntity
  8
OBJECT
100
AcDbLine
 10
5752.997038806345
 20
5734.025256670431
 30
0.0
 11
5752.997038806345
 21
5612.86526249628
 31
0.0
  0
LINE
  5
3BCE
330
18
100
AcDbEntity
  8
OBJECT
100
AcDbLine
 10
5755.612755433594
 20
5734.025256670431
 30
0.0
 11
5755.612755433594
 21
5612.86526249628
 31
0.0
  0
LINE
  5
3BCF
330
18
100
AcDbEntity
  8
OBJECT
100
AcDbLine
 10
5772.614935097887
 20
5734.025256670431
 30
0.0
 11
5772.614935097887
 21
5612.86526249628
 31
0.0
  0
LINE
  5
3BD0
330
18
100
AcDbEntity
  8
OBJECT
100
AcDbLine
 10
5775.230651725134
 20
5734.025256670431
 30
0.0
 11
5775.230651725134
 21
5612.86526249628
 31
0.0
  0
LINE
  5
3BD1
330
18
100
AcDbEntity
  8
OBJECT
100
AcDbLine
 10
5713.761246223263
 20
5734.025245554654
 30
0.0
 11
5713.761246223263
 21
5612.865251380501
 31
0.0
  0
LINE
  5
3BD2
330
18
100
AcDbEntity
  8
OBJECT
100
AcDbLine
 10
5716.37696285051
 20
5734.025245554654
 30
0.0
 11
5716.37696285051
 21
5612.865251380501
 31
0.0
  0
LINE
  5
3BD3
330
18
100
AcDbEntity
  8
OBJECT
100
AcDbLine
 10
5674.525453640178
 20
5734.025254397241
 30
0.0
 11
5674.525453640178
 21
5612.865260223088
 31
0.0
  0
LINE
  5
3BD4
330
18
100
AcDbEntity
  8
OBJECT
100
AcDbLine
 10
5657.523273975885
 20
5734.025263239829
 30
0.0
 11
5657.523273975885
 21
5612.865269065674
 31
0.0
  0
LINE
  5
3BD5
330
18
100
AcDbEntity
  8
OBJECT
100
AcDbLine
 10
5814.466444308219
 20
5734.025274355605
 30
0.0
 11
5814.466444308219
 21
5612.865280181452
 31
0.0
  0
LINE
  5
3BD6
330
18
100
AcDbEntity
  8
OBJECT
100
AcDbLine
 10
5811.850727680971
 20
5734.025274355605
 30
0.0
 11
5811.850727680971
 21
5612.865280181452
 31
0.0
  0
LINE
  5
3BD7
330
18
100
AcDbEntity
  8
OBJECT
100
AcDbLine
 10
5794.848548016677
 20
5734.025247827845
 30
0.0
 11
5794.848548016677
 21
5612.865253653691
 31
0.0
  0
LINE
  5
3BD8
330
18
100
AcDbEntity
  8
OBJECT
100
AcDbLine
 10
5792.232831389429
 20
5734.025247827845
 30
0.0
 11
5792.232831389429
 21
5612.865253653691
 31
0.0
  0
LINE
  5
3BD9
330
18
100
AcDbEntity
  8
OBJECT
100
AcDbLine
 10
5654.907557348637
 20
5740.633981909972
 30
0.0
 11
5654.907557348637
 21
5861.793976084126
 31
0.0
  0
LINE
  5
3BDA
330
18
100
AcDbEntity
  8
OBJECT
100
AcDbLine
 10
5735.994859142053
 20
5740.633979636783
 30
0.0
 11
5735.994859142053
 21
5861.793973810934
 31
0.0
  0
LINE
  5
3BDB
330
18
100
AcDbEntity
  8
OBJECT
100
AcDbLine
 10
5733.379142514802
 20
5740.633979636783
 30
0.0
 11
5733.379142514802
 21
5861.793973810934
 31
0.0
  0
LINE
  5
3BDC
330
18
100
AcDbEntity
  8
OBJECT
100
AcDbLine
 10
5752.997038806345
 20
5740.633988479369
 30
0.0
 11
5752.997038806345
 21
5861.793982653522
 31
0.0
  0
LINE
  5
3BDD
330
18
100
AcDbEntity
  8
OBJECT
100
AcDbLine
 10
5755.612755433594
 20
5740.633988479369
 30
0.0
 11
5755.612755433594
 21
5861.793982653522
 31
0.0
  0
LINE
  5
3BDE
330
18
100
AcDbEntity
  8
OBJECT
100
AcDbLine
 10
5772.614935097887
 20
5740.633988479369
 30
0.0
 11
5772.614935097887
 21
5861.793982653522
 31
0.0
  0
LINE
  5
3BDF
330
18
100
AcDbEntity
  8
OBJECT
100
AcDbLine
 10
5775.230651725134
 20
5740.633988479369
 30
0.0
 11
5775.230651725134
 21
5861.793982653522
 31
0.0
  0
LINE
  5
3BE0
330
18
100
AcDbEntity
  8
OBJECT
100
AcDbLine
 10
5696.759066558969
 20
5740.633990752558
 30
0.0
 11
5696.759066558969
 21
5861.793984926713
 31
0.0
  0
LINE
  5
3BE1
330
18
100
AcDbEntity
  8
OBJECT
100
AcDbLine
 10
5694.143349931721
 20
5740.633990752558
 30
0.0
 11
5694.143349931721
 21
5861.793984926713
 31
0.0
  0
LINE
  5
3BE2
330
18
100
AcDbEntity
  8
OBJECT
100
AcDbLine
 10
5713.761246223263
 20
5740.633999595146
 30
0.0
 11
5713.761246223263
 21
5861.7939937693
 31
0.0
  0
LINE
  5
3BE3
330
18
100
AcDbEntity
  8
OBJECT
100
AcDbLine
 10
5716.37696285051
 20
5740.633999595146
 30
0.0
 11
5716.37696285051
 21
5861.7939937693
 31
0.0
  0
LINE
  5
3BE4
330
18
100
AcDbEntity
  8
OBJECT
100
AcDbLine
 10
5677.141170267427
 20
5740.633990752558
 30
0.0
 11
5677.141170267427
 21
5861.793984926713
 31
0.0
  0
LINE
  5
3BE5
330
18
100
AcDbEntity
  8
OBJECT
100
AcDbLine
 10
5674.525453640178
 20
5740.633990752558
 30
0.0
 11
5674.525453640178
 21
5861.793984926713
 31
0.0
  0
LINE
  5
3BE6
330
18
100
AcDbEntity
  8
OBJECT
100
AcDbLine
 10
5657.523273975885
 20
5740.633981909972
 30
0.0
 11
5657.523273975885
 21
5861.793976084126
 31
0.0
  0
LINE
  5
3BE7
330
18
100
AcDbEntity
  8
OBJECT
100
AcDbLine
 10
5814.466444308219
 20
5740.633970794197
 30
0.0
 11
5814.466444308219
 21
5861.793964968351
 31
0.0
  0
LINE
  5
3BE8
330
18
100
AcDbEntity
  8
OBJECT
100
AcDbLine
 10
5811.850727680971
 20
5740.633970794197
 30
0.0
 11
5811.850727680971
 21
5861.793964968351
 31
0.0
  0
LINE
  5
3BE9
330
18
100
AcDbEntity
  8
OBJECT
100
AcDbLine
 10
5794.848548016677
 20
5740.633997321957
 30
0.0
 11
5794.848548016677
 21
5861.79399149611
 31
0.0
  0
LINE
  5
3BEA
330
18
100
AcDbEntity
  8
OBJECT
100
AcDbLine
 10
5792.232831389429
 20
5740.633997321957
 30
0.0
 11
5792.232831389429
 21
5861.79399149611
 31
0.0
  0
LINE
  5
3BEB
330
18
100
AcDbEntity
  8
0
 48
10.0
100
AcDbLine
 10
5400.289672186216
 20
6101.214014494188
 30
0.0
 11
5070.289672186216
 21
6101.214014494188
 31
0.0
  0
LINE
  5
3BEC
330
18
100
AcDbEntity
  8
0
 48
10.0
100
AcDbLine
 10
5400.28967218622
 20
6001.214014494188
 30
0.0
 11
5220.28967218622
 21
6001.214014494188
 31
0.0
  0
SOLID
  5
3BED
330
18
100
AcDbEntity
  8
0
  6
ByBlock
 62
     0
 48
10.0
100
AcDbTrace
 10
5106.539672186216
 20
6063.714014494166
 30
0.0
 11
5094.039672186216
 21
6063.714014494166
 31
0.0
 12
5100.289672186214
 22
6101.214014494166
 32
0.0
 13
5100.289672186214
 23
6101.214014494166
 33
0.0
  0
SOLID
  5
3BEE
330
18
100
AcDbEntity
  8
0
  6
ByBlock
 62
     0
 48
10.0
100
AcDbTrace
 10
5244.03968094964
 20
6063.714002635055
 30
0.0
 11
5256.539680949641
 21
6063.714002635055
 31
0.0
 12
5250.289680949641
 22
6101.214002635055
 32
0.0
 13
5250.289680949641
 23
6101.214002635055
 33
0.0
  0
SOLID
  5
3BEF
330
18
100
AcDbEntity
  8
0
  6
ByBlock
 62
     0
 48
10.0
100
AcDbTrace
 10
5244.03968094964
 20
6038.714038212486
 30
0.0
 11
5256.539680949641
 21
6038.714038212486
 31
0.0
 12
5250.289680949641
 22
6001.214038212485
 32
0.0
 13
5250.289680949641
 23
6001.214038212485
 33
0.0
  0
MTEXT
  5
3BF0
330
18
100
AcDbEntity
  8
0
  6
ByBlock
 62
     0
 48
10.0
100
AcDbMText
 10
5220.289680949636
 20
6051.214014494188
 30
0.0
 40
37.5
 41
0.0
 71
     5
 72
     1
  1
100
 11
0.0000000000000001
 21
1.0
 31
0.0
 73
     1
 44
1.0
  0
LINE
  5
3BF1
330
18
100
AcDbEntity
  8
0
 48
10.0
100
AcDbLine
 10
5630.289672186219
 20
6131.213988671672
 30
0.0
 11
5630.289672186219
 21
6311.213988671672
 31
0.0
  0
LINE
  5
3BF2
330
18
100
AcDbEntity
  8
0
 48
10.0
100
AcDbLine
 10
5430.289672186219
 20
6131.213988671672
 30
0.0
 11
5430.289672186219
 21
6461.213988671672
 31
0.0
  0
SOLID
  5
3BF3
330
18
100
AcDbEntity
  8
0
  6
ByBlock
 62
     0
 48
10.0
100
AcDbTrace
 10
5592.789672186217
 20
6274.963988671671
 30
0.0
 11
5592.789672186217
 21
6287.463988671671
 31
0.0
 12
5630.289672186217
 22
6281.213988671672
 32
0.0
 13
5630.289672186217
 23
6281.213988671672
 33
0.0
  0
SOLID
  5
3BF4
330
18
100
AcDbEntity
  8
0
  6
ByBlock
 62
     0
 48
10.0
100
AcDbTrace
 10
5467.789684045374
 20
6274.963977931725
 30
0.0
 11
5467.789684045374
 21
6287.463977931725
 31
0.0
 12
5430.289684045374
 22
6281.213977931725
 32
0.0
 13
5430.289684045374
 23
6281.213977931725
 33
0.0
  0
MTEXT
  5
3BF5
330
18
100
AcDbEntity
  8
0
  6
ByBlock
 62
     0
 48
10.0
100
AcDbMText
 10
5530.28967218622
 20
6311.213979908252
 30
0.0
 40
37.5
 41
0.0
 71
     5
 72
     1
  1
200
 73
     1
 44
1.0
  0
SOLID
  5
3BF6
330
18
100
AcDbEntity
  8
0
  6
ByBlock
 62
     0
 48
10.0
100
AcDbTrace
 10
5467.789672186242
 20
6424.963988671674
 30
0.0
 11
5467.789672186242
 21
6437.463988671675
 31
0.0
 12
5430.289672186241
 22
6431.213988671676
 32
0.0
 13
5430.289672186241
 23
6431.213988671676
 33
0.0
  0
SOLID
  5
3BF7
330
18
100
AcDbEntity
  8
0
  6
ByBlock
 62
     0
 48
10.0
100
AcDbTrace
 10
5667.789607746525
 20
6274.963988671671
 30
0.0
 11
5667.789607746525
 21
6287.463988671671
 31
0.0
 12
5630.289607746525
 22
6281.213988671672
 32
0.0
 13
5630.289607746525
 23
6281.213988671672
 33
0.0
  0
LINE
  5
3BF8
330
18
100
AcDbEntity
  8
OBJECT
100
AcDbLine
 10
5834.08434059976
 20
5868.402711830327
 30
0.0
 11
5834.08434059976
 21
5989.562706004479
 31
0.0
  0
LINE
  5
3BF9
330
18
100
AcDbEntity
  8
OBJECT
100
AcDbLine
 10
5831.468623972511
 20
5868.402711830327
 30
0.0
 11
5831.468623972511
 21
5989.562706004479
 31
0.0
  0
LINE
  5
3BFA
330
18
100
AcDbEntity
  8
OBJECT
100
AcDbLine
 10
6430.289672186219
 20
5531.213988671672
 30
0.0
 11
6430.289672186219
 21
6101.213988671672
 31
0.0
  0
LINE
  5
3BFB
102
{ACAD_REACTORS
330
3B9E
102
}
330
18
100
AcDbEntity
  8
OBJECT
100
AcDbLine
 10
6230.28967218622
 20
5601.213988671672
 30
0.0
 11
6230.28967218622
 21
6001.213988671672
 31
0.0
  0
LINE
  5
3BFC
102
{ACAD_REACTORS
330
3B9E
102
}
330
18
100
AcDbEntity
  8
OBJECT
100
AcDbLine
 10
6236.28967218622
 20
5595.213988671672
 30
0.0
 11
6236.28967218622
 21
6007.213988671672
 31
0.0
  0
LINE
  5
3BFD
330
18
100
AcDbEntity
  8
OBJECT
100
AcDbLine
 10
5832.789675566973
 20
5996.213981910165
 30
0.0
 11
6027.789672186219
 21
5606.213988671672
 31
0.0
  0
HATCH
  5
3BFE
330
18
100
AcDbEntity
  8
OBJECT
100
AcDbHatch
 10
0.0
 20
0.0
 30
0.0
210
0.0
220
0.0
230
1.0
  2
AR-SAND
 70
     0
 71
     0
 91
        1
 92
        1
 93
        4
 72
     1
 10
5830.28967218622
 20
6001.213988671672
 11
6230.28967218622
 21
6001.213988671672
 72
     1
 10
6230.28967218622
 20
6001.213988671672
 11
6230.28967218622
 21
5951.213988671672
 72
     1
 10
6230.28967218622
 20
5951.213988671672
 11
5855.28967218622
 21
5951.213988671672
 72
     1
 10
5855.28967218622
 20
5951.213988671672
 11
5830.28967218622
 21
6001.213988671672
 97
        0
 75
     0
 76
     1
 52
90.0
 41
1.0
 77
     0
 78
     4
 53
127.5
 43
10388.89642362615
 44
-366.8195499267058
 45
-48.94132373293423
 46
-1.600031295984042
 79
     6
 49
0.0
 49
-38.608
 49
0.0
 49
-43.18
 49
0.0
 49
-41.275
 53
97.49999999999992
 43
10388.89642362615
 44
-366.8195499267058
 45
-71.68251005683543
 46
44.95232831380027
 79
     6
 49
0.0
 49
-20.828
 49
0.0
 49
-34.79799999999999
 49
0.0
 49
-13.33499999999999
 53
57.49999999999997
 43
10388.89642362615
 44
-398.0615499267059
 45
-0.1437184678545643
 46
79.09923702414579
 79
     6
 49
0.0
 49
-12.69999999999998
 49
0.0
 49
-45.71999999999995
 49
0.0
 49
-59.68999999999995
 53
47.49999999999999
 43
10388.89642362615
 44
-398.0615499267059
 45
-22.29293232572162
 46
76.35564524722972
 79
     6
 49
0.0
 49
-6.349999999999999
 49
0.0
 49
-29.97199999999999
 49
0.0
 49
-34.29
 98
        1
 10
10388.89642362615
 20
-366.8195499267058
  0
LINE
  5
3BFF
330
18
100
AcDbEntity
  8
WUWAGAKI
 48
10.0
100
AcDbLine
 10
6114.453187395572
 20
5943.873646735392
 30
0.0
 11
6465.339484580501
 21
5794.591971667987
 31
0.0
210
0.0
220
0.0
230
-1.0
1001
ACAD
1000
DSTYLE
1002
{
1070
    78
1070
     8
1070
   270
1070
     8
1070
   140
1040
2.5
1070
    74
1070
     0
1070
   172
1070
     1
1070
    73
1070
     0
1070
    77
1070
     1
1070
    40
1040
10.0
1070
   147
1040
0.625
1070
    42
1040
0.625
1070
    44
1040
1.25
1070
    43
1040
3.75
1070
   141
1040
2.5
1070
    41
1040
2.5
1070
   273
1070
     8
1070
   274
1070
     4
1070
   143
1040
0.0394
1070
   171
1070
     4
1002
}
  0
LINE
  5
3C00
330
18
100
AcDbEntity
  8
OBJECT
 48
10.0
100
AcDbLine
 10
5979.133297120443
 20
5703.526738803225
 30
0.0
 11
6710.339484580501
 21
5703.526738803225
 31
0.0
  0
LINE
  5
3C01
330
18
100
AcDbEntity
  8
点線
100
AcDbLine
 10
6230.28967218622
 20
5651.213988671672
 30
0.0
 11
6430.289672186219
 21
5651.213988671672
 31
0.0
  0
LINE
  5
3C02
330
18
100
AcDbEntity
  8
点線
100
AcDbLine
 10
6230.28967218622
 20
5951.213988671672
 30
0.0
 11
6430.289672186219
 21
5951.213988671672
 31
0.0
  0
LINE
  5
3C03
330
18
100
AcDbEntity
  8
OBJECT
100
AcDbLine
 10
5831.468623972511
 20
5734.025265513019
 30
0.0
 11
5831.468623972511
 21
5612.865271338865
 31
0.0
  0
LINE
  5
3C04
330
18
100
AcDbEntity
  8
OBJECT
100
AcDbLine
 10
5834.08434059976
 20
5734.025265513019
 30
0.0
 11
5834.08434059976
 21
5612.865271338865
 31
0.0
  0
LINE
  5
3C05
330
18
100
AcDbEntity
  8
OBJECT
100
AcDbLine
 10
5890.322312847136
 20
5734.025276628794
 30
0.0
 11
5890.322312847136
 21
5612.865282454641
 31
0.0
  0
LINE
  5
3C06
330
18
100
AcDbEntity
  8
OBJECT
100
AcDbLine
 10
5892.938029474386
 20
5734.025276628794
 30
0.0
 11
5892.938029474386
 21
5612.865282454641
 31
0.0
  0
LINE
  5
3C07
330
18
100
AcDbEntity
  8
OBJECT
100
AcDbLine
 10
5912.555925765929
 20
5734.025267786208
 30
0.0
 11
5912.555925765929
 21
5612.865273612056
 31
0.0
  0
LINE
  5
3C08
330
18
100
AcDbEntity
  8
OBJECT
100
AcDbLine
 10
5909.940209138678
 20
5734.025267786208
 30
0.0
 11
5909.940209138678
 21
5612.865273612056
 31
0.0
  0
LINE
  5
3C09
330
18
100
AcDbEntity
  8
OBJECT
100
AcDbLine
 10
5873.320133182843
 20
5734.025256670431
 30
0.0
 11
5873.320133182843
 21
5612.86526249628
 31
0.0
  0
LINE
  5
3C0A
330
18
100
AcDbEntity
  8
OBJECT
100
AcDbLine
 10
5870.704416555594
 20
5734.025256670431
 30
0.0
 11
5870.704416555594
 21
5612.86526249628
 31
0.0
  0
LINE
  5
3C0B
330
18
100
AcDbEntity
  8
OBJECT
100
AcDbLine
 10
5851.086520264054
 20
5734.025265513019
 30
0.0
 11
5851.086520264054
 21
5612.865271338865
 31
0.0
  0
LINE
  5
3C0C
330
18
100
AcDbEntity
  8
OBJECT
100
AcDbLine
 10
5853.702236891302
 20
5734.025265513019
 30
0.0
 11
5853.702236891302
 21
5612.865271338865
 31
0.0
  0
LINE
  5
3C0D
330
18
100
AcDbEntity
  8
OBJECT
100
AcDbLine
 10
5951.79171834901
 20
5734.025258943621
 30
0.0
 11
5951.79171834901
 21
5612.865264769467
 31
0.0
  0
LINE
  5
3C0E
330
18
100
AcDbEntity
  8
OBJECT
100
AcDbLine
 10
5932.17382205747
 20
5734.025267786208
 30
0.0
 11
5932.17382205747
 21
5612.865273612056
 31
0.0
  0
LINE
  5
3C0F
330
18
100
AcDbEntity
  8
OBJECT
100
AcDbLine
 10
5929.558105430221
 20
5734.025267786208
 30
0.0
 11
5929.558105430221
 21
5612.865273612056
 31
0.0
  0
LINE
  5
3C10
330
18
100
AcDbEntity
  8
OBJECT
100
AcDbLine
 10
5949.176001721762
 20
5734.025258943621
 30
0.0
 11
5949.176001721762
 21
5612.865264769467
 31
0.0
  0
LINE
  5
3C11
330
18
100
AcDbEntity
  8
OBJECT
100
AcDbLine
 10
6005.289672186219
 20
5651.213988671672
 30
0.0
 11
6230.28967218622
 21
5651.213988671672
 31
0.0
  0
HATCH
  5
3C12
330
18
100
AcDbEntity
  8
OBJECT
100
AcDbHatch
 10
0.0
 20
0.0
 30
0.0
210
0.0
220
0.0
230
1.0
  2
AR-SAND
 70
     0
 71
     0
 91
        1
 92
        1
 93
        4
 72
     1
 10
6030.28967218622
 20
5601.213988671672
 11
6230.28967218622
 21
5601.213988671672
 72
     1
 10
6230.28967218622
 20
5601.213988671672
 11
6230.28967218622
 21
5651.213988671672
 72
     1
 10
6230.28967218622
 20
5651.213988671672
 11
6005.289672186219
 21
5651.213988671672
 72
     1
 10
6005.289672186219
 20
5651.213988671672
 11
6030.28967218622
 21
5601.213988671672
 97
        0
 75
     0
 76
     1
 52
90.0
 41
1.0
 77
     0
 78
     4
 53
127.5
 43
10388.89642362615
 44
-366.8195499267058
 45
-48.94132373293423
 46
-1.600031295984042
 79
     6
 49
0.0
 49
-38.608
 49
0.0
 49
-43.18
 49
0.0
 49
-41.275
 53
97.49999999999992
 43
10388.89642362615
 44
-366.8195499267058
 45
-71.68251005683543
 46
44.95232831380027
 79
     6
 49
0.0
 49
-20.828
 49
0.0
 49
-34.79799999999999
 49
0.0
 49
-13.33499999999999
 53
57.49999999999997
 43
10388.89642362615
 44
-398.0615499267059
 45
-0.1437184678545643
 46
79.09923702414579
 79
     6
 49
0.0
 49
-12.69999999999998
 49
0.0
 49
-45.71999999999995
 49
0.0
 49
-59.68999999999995
 53
47.49999999999999
 43
10388.89642362615
 44
-398.0615499267059
 45
-22.29293232572162
 46
76.35564524722972
 79
     6
 49
0.0
 49
-6.349999999999999
 49
0.0
 49
-29.97199999999999
 49
0.0
 49
-34.29
 98
        1
 10
10388.89642362615
 20
-366.8195499267058
  0
SOLID
  5
3C13
330
18
100
AcDbEntity
  8
0
  6
ByBlock
 62
     0
 48
10.0
100
AcDbTrace
 10
6016.056845176927
 20
5709.498730035061
 30
0.0
 11
6015.996871309511
 21
5696.998873910481
 31
0.0
 12
5978.527289869475
 22
5703.428723575012
 32
0.0
 13
5978.527289869475
 23
5703.428723575012
 33
0.0
  0
LINE
  5
3C14
330
18
100
AcDbEntity
  8
OBJECT
100
AcDbLine
 10
5988.411794304846
 20
5684.96974443442
 30
0.0
 11
5988.411794304846
 21
5612.865271338865
 31
0.0
  0
LINE
  5
3C15
330
18
100
AcDbEntity
  8
OBJECT
100
AcDbLine
 10
5991.027510932093
 20
5679.738311179924
 30
0.0
 11
5991.027510932093
 21
5612.865271338865
 31
0.0
  0
LINE
  5
3C16
330
18
100
AcDbEntity
  8
OBJECT
100
AcDbLine
 10
6008.029690596386
 20
5645.733951851338
 30
0.0
 11
6008.029690596386
 21
5612.865271338865
 31
0.0
  0
LINE
  5
3C17
330
18
100
AcDbEntity
  8
OBJECT
100
AcDbLine
 10
6010.645407223636
 20
5640.50251859684
 30
0.0
 11
6010.645407223636
 21
5612.865271338865
 31
0.0
  0
LINE
  5
3C18
330
18
100
AcDbEntity
  8
OBJECT
100
AcDbLine
 10
5968.793898013304
 20
5724.205537017503
 30
0.0
 11
5968.793898013304
 21
5612.865280181452
 31
0.0
  0
LINE
  5
3C19
330
18
100
AcDbEntity
  8
OBJECT
100
AcDbLine
 10
5971.409614640552
 20
5718.974103763009
 30
0.0
 11
5971.409614640552
 21
5612.865280181452
 31
0.0
  0
LINE
  5
3C1A
330
18
100
AcDbEntity
  8
OBJECT
100
AcDbLine
 10
6230.28967218622
 20
5601.213988671672
 30
0.0
 11
6230.28967218622
 21
5651.213988671672
 31
0.0
  0
LINE
  5
3C1B
330
18
100
AcDbEntity
  8
OBJECT
100
AcDbLine
 10
5855.28967218622
 20
5951.213988671672
 30
0.0
 11
6230.28967218622
 21
5951.213988671672
 31
0.0
  0
LINE
  5
3C1C
330
18
100
AcDbEntity
  8
OBJECT
100
AcDbLine
 10
5890.322312847136
 20
5740.633968521006
 30
0.0
 11
5890.322312847136
 21
5861.793962695159
 31
0.0
  0
LINE
  5
3C1D
330
18
100
AcDbEntity
  8
OBJECT
100
AcDbLine
 10
5892.938029474386
 20
5740.633968521006
 30
0.0
 11
5892.938029474386
 21
5861.793962695159
 31
0.0
  0
LINE
  5
3C1E
330
18
100
AcDbEntity
  8
OBJECT
100
AcDbLine
 10
5831.468623972511
 20
5740.633979636783
 30
0.0
 11
5831.468623972511
 21
5861.793973810934
 31
0.0
  0
LINE
  5
3C1F
330
18
100
AcDbEntity
  8
OBJECT
100
AcDbLine
 10
5834.08434059976
 20
5740.633979636783
 30
0.0
 11
5834.08434059976
 21
5861.793973810934
 31
0.0
  0
LINE
  5
3C20
330
18
100
AcDbEntity
  8
OBJECT
100
AcDbLine
 10
5873.320133182843
 20
5740.633988479369
 30
0.0
 11
5873.320133182843
 21
5861.793982653522
 31
0.0
  0
LINE
  5
3C21
330
18
100
AcDbEntity
  8
OBJECT
100
AcDbLine
 10
5870.704416555594
 20
5740.633988479369
 30
0.0
 11
5870.704416555594
 21
5861.793982653522
 31
0.0
  0
LINE
  5
3C22
330
18
100
AcDbEntity
  8
OBJECT
100
AcDbLine
 10
5851.086520264054
 20
5740.633979636783
 30
0.0
 11
5851.086520264054
 21
5861.793973810934
 31
0.0
  0
LINE
  5
3C23
330
18
100
AcDbEntity
  8
OBJECT
100
AcDbLine
 10
5853.702236891302
 20
5740.633979636783
 30
0.0
 11
5853.702236891302
 21
5861.793973810934
 31
0.0
  0
LINE
  5
3C24
330
18
100
AcDbEntity
  8
OBJECT
100
AcDbLine
 10
5909.940209138678
 20
5740.633977363592
 30
0.0
 11
5909.940209138678
 21
5841.912914766755
 31
0.0
  0
LINE
  5
3C25
330
18
100
AcDbEntity
  8
OBJECT
100
AcDbLine
 10
5912.555925765929
 20
5740.633977363592
 30
0.0
 11
5912.555925765929
 21
5836.681481512256
 31
0.0
  0
LINE
  5
3C26
330
18
100
AcDbEntity
  8
OBJECT
100
AcDbLine
 10
5929.558105430221
 20
5740.633977363592
 30
0.0
 11
5929.558105430221
 21
5802.677122183672
 31
0.0
  0
LINE
  5
3C27
330
18
100
AcDbEntity
  8
OBJECT
100
AcDbLine
 10
5932.17382205747
 20
5740.633977363592
 30
0.0
 11
5932.17382205747
 21
5797.445688929173
 31
0.0
  0
LINE
  5
3C28
330
18
100
AcDbEntity
  8
OBJECT
100
AcDbLine
 10
5949.176001721762
 20
5740.63398620618
 30
0.0
 11
5949.176001721762
 21
5763.441329600588
 31
0.0
  0
LINE
  5
3C29
330
18
100
AcDbEntity
  8
OBJECT
100
AcDbLine
 10
5951.79171834901
 20
5740.63398620618
 30
0.0
 11
5951.79171834901
 21
5758.209896346091
 31
0.0
  0
LINE
  5
3C2A
330
18
100
AcDbEntity
  8
OBJECT
100
AcDbLine
 10
5870.704416555594
 20
5868.402720672913
 30
0.0
 11
5870.704416555594
 21
5920.384499932922
 31
0.0
  0
LINE
  5
3C2B
330
18
100
AcDbEntity
  8
OBJECT
100
AcDbLine
 10
5873.320133182843
 20
5868.402720672913
 30
0.0
 11
5873.320133182843
 21
5915.153066678424
 31
0.0
  0
LINE
  5
3C2C
330
18
100
AcDbEntity
  8
OBJECT
100
AcDbLine
 10
5853.702236891302
 20
5868.402711830327
 30
0.0
 11
5853.702236891302
 21
5954.388859261507
 31
0.0
  0
LINE
  5
3C2D
330
18
100
AcDbEntity
  8
OBJECT
100
AcDbLine
 10
5890.322312847136
 20
5868.40270071455
 30
0.0
 11
5890.322312847136
 21
5881.148707349837
 31
0.0
  0
LINE
  5
3C2E
330
18
100
AcDbEntity
  8
OBJECT
100
AcDbLine
 10
5892.938029474386
 20
5868.40270071455
 30
0.0
 11
5892.938029474386
 21
5875.91727409534
 31
0.0
  0
LINE
  5
3C2F
330
18
100
AcDbEntity
  8
OBJECT
100
AcDbLine
 10
5851.086520264054
 20
5868.402711830327
 30
0.0
 11
5851.086520264054
 21
5959.620292516003
 31
0.0
  0
SOLID
  5
3C30
330
18
100
AcDbEntity
  8
0
  6
ByBlock
 62
     0
 48
10.0
100
AcDbTrace
 10
6134.107925611036
 20
5942.098210693202
 30
0.0
 11
6129.156419338785
 21
5930.620729016641
 31
0.0
 12
6097.199727445218
 22
5951.213988671672
 32
0.0
 13
6097.199727445218
 23
5951.213988671672
 33
0.0
  0
MTEXT
  5
3C31
330
18
100
AcDbEntity
  8
0
  6
ByBlock
 62
     0
 48
10.0
100
AcDbMText
 10
6582.839484580502
 20
5733.526738803226
 30
0.0
 40
30.0
 41
0.0
 71
     5
 72
     1
  1
グレーチング
 73
     1
 44
1.0
  0
LINE
  5
3C32
330
18
100
AcDbEntity
  8
OBJECT
 48
10.0
100
AcDbLine
 10
6465.339484580501
 20
5794.591971667987
 30
0.0
 11
6570.3394845805
 21
5794.591971667987
 31
0.0
  0
MTEXT
  5
3C33
330
18
100
AcDbEntity
  8
0
  6
ByBlock
 62
     0
 48
10.0
100
AcDbMText
 10
6517.839484580502
 20
5824.591971667987
 30
0.0
 40
30.0
 41
0.0
 71
     5
 72
     1
  1
受枠
 73
     1
 44
1.0
  0
LINE
  5
3C34
330
18
100
AcDbEntity
  8
0
 48
10.0
100
AcDbLine
 10
6230.28967218622
 20
6131.213988671672
 30
0.0
 11
6230.28967218622
 21
6311.213988671672
 31
0.0
  0
MTEXT
  5
3C35
330
18
100
AcDbEntity
  8
0
  6
ByBlock
 62
     0
 48
10.0
100
AcDbMText
 10
5930.289672186219
 20
6311.213988671673
 30
0.0
 40
37.5
 41
0.0
 71
     5
 72
     1
  1
600
 73
     1
 44
1.0
  0
SOLID
  5
3C36
330
18
100
AcDbEntity
  8
0
  6
ByBlock
 62
     0
 48
10.0
100
AcDbTrace
 10
6267.789672186222
 20
6274.963988671671
 30
0.0
 11
6267.789672186222
 21
6287.463988671671
 31
0.0
 12
6230.289672186223
 22
6281.213988671672
 32
0.0
 13
6230.289672186223
 23
6281.213988671672
 33
0.0
  0
SOLID
  5
3C37
330
18
100
AcDbEntity
  8
0
  6
ByBlock
 62
     0
 48
10.0
100
AcDbTrace
 10
6192.789736625915
 20
6274.963988671671
 30
0.0
 11
6192.789736625915
 21
6287.463988671671
 31
0.0
 12
6230.289736625915
 22
6281.213988671672
 32
0.0
 13
6230.289736625915
 23
6281.213988671672
 33
0.0
  0
LINE
  5
3C38
330
18
100
AcDbEntity
  8
0
 48
10.0
100
AcDbLine
 10
6430.289672186219
 20
6131.213988671672
 30
0.0
 11
6430.289672186219
 21
6461.213988671672
 31
0.0
  0
SOLID
  5
3C39
330
18
100
AcDbEntity
  8
0
  6
ByBlock
 62
     0
 48
10.0
100
AcDbTrace
 10
6392.789660327066
 20
6274.963977931725
 30
0.0
 11
6392.789660327066
 21
6287.463977931725
 31
0.0
 12
6430.289660327066
 22
6281.213977931725
 32
0.0
 13
6430.289660327066
 23
6281.213977931725
 33
0.0
  0
MTEXT
  5
3C3A
330
18
100
AcDbEntity
  8
0
  6
ByBlock
 62
     0
 48
10.0
100
AcDbMText
 10
6330.28967218622
 20
6311.213979908252
 30
0.0
 40
37.5
 41
0.0
 71
     5
 72
     1
  1
200
 73
     1
 44
1.0
  0
SOLID
  5
3C3B
330
18
100
AcDbEntity
  8
0
  6
ByBlock
 62
     0
 48
10.0
100
AcDbTrace
 10
6392.789672186198
 20
6424.963988671674
 30
0.0
 11
6392.789672186198
 21
6437.463988671675
 31
0.0
 12
6430.289672186198
 22
6431.213988671676
 32
0.0
 13
6430.289672186198
 23
6431.213988671676
 33
0.0
  0
LINE
  5
3C3C
330
18
100
AcDbEntity
  8
0
 48
10.0
100
AcDbLine
 10
7300.289698008736
 20
5261.213988671676
 30
0.0
 11
7300.289698008736
 21
5591.213988671675
 31
0.0
  0
MTEXT
  5
3C3D
330
18
100
AcDbEntity
  8
0
  6
ByBlock
 62
     0
 48
10.0
100
AcDbMText
 10
6825.289698008692
 20
5471.213979908252
 30
0.0
 40
37.5
 41
0.0
 71
     5
 72
     1
  1
50
 73
     1
 44
1.0
  0
MTEXT
  5
3C3E
330
18
100
AcDbEntity
  8
0
  6
ByBlock
 62
     0
 48
10.0
100
AcDbMText
 10
7175.289698008736
 20
5471.213979908256
 30
0.0
 40
37.5
 41
0.0
 71
     5
 72
     1
  1
50
 73
     1
 44
1.0
  0
LINE
  5
3C3F
330
18
100
AcDbEntity
  8
WUWAGAKI
100
AcDbLine
 10
8905.67473496314
 20
3752.154085525353
 30
0.0
 11
8905.67473496314
 21
6678.303937321476
 31
0.0
  0
LINE
  5
3C44
330
18
100
AcDbEntity
  8
WUWAGAKI
100
AcDbLine
 10
7746.375147054762
 20
4240.634052596724
 30
0.0
 11
8839.171722155183
 21
4240.634052596724
 31
0.0
  0
LINE
  5
3C45
330
18
100
AcDbEntity
  8
WUWAGAKI
100
AcDbLine
 10
7746.375147054762
 20
4146.103764651587
 30
0.0
 11
8836.53989981942
 21
4146.103764651587
 31
0.0
  0
LINE
  5
3C46
330
18
100
AcDbEntity
  8
WUWAGAKI
100
AcDbLine
 10
7746.375147054762
 20
4146.103764651587
 30
0.0
 11
8836.53989981942
 21
4146.103764651587
 31
0.0
  0
LINE
  5
3C47
330
18
100
AcDbEntity
  8
WUWAGAKI
100
AcDbLine
 10
7746.375147054762
 20
3820.653619967155
 30
0.0
 11
8839.171722155183
 21
3820.653619967155
 31
0.0
  0
LINE
  5
3C48
330
18
100
AcDbEntity
  8
WUWAGAKI
100
AcDbLine
 10
7746.375147054762
 20
4050.197379686973
 30
0.0
 11
8839.171722155183
 21
4050.197379686973
 31
0.0
  0
LINE
  5
3C49
330
18
100
AcDbEntity
  8
WUWAGAKI
100
AcDbLine
 10
7746.375147054762
 20
3951.682315522367
 30
0.0
 11
8839.171722155183
 21
3951.682315522367
 31
0.0
  0
TEXT
  5
3C4A
330
18
100
AcDbEntity
  8
WUWAGAKI
100
AcDbText
 10
8032.828021986102
 20
4074.621141238657
 30
0.0
 40
38.2725
  1
300×U400×1000×120/150×H
100
AcDbText
  0
TEXT
  5
3C4B
330
18
100
AcDbEntity
  8
WUWAGAKI
100
AcDbText
 10
7985.080579954235
 20
3852.261186773541
 30
0.0
 40
60.0
  1
㈱　ウ　チ　コ　ン
100
AcDbText
  0
LINE
  5
3C59
330
18
100
AcDbEntity
  8
WUWAGAKI
100
AcDbLine
 10
8392.66110480718
 20
4050.197379686973
 30
0.0
 11
8392.66110480718
 21
3951.682315522367
 31
0.0
  0
TEXT
  5
3C5A
330
18
100
AcDbEntity
  8
WUWAGAKI
100
AcDbText
 10
8032.8280219861
 20
3976.054774270097
 30
0.0
 40
45.0
  1
S＝　1：15
100
AcDbText
  0
TEXT
  5
3C5B
330
18
100
AcDbEntity
  8
WUWAGAKI
100
AcDbText
 10
7818.901348578123
 20
3974.75285884064
 30
0.0
 40
45.0
  1
縮尺
100
AcDbText
  0
LINE
  5
3C5C
330
18
100
AcDbEntity
  8
WUWAGAKI
100
AcDbLine
 10
7746.375147054762
 20
4240.634052596724
 30
0.0
 11
7746.375147054762
 21
3820.653619967155
 31
0.0
  0
LINE
  5
3C5D
330
18
100
AcDbEntity
  8
WUWAGAKI
100
AcDbLine
 10
7998.491618623268
 20
4240.634052596724
 30
0.0
 11
7998.491618623268
 21
3951.682315522367
 31
0.0
  0
TEXT
  5
3C5E
330
18
100
AcDbEntity
  8
WUWAGAKI
100
AcDbText
 10
8419.588880559324
 20
3976.104211781638
 30
0.0
 40
45.0
  1
重量
100
AcDbText
  0
TEXT
  5
3C5F
330
18
100
AcDbEntity
  8
WUWAGAKI
100
AcDbText
 10
8032.8280219861
 20
4169.810491673042
 30
0.0
 40
45.0
  1
集水桝
100
AcDbText
  0
TEXT
  5
3C60
330
18
100
AcDbEntity
  8
WUWAGAKI
100
AcDbText
 10
7793.908802703462
 20
4172.389651869102
 30
0.0
 40
45.0
  1
種　別
100
AcDbText
  0
TEXT
  5
3C61
330
18
100
AcDbEntity
  8
WUWAGAKI
100
AcDbText
 10
7791.253590817042
 20
4071.250811832121
 30
0.0
 40
45.0
  1
寸　法
100
AcDbText
  0
LINE
  5
3C62
330
18
100
AcDbEntity
  8
0
 48
10.0
100
AcDbLine
 10
7145.289698008736
 20
4911.213978576481
 30
0.0
 11
7145.289698008736
 21
5091.213978576481
 31
0.0
  0
LINE
  5
3C63
330
18
100
AcDbEntity
  8
0
 48
10.0
100
AcDbLine
 10
6855.289698008691
 20
4911.213978576481
 30
0.0
 11
6855.289698008691
 21
5091.213978576481
 31
0.0
  0
LINE
  5
3C66
330
18
100
AcDbEntity
  8
OBJECT
 48
10.0
100
AcDbLine
 10
6960.695036243565
 20
4813.19966734016
 30
0.0
 11
7065.695036243565
 21
4813.19966734016
 31
0.0
  0
SOLID
  5
3C68
330
18
100
AcDbEntity
  8
0
  6
ByBlock
 62
     0
 48
10.0
100
AcDbTrace
 10
6896.024558792096
 20
4772.821421592371
 30
0.0
 11
6903.415928791376
 21
4762.74086359523
 31
0.0
 12
6869.47856980032
 22
4745.607032595946
 32
0.0
 13
6869.47856980032
 23
4745.607032595946
 33
0.0
  0
LINE
  5
3C69
330
18
100
AcDbEntity
  8
WUWAGAKI
 48
10.0
100
AcDbLine
 10
6884.543301454886
 20
4756.770202404562
 30
0.0
 11
6960.695036243565
 21
4813.19966734016
 31
0.0
210
0.0
220
0.0
230
-1.0
1001
ACAD
1000
DSTYLE
1002
{
1070
    78
1070
     8
1070
   270
1070
     8
1070
   140
1040
2.5
1070
    74
1070
     0
1070
   172
1070
     1
1070
    73
1070
     0
1070
    77
1070
     1
1070
    40
1040
10.0
1070
   147
1040
0.625
1070
    42
1040
0.625
1070
    44
1040
1.25
1070
    43
1040
3.75
1070
   141
1040
2.5
1070
    41
1040
2.5
1070
   273
1070
     8
1070
   274
1070
     4
1070
   143
1040
0.0394
1070
   171
1070
     4
1002
}
  0
MTEXT
  5
3C6C
330
18
100
AcDbEntity
  8
0
  6
ByBlock
 62
     0
 48
10.0
100
AcDbMText
 10
7013.195036243565
 20
4843.19966734016
 30
0.0
 40
30.0
 41
0.0
 71
     5
 72
     1
  1
50R
 73
     1
 44
1.0
  0
MTEXT
  5
3C6E
330
18
100
AcDbEntity
  8
0
  6
ByBlock
 62
     0
 48
10.0
100
AcDbMText
 10
7000.289698008735
 20
5091.213988671674
 30
0.0
 40
37.5
 41
0.0
 71
     5
 72
     1
  1
290
 73
     1
 44
1.0
  0
LINE
  5
3C6F
330
18
100
AcDbEntity
  8
OBJECT
 48
10.0
100
AcDbLine
 10
6855.289698008691
 20
5061.213979908254
 30
0.0
 11
7145.289698008736
 21
5061.213979908256
 31
0.0
  0
SOLID
  5
3C71
330
18
100
AcDbEntity
  8
0
  6
ByBlock
 62
     0
 48
10.0
100
AcDbTrace
 10
6892.789698008698
 20
5054.963997435097
 30
0.0
 11
6892.789698008698
 21
5067.463997435095
 31
0.0
 12
6855.289698008698
 22
5061.213997435099
 32
0.0
 13
6855.289698008698
 23
5061.213997435099
 33
0.0
  0
SOLID
  5
3C73
330
18
100
AcDbEntity
  8
0
  6
ByBlock
 62
     0
 48
10.0
100
AcDbTrace
 10
7107.789803169781
 20
5054.963988671676
 30
0.0
 11
7107.789803169781
 21
5067.463988671674
 31
0.0
 12
7145.289803169781
 22
5061.213988671678
 32
0.0
 13
7145.289803169781
 23
5061.213988671678
 33
0.0
  0
MTEXT
  5
3C74
330
18
100
AcDbEntity
  8
0
  6
ByBlock
 62
     0
 48
10.0
100
AcDbMText
 10
7000.289698008735
 20
5441.213988671674
 30
0.0
 40
37.5
 41
0.0
 71
     5
 72
     1
  1
300
 73
     1
 44
1.0
  0
LINE
  5
3C75
330
18
100
AcDbEntity
  8
0
 48
10.0
100
AcDbLine
 10
6850.289698008691
 20
5261.213978576478
 30
0.0
 11
6850.289698008691
 21
5441.213978576477
 31
0.0
  0
LINE
  5
3C76
330
18
100
AcDbEntity
  8
0
 48
10.0
100
AcDbLine
 10
6800.289698008691
 20
5261.213988671669
 30
0.0
 11
6800.289698008691
 21
5441.213988671669
 31
0.0
  0
LINE
  5
3C77
330
18
100
AcDbEntity
  8
0
 48
10.0
100
AcDbLine
 10
6850.289698008691
 20
5261.213978576481
 30
0.0
 11
6850.289698008691
 21
5441.213978576481
 31
0.0
  0
SOLID
  5
3C78
330
18
100
AcDbEntity
  8
0
  6
ByBlock
 62
     0
 48
10.0
100
AcDbTrace
 10
6887.789698008699
 20
5404.963997435096
 30
0.0
 11
6887.789698008699
 21
5417.463997435095
 31
0.0
 12
6850.289698008698
 22
5411.213997435099
 32
0.0
 13
6850.289698008698
 23
5411.213997435099
 33
0.0
  0
LWPOLYLINE
  5
3C79
330
18
100
AcDbEntity
  8
上線
 48
10.0
100
AcDbPolyline
 90
        2
 70
     1
 43
5.0
 10
6802.789698008692
 20
5411.192042300445
 42
-1.0
 10
6797.789698008691
 20
5411.192042300445
 42
-1.0
  0
LINE
  5
3C7A
330
18
100
AcDbEntity
  8
0
 48
10.0
100
AcDbLine
 10
7150.289698008736
 20
5261.213978576481
 30
0.0
 11
7150.289698008736
 21
5441.213978576481
 31
0.0
  0
SOLID
  5
3C7B
330
18
100
AcDbEntity
  8
0
  6
ByBlock
 62
     0
 48
10.0
100
AcDbTrace
 10
7112.789803169781
 20
5404.963988671675
 30
0.0
 11
7112.789803169781
 21
5417.463988671674
 31
0.0
 12
7150.289803169781
 22
5411.213988671677
 32
0.0
 13
7150.289803169781
 23
5411.213988671677
 33
0.0
  0
LINE
  5
3C7D
330
18
100
AcDbEntity
  8
0
 48
10.0
100
AcDbLine
 10
7200.289698008735
 20
5261.213988671673
 30
0.0
 11
7200.289698008735
 21
5441.213988671672
 31
0.0
  0
SOLID
  5
3C7E
330
18
100
AcDbEntity
  8
0
  6
ByBlock
 62
     0
 48
10.0
100
AcDbTrace
 10
7262.789686149602
 20
5417.463979908252
 30
0.0
 11
7262.789686149602
 21
5404.96397990825
 31
0.0
 12
7300.289686149603
 22
5411.21397990825
 32
0.0
 13
7300.289686149603
 23
5411.21397990825
 33
0.0
  0
SOLID
  5
3C7F
330
18
100
AcDbEntity
  8
0
  6
ByBlock
 62
     0
 48
10.0
100
AcDbTrace
 10
7237.789721727033
 20
5417.463979908252
 30
0.0
 11
7237.789721727033
 21
5404.96397990825
 31
0.0
 12
7200.289721727033
 22
5411.21397990825
 32
0.0
 13
7200.289721727033
 23
5411.21397990825
 33
0.0
  0
MTEXT
  5
3C80
330
18
100
AcDbEntity
  8
0
  6
ByBlock
 62
     0
 48
10.0
100
AcDbMText
 10
7250.289698008735
 20
5441.213979908256
 30
0.0
 40
37.5
 41
0.0
 71
     5
 72
     1
  1
100
 73
     1
 44
1.0
  0
LINE
  5
3C8D
330
18
100
AcDbEntity
  8
WUWAGAKI
100
AcDbLine
 10
8576.889531569497
 20
4050.197379686973
 30
0.0
 11
8576.889531569497
 21
3951.682315522367
 31
0.0
  0
LINE
  5
3C8E
330
18
100
AcDbEntity
  8
WUWAGAKI
100
AcDbLine
 10
8839.171722155183
 20
3820.653619967155
 30
0.0
 11
8839.171722155183
 21
4240.634052596724
 31
0.0
  0
MTEXT
  5
3C9B
330
18
100
AcDbEntity
  8
0
  6
ByBlock
 62
     0
 48
10.0
100
AcDbMText
 10
7015.289698008735
 20
5591.213988671675
 30
0.0
 40
37.5
 41
0.0
 71
     5
 72
     1
  1
570
 73
     1
 44
1.0
  0
SOLID
  5
3C9C
330
18
100
AcDbEntity
  8
0
  6
ByBlock
 62
     0
 48
10.0
100
AcDbTrace
 10
7262.789698008713
 20
5554.963988671675
 30
0.0
 11
7262.789698008713
 21
5567.463988671676
 31
0.0
 12
7300.289698008713
 22
5561.213988671677
 32
0.0
 13
7300.289698008713
 23
5561.213988671677
 33
0.0
  0
VIEWPORT
  5
298
330
15
100
AcDbEntity
 67
     1
  8
0
100
AcDbViewport
 10
291.7632241813602
 20
148.5
 30
0.0
 40
583.5264483627204
 41
297.0
 68
     1
 69
     1
 12
291.7632241813602
 22
148.5
 13
0.0
 23
0.0
 14
10.0
 24
10.0
 15
10.0
 25
10.0
 16
0.0
 26
0.0
 36
1.0
 17
0.0
 27
0.0
 37
0.0
 42
50.0
 43
0.0
 44
0.0
 45
297.0
 50
0.0
 51
0.0
 72
   100
 90
    32800
  1

281
     0
 71
     1
 74
     0
110
0.0
120
0.0
130
0.0
111
1.0
121
0.0
131
0.0
112
0.0
122
1.0
132
0.0
 79
     0
146
0.0
  0
ENDSEC
  0
SECTION
  2
OBJECTS
  0
DICTIONARY
  5
C
330
0
100
AcDbDictionary
281
     1
  3
ACAD_GROUP
350
D
  3
ACAD_LAYOUT
350
15FE
  3
ACAD_MLINESTYLE
350
1B
  3
ACAD_PLOTSETTINGS
350
15FF
  3
ACAD_PLOTSTYLENAME
350
15FC
  3
ACDBVARIABLEDICTIONARY
350
B2A
  3
DRAWINGVARIABLESDICT
350
1212
  0
DICTIONARY
  5
D
102
{ACAD_REACTORS
330
C
102
}
330
C
100
AcDbDictionary
281
     1
  3
*A1
350
1DE1
  3
*A2
350
2483
  3
*A3
350
2486
  3
*A4
350
2971
  3
*A5
350
3003
  3
*A6
350
34F4
  0
DICTIONARY
  5
15FE
102
{ACAD_REACTORS
330
C
102
}
330
C
100
AcDbDictionary
281
     1
  3
Model
350
1600
  3
ﾚｲｱｳﾄ1
350
1601
  0
DICTIONARY
  5
1B
102
{ACAD_REACTORS
330
C
102
}
330
C
100
AcDbDictionary
281
     1
  3
STANDARD
350
1C
  0
DICTIONARY
  5
15FF
102
{ACAD_REACTORS
330
C
102
}
330
C
100
AcDbDictionary
281
     1
  0
ACDBDICTIONARYWDFLT
  5
15FC
102
{ACAD_REACTORS
330
C
102
}
330
C
100
AcDbDictionary
281
     1
  3
Normal
350
15FD
100
AcDbDictionaryWithDefault
340
15FD
  0
DICTIONARY
  5
B2A
102
{ACAD_REACTORS
330
C
102
}
330
C
100
AcDbDictionary
281
     1
  3
SORTENTS
350
B2B
  0
DICTIONARY
  5
1212
102
{ACAD_REACTORS
330
C
102
}
330
C
100
AcDbDictionary
281
     1
1001
DRAWINGVARIABLESXDATA
1000
POLARANG
1000
0.785398
1000
POLARMODE
1000
0
  0
GROUP
  5
1DE1
102
{ACAD_REACTORS
330
D
102
}
330
D
100
AcDbGroup
300

 70
     1
 71
     1
  0
GROUP
  5
2483
102
{ACAD_REACTORS
330
D
102
}
330
D
100
AcDbGroup
300

 70
     1
 71
     1
  0
GROUP
  5
2486
102
{ACAD_REACTORS
330
D
102
}
330
D
100
AcDbGroup
300

 70
     1
 71
     1
  0
GROUP
  5
2971
102
{ACAD_REACTORS
330
D
102
}
330
D
100
AcDbGroup
300

 70
     1
 71
     1
  0
GROUP
  5
3003
102
{ACAD_REACTORS
330
D
102
}
330
D
100
AcDbGroup
300

 70
     1
 71
     1
  0
GROUP
  5
34F4
102
{ACAD_REACTORS
330
D
102
}
330
D
100
AcDbGroup
300

 70
     1
 71
     1
  0
LAYOUT
  5
1600
102
{ACAD_REACTORS
330
15FE
102
}
330
15FE
100
AcDbPlotSettings
  1

  2
Canon LBP3800 LIPSLX
  4
A4
  6

 40
5.873749732971191
 41
5.873747825622558
 42
5.873748779296875
 43
5.873748779296875
 44
209.9733276367187
 45
296.9259948730469
 46
0.0
 47
0.0
 48
0.0
 49
0.0
140
0.0
141
0.0
142
1.0
143
1.0
 70
 11952
 72
     1
 73
     1
 74
     0
  7

 75
     0
147
1.0
148
-1119.838883806218
149
-2764.341960111367
100
AcDbLayout
  1
Model
 70
     1
 71
     0
 10
0.0
 20
0.0
 11
12.0
 21
9.0
 12
0.0
 22
0.0
 32
0.0
 14
0.0
 24
0.0
 34
0.0
 15
0.0
 25
0.0
 35
0.0
146
0.0
 13
0.0
 23
0.0
 33
0.0
 16
1.0
 26
0.0
 36
0.0
 17
0.0
 27
1.0
 37
0.0
 76
     0
330
18
  0
LAYOUT
  5
1601
102
{ACAD_REACTORS
330
15FE
102
}
330
15FE
100
AcDbPlotSettings
  1

  2
Canon LBP3800 LIPSLX
  4

  6

 40
0.0
 41
0.0
 42
0.0
 43
0.0
 44
0.0
 45
0.0
 46
0.0
 47
0.0
 48
0.0
 49
0.0
140
0.0
141
0.0
142
1.0
143
1.0
 70
   688
 72
     0
 73
     0
 74
     5
  7

 75
    16
147
1.0
148
0.0
149
0.0
100
AcDbLayout
  1
ﾚｲｱｳﾄ1
 70
     1
 71
     1
 10
0.0
 20
0.0
 11
420.0
 21
297.0
 12
0.0
 22
0.0
 32
0.0
 14
1.000000000000000E+20
 24
1.000000000000000E+20
 34
1.000000000000000E+20
 15
-1.000000000000000E+20
 25
-1.000000000000000E+20
 35
-1.000000000000000E+20
146
0.0
 13
0.0
 23
0.0
 33
0.0
 16
1.0
 26
0.0
 36
0.0
 17
0.0
 27
1.0
 37
0.0
 76
     0
330
15
331
298
  0
MLINESTYLE
  5
1C
102
{ACAD_REACTORS
330
1B
102
}
330
1B
100
AcDbMlineStyle
  2
STANDARD
 70
     0
  3

 62
   256
 51
90.0
 52
90.0
 71
     2
 49
0.5
 62
   256
  6
BYLAYER
 49
-0.5
 62
   256
  6
BYLAYER
  0
ACDBPLACEHOLDER
  5
15FD
102
{ACAD_REACTORS
330
15FC
102
}
330
15FC
  0
DICTIONARYVAR
  5
B2B
102
{ACAD_REACTORS
330
B2A
102
}
330
B2A
100
DictionaryVariables
280
     0
  1
96
  0
ENDSEC
  0
EOF
