  0
SECTION
  2
HEADER
  9
$ACADVER
  1
AC1015
  9
$ACADMAINTVER
 70
     6
  9
$DWGCODEPAGE
  3
ANSI_932
  9
$INSBASE
 10
0.0
 20
0.0
 30
0.0
  9
$EXTMIN
 10
710.0813698183028
 20
984.8549298695507
 30
0.0
  9
$EXTMAX
 10
8899.93150800436
 20
6367.598921251026
 30
0.0
  9
$LIMMIN
 10
0.0
 20
0.0
  9
$LIMMAX
 10
4455.0
 20
3150.0
  9
$ORTHOMODE
 70
     0
  9
$REGENMODE
 70
     1
  9
$FILLMODE
 70
     1
  9
$QTEXTMODE
 70
     0
  9
$MIRRTEXT
 70
     1
  9
$LTSCALE
 40
5.0
  9
$ATTMODE
 70
     1
  9
$TEXTSIZE
 40
2.5
  9
$TRACEWID
 40
1.0
  9
$TEXTSTYLE
  7
STANDARD
  9
$CLAYER
  8
OBJECT
  9
$CELTYPE
  6
BYLAYER
  9
$CECOLOR
 62
   256
  9
$CELTSCALE
 40
1.0
  9
$DISPSILH
 70
     0
  9
$DIMSCALE
 40
15.0
  9
$DIMASZ
 40
2.5
  9
$DIMEXO
 40
0.625
  9
$DIMDLI
 40
3.75
  9
$DIMRND
 40
0.0
  9
$DIMDLE
 40
0.0
  9
$DIMEXE
 40
1.25
  9
$DIMTP
 40
0.0
  9
$DIMTM
 40
0.0
  9
$DIMTXT
 40
2.5
  9
$DIMCEN
 40
2.5
  9
$DIMTSZ
 40
0.0
  9
$DIMTOL
 70
     0
  9
$DIMLIM
 70
     0
  9
$DIMTIH
 70
     0
  9
$DIMTOH
 70
     0
  9
$DIMSE1
 70
     0
  9
$DIMSE2
 70
     0
  9
$DIMTAD
 70
     1
  9
$DIMZIN
 70
     8
  9
$DIMBLK
  1

  9
$DIMASO
 70
     1
  9
$DIMSHO
 70
     1
  9
$DIMPOST
  1

  9
$DIMAPOST
  1

  9
$DIMALT
 70
     0
  9
$DIMALTD
 70
     4
  9
$DIMALTF
 40
0.0394
  9
$DIMLFAC
 40
1.0
  9
$DIMTOFL
 70
     1
  9
$DIMTVP
 40
0.0
  9
$DIMTIX
 70
     0
  9
$DIMSOXD
 70
     0
  9
$DIMSAH
 70
     0
  9
$DIMBLK1
  1

  9
$DIMBLK2
  1

  9
$DIMSTYLE
  2
STANDARD
  9
$DIMCLRD
 70
     0
  9
$DIMCLRE
 70
     0
  9
$DIMCLRT
 70
     0
  9
$DIMTFAC
 40
1.0
  9
$DIMGAP
 40
0.625
  9
$DIMJUST
 70
     0
  9
$DIMSD1
 70
     0
  9
$DIMSD2
 70
     0
  9
$DIMTOLJ
 70
     1
  9
$DIMTZIN
 70
     0
  9
$DIMALTZ
 70
     0
  9
$DIMALTTZ
 70
     0
  9
$DIMUPT
 70
     0
  9
$DIMDEC
 70
     4
  9
$DIMTDEC
 70
     4
  9
$DIMALTU
 70
     8
  9
$DIMALTTD
 70
     4
  9
$DIMTXSTY
  7
STANDARD
  9
$DIMAUNIT
 70
     0
  9
$DIMADEC
 70
     0
  9
$DIMALTRND
 40
0.0
  9
$DIMAZIN
 70
     0
  9
$DIMDSEP
 70
    46
  9
$DIMATFIT
 70
     3
  9
$DIMFRAC
 70
     0
  9
$DIMLDRBLK
  1

  9
$DIMLUNIT
 70
     6
  9
$DIMLWD
 70
    -2
  9
$DIMLWE
 70
    -2
  9
$DIMTMOVE
 70
     0
  9
$LUNITS
 70
     2
  9
$LUPREC
 70
     4
  9
$SKETCHINC
 40
1.0
  9
$FILLETRAD
 40
10.0
  9
$AUNITS
 70
     0
  9
$AUPREC
 70
     0
  9
$MENU
  1
acad
  9
$ELEVATION
 40
0.0
  9
$PELEVATION
 40
0.0
  9
$THICKNESS
 40
0.0
  9
$LIMCHECK
 70
     0
  9
$CHAMFERA
 40
10.0
  9
$CHAMFERB
 40
10.0
  9
$CHAMFERC
 40
20.0
  9
$CHAMFERD
 40
0.0
  9
$SKPOLY
 70
     0
  9
$TDCREATE
 40
2452111.335768865
  9
$TDUCREATE
 40
2452110.960768866
  9
$TDUPDATE
 40
2454547.709596897
  9
$TDUUPDATE
 40
2454547.334596898
  9
$TDINDWG
 40
1.2463885301
  9
$TDUSRTIMER
 40
1.2463885301
  9
$USRTIMER
 70
     1
  9
$ANGBASE
 50
0.0
  9
$ANGDIR
 70
     0
  9
$PDMODE
 70
     0
  9
$PDSIZE
 40
0.0
  9
$PLINEWID
 40
0.0
  9
$SPLFRAME
 70
     0
  9
$SPLINETYPE
 70
     6
  9
$SPLINESEGS
 70
     8
  9
$HANDSEED
  5
3C8D
  9
$SURFTAB1
 70
     6
  9
$SURFTAB2
 70
     6
  9
$SURFTYPE
 70
     6
  9
$SURFU
 70
     6
  9
$SURFV
 70
     6
  9
$UCSBASE
  2

  9
$UCSNAME
  2

  9
$UCSORG
 10
0.0
 20
0.0
 30
0.0
  9
$UCSXDIR
 10
1.0
 20
0.0
 30
0.0
  9
$UCSYDIR
 10
0.0
 20
1.0
 30
0.0
  9
$UCSORTHOREF
  2

  9
$UCSORTHOVIEW
 70
     0
  9
$UCSORGTOP
 10
0.0
 20
0.0
 30
0.0
  9
$UCSORGBOTTOM
 10
0.0
 20
0.0
 30
0.0
  9
$UCSORGLEFT
 10
0.0
 20
0.0
 30
0.0
  9
$UCSORGRIGHT
 10
0.0
 20
0.0
 30
0.0
  9
$UCSORGFRONT
 10
0.0
 20
0.0
 30
0.0
  9
$UCSORGBACK
 10
0.0
 20
0.0
 30
0.0
  9
$PUCSBASE
  2

  9
$PUCSNAME
  2

  9
$PUCSORG
 10
0.0
 20
0.0
 30
0.0
  9
$PUCSXDIR
 10
1.0
 20
0.0
 30
0.0
  9
$PUCSYDIR
 10
0.0
 20
1.0
 30
0.0
  9
$PUCSORTHOREF
  2

  9
$PUCSORTHOVIEW
 70
     0
  9
$PUCSORGTOP
 10
0.0
 20
0.0
 30
0.0
  9
$PUCSORGBOTTOM
 10
0.0
 20
0.0
 30
0.0
  9
$PUCSORGLEFT
 10
0.0
 20
0.0
 30
0.0
  9
$PUCSORGRIGHT
 10
0.0
 20
0.0
 30
0.0
  9
$PUCSORGFRONT
 10
0.0
 20
0.0
 30
0.0
  9
$PUCSORGBACK
 10
0.0
 20
0.0
 30
0.0
  9
$USERI1
 70
     0
  9
$USERI2
 70
     0
  9
$USERI3
 70
     0
  9
$USERI4
 70
     0
  9
$USERI5
 70
     0
  9
$USERR1
 40
0.0
  9
$USERR2
 40
0.0
  9
$USERR3
 40
0.0
  9
$USERR4
 40
0.0
  9
$USERR5
 40
0.0
  9
$WORLDVIEW
 70
     1
  9
$SHADEDGE
 70
     3
  9
$SHADEDIF
 70
    70
  9
$TILEMODE
 70
     1
  9
$MAXACTVP
 70
    48
  9
$PINSBASE
 10
0.0
 20
0.0
 30
0.0
  9
$PLIMCHECK
 70
     0
  9
$PEXTMIN
 10
1.000000000000000E+20
 20
1.000000000000000E+20
 30
1.000000000000000E+20
  9
$PEXTMAX
 10
-1.000000000000000E+20
 20
-1.000000000000000E+20
 30
-1.000000000000000E+20
  9
$PLIMMIN
 10
0.0
 20
0.0
  9
$PLIMMAX
 10
420.0
 20
297.0
  9
$UNITMODE
 70
     0
  9
$VISRETAIN
 70
     1
  9
$PLINEGEN
 70
     0
  9
$PSLTSCALE
 70
     1
  9
$TREEDEPTH
 70
  3020
  9
$CMLSTYLE
  2
STANDARD
  9
$CMLJUST
 70
     0
  9
$CMLSCALE
 40
20.0
  9
$PROXYGRAPHICS
 70
     1
  9
$MEASUREMENT
 70
     1
  9
$CELWEIGHT
370
    -1
  9
$ENDCAPS
280
     0
  9
$JOINSTYLE
280
     0
  9
$LWDISPLAY
290
     0
  9
$INSUNITS
 70
     0
  9
$HYPERLINKBASE
  1

  9
$STYLESHEET
  1

  9
$XEDIT
290
     1
  9
$CEPSNTYPE
380
     0
  9
$PSTYLEMODE
290
     1
  9
$FINGERPRINTGUID
  2
{C9668057-E409-4CFD-A4F9-6C0551275C13}
  9
$VERSIONGUID
  2
{12C2B239-1B77-4B84-8FB9-A7797DA44C4F}
  9
$EXTNAMES
290
     1
  9
$PSVPSCALE
 40
0.0
  9
$OLESTARTUP
290
     0
  0
ENDSEC
  0
SECTION
  2
CLASSES
  0
CLASS
  1
LWPOLYLINE
  2
AcDbPolyline
  3
AutoCAD 2000
 90
    32768
280
     0
281
     1
  0
CLASS
  1
DICTIONARYVAR
  2
AcDbDictionaryVar
  3
AutoCAD 2000
 90
        0
280
     0
281
     0
  0
CLASS
  1
HATCH
  2
AcDbHatch
  3
AutoCAD 2000
 90
    32768
280
     0
281
     1
  0
CLASS
  1
ACDBDICTIONARYWDFLT
  2
AcDbDictionaryWithDefault
  3
AutoCAD 2000
 90
        0
280
     0
281
     0
  0
CLASS
  1
ACDBPLACEHOLDER
  2
AcDbPlaceHolder
  3
AutoCAD 2000
 90
        0
280
     0
281
     0
  0
CLASS
  1
LAYOUT
  2
AcDbLayout
  3
AutoCAD 2000
 90
        0
280
     0
281
     0
  0
ENDSEC
  0
SECTION
  2
TABLES
  0
TABLE
  2
VPORT
  5
8
330
0
100
AcDbSymbolTable
 70
     2
  0
VPORT
  5
3C8C
330
8
100
AcDbSymbolTableRecord
100
AcDbViewportTableRecord
  2
*Active
 70
     0
 10
0.0
 20
0.0
 11
1.0
 21
1.0
 12
6991.418717707562
 22
4874.031152078731
 13
0.0
 23
0.0
 14
10.0
 24
10.0
 15
10.0
 25
10.0
 16
0.0
 26
0.0
 36
1.0
 17
0.0
 27
0.0
 37
0.0
 40
3344.856438429662
 41
1.731203007518796
 42
50.0
 43
0.0
 44
0.0
 50
0.0
 51
0.0
 71
     0
 72
   100
 73
     1
 74
     1
 75
     0
 76
     0
 77
     0
 78
     0
281
     0
 65
     1
110
0.0
120
0.0
130
0.0
111
1.0
121
0.0
131
0.0
112
0.0
122
1.0
132
0.0
 79
     0
146
0.0
  0
ENDTAB
  0
TABLE
  2
LTYPE
  5
5
330
0
100
AcDbSymbolTable
 70
    46
  0
LTYPE
  5
12
330
5
100
AcDbSymbolTableRecord
100
AcDbLinetypeTableRecord
  2
BYBLOCK
 70
     0
  3

 72
    65
 73
     0
 40
0.0
  0
LTYPE
  5
13
330
5
100
AcDbSymbolTableRecord
100
AcDbLinetypeTableRecord
  2
BYLAYER
 70
     0
  3

 72
    65
 73
     0
 40
0.0
  0
LTYPE
  5
14
330
5
100
AcDbSymbolTableRecord
100
AcDbLinetypeTableRecord
  2
CONTINUOUS
 70
     0
  3
Solid line
 72
    65
 73
     0
 40
0.0
  0
LTYPE
  5
128
330
5
100
AcDbSymbolTableRecord
100
AcDbLinetypeTableRecord
  2
ACAD_ISO02W100
 70
     0
  3
ISO dash __ __ __ __ __ __ __ __ __ __ __ __ __
 72
    65
 73
     2
 40
15.0
 49
12.0
 74
     0
 49
-3.0
 74
     0
  0
LTYPE
  5
129
330
5
100
AcDbSymbolTableRecord
100
AcDbLinetypeTableRecord
  2
ACAD_ISO03W100
 70
     0
  3
ISO dash space __    __    __    __    __    __
 72
    65
 73
     2
 40
30.0
 49
12.0
 74
     0
 49
-18.0
 74
     0
  0
LTYPE
  5
12A
330
5
100
AcDbSymbolTableRecord
100
AcDbLinetypeTableRecord
  2
ACAD_ISO04W100
 70
     0
  3
ISO long-dash dot ____ . ____ . ____ . ____ . _
 72
    65
 73
     4
 40
30.5
 49
24.0
 74
     0
 49
-3.0
 74
     0
 49
0.5
 74
     0
 49
-3.0
 74
     0
  0
LTYPE
  5
12B
330
5
100
AcDbSymbolTableRecord
100
AcDbLinetypeTableRecord
  2
ACAD_ISO05W100
 70
     0
  3
ISO long-dash double-dot ____ .. ____ .. ____ .
 72
    65
 73
     8
 40
37.5
 49
24.0
 74
     0
 49
-3.0
 74
     0
 49
0.5
 74
     0
 49
-3.0
 74
     0
 49
0.5
 74
     0
 49
-3.0
 74
     0
 49
0.5
 74
     0
 49
-3.0
 74
     0
  0
LTYPE
  5
12C
330
5
100
AcDbSymbolTableRecord
100
AcDbLinetypeTableRecord
  2
ACAD_ISO06W100
 70
     0
  3
ISO long-dash triple-dot ____ ... ____ ... ____
 72
    65
 73
     8
 40
37.5
 49
24.0
 74
     0
 49
-3.0
 74
     0
 49
0.5
 74
     0
 49
-3.0
 74
     0
 49
0.5
 74
     0
 49
-3.0
 74
     0
 49
0.5
 74
     0
 49
-3.0
 74
     0
  0
LTYPE
  5
12D
330
5
100
AcDbSymbolTableRecord
100
AcDbLinetypeTableRecord
  2
ACAD_ISO07W100
 70
     0
  3
ISO dot . . . . . . . . . . . . . . . . . . . .
 72
    65
 73
     2
 40
3.5
 49
0.5
 74
     0
 49
-3.0
 74
     0
  0
LTYPE
  5
12E
330
5
100
AcDbSymbolTableRecord
100
AcDbLinetypeTableRecord
  2
ACAD_ISO08W100
 70
     0
  3
ISO long-dash short-dash ____ __ ____ __ ____ _
 72
    65
 73
     4
 40
36.0
 49
24.0
 74
     0
 49
-3.0
 74
     0
 49
6.0
 74
     0
 49
-3.0
 74
     0
  0
LTYPE
  5
12F
330
5
100
AcDbSymbolTableRecord
100
AcDbLinetypeTableRecord
  2
ACAD_ISO09W100
 70
     0
  3
ISO long-dash double-short-dash ____ __ __ ____
 72
    65
 73
     6
 40
45.0
 49
24.0
 74
     0
 49
-3.0
 74
     0
 49
6.0
 74
     0
 49
-3.0
 74
     0
 49
6.0
 74
     0
 49
-3.0
 74
     0
  0
LTYPE
  5
130
330
5
100
AcDbSymbolTableRecord
100
AcDbLinetypeTableRecord
  2
ACAD_ISO10W100
 70
     0
  3
ISO dash dot __ . __ . __ . __ . __ . __ . __ .
 72
    65
 73
     4
 40
18.5
 49
12.0
 74
     0
 49
-3.0
 74
     0
 49
0.5
 74
     0
 49
-3.0
 74
     0
  0
LTYPE
  5
131
330
5
100
AcDbSymbolTableRecord
100
AcDbLinetypeTableRecord
  2
ACAD_ISO11W100
 70
     0
  3
ISO double-dash dot __ __ . __ __ . __ __ . __ 
 72
    65
 73
     6
 40
33.5
 49
12.0
 74
     0
 49
-3.0
 74
     0
 49
12.0
 74
     0
 49
-3.0
 74
     0
 49
0.5
 74
     0
 49
-3.0
 74
     0
  0
LTYPE
  5
132
330
5
100
AcDbSymbolTableRecord
100
AcDbLinetypeTableRecord
  2
ACAD_ISO12W100
 70
     0
  3
ISO dash double-dot __ . . __ . . __ . . __ . .
 72
    65
 73
     6
 40
22.0
 49
12.0
 74
     0
 49
-3.0
 74
     0
 49
0.5
 74
     0
 49
-3.0
 74
     0
 49
0.5
 74
     0
 49
-3.0
 74
     0
  0
LTYPE
  5
133
330
5
100
AcDbSymbolTableRecord
100
AcDbLinetypeTableRecord
  2
ACAD_ISO13W100
 70
     0
  3
ISO double-dash double-dot __ __ . . __ __ . . 
 72
    65
 73
     8
 40
37.0
 49
12.0
 74
     0
 49
-3.0
 74
     0
 49
12.0
 74
     0
 49
-3.0
 74
     0
 49
0.5
 74
     0
 49
-3.0
 74
     0
 49
0.5
 74
     0
 49
-3.0
 74
     0
  0
LTYPE
  5
134
330
5
100
AcDbSymbolTableRecord
100
AcDbLinetypeTableRecord
  2
ACAD_ISO14W100
 70
     0
  3
ISO dash triple-dot __ . . . __ . . . __ . . . 
 72
    65
 73
     8
 40
25.5
 49
12.0
 74
     0
 49
-3.0
 74
     0
 49
0.5
 74
     0
 49
-3.0
 74
     0
 49
0.5
 74
     0
 49
-3.0
 74
     0
 49
0.5
 74
     0
 49
-3.0
 74
     0
  0
LTYPE
  5
135
330
5
100
AcDbSymbolTableRecord
100
AcDbLinetypeTableRecord
  2
ACAD_ISO15W100
 70
     0
  3
ISO double-dash triple-dot __ __ . . . __ __ . 
 72
    65
 73
    10
 40
40.49999999999999
 49
12.0
 74
     0
 49
-3.0
 74
     0
 49
12.0
 74
     0
 49
-3.0
 74
     0
 49
0.5
 74
     0
 49
-3.0
 74
     0
 49
0.5
 74
     0
 49
-3.0
 74
     0
 49
0.5
 74
     0
 49
-3.0
 74
     0
  0
LTYPE
  5
136
330
5
100
AcDbSymbolTableRecord
100
AcDbLinetypeTableRecord
  2
BATTING
 70
     0
  3
Batting SSSSSSSSSSSSSSSSSSSSSSSSSSSSSSSSSSSSSSS
 72
    65
 73
     4
 40
10.16253999999999
 49
0.00254
 74
     0
 49
-2.54
 74
     4
 75
   134
340
127
 46
2.54
 50
0.0
 44
-2.54
 45
0.0
 49
-5.08
 74
     4
 75
   134
340
127
 46
2.54
 50
180.0
 44
2.54
 45
0.0
 49
-2.54
 74
     0
  0
LTYPE
  5
137
330
5
100
AcDbSymbolTableRecord
100
AcDbLinetypeTableRecord
  2
BORDER
 70
     0
  3
Border __ __ . __ __ . __ __ . __ __ . __ __ .
 72
    65
 73
     6
 40
44.45
 49
12.7
 74
     0
 49
-6.349999999999999
 74
     0
 49
12.7
 74
     0
 49
-6.349999999999999
 74
     0
 49
0.0
 74
     0
 49
-6.349999999999999
 74
     0
  0
LTYPE
  5
138
330
5
100
AcDbSymbolTableRecord
100
AcDbLinetypeTableRecord
  2
BORDER2
 70
     0
  3
Border (.5x) __.__.__.__.__.__.__.__.__.__.__.
 72
    65
 73
     6
 40
22.225
 49
6.349999999999999
 74
     0
 49
-3.174999999999999
 74
     0
 49
6.349999999999999
 74
     0
 49
-3.174999999999999
 74
     0
 49
0.0
 74
     0
 49
-3.174999999999999
 74
     0
  0
LTYPE
  5
139
330
5
100
AcDbSymbolTableRecord
100
AcDbLinetypeTableRecord
  2
BORDERX2
 70
     0
  3
Border (2x) ____  ____  .  ____  ____  .  ___
 72
    65
 73
     6
 40
88.9
 49
25.4
 74
     0
 49
-12.7
 74
     0
 49
25.4
 74
     0
 49
-12.7
 74
     0
 49
0.0
 74
     0
 49
-12.7
 74
     0
  0
LTYPE
  5
13A
330
5
100
AcDbSymbolTableRecord
100
AcDbLinetypeTableRecord
  2
CENTER
 70
     0
  3
Center ____ _ ____ _ ____ _ ____ _ ____ _ ____
 72
    65
 73
     4
 40
50.8
 49
31.75
 74
     0
 49
-6.349999999999999
 74
     0
 49
6.349999999999999
 74
     0
 49
-6.349999999999999
 74
     0
  0
LTYPE
  5
13B
330
5
100
AcDbSymbolTableRecord
100
AcDbLinetypeTableRecord
  2
CENTER2
 70
     0
  3
Center (.5x) ___ _ ___ _ ___ _ ___ _ ___ _ ___
 72
    65
 73
     4
 40
28.57499999999999
 49
19.05
 74
     0
 49
-3.174999999999999
 74
     0
 49
3.174999999999999
 74
     0
 49
-3.174999999999999
 74
     0
  0
LTYPE
  5
13C
330
5
100
AcDbSymbolTableRecord
100
AcDbLinetypeTableRecord
  2
CENTERX2
 70
     0
  3
Center (2x) ________  __  ________  __  _____
 72
    65
 73
     4
 40
101.6
 49
63.5
 74
     0
 49
-12.7
 74
     0
 49
12.7
 74
     0
 49
-12.7
 74
     0
  0
LTYPE
  5
13D
330
5
100
AcDbSymbolTableRecord
100
AcDbLinetypeTableRecord
  2
DASHDOT
 70
     0
  3
Dash dot __ . __ . __ . __ . __ . __ . __ . __
 72
    65
 73
     4
 40
25.4
 49
12.7
 74
     0
 49
-6.349999999999999
 74
     0
 49
0.0
 74
     0
 49
-6.349999999999999
 74
     0
  0
LTYPE
  5
13E
330
5
100
AcDbSymbolTableRecord
100
AcDbLinetypeTableRecord
  2
DASHDOT2
 70
     0
  3
Dash dot (.5x) _._._._._._._._._._._._._._._.
 72
    65
 73
     4
 40
12.7
 49
6.349999999999999
 74
     0
 49
-3.174999999999999
 74
     0
 49
0.0
 74
     0
 49
-3.174999999999999
 74
     0
  0
LTYPE
  5
13F
330
5
100
AcDbSymbolTableRecord
100
AcDbLinetypeTableRecord
  2
DASHDOTX2
 70
     0
  3
Dash dot (2x) ____  .  ____  .  ____  .  ___
 72
    65
 73
     4
 40
50.8
 49
25.4
 74
     0
 49
-12.7
 74
     0
 49
0.0
 74
     0
 49
-12.7
 74
     0
  0
LTYPE
  5
140
330
5
100
AcDbSymbolTableRecord
100
AcDbLinetypeTableRecord
  2
DASHED
 70
     0
  3
Dashed __ __ __ __ __ __ __ __ __ __ __ __ __ _
 72
    65
 73
     2
 40
19.04999999999999
 49
12.7
 74
     0
 49
-6.349999999999999
 74
     0
  0
LTYPE
  5
141
330
5
100
AcDbSymbolTableRecord
100
AcDbLinetypeTableRecord
  2
DASHED2
 70
     0
  3
Dashed (.5x) _ _ _ _ _ _ _ _ _ _ _ _ _ _ _ _ _
 72
    65
 73
     2
 40
9.524999999999998
 49
6.349999999999999
 74
     0
 49
-3.174999999999999
 74
     0
  0
LTYPE
  5
142
330
5
100
AcDbSymbolTableRecord
100
AcDbLinetypeTableRecord
  2
DASHEDX2
 70
     0
  3
Dashed (2x) ____  ____  ____  ____  ____  ___
 72
    65
 73
     2
 40
38.09999999999999
 49
25.4
 74
     0
 49
-12.7
 74
     0
  0
LTYPE
  5
143
330
5
100
AcDbSymbolTableRecord
100
AcDbLinetypeTableRecord
  2
DIVIDE
 70
     0
  3
Divide ____ . . ____ . . ____ . . ____ . . ____
 72
    65
 73
     6
 40
31.74999999999999
 49
12.7
 74
     0
 49
-6.349999999999999
 74
     0
 49
0.0
 74
     0
 49
-6.349999999999999
 74
     0
 49
0.0
 74
     0
 49
-6.349999999999999
 74
     0
  0
LTYPE
  5
144
330
5
100
AcDbSymbolTableRecord
100
AcDbLinetypeTableRecord
  2
DIVIDE2
 70
     0
  3
Divide (.5x) __..__..__..__..__..__..__..__.._
 72
    65
 73
     6
 40
15.87499999999999
 49
6.349999999999999
 74
     0
 49
-3.174999999999999
 74
     0
 49
0.0
 74
     0
 49
-3.174999999999999
 74
     0
 49
0.0
 74
     0
 49
-3.174999999999999
 74
     0
  0
LTYPE
  5
145
330
5
100
AcDbSymbolTableRecord
100
AcDbLinetypeTableRecord
  2
DIVIDEX2
 70
     0
  3
Divide (2x) ________  .  .  ________  .  .  _
 72
    65
 73
     6
 40
63.49999999999999
 49
25.4
 74
     0
 49
-12.7
 74
     0
 49
0.0
 74
     0
 49
-12.7
 74
     0
 49
0.0
 74
     0
 49
-12.7
 74
     0
  0
LTYPE
  5
146
330
5
100
AcDbSymbolTableRecord
100
AcDbLinetypeTableRecord
  2
DOT
 70
     0
  3
Dot . . . . . . . . . . . . . . . . . . . . . .
 72
    65
 73
     2
 40
6.349999999999999
 49
0.0
 74
     0
 49
-6.349999999999999
 74
     0
  0
LTYPE
  5
147
330
5
100
AcDbSymbolTableRecord
100
AcDbLinetypeTableRecord
  2
DOT2
 70
     0
  3
Dot (.5x) .....................................
 72
    65
 73
     2
 40
3.174999999999999
 49
0.0
 74
     0
 49
-3.174999999999999
 74
     0
  0
LTYPE
  5
148
330
5
100
AcDbSymbolTableRecord
100
AcDbLinetypeTableRecord
  2
DOTX2
 70
     0
  3
Dot (2x) .  .  .  .  .  .  .  .  .  .  .  .  . 
 72
    65
 73
     2
 40
12.7
 49
0.0
 74
     0
 49
-12.7
 74
     0
  0
LTYPE
  5
149
330
5
100
AcDbSymbolTableRecord
100
AcDbLinetypeTableRecord
  2
FENCELINE1
 70
     0
  3
Fenceline circle ----0-----0----0-----0----0---
 72
    65
 73
     4
 40
36.82999999999999
 49
6.349999999999999
 74
     0
 49
-2.54
 74
     4
 75
   133
340
127
 46
2.54
 50
0.0
 44
-2.54
 45
0.0
 49
-2.54
 74
     0
 49
25.4
 74
     0
  0
LTYPE
  5
14A
330
5
100
AcDbSymbolTableRecord
100
AcDbLinetypeTableRecord
  2
FENCELINE2
 70
     0
  3
Fenceline square ----[]-----[]----[]-----[]----
 72
    65
 73
     4
 40
36.82999999999999
 49
6.349999999999999
 74
     0
 49
-2.54
 74
     4
 75
   132
340
127
 46
2.54
 50
0.0
 44
-2.54
 45
0.0
 49
-2.54
 74
     0
 49
25.4
 74
     0
  0
LTYPE
  5
14B
330
5
100
AcDbSymbolTableRecord
100
AcDbLinetypeTableRecord
  2
GAS_LINE
 70
     0
  3
Gas line ----GAS----GAS----GAS----GAS----GAS---
 72
    65
 73
     3
 40
24.13
 49
12.7
 74
     0
 49
-5.08
 74
     2
 75
     0
340
F
 46
2.54
 50
0.0
 44
-2.54
 45
-1.27
  9
GAS
 49
-6.349999999999999
 74
     0
  0
LTYPE
  5
14C
330
5
100
AcDbSymbolTableRecord
100
AcDbLinetypeTableRecord
  2
HIDDEN
 70
     0
  3
Hidden __ __ __ __ __ __ __ __ __ __ __ __ __ _
 72
    65
 73
     2
 40
9.524999999999998
 49
6.349999999999999
 74
     0
 49
-3.174999999999999
 74
     0
  0
LTYPE
  5
14D
330
5
100
AcDbSymbolTableRecord
100
AcDbLinetypeTableRecord
  2
HIDDEN2
 70
     0
  3
Hidden (.5x) _ _ _ _ _ _ _ _ _ _ _ _ _ _ _ _ _
 72
    65
 73
     2
 40
4.762499999999999
 49
3.174999999999999
 74
     0
 49
-1.587499999999999
 74
     0
  0
LTYPE
  5
14E
330
5
100
AcDbSymbolTableRecord
100
AcDbLinetypeTableRecord
  2
HIDDENX2
 70
     0
  3
Hidden (2x) ____ ____ ____ ____ ____ ____ ____
 72
    65
 73
     2
 40
19.04999999999999
 49
12.7
 74
     0
 49
-6.349999999999999
 74
     0
  0
LTYPE
  5
14F
330
5
100
AcDbSymbolTableRecord
100
AcDbLinetypeTableRecord
  2
HOT_WATER_SUPPLY
 70
     0
  3
Hot water supply ---- HW ---- HW ---- HW ----
 72
    65
 73
     3
 40
22.86
 49
12.7
 74
     0
 49
-5.08
 74
     2
 75
     0
340
F
 46
2.54
 50
0.0
 44
-2.54
 45
-1.27
  9
HW
 49
-5.08
 74
     0
  0
LTYPE
  5
150
330
5
100
AcDbSymbolTableRecord
100
AcDbLinetypeTableRecord
  2
PHANTOM
 70
     0
  3
Phantom ______  __  __  ______  __  __  ______
 72
    65
 73
     6
 40
63.5
 49
31.75
 74
     0
 49
-6.349999999999999
 74
     0
 49
6.349999999999999
 74
     0
 49
-6.349999999999999
 74
     0
 49
6.349999999999999
 74
     0
 49
-6.349999999999999
 74
     0
  0
LTYPE
  5
151
330
5
100
AcDbSymbolTableRecord
100
AcDbLinetypeTableRecord
  2
PHANTOM2
 70
     0
  3
Phantom (.5x) ___ _ _ ___ _ _ ___ _ _ ___ _ _
 72
    65
 73
     6
 40
31.75
 49
15.875
 74
     0
 49
-3.174999999999999
 74
     0
 49
3.174999999999999
 74
     0
 49
-3.174999999999999
 74
     0
 49
3.174999999999999
 74
     0
 49
-3.174999999999999
 74
     0
  0
LTYPE
  5
152
330
5
100
AcDbSymbolTableRecord
100
AcDbLinetypeTableRecord
  2
PHANTOMX2
 70
     0
  3
Phantom (2x) ____________    ____    ____   _
 72
    65
 73
     6
 40
127.0
 49
63.5
 74
     0
 49
-12.7
 74
     0
 49
12.7
 74
     0
 49
-12.7
 74
     0
 49
12.7
 74
     0
 49
-12.7
 74
     0
  0
LTYPE
  5
153
330
5
100
AcDbSymbolTableRecord
100
AcDbLinetypeTableRecord
  2
TRACKS
 70
     0
  3
Tracks -|-|-|-|-|-|-|-|-|-|-|-|-|-|-|-|-|-|-|-|
 72
    65
 73
     2
 40
7.62
 49
3.81
 74
     4
 75
   130
340
127
 46
6.349999999999999
 50
0.0
 44
0.0
 45
0.0
 49
3.81
 74
     0
  0
LTYPE
  5
154
330
5
100
AcDbSymbolTableRecord
100
AcDbLinetypeTableRecord
  2
ZIGZAG
 70
     0
  3
Zig zag /\/\/\/\/\/\/\/\/\/\/\/\/\/\/\/\/\/\/\/
 72
    65
 73
     4
 40
20.32254
 49
0.00254
 74
     0
 49
-5.08
 74
     4
 75
   131
340
127
 46
5.08
 50
0.0
 44
-5.08
 45
0.0
 49
-10.16
 74
     4
 75
   131
340
127
 46
5.08
 50
180.0
 44
5.08
 45
0.0
 49
-5.08
 74
     0
  0
ENDTAB
  0
TABLE
  2
LAYER
  5
2
330
0
100
AcDbSymbolTable
 70
    10
  0
LAYER
  5
E
330
2
100
AcDbSymbolTableRecord
100
AcDbLayerTableRecord
  2
0
 70
     0
 62
     7
  6
CONTINUOUS
370
    -3
390
15FD
  0
LAYER
  5
20
330
2
100
AcDbSymbolTableRecord
100
AcDbLayerTableRecord
  2
DEFPOINTS
 70
     0
 62
     7
  6
CONTINUOUS
290
     0
370
    -3
390
15FD
  0
LAYER
  5
21
330
2
100
AcDbSymbolTableRecord
100
AcDbLayerTableRecord
  2
OBJECT
 70
     0
 62
     7
  6
CONTINUOUS
370
    -3
390
15FD
  0
LAYER
  5
155
330
2
100
AcDbSymbolTableRecord
100
AcDbLayerTableRecord
  2
上書線
 70
     0
 62
     7
  6
CONTINUOUS
370
    -3
390
15FD
  0
LAYER
  5
156
330
2
100
AcDbSymbolTableRecord
100
AcDbLayerTableRecord
  2
基準線
 70
     0
 62
    -1
  6
CONTINUOUS
370
    -3
390
15FD
  0
LAYER
  5
157
330
2
100
AcDbSymbolTableRecord
100
AcDbLayerTableRecord
  2
点線
 70
     0
 62
     5
  6
HIDDEN
370
    -3
390
15FD
  0
LAYER
  5
158
330
2
100
AcDbSymbolTableRecord
100
AcDbLayerTableRecord
  2
寸法線
 70
     0
 62
     2
  6
CONTINUOUS
370
    -3
390
15FD
  0
LAYER
  5
19D7
330
2
100
AcDbSymbolTableRecord
100
AcDbLayerTableRecord
  2
上線
 70
     0
 62
     7
  6
CONTINUOUS
370
    -3
390
15FD
  0
LAYER
  5
2EB9
330
2
100
AcDbSymbolTableRecord
100
AcDbLayerTableRecord
  2
中心線
 70
     0
 62
     6
  6
CENTER
370
    -3
390
15FD
  0
LAYER
  5
3979
330
2
100
AcDbSymbolTableRecord
100
AcDbLayerTableRecord
  2
WUWAGAKI
 70
     0
 62
     7
  6
CONTINUOUS
370
    -3
390
15FD
  0
ENDTAB
  0
TABLE
  2
STYLE
  5
3
330
0
100
AcDbSymbolTable
 70
     3
  0
STYLE
  5
F
330
3
100
AcDbSymbolTableRecord
100
AcDbTextStyleTableRecord
  2
STANDARD
 70
     0
 40
0.0
 41
1.0
 50
0.0
 71
     0
 42
2.5
  3
MS PMincho.ttf
  4

1001
ACAD
1000
MS PMincho
1071
    32786
  0
STYLE
  5
22
330
3
100
AcDbSymbolTableRecord
100
AcDbTextStyleTableRecord
  2
ADESK1
 70
     0
 40
0.0
 41
1.0
 50
0.0
 71
     0
 42
5.0
  3
romans
  4
bigfont
  0
STYLE
  5
127
330
3
100
AcDbSymbolTableRecord
100
AcDbTextStyleTableRecord
  2

 70
     1
 40
0.0
 41
1.0
 50
0.0
 71
     0
 42
2.5
  3
ltypeshp.shx
  4

  0
ENDTAB
  0
TABLE
  2
VIEW
  5
6
330
0
100
AcDbSymbolTable
 70
     0
  0
ENDTAB
  0
TABLE
  2
UCS
  5
7
330
0
100
AcDbSymbolTable
 70
     0
  0
ENDTAB
  0
TABLE
  2
APPID
  5
9
330
0
100
AcDbSymbolTable
 70
     2
  0
APPID
  5
10
330
9
100
AcDbSymbolTableRecord
100
AcDbRegAppTableRecord
  2
ACAD
 70
     0
  0
APPID
  5
1213
330
9
100
AcDbSymbolTableRecord
100
AcDbRegAppTableRecord
  2
DRAWINGVARIABLESXDATA
 70
     0
  0
ENDTAB
  0
TABLE
  2
DIMSTYLE
  5
A
330
0
100
AcDbSymbolTable
 70
     2
100
AcDbDimStyleTable
 71
     1
340
1D
  0
DIMSTYLE
105
1D
330
A
100
AcDbSymbolTableRecord
100
AcDbDimStyleTableRecord
  2
STANDARD
 70
     0
340
F
  0
DIMSTYLE
105
23
330
A
100
AcDbSymbolTableRecord
100
AcDbDimStyleTableRecord
  2
JIS
 70
     0
 41
2.5
 42
1.0
 43
7.0
 44
1.0
 73
     0
 74
     0
 77
     1
 78
     8
140
2.5
141
0.0
143
0.0394
147
0.0
172
     1
174
     1
175
     1
340
F
  0
ENDTAB
  0
TABLE
  2
BLOCK_RECORD
  5
1
330
0
100
AcDbSymbolTable
 70
     3
  0
BLOCK_RECORD
  5
18
330
1
100
AcDbSymbolTableRecord
100
AcDbBlockTableRecord
  2
*MODEL_SPACE
340
1600
  0
BLOCK_RECORD
  5
15
330
1
100
AcDbSymbolTableRecord
100
AcDbBlockTableRecord
  2
*PAPER_SPACE
340
1601
  0
BLOCK_RECORD
  5
24
330
1
100
AcDbSymbolTableRecord
100
AcDbBlockTableRecord
  2
JIS_A4L
340
0
  0
BLOCK_RECORD
  5
3437
330
1
100
AcDbSymbolTableRecord
100
AcDbBlockTableRecord
  2
*D1
340
0
  0
BLOCK_RECORD
  5
3445
330
1
100
AcDbSymbolTableRecord
100
AcDbBlockTableRecord
  2
A$C23BB6A77
340
0
  0
ENDTAB
  0
ENDSEC
  0
SECTION
  2
BLOCKS
  0
BLOCK
  5
19
330
18
100
AcDbEntity
  8
0
100
AcDbBlockBegin
  2
*MODEL_SPACE
 70
     2
 10
0.0
 20
0.0
 30
0.0
  3
*MODEL_SPACE
  1

  0
ENDBLK
  5
1A
330
18
100
AcDbEntity
  8
0
100
AcDbBlockEnd
  0
BLOCK
  5
16
330
15
100
AcDbEntity
 67
     1
  8
0
100
AcDbBlockBegin
  2
*PAPER_SPACE
 70
     0
 10
0.0
 20
0.0
 30
0.0
  3
*PAPER_SPACE
  1

  0
ENDBLK
  5
17
330
15
100
AcDbEntity
 67
     1
  8
0
100
AcDbBlockEnd
  0
BLOCK
  5
A1
330
24
100
AcDbEntity
  8
0
100
AcDbBlockBegin
  2
JIS_A4L
 70
     2
 10
0.0
 20
0.0
 30
0.0
  3
JIS_A4L
  1

  0
LINE
  5
25
330
24
100
AcDbEntity
  8
0
100
AcDbLine
 10
0.0
 20
0.0
 30
0.0
 11
0.0
 21
10.0
 31
0.0
  0
LINE
  5
26
330
24
100
AcDbEntity
  8
0
100
AcDbLine
 10
0.0
 20
210.0
 30
0.0
 11
25.0
 21
210.0
 31
0.0
  0
LINE
  5
27
330
24
100
AcDbEntity
  8
0
100
AcDbLine
 10
297.0
 20
210.0
 30
0.0
 11
297.0
 21
200.0
 31
0.0
  0
LINE
  5
28
330
24
100
AcDbEntity
  8
0
100
AcDbLine
 10
297.0
 20
0.0
 30
0.0
 11
287.0
 21
0.0
 31
0.0
  0
LINE
  5
29
330
24
100
AcDbEntity
  8
0
100
AcDbLine
 10
25.0
 20
10.0
 30
0.0
 11
25.0
 21
200.0
 31
0.0
  0
LINE
  5
2A
330
24
100
AcDbEntity
  8
0
100
AcDbLine
 10
287.0
 20
10.0
 30
0.0
 11
25.0
 21
10.0
 31
0.0
  0
LINE
  5
2B
330
24
100
AcDbEntity
  8
0
100
AcDbLine
 10
287.0
 20
200.0
 30
0.0
 11
287.0
 21
10.0
 31
0.0
  0
LINE
  5
2C
330
24
100
AcDbEntity
  8
0
100
AcDbLine
 10
25.0
 20
200.0
 30
0.0
 11
287.0
 21
200.0
 31
0.0
  0
LINE
  5
2D
330
24
100
AcDbEntity
  8
0
100
AcDbLine
 10
0.0
 20
200.0
 30
0.0
 11
0.0
 21
210.0
 31
0.0
  0
LINE
  5
2E
330
24
100
AcDbEntity
  8
0
100
AcDbLine
 10
25.0
 20
0.0
 30
0.0
 11
0.0
 21
0.0
 31
0.0
  0
LINE
  5
2F
330
24
100
AcDbEntity
  8
0
100
AcDbLine
 10
297.0
 20
10.0
 30
0.0
 11
297.0
 21
0.0
 31
0.0
  0
LINE
  5
30
330
24
100
AcDbEntity
  8
0
100
AcDbLine
 10
287.0
 20
210.0
 30
0.0
 11
297.0
 21
210.0
 31
0.0
  0
ATTDEF
  5
31
330
24
100
AcDbEntity
  8
0
 62
     0
100
AcDbText
 10
19.0
 20
10.0
 30
0.0
 40
3.0
  1

 50
90.0
  7
ADESK1
100
AcDbAttributeDefinition
  3

  2
USER
 70
     8
  0
ATTDEF
  5
32
330
24
100
AcDbEntity
  8
0
 62
     0
100
AcDbText
 10
19.0
 20
70.0
 30
0.0
 40
3.0
  1

 50
90.0
  7
ADESK1
100
AcDbAttributeDefinition
  3

  2
REVDATE
 70
     8
  0
ATTDEF
  5
33
330
24
100
AcDbEntity
  8
0
 62
     0
100
AcDbText
 10
19.0
 20
118.0
 30
0.0
 40
3.0
  1

 50
90.0
  7
ADESK1
100
AcDbAttributeDefinition
  3

  2
FNAME
 70
     8
  0
LINE
  5
34
330
24
100
AcDbEntity
  8
OBJECT
100
AcDbLine
 10
130.0
 20
16.0
 30
0.0
 11
25.0
 21
16.0
 31
0.0
  0
LINE
  5
35
330
24
100
AcDbEntity
  8
OBJECT
100
AcDbLine
 10
130.0
 20
22.0
 30
0.0
 11
25.0
 21
22.0
 31
0.0
  0
LINE
  5
36
330
24
100
AcDbEntity
  8
OBJECT
100
AcDbLine
 10
130.0
 20
28.0
 30
0.0
 11
25.0
 21
28.0
 31
0.0
  0
LINE
  5
37
330
24
100
AcDbEntity
  8
OBJECT
100
AcDbLine
 10
130.0
 20
34.0
 30
0.0
 11
25.0
 21
34.0
 31
0.0
  0
LINE
  5
38
330
24
100
AcDbEntity
  8
OBJECT
100
AcDbLine
 10
130.0
 20
40.0
 30
0.0
 11
25.0
 21
40.0
 31
0.0
  0
LINE
  5
39
330
24
100
AcDbEntity
  8
OBJECT
100
AcDbLine
 10
28.0
 20
11.53589799999999
 30
0.0
 11
30.0
 21
15.0
 31
0.0
  0
LINE
  5
3A
330
24
100
AcDbEntity
  8
OBJECT
100
AcDbLine
 10
32.0
 20
11.53589799999999
 30
0.0
 11
30.0
 21
15.0
 31
0.0
  0
LINE
  5
3B
330
24
100
AcDbEntity
  8
OBJECT
100
AcDbLine
 10
35.0
 20
10.0
 30
0.0
 11
35.0
 21
40.0
 31
0.0
  0
LINE
  5
3C
330
24
100
AcDbEntity
  8
OBJECT
100
AcDbLine
 10
50.0
 20
10.0
 30
0.0
 11
50.0
 21
40.0
 31
0.0
  0
LINE
  5
3D
330
24
100
AcDbEntity
  8
OBJECT
100
AcDbLine
 10
80.0
 20
10.0
 30
0.0
 11
80.0
 21
40.0
 31
0.0
  0
LINE
  5
3E
330
24
100
AcDbEntity
  8
OBJECT
100
AcDbLine
 10
28.0
 20
11.53589799999999
 30
0.0
 11
32.0
 21
11.53589799999999
 31
0.0
  0
LINE
  5
3F
330
24
100
AcDbEntity
  8
OBJECT
100
AcDbLine
 10
39.5
 20
13.0
 30
0.0
 11
40.49999999999999
 21
13.0
 31
0.0
  0
LINE
  5
40
330
24
100
AcDbEntity
  8
OBJECT
100
AcDbLine
 10
44.5
 20
13.0
 30
0.0
 11
45.49999999999999
 21
13.0
 31
0.0
  0
LINE
  5
41
330
24
100
AcDbEntity
  8
OBJECT
100
AcDbLine
 10
32.0
 20
17.535898
 30
0.0
 11
30.0
 21
20.99999999999999
 31
0.0
  0
LINE
  5
42
330
24
100
AcDbEntity
  8
OBJECT
100
AcDbLine
 10
28.0
 20
17.535898
 30
0.0
 11
32.0
 21
17.535898
 31
0.0
  0
LINE
  5
43
330
24
100
AcDbEntity
  8
OBJECT
100
AcDbLine
 10
28.0
 20
17.535898
 30
0.0
 11
30.0
 21
20.99999999999999
 31
0.0
  0
LINE
  5
44
330
24
100
AcDbEntity
  8
OBJECT
100
AcDbLine
 10
32.0
 20
23.53589799999999
 30
0.0
 11
30.0
 21
26.99999999999999
 31
0.0
  0
LINE
  5
45
330
24
100
AcDbEntity
  8
OBJECT
100
AcDbLine
 10
28.0
 20
23.53589799999999
 30
0.0
 11
32.0
 21
23.53589799999999
 31
0.0
  0
LINE
  5
46
330
24
100
AcDbEntity
  8
OBJECT
100
AcDbLine
 10
28.0
 20
23.53589799999999
 30
0.0
 11
30.0
 21
26.99999999999999
 31
0.0
  0
LINE
  5
47
330
24
100
AcDbEntity
  8
OBJECT
100
AcDbLine
 10
28.0
 20
35.53589799999999
 30
0.0
 11
30.0
 21
39.0
 31
0.0
  0
LINE
  5
48
330
24
100
AcDbEntity
  8
OBJECT
100
AcDbLine
 10
32.0
 20
35.53589799999999
 30
0.0
 11
30.0
 21
39.0
 31
0.0
  0
LINE
  5
49
330
24
100
AcDbEntity
  8
OBJECT
100
AcDbLine
 10
28.0
 20
35.53589799999999
 30
0.0
 11
32.0
 21
35.53589799999999
 31
0.0
  0
LINE
  5
4A
330
24
100
AcDbEntity
  8
OBJECT
100
AcDbLine
 10
32.0
 20
29.53589799999999
 30
0.0
 11
30.0
 21
33.0
 31
0.0
  0
LINE
  5
4B
330
24
100
AcDbEntity
  8
OBJECT
100
AcDbLine
 10
28.0
 20
29.53589799999999
 30
0.0
 11
32.0
 21
29.53589799999999
 31
0.0
  0
LINE
  5
4C
330
24
100
AcDbEntity
  8
OBJECT
100
AcDbLine
 10
28.0
 20
29.53589799999999
 30
0.0
 11
30.0
 21
33.0
 31
0.0
  0
LINE
  5
4D
330
24
100
AcDbEntity
  8
OBJECT
100
AcDbLine
 10
39.5
 20
19.0
 30
0.0
 11
40.49999999999999
 21
19.0
 31
0.0
  0
LINE
  5
4E
330
24
100
AcDbEntity
  8
OBJECT
100
AcDbLine
 10
44.5
 20
19.0
 30
0.0
 11
45.49999999999999
 21
19.0
 31
0.0
  0
LINE
  5
4F
330
24
100
AcDbEntity
  8
OBJECT
100
AcDbLine
 10
39.5
 20
25.0
 30
0.0
 11
40.49999999999999
 21
25.0
 31
0.0
  0
LINE
  5
50
330
24
100
AcDbEntity
  8
OBJECT
100
AcDbLine
 10
44.5
 20
25.0
 30
0.0
 11
45.49999999999999
 21
25.0
 31
0.0
  0
LINE
  5
51
330
24
100
AcDbEntity
  8
OBJECT
100
AcDbLine
 10
39.5
 20
31.0
 30
0.0
 11
40.49999999999999
 21
31.0
 31
0.0
  0
LINE
  5
52
330
24
100
AcDbEntity
  8
OBJECT
100
AcDbLine
 10
39.5
 20
37.0
 30
0.0
 11
40.49999999999999
 21
37.0
 31
0.0
  0
LINE
  5
53
330
24
100
AcDbEntity
  8
OBJECT
100
AcDbLine
 10
44.5
 20
31.0
 30
0.0
 11
45.49999999999999
 21
31.0
 31
0.0
  0
LINE
  5
54
330
24
100
AcDbEntity
  8
OBJECT
100
AcDbLine
 10
44.5
 20
37.0
 30
0.0
 11
45.49999999999999
 21
37.0
 31
0.0
  0
LINE
  5
55
330
24
100
AcDbEntity
  8
OBJECT
100
AcDbLine
 10
120.0
 20
10.0
 30
0.0
 11
120.0
 21
40.0
 31
0.0
  0
LINE
  5
56
330
24
100
AcDbEntity
  8
OBJECT
100
AcDbLine
 10
130.0
 20
40.0
 30
0.0
 11
130.0
 21
10.0
 31
0.0
  0
LINE
  5
57
330
24
100
AcDbEntity
  8
0
100
AcDbLine
 10
156.0
 20
10.0
 30
0.0
 11
156.0
 21
0.0
 31
0.0
  0
LINE
  5
58
330
24
100
AcDbEntity
  8
0
100
AcDbLine
 10
156.0
 20
200.0
 30
0.0
 11
156.0
 21
210.0
 31
0.0
  0
LINE
  5
59
330
24
100
AcDbEntity
  8
0
100
AcDbLine
 10
287.0
 20
105.0
 30
0.0
 11
297.0
 21
105.0
 31
0.0
  0
LINE
  5
5A
330
24
100
AcDbEntity
  8
0
100
AcDbLine
 10
25.0
 20
105.0
 30
0.0
 11
0.0
 21
105.0
 31
0.0
  0
TEXT
  5
5B
330
24
100
AcDbEntity
  8
0
100
AcDbText
 10
1.0
 20
1.0
 30
0.0
 40
3.0
  1
この図枠はサンプルです。社内の規格やプロッタの出力範囲に合わせて適当に変更してご利用ください。
  7
ADESK1
100
AcDbText
  0
LINE
  5
5C
330
24
100
AcDbEntity
  8
0
100
AcDbLine
 10
25.0
 20
152.5
 30
0.0
 11
20.0
 21
152.5
 31
0.0
  0
LINE
  5
5D
330
24
100
AcDbEntity
  8
0
100
AcDbLine
 10
25.0
 20
105.0
 30
0.0
 11
20.0
 21
105.0
 31
0.0
  0
LINE
  5
5E
330
24
100
AcDbEntity
  8
0
100
AcDbLine
 10
25.0
 20
57.5
 30
0.0
 11
20.0
 21
57.5
 31
0.0
  0
LINE
  5
5F
330
24
100
AcDbEntity
  8
0
100
AcDbLine
 10
68.66666666666668
 20
10.0
 30
0.0
 11
68.66666666666668
 21
5.0
 31
0.0
  0
LINE
  5
60
330
24
100
AcDbEntity
  8
0
100
AcDbLine
 10
112.3333333333333
 20
10.0
 30
0.0
 11
112.3333333333333
 21
5.0
 31
0.0
  0
LINE
  5
61
330
24
100
AcDbEntity
  8
0
100
AcDbLine
 10
156.0
 20
10.0
 30
0.0
 11
156.0
 21
5.0
 31
0.0
  0
LINE
  5
62
330
24
100
AcDbEntity
  8
0
100
AcDbLine
 10
199.6666666666666
 20
10.0
 30
0.0
 11
199.6666666666666
 21
5.0
 31
0.0
  0
LINE
  5
63
330
24
100
AcDbEntity
  8
0
100
AcDbLine
 10
243.3333333333333
 20
10.0
 30
0.0
 11
243.3333333333333
 21
5.0
 31
0.0
  0
LINE
  5
64
330
24
100
AcDbEntity
  8
0
100
AcDbLine
 10
287.0
 20
57.5
 30
0.0
 11
292.0
 21
57.5
 31
0.0
  0
LINE
  5
65
330
24
100
AcDbEntity
  8
0
100
AcDbLine
 10
287.0
 20
105.0
 30
0.0
 11
292.0
 21
105.0
 31
0.0
  0
LINE
  5
66
330
24
100
AcDbEntity
  8
0
100
AcDbLine
 10
287.0
 20
152.5
 30
0.0
 11
292.0
 21
152.5
 31
0.0
  0
LINE
  5
67
330
24
100
AcDbEntity
  8
0
100
AcDbLine
 10
243.3333333333333
 20
200.0
 30
0.0
 11
243.3333333333333
 21
205.0
 31
0.0
  0
LINE
  5
68
330
24
100
AcDbEntity
  8
0
100
AcDbLine
 10
199.6666666666666
 20
200.0
 30
0.0
 11
199.6666666666666
 21
205.0
 31
0.0
  0
LINE
  5
69
330
24
100
AcDbEntity
  8
0
100
AcDbLine
 10
156.0
 20
200.0
 30
0.0
 11
156.0
 21
205.0
 31
0.0
  0
LINE
  5
6A
330
24
100
AcDbEntity
  8
0
100
AcDbLine
 10
112.3333333333333
 20
200.0
 30
0.0
 11
112.3333333333333
 21
205.0
 31
0.0
  0
LINE
  5
6B
330
24
100
AcDbEntity
  8
0
100
AcDbLine
 10
68.66666666666666
 20
200.0
 30
0.0
 11
68.66666666666666
 21
205.0
 31
0.0
  0
TEXT
  5
6C
330
24
100
AcDbEntity
  8
0
100
AcDbText
 10
45.61904761904761
 20
201.0
 30
0.0
 40
3.0
  1
1
  7
ADESK1
 72
     1
 11
46.83333333333332
 21
201.0
 31
0.0
100
AcDbText
  0
TEXT
  5
6D
330
24
100
AcDbEntity
  8
0
100
AcDbText
 10
21.66139736003921
 20
176.25
 30
0.0
 40
3.0
  1
A
  7
ADESK1
 72
     1
 11
22.94711164575349
 21
176.25
 31
0.0
100
AcDbText
  0
TEXT
  5
6E
330
24
100
AcDbEntity
  8
0
100
AcDbText
 10
89.07142857142856
 20
201.0
 30
0.0
 40
3.0
  1
2
  7
ADESK1
 72
     1
 11
90.5
 21
201.0
 31
0.0
100
AcDbText
  0
TEXT
  5
6F
330
24
100
AcDbEntity
  8
0
100
AcDbText
 10
132.7380952380952
 20
201.0
 30
0.0
 40
3.0
  1
3
  7
ADESK1
 72
     1
 11
134.1666666666666
 21
201.0
 31
0.0
100
AcDbText
  0
TEXT
  5
70
330
24
100
AcDbEntity
  8
0
100
AcDbText
 10
176.3333333333333
 20
201.0
 30
0.0
 40
3.0
  1
4
  7
ADESK1
 72
     1
 11
177.8333333333333
 21
201.0
 31
0.0
100
AcDbText
  0
TEXT
  5
71
330
24
100
AcDbEntity
  8
0
100
AcDbText
 10
220.0714285714286
 20
201.0
 30
0.0
 40
3.0
  1
5
  7
ADESK1
 72
     1
 11
221.4999999999999
 21
201.0
 31
0.0
100
AcDbText
  0
TEXT
  5
72
330
24
100
AcDbEntity
  8
0
100
AcDbText
 10
263.6666666666666
 20
201.0
 30
0.0
 40
3.0
  1
6
  7
ADESK1
 72
     1
 11
265.1666666666666
 21
201.0
 31
0.0
100
AcDbText
  0
TEXT
  5
73
330
24
100
AcDbEntity
  8
0
100
AcDbText
 10
21.37568307432492
 20
128.75
 30
0.0
 40
3.0
  1
B
  7
ADESK1
 72
     1
 11
22.94711164575349
 21
128.75
 31
0.0
100
AcDbText
  0
TEXT
  5
74
330
24
100
AcDbEntity
  8
0
100
AcDbText
 10
21.44711164575349
 20
81.25
 30
0.0
 40
3.0
  1
C
  7
ADESK1
 72
     1
 11
22.94711164575349
 21
81.25
 31
0.0
100
AcDbText
  0
TEXT
  5
75
330
24
100
AcDbEntity
  8
0
100
AcDbText
 10
21.37568307432492
 20
33.75
 30
0.0
 40
3.0
  1
D
  7
ADESK1
 72
     1
 11
22.94711164575349
 21
33.75
 31
0.0
100
AcDbText
  0
TEXT
  5
76
330
24
100
AcDbEntity
  8
0
100
AcDbText
 10
45.61904761904759
 20
6.230338100985607
 30
0.0
 40
3.0
  1
1
  7
ADESK1
 72
     1
 11
46.83333333333331
 21
6.230338100985607
 31
0.0
100
AcDbText
  0
TEXT
  5
77
330
24
100
AcDbEntity
  8
0
100
AcDbText
 10
89.07142857142856
 20
6.230338100985607
 30
0.0
 40
3.0
  1
2
  7
ADESK1
 72
     1
 11
90.5
 21
6.230338100985607
 31
0.0
100
AcDbText
  0
TEXT
  5
78
330
24
100
AcDbEntity
  8
0
100
AcDbText
 10
132.7380952380952
 20
6.230338100985607
 30
0.0
 40
3.0
  1
3
  7
ADESK1
 72
     1
 11
134.1666666666666
 21
6.230338100985607
 31
0.0
100
AcDbText
  0
TEXT
  5
79
330
24
100
AcDbEntity
  8
0
100
AcDbText
 10
176.3333333333333
 20
6.230338100985607
 30
0.0
 40
3.0
  1
4
  7
ADESK1
 72
     1
 11
177.8333333333333
 21
6.230338100985607
 31
0.0
100
AcDbText
  0
TEXT
  5
7A
330
24
100
AcDbEntity
  8
0
100
AcDbText
 10
220.0714285714286
 20
6.230338100985607
 30
0.0
 40
3.0
  1
5
  7
ADESK1
 72
     1
 11
221.4999999999999
 21
6.230338100985607
 31
0.0
100
AcDbText
  0
TEXT
  5
7B
330
24
100
AcDbEntity
  8
0
100
AcDbText
 10
263.6666666666666
 20
6.230338100985607
 30
0.0
 40
3.0
  1
6
  7
ADESK1
 72
     1
 11
265.1666666666666
 21
6.230338100985607
 31
0.0
100
AcDbText
  0
TEXT
  5
7C
330
24
100
AcDbEntity
  8
0
100
AcDbText
 10
287.9530581679809
 20
176.25
 30
0.0
 40
3.0
  1
A
  7
ADESK1
 72
     1
 11
289.2387724536952
 21
176.25
 31
0.0
100
AcDbText
  0
TEXT
  5
7D
330
24
100
AcDbEntity
  8
0
100
AcDbText
 10
287.6673438822666
 20
128.75
 30
0.0
 40
3.0
  1
B
  7
ADESK1
 72
     1
 11
289.2387724536952
 21
128.75
 31
0.0
100
AcDbText
  0
TEXT
  5
7E
330
24
100
AcDbEntity
  8
0
100
AcDbText
 10
287.7387724536952
 20
81.25
 30
0.0
 40
3.0
  1
C
  7
ADESK1
 72
     1
 11
289.2387724536952
 21
81.25
 31
0.0
100
AcDbText
  0
TEXT
  5
7F
330
24
100
AcDbEntity
  8
0
100
AcDbText
 10
287.6673438822666
 20
33.75
 30
0.0
 40
3.0
  1
D
  7
ADESK1
 72
     1
 11
289.2387724536952
 21
33.75
 31
0.0
100
AcDbText
  0
LINE
  5
80
330
24
100
AcDbEntity
  8
0
 62
     0
100
AcDbLine
 10
157.2978723404242
 20
49.00000000000036
 30
0.0
 11
287.0
 21
49.00000000000036
 31
0.0
  0
LINE
  5
81
330
24
100
AcDbEntity
  8
0
 62
     0
100
AcDbLine
 10
157.2978723404242
 20
13.00000000000004
 30
0.0
 11
287.0
 21
13.00000000000004
 31
0.0
  0
LINE
  5
82
330
24
100
AcDbEntity
  8
0
 62
     0
100
AcDbLine
 10
157.2978723404242
 20
37.00000000000024
 30
0.0
 11
287.0
 21
37.00000000000024
 31
0.0
  0
LINE
  5
83
330
24
100
AcDbEntity
  8
0
 62
     0
100
AcDbLine
 10
195.1276595744673
 20
22.00000000000012
 30
0.0
 11
287.0
 21
22.00000000000012
 31
0.0
  0
LINE
  5
84
330
24
100
AcDbEntity
  8
0
 62
     0
100
AcDbLine
 10
157.2978723404242
 20
10.0
 30
0.0
 11
287.0
 21
10.0
 31
0.0
  0
LINE
  5
85
330
24
100
AcDbEntity
  8
0
 62
     0
100
AcDbLine
 10
287.0
 20
49.00000000000036
 30
0.0
 11
157.2978723404242
 21
49.00000000000036
 31
0.0
  0
LINE
  5
86
330
24
100
AcDbEntity
  8
0
 62
     0
100
AcDbLine
 10
180.7163120567365
 20
37.00000000000024
 30
0.0
 11
180.7163120567365
 21
10.0
 31
0.0
  0
LINE
  5
87
330
24
100
AcDbEntity
  8
0
 62
     0
100
AcDbLine
 10
162.702127659573
 20
37.00000000000024
 30
0.0
 11
162.702127659573
 21
10.0
 31
0.0
  0
LINE
  5
88
330
24
100
AcDbEntity
  8
0
 62
     0
100
AcDbLine
 10
189.7234042553184
 20
37.00000000000024
 30
0.0
 11
189.7234042553184
 21
10.0
 31
0.0
  0
LINE
  5
89
330
24
100
AcDbEntity
  8
0
 62
     0
100
AcDbLine
 10
195.1276595744673
 20
25.00000000000012
 30
0.0
 11
195.1276595744673
 21
10.0
 31
0.0
  0
LINE
  5
8A
330
24
100
AcDbEntity
  8
0
 62
     0
100
AcDbLine
 10
157.2978723404242
 20
49.00000000000036
 30
0.0
 11
157.2978723404242
 21
10.0
 31
0.0
  0
LINE
  5
8B
330
24
100
AcDbEntity
  8
0
 62
     0
100
AcDbLine
 10
225.7517730496447
 20
49.00000000000036
 30
0.0
 11
225.7517730496447
 21
10.0
 31
0.0
  0
LINE
  5
8C
330
24
100
AcDbEntity
  8
0
 62
     0
100
AcDbLine
 10
205.7659574468077
 20
22.00000000000007
 30
0.0
 11
205.7659574468077
 21
10.0
 31
0.0
  0
LINE
  5
8D
330
24
100
AcDbEntity
  8
0
 62
     0
100
AcDbLine
 10
216.4042553191484
 20
22.00000000000007
 30
0.0
 11
216.4042553191484
 21
10.0
 31
0.0
  0
LINE
  5
8E
330
24
100
AcDbEntity
  8
0
 62
     0
100
AcDbLine
 10
157.2978723404242
 20
16.00000000000008
 30
0.0
 11
195.1276595744673
 21
16.00000000000008
 31
0.0
  0
LINE
  5
8F
330
24
100
AcDbEntity
  8
0
 62
     0
100
AcDbLine
 10
157.2978723404242
 20
10.0
 30
0.0
 11
157.2978723404242
 21
13.00000000000004
 31
0.0
  0
TEXT
  5
90
330
24
100
AcDbEntity
  8
0
 62
     0
100
AcDbText
 10
198.7174935280942
 20
10.48329012996929
 30
0.0
 40
1.791674070777747
  1
製図
  7
ADESK1
 72
     1
 11
200.5688900678978
 21
10.48329012996929
 31
0.0
100
AcDbText
  0
TEXT
  5
91
330
24
100
AcDbEntity
  8
0
 62
     0
100
AcDbText
 10
209.2960689314087
 20
10.48329012996929
 30
0.0
 40
1.791674070777747
  1
設計
  7
ADESK1
 72
     1
 11
211.2071879402383
 21
10.48329012996929
 31
0.0
100
AcDbText
  0
TEXT
  5
92
330
24
100
AcDbEntity
  8
0
 62
     0
100
AcDbText
 10
219.2447163844405
 20
10.55220101068186
 30
0.0
 40
1.791674070777747
  1
照査
  7
ADESK1
 72
     1
 11
221.1558353932701
 21
10.55220101068186
 31
0.0
100
AcDbText
  0
LINE
  5
93
330
24
100
AcDbEntity
  8
0
 62
     0
100
AcDbLine
 10
157.2978723404242
 20
25.00000000000012
 30
0.0
 11
195.1276595744673
 21
25.00000000000012
 31
0.0
  0
LINE
  5
94
330
24
100
AcDbEntity
  8
0
 62
     0
100
AcDbLine
 10
157.2978723404242
 20
22.00000000000007
 30
0.0
 11
195.1276595744673
 21
22.00000000000012
 31
0.0
  0
LINE
  5
95
330
24
100
AcDbEntity
  8
0
 62
     0
100
AcDbLine
 10
157.2978723404242
 20
19.00000000000007
 30
0.0
 11
195.1276595744673
 21
19.00000000000012
 31
0.0
  0
LINE
  5
96
330
24
100
AcDbEntity
  8
0
 62
     0
100
AcDbLine
 10
157.2978723404242
 20
34.00000000000024
 30
0.0
 11
225.7517730496447
 21
34.00000000000024
 31
0.0
  0
LINE
  5
97
330
24
100
AcDbEntity
  8
0
 62
     0
100
AcDbLine
 10
157.2978723404242
 20
31.0000000000002
 30
0.0
 11
225.7517730496447
 21
31.0000000000002
 31
0.0
  0
LINE
  5
98
330
24
100
AcDbEntity
  8
0
 62
     0
100
AcDbLine
 10
157.2978723404242
 20
28.00000000000015
 30
0.0
 11
225.7517730496447
 21
28.00000000000015
 31
0.0
  0
LINE
  5
99
330
24
100
AcDbEntity
  8
0
 62
     0
100
AcDbLine
 10
195.1276595744673
 20
25.00000000000012
 30
0.0
 11
225.7517730496447
 21
25.00000000000012
 31
0.0
  0
LINE
  5
9A
330
24
100
AcDbEntity
  8
0
 62
     0
100
AcDbLine
 10
195.1276595744673
 20
49.00000000000036
 30
0.0
 11
195.1276595744673
 21
25.00000000000012
 31
0.0
  0
LINE
  5
9B
330
24
100
AcDbEntity
  8
0
 62
     0
100
AcDbLine
 10
202.3333333333325
 20
37.00000000000024
 30
0.0
 11
202.3333333333325
 21
25.00000000000012
 31
0.0
  0
LINE
  5
9C
330
24
100
AcDbEntity
  8
0
 62
     0
100
AcDbLine
 10
213.1418439716305
 20
49.00000000000036
 30
0.0
 11
213.1418439716305
 21
22.00000000000012
 31
0.0
  0
LINE
  5
9D
330
24
100
AcDbEntity
  8
0
 62
     0
100
AcDbLine
 10
279.7943262411347
 20
22.00000000000012
 30
0.0
 11
279.7943262411347
 21
10.0
 31
0.0
  0
LINE
  5
9E
330
24
100
AcDbEntity
  8
0
 62
     0
100
AcDbLine
 10
287.0
 20
49.00000000000036
 30
0.0
 11
287.0
 21
10.0
 31
0.0
  0
LINE
  5
9F
330
24
100
AcDbEntity
  8
0
 62
     0
100
AcDbLine
 10
287.0
 20
10.0
 30
0.0
 11
287.0
 21
49.00000000000036
 31
0.0
  0
LINE
  5
A0
330
24
100
AcDbEntity
  8
0
 62
     0
100
AcDbLine
 10
279.7943262411347
 20
16.00000000000008
 30
0.0
 11
287.0
 21
16.00000000000008
 31
0.0
  0
ENDBLK
  5
A2
330
24
100
AcDbEntity
  8
0
100
AcDbBlockEnd
  0
BLOCK
  5
3443
330
3437
100
AcDbEntity
  8
0
100
AcDbBlockBegin
  2
*D1
 70
     1
 10
0.0
 20
0.0
 30
0.0
  3
*D1
  1

  0
LINE
  5
3438
330
3437
100
AcDbEntity
  8
OBJECT
 62
     0
370
    -2
100
AcDbLine
 10
-8068.568047744786
 20
3998.303038975791
 30
0.0
 11
-7757.422052324407
 21
3998.303038975791
 31
0.0
  0
LINE
  5
3439
330
3437
100
AcDbEntity
  8
OBJECT
 62
     0
370
    -2
100
AcDbLine
 10
-8068.568047744786
 20
4078.303038975791
 30
0.0
 11
-7757.422052324407
 21
4078.303038975791
 31
0.0
  0
LINE
  5
343A
330
3437
100
AcDbEntity
  8
OBJECT
 62
     0
370
    -2
100
AcDbLine
 10
-7776.172052324408
 20
3960.803038975791
 30
0.0
 11
-7776.172052324408
 21
3923.303038975791
 31
0.0
  0
LINE
  5
343B
330
3437
100
AcDbEntity
  8
OBJECT
 62
     0
370
    -2
100
AcDbLine
 10
-7776.172052324408
 20
4115.803038975792
 30
0.0
 11
-7776.172052324408
 21
4153.303038975791
 31
0.0
  0
LINE
  5
343C
330
3437
100
AcDbEntity
  8
OBJECT
 62
     0
370
    -2
100
AcDbLine
 10
-7776.172052324408
 20
3998.303038975791
 30
0.0
 11
-7776.172052324408
 21
4078.303038975791
 31
0.0
  0
SOLID
  5
343D
330
3437
100
AcDbEntity
  8
OBJECT
 62
     0
100
AcDbTrace
 10
-7782.422052324408
 20
3960.803038975791
 30
0.0
 11
-7769.922052324408
 21
3960.803038975791
 31
0.0
 12
-7776.172052324408
 22
3998.303038975791
 32
0.0
 13
-7776.172052324408
 23
3998.303038975791
 33
0.0
  0
SOLID
  5
343E
330
3437
100
AcDbEntity
  8
OBJECT
 62
     0
100
AcDbTrace
 10
-7782.422052324408
 20
4115.803038975792
 30
0.0
 11
-7769.922052324408
 21
4115.803038975792
 31
0.0
 12
-7776.172052324408
 22
4078.303038975791
 32
0.0
 13
-7776.172052324408
 23
4078.303038975791
 33
0.0
  0
MTEXT
  5
343F
330
3437
100
AcDbEntity
  8
OBJECT
 62
     0
100
AcDbMText
 10
-7804.297052324407
 20
4038.303038975789
 30
0.0
 40
37.5
 41
0.0
 71
     5
 72
     1
  1
\A1;80
 11
0.0000000000000001
 21
1.0
 31
0.0
 73
     1
 44
1.0
  0
POINT
  5
3440
330
3437
100
AcDbEntity
  8
DEFPOINTS
 62
     0
100
AcDbPoint
 10
-8077.943047744787
 20
3998.303038975791
 30
0.0
  0
POINT
  5
3441
330
3437
100
AcDbEntity
  8
DEFPOINTS
 62
     0
100
AcDbPoint
 10
-8077.943047744787
 20
4078.303038975791
 30
0.0
  0
POINT
  5
3442
330
3437
100
AcDbEntity
  8
DEFPOINTS
 62
     0
100
AcDbPoint
 10
-7776.172052324408
 20
4078.303038975791
 30
0.0
  0
ENDBLK
  5
3444
330
3437
100
AcDbEntity
  8
0
100
AcDbBlockEnd
  0
BLOCK
  5
3447
330
3445
100
AcDbEntity
  8
0
100
AcDbBlockBegin
  2
A$C23BB6A77
 70
     0
 10
0.0
 20
0.0
 30
0.0
  3
A$C23BB6A77
  1

  0
DIMENSION
  5
3446
330
3445
100
AcDbEntity
  8
OBJECT
100
AcDbDimension
  2
*D1
 10
301.7709854312124
 20
154.9999934708971
 30
0.0
 11
273.6459854312115
 21
114.9999934708962
 31
0.0
 12
8077.94303775562
 22
-3923.303045504894
 32
0.0
 71
     5
 42
79.99999999999954
  3
STANDARD
100
AcDbAlignedDimension
 13
-0.0000099891658465
 23
74.99999347089761
 33
0.0
 14
-0.0000099891658465
 24
154.9999934708971
 34
0.0
 50
90.0
100
AcDbRotatedDimension
1001
ACAD
1000
DSTYLE
1002
{
1070
    40
1040
15.0
1070
    41
1040
2.5
1070
    42
1040
0.625
1070
    43
1040
3.75
1070
    44
1040
1.25
1070
    73
1070
     0
1070
    74
1070
     0
1070
    77
1070
     1
1070
    78
1070
     8
1070
   140
1040
2.5
1070
   141
1040
2.5
1070
   143
1040
0.0394
1070
   147
1040
0.625
1070
   171
1070
     4
1070
   172
1070
     1
1070
   273
1070
     8
1070
   274
1070
     4
1070
   277
1070
     6
1002
}
  0
ENDBLK
  5
3448
330
3445
100
AcDbEntity
  8
0
100
AcDbBlockEnd
  0
ENDSEC
  0
SECTION
  2
ENTITIES
  0
MTEXT
  5
938
330
18
100
AcDbEntity
  8
上書線
100
AcDbMText
 10
1865.739761775792
 20
499.0283937835011
 30
0.0
 40
37.5
 41
0.0
 71
     4
 72
     1
  1
\A1;
 73
     1
 44
1.0
  0
LINE
  5
123E
330
18
100
AcDbEntity
  8
基準線
100
AcDbLine
 10
710.0813698183028
 20
2117.506972677286
 30
0.0
 11
731.0813698183028
 21
2117.506972677286
 31
0.0
  0
LINE
  5
14BB
330
18
100
AcDbEntity
  8
基準線
100
AcDbLine
 10
1281.296189060135
 20
2744.451732006984
 30
0.0
 11
1631.12377476475
 21
2744.451732006984
 31
0.0
  0
LINE
  5
14BC
330
18
100
AcDbEntity
  8
基準線
100
AcDbLine
 10
1131.296189060135
 20
2594.451732006984
 30
0.0
 11
1604.134047986604
 21
2594.451732006984
 31
0.0
  0
LINE
  5
1546
330
18
100
AcDbEntity
  8
基準線
100
AcDbLine
 10
2000.40772718317
 20
1104.126411816217
 30
0.0
 11
2000.40772718317
 21
1262.163674897728
 31
0.0
  0
LINE
  5
154B
330
18
100
AcDbEntity
  8
基準線
100
AcDbLine
 10
2550.40772718317
 20
1049.126411816217
 30
0.0
 11
2550.40772718317
 21
1211.614819254876
 31
0.0
  0
LINE
  5
154C
330
18
100
AcDbEntity
  8
基準線
100
AcDbLine
 10
2150.40772718317
 20
1049.126411816217
 30
0.0
 11
2150.40772718317
 21
1226.779475202555
 31
0.0
  0
LINE
  5
15CA
330
18
100
AcDbEntity
  8
基準線
100
AcDbLine
 10
3419.935833980378
 20
2804.85492986955
 30
0.0
 11
3776.432100616551
 21
2804.85492986955
 31
0.0
  0
LINE
  5
15CC
330
18
100
AcDbEntity
  8
基準線
100
AcDbLine
 10
3776.432100616551
 20
2804.85492986955
 30
0.0
 11
4171.357345948922
 21
2804.85492986955
 31
0.0
  0
LINE
  5
15D0
330
18
100
AcDbEntity
  8
基準線
100
AcDbLine
 10
3419.935833980378
 20
2684.85492986955
 30
0.0
 11
3776.432100616551
 21
2684.85492986955
 31
0.0
  0
LINE
  5
15D1
330
18
100
AcDbEntity
  8
基準線
100
AcDbLine
 10
3598.183967298465
 20
2684.85492986955
 30
0.0
 11
3598.183967298465
 21
984.8549298695507
 31
0.0
  0
LINE
  5
15D2
330
18
100
AcDbEntity
  8
基準線
100
AcDbLine
 10
3776.432100616551
 20
2484.854929869551
 30
0.0
 11
4171.357345948921
 21
2484.85492986955
 31
0.0
  0
LINE
  5
15D3
330
18
100
AcDbEntity
  8
基準線
100
AcDbLine
 10
3973.894723282737
 20
2684.854929869551
 30
0.0
 11
3973.894723282734
 21
984.8549298695507
 31
0.0
  0
LINE
  5
15D4
330
18
100
AcDbEntity
  8
基準線
100
AcDbLine
 10
3419.935833980378
 20
2684.85492986955
 30
0.0
 11
3419.935833980378
 21
2584.85492986955
 31
0.0
  0
LINE
  5
15D5
330
18
100
AcDbEntity
  8
基準線
100
AcDbLine
 10
3419.935833980378
 20
2634.85492986955
 30
0.0
 11
4114.659436953616
 21
2634.85492986955
 31
0.0
  0
MTEXT
  5
2600
330
18
100
AcDbEntity
  8
上書線
100
AcDbMText
 10
8187.89395644787
 20
6112.533972702204
 30
0.0
 40
60.0
 41
956.9129999999999
 71
     1
 72
     5
  1
重量表
 73
     1
 44
1.0
  0
MTEXT
  5
283E
330
18
100
AcDbEntity
  8
上線
100
AcDbMText
 10
8287.725890748765
 20
5937.692063120783
 30
0.0
 40
49.968
 41
197.7879999999999
 71
     1
 72
     5
  1
Ｈ
 73
     1
 44
1.0
  0
LINE
  5
283F
330
18
100
AcDbEntity
  8
上線
100
AcDbLine
 10
7911.670611554619
 20
5374.942427273176
 30
0.0
 11
8729.401119200863
 21
5374.942427273176
 31
0.0
  0
LINE
  5
2840
330
18
100
AcDbEntity
  8
上線
100
AcDbLine
 10
7911.670611554619
 20
5472.857784948245
 30
0.0
 11
8729.401119200863
 21
5472.857784948245
 31
0.0
  0
LINE
  5
2841
330
18
100
AcDbEntity
  8
上線
100
AcDbLine
 10
7911.670611554619
 20
5570.773142623312
 30
0.0
 11
8729.401119200863
 21
5570.773142623312
 31
0.0
  0
LINE
  5
2842
330
18
100
AcDbEntity
  8
上線
100
AcDbLine
 10
7911.670611554619
 20
5668.688500298379
 30
0.0
 11
8729.401119200863
 21
5668.688500298379
 31
0.0
  0
LINE
  5
2843
330
18
100
AcDbEntity
  8
上線
100
AcDbLine
 10
7911.670611554619
 20
5766.603857973446
 30
0.0
 11
8729.401119200863
 21
5766.603857973446
 31
0.0
  0
LINE
  5
2844
330
18
100
AcDbEntity
  8
上線
100
AcDbLine
 10
7911.670611554619
 20
5864.439215762277
 30
0.0
 11
8730.035778032336
 21
5864.439215762277
 31
0.0
  0
LINE
  5
2845
330
18
100
AcDbEntity
  8
上線
100
AcDbLine
 10
8729.401119200863
 20
5962.434573323581
 30
0.0
 11
7911.670611554619
 21
5962.434573323581
 31
0.0
  0
LINE
  5
284A
330
18
100
AcDbEntity
  8
上線
100
AcDbLine
 10
8184.2474474367
 20
5962.434573323581
 30
0.0
 11
8184.2474474367
 21
4591.619565872639
 31
0.0
  0
LINE
  5
284B
330
18
100
AcDbEntity
  8
上線
100
AcDbLine
 10
7911.670611554619
 20
5962.434573323581
 30
0.0
 11
7911.670611554619
 21
4591.619565872639
 31
0.0
  0
MTEXT
  5
285C
330
18
100
AcDbEntity
  8
上線
100
AcDbMText
 10
8006.257976579743
 20
5937.692063120783
 30
0.0
 40
49.968
 41
197.7879999999999
 71
     1
 72
     5
  1
h1
 73
     1
 44
1.0
  0
LINE
  5
285F
330
18
100
AcDbEntity
  8
上線
100
AcDbLine
 10
8456.824283318779
 20
5962.434573323581
 30
0.0
 11
8456.824283318779
 21
4591.619565872639
 31
0.0
  0
LINE
  5
2860
330
18
100
AcDbEntity
  8
上線
100
AcDbLine
 10
8729.401119200863
 20
4591.619565872639
 30
0.0
 11
8729.401119200863
 21
5962.434573323581
 31
0.0
  0
MTEXT
  5
2866
330
18
100
AcDbEntity
  8
上線
100
AcDbMText
 10
8499.948158744635
 20
5920.878652363184
 30
0.0
 40
24.984
 41
247.78800162
 71
     1
 72
     5
  1
\fＭＳ Ｐ明朝|b0|i0|c128|p18;参考重量（㎏）
 73
     1
 44
1.0
  0
LINE
  5
34F5
330
18
100
AcDbEntity
  8
上線
100
AcDbLine
 10
7911.670611554619
 20
5277.027069598108
 30
0.0
 11
8729.401119200863
 21
5277.027069598108
 31
0.0
  0
LINE
  5
34F6
330
18
100
AcDbEntity
  8
上線
100
AcDbLine
 10
7911.670611554619
 20
5179.111711923042
 30
0.0
 11
8729.401119200863
 21
5179.111711923042
 31
0.0
  0
MTEXT
  5
355B
330
18
100
AcDbEntity
  8
上線
100
AcDbMText
 10
8024.13787946843
 20
4857.738017049181
 30
0.0
 40
49.968
 41
247.7879999999999
 71
     1
 72
     5
  1
800
 73
     1
 44
1.0
  0
MTEXT
  5
355C
330
18
100
AcDbEntity
  8
上線
100
AcDbMText
 10
8024.13787946843
 20
4661.907301699047
 30
0.0
 40
49.968
 41
247.7879999999999
 71
     1
 72
     5
  1
900
 73
     1
 44
1.0
  0
MTEXT
  5
355D
330
18
100
AcDbEntity
  8
上線
100
AcDbMText
 10
8024.13787946843
 20
5249.39944774945
 30
0.0
 40
49.968
 41
247.7879999999999
 71
     1
 72
     5
  1
600
 73
     1
 44
1.0
  0
MTEXT
  5
355E
330
18
100
AcDbEntity
  8
上線
100
AcDbMText
 10
8024.13787946843
 20
5053.568732399316
 30
0.0
 40
49.968
 41
247.7879999999999
 71
     1
 72
     5
  1
700
 73
     1
 44
1.0
  0
MTEXT
  5
355F
330
18
100
AcDbEntity
  8
上線
100
AcDbMText
 10
8024.13787946843
 20
5445.230163099585
 30
0.0
 40
49.968
 41
247.7879999999999
 71
     1
 72
     5
  1
500
 73
     1
 44
1.0
  0
MTEXT
  5
3560
330
18
100
AcDbEntity
  8
上線
100
AcDbMText
 10
8026.012327301932
 20
5836.811593913618
 30
0.0
 40
49.968
 41
247.7879999999999
 71
     1
 72
     5
  1
300
 73
     1
 44
1.0
  0
MTEXT
  5
3561
330
18
100
AcDbEntity
  8
上線
100
AcDbMText
 10
8024.13787946843
 20
5641.060878449719
 30
0.0
 40
49.968
 41
247.7879999999999
 71
     1
 72
     5
  1
400
 73
     1
 44
1.0
  0
MTEXT
  5
3572
330
18
100
AcDbEntity
  8
上線
100
AcDbMText
 10
8264.74671535051
 20
4661.907301699047
 30
0.0
 40
49.968
 41
279.7559999999999
 71
     1
 72
     5
  1
1300
 73
     1
 44
1.0
  0
MTEXT
  5
3575
330
18
100
AcDbEntity
  8
上線
100
AcDbMText
 10
8296.71471535051
 20
5445.230163099585
 30
0.0
 40
49.968
 41
247.7879999999999
 71
     1
 72
     5
  1
900
 73
     1
 44
1.0
  0
MTEXT
  5
3576
330
18
100
AcDbEntity
  8
上線
100
AcDbMText
 10
8298.589163184013
 20
5836.811593913618
 30
0.0
 40
49.968
 41
247.7879999999999
 71
     1
 72
     5
  1
700
 73
     1
 44
1.0
  0
MTEXT
  5
3577
330
18
100
AcDbEntity
  8
上線
100
AcDbMText
 10
8296.71471535051
 20
5641.060878449719
 30
0.0
 40
49.968
 41
247.7879999999999
 71
     1
 72
     5
  1
800
 73
     1
 44
1.0
  0
MTEXT
  5
3589
330
18
100
AcDbEntity
  8
上線
100
AcDbMText
 10
8569.291551232591
 20
5249.39944774945
 30
0.0
 40
49.968
 41
247.7879999999999
 71
     1
 72
     5
  1
876
 73
     1
 44
1.0
  0
MTEXT
  5
358A
330
18
100
AcDbEntity
  8
上線
100
AcDbMText
 10
8569.291551232591
 20
5053.568732399316
 30
0.0
 40
49.968
 41
247.7879999999999
 71
     1
 72
     5
  1
974
 73
     1
 44
1.0
  0
MTEXT
  5
358B
330
18
100
AcDbEntity
  8
上線
100
AcDbMText
 10
8569.291551232591
 20
5445.230163099585
 30
0.0
 40
49.968
 41
247.7879999999999
 71
     1
 72
     5
  1
779
 73
     1
 44
1.0
  0
MTEXT
  5
358C
330
18
100
AcDbEntity
  8
上線
100
AcDbMText
 10
8571.165999066094
 20
5836.811593913618
 30
0.0
 40
49.968
 41
247.7879999999999
 71
     1
 72
     5
  1
584
 73
     1
 44
1.0
  0
MTEXT
  5
358D
330
18
100
AcDbEntity
  8
上線
100
AcDbMText
 10
8569.291551232591
 20
5641.060878449719
 30
0.0
 40
49.968
 41
247.7879999999999
 71
     1
 72
     5
  1
681
 73
     1
 44
1.0
  0
MTEXT
  5
3599
330
18
100
AcDbEntity
  8
上線
100
AcDbMText
 10
8264.74671535051
 20
4857.738017049181
 30
0.0
 40
49.968
 41
279.7559999999999
 71
     1
 72
     5
  1
1200
 73
     1
 44
1.0
  0
MTEXT
  5
35A3
330
18
100
AcDbEntity
  8
上線
100
AcDbMText
 10
8264.74671535051
 20
5053.568732399316
 30
0.0
 40
49.968
 41
279.7559999999999
 71
     1
 72
     5
  1
1100
 73
     1
 44
1.0
  0
MTEXT
  5
35AD
330
18
100
AcDbEntity
  8
上線
100
AcDbMText
 10
8264.74671535051
 20
5249.399447749451
 30
0.0
 40
49.968
 41
279.7559999999999
 71
     1
 72
     5
  1
1000
 73
     1
 44
1.0
  0
HATCH
  5
36C8
330
18
100
AcDbEntity
  8
OBJECT
100
AcDbHatch
 10
0.0
 20
0.0
 30
0.0
210
0.0
220
0.0
230
1.0
  2
AR-SAND
 70
     0
 71
     1
 91
        2
 92
        1
 93
        4
 72
     1
 10
5618.54644522744
 20
5284.508972601223
 11
6230.546445227439
 21
5284.508972601223
 72
     1
 10
6230.546445227439
 20
5284.508972601223
 11
6230.546445227439
 21
5696.508972601223
 72
     1
 10
6230.546445227439
 20
5696.508972601223
 11
5618.54644522744
 21
5696.508972601223
 72
     1
 10
5618.54644522744
 20
5696.508972601223
 11
5618.54644522744
 21
5284.508972601223
 97
        4
330
36F6
330
36CB
330
3788
330
36CC
 92
       16
 93
        4
 72
     1
 10
5624.546445227439
 20
5290.508972601223
 11
6224.546445227439
 21
5290.508972601223
 72
     1
 10
6224.546445227439
 20
5290.508972601223
 11
6224.546445227439
 21
5690.508972601223
 72
     1
 10
6224.546445227439
 20
5690.508972601223
 11
5624.546445227439
 21
5690.508972601223
 72
     1
 10
5624.546445227439
 20
5690.508972601223
 11
5624.546445227439
 21
5290.508972601223
 97
        4
330
36F7
330
36CD
330
3789
330
36CE
 75
     0
 76
     1
 52
90.0
 41
1.0
 77
     0
 78
     4
 53
127.5
 43
10383.15319666737
 44
-677.5245659971552
 45
-48.94132373293423
 46
-1.600031295984042
 79
     6
 49
0.0
 49
-38.608
 49
0.0
 49
-43.18
 49
0.0
 49
-41.275
 53
97.49999999999998
 43
10383.15319666737
 44
-677.5245659971552
 45
-71.68251005683543
 46
44.95232831380027
 79
     6
 49
0.0
 49
-20.828
 49
0.0
 49
-34.79799999999999
 49
0.0
 49
-13.33499999999999
 53
57.49999999999997
 43
10383.15319666737
 44
-708.7665659971553
 45
-0.1437184678545643
 46
79.09923702414579
 79
     6
 49
0.0
 49
-12.69999999999999
 49
0.0
 49
-45.71999999999998
 49
0.0
 49
-59.68999999999998
 53
47.49999999999999
 43
10383.15319666737
 44
-708.7665659971553
 45
-22.29293232572162
 46
76.35564524722972
 79
     6
 49
0.0
 49
-6.349999999999999
 49
0.0
 49
-29.97199999999999
 49
0.0
 49
-34.29
 98
        1
 10
10383.15319666737
 20
-677.5245659971552
  0
HATCH
  5
36C9
330
18
100
AcDbEntity
  8
OBJECT
100
AcDbHatch
 10
0.0
 20
0.0
 30
0.0
210
0.0
220
0.0
230
1.0
  2
AR-SAND
 70
     0
 71
     0
 91
        1
 92
        1
 93
        4
 72
     1
 10
5824.546445227439
 20
5690.508972601223
 11
6224.546445227439
 21
5690.508972601223
 72
     1
 10
6224.546445227439
 20
5690.508972601223
 11
6224.546445227439
 21
5640.508972601223
 72
     1
 10
6224.546445227439
 20
5640.508972601223
 11
5849.546445227439
 21
5640.508972601223
 72
     1
 10
5849.546445227439
 20
5640.508972601223
 11
5824.546445227439
 21
5690.508972601223
 97
        0
 75
     0
 76
     1
 52
90.0
 41
1.0
 77
     0
 78
     4
 53
127.5
 43
10383.15319666737
 44
-677.5245659971552
 45
-48.94132373293423
 46
-1.600031295984042
 79
     6
 49
0.0
 49
-38.608
 49
0.0
 49
-43.18
 49
0.0
 49
-41.275
 53
97.49999999999998
 43
10383.15319666737
 44
-677.5245659971552
 45
-71.68251005683543
 46
44.95232831380027
 79
     6
 49
0.0
 49
-20.828
 49
0.0
 49
-34.79799999999999
 49
0.0
 49
-13.33499999999999
 53
57.49999999999997
 43
10383.15319666737
 44
-708.7665659971553
 45
-0.1437184678545643
 46
79.09923702414579
 79
     6
 49
0.0
 49
-12.69999999999999
 49
0.0
 49
-45.71999999999998
 49
0.0
 49
-59.68999999999998
 53
47.49999999999999
 43
10383.15319666737
 44
-708.7665659971553
 45
-22.29293232572162
 46
76.35564524722972
 79
     6
 49
0.0
 49
-6.349999999999999
 49
0.0
 49
-29.97199999999999
 49
0.0
 49
-34.29
 98
        1
 10
10383.15319666737
 20
-677.5245659971552
  0
LINE
  5
36CA
330
18
100
AcDbEntity
  8
OBJECT
100
AcDbLine
 10
5827.046448608193
 20
5685.508965839716
 30
0.0
 11
6022.046445227439
 21
5295.508972601223
 31
0.0
  0
LINE
  5
36CB
102
{ACAD_REACTORS
330
36C8
102
}
330
18
100
AcDbEntity
  8
OBJECT
100
AcDbLine
 10
6230.546445227439
 20
5284.508972601223
 30
0.0
 11
6230.546445227439
 21
5696.508972601223
 31
0.0
  0
LINE
  5
36CC
102
{ACAD_REACTORS
330
36C8
102
}
330
18
100
AcDbEntity
  8
OBJECT
100
AcDbLine
 10
5618.54644522744
 20
5284.508972601223
 30
0.0
 11
5618.54644522744
 21
5696.508972601223
 31
0.0
  0
LINE
  5
36CD
102
{ACAD_REACTORS
330
36C8
102
}
330
18
100
AcDbEntity
  8
OBJECT
100
AcDbLine
 10
6224.546445227439
 20
5290.508972601223
 30
0.0
 11
6224.546445227439
 21
5690.508972601223
 31
0.0
  0
LINE
  5
36CE
102
{ACAD_REACTORS
330
36C8
102
}
330
18
100
AcDbEntity
  8
OBJECT
100
AcDbLine
 10
5624.546445227439
 20
5290.508972601223
 30
0.0
 11
5624.546445227439
 21
5690.508972601223
 31
0.0
  0
LINE
  5
36CF
330
18
100
AcDbEntity
  8
OBJECT
100
AcDbLine
 10
5424.546445227439
 20
5790.508972601223
 30
0.0
 11
5424.546445227439
 21
5220.508972601223
 31
0.0
  0
LINE
  5
36D0
330
18
100
AcDbEntity
  8
OBJECT
100
AcDbLine
 10
6424.546445227439
 20
5220.508972601223
 30
0.0
 11
6424.546445227439
 21
5790.508972601223
 31
0.0
  0
ARC
  5
36D1
330
18
100
AcDbEntity
  8
上線
100
AcDbCircle
 10
7090.255629161191
 20
4570.508972601223
 30
0.0
 40
50.0
100
AcDbArc
 50
270.0
 51
359.1815445383053
  0
LINE
  5
36D2
330
18
100
AcDbEntity
  8
点線
100
AcDbLine
 10
6795.260730941726
 20
4870.508972601223
 30
0.0
 11
7195.260730941726
 21
4870.508972601223
 31
0.0
  0
LINE
  5
36D3
330
18
100
AcDbEntity
  8
上線
100
AcDbLine
 10
7294.546445227439
 20
4920.508972601223
 30
0.0
 11
6724.546445227439
 21
4920.508972601223
 31
0.0
  0
LINE
  5
36D4
330
18
100
AcDbEntity
  8
OBJECT
100
AcDbLine
 10
7294.546445227439
 20
3620.508972601221
 30
0.0
 11
6724.546445227439
 21
3620.508972601223
 31
0.0
  0
LINE
  5
36D5
330
18
100
AcDbEntity
  8
OBJECT
100
AcDbLine
 10
5691.015839600188
 20
5557.697706875654
 30
0.0
 11
5691.015839600188
 21
5678.857701049807
 31
0.0
  0
LINE
  5
36D6
330
18
100
AcDbEntity
  8
OBJECT
100
AcDbLine
 10
5688.400122972939
 20
5557.697706875654
 30
0.0
 11
5688.400122972939
 21
5678.857701049807
 31
0.0
  0
LINE
  5
36D7
330
18
100
AcDbEntity
  8
OBJECT
100
AcDbLine
 10
5671.397943308646
 20
5557.697706875654
 30
0.0
 11
5671.397943308646
 21
5678.857701049807
 31
0.0
  0
LINE
  5
36D8
330
18
100
AcDbEntity
  8
OBJECT
100
AcDbLine
 10
5806.10750072219
 20
5557.69768691729
 30
0.0
 11
5806.10750072219
 21
5678.857681091443
 31
0.0
  0
LINE
  5
36D9
330
18
100
AcDbEntity
  8
OBJECT
100
AcDbLine
 10
5730.251632183271
 20
5557.697695759878
 30
0.0
 11
5730.251632183271
 21
5678.85768993403
 31
0.0
  0
LINE
  5
36DA
330
18
100
AcDbEntity
  8
OBJECT
100
AcDbLine
 10
5727.635915556022
 20
5557.697695759878
 30
0.0
 11
5727.635915556022
 21
5678.85768993403
 31
0.0
  0
LINE
  5
36DB
330
18
100
AcDbEntity
  8
OBJECT
100
AcDbLine
 10
5747.253811847564
 20
5557.697704602464
 30
0.0
 11
5747.253811847564
 21
5678.857698776615
 31
0.0
  0
LINE
  5
36DC
330
18
100
AcDbEntity
  8
OBJECT
100
AcDbLine
 10
5749.869528474814
 20
5557.697704602464
 30
0.0
 11
5749.869528474814
 21
5678.857698776615
 31
0.0
  0
LINE
  5
36DD
330
18
100
AcDbEntity
  8
OBJECT
100
AcDbLine
 10
5789.105321057895
 20
5557.69771344505
 30
0.0
 11
5789.105321057895
 21
5678.857707619204
 31
0.0
  0
LINE
  5
36DE
330
18
100
AcDbEntity
  8
OBJECT
100
AcDbLine
 10
5786.489604430648
 20
5557.69771344505
 30
0.0
 11
5786.489604430648
 21
5678.857707619204
 31
0.0
  0
LINE
  5
36DF
330
18
100
AcDbEntity
  8
OBJECT
100
AcDbLine
 10
5766.871708139106
 20
5557.697704602464
 30
0.0
 11
5766.871708139106
 21
5678.857698776615
 31
0.0
  0
LINE
  5
36E0
330
18
100
AcDbEntity
  8
OBJECT
100
AcDbLine
 10
5769.487424766354
 20
5557.697704602464
 30
0.0
 11
5769.487424766354
 21
5678.857698776615
 31
0.0
  0
LINE
  5
36E1
330
18
100
AcDbEntity
  8
OBJECT
100
AcDbLine
 10
5708.018019264482
 20
5557.697715718241
 30
0.0
 11
5708.018019264482
 21
5678.857709892394
 31
0.0
  0
LINE
  5
36E2
330
18
100
AcDbEntity
  8
OBJECT
100
AcDbLine
 10
5710.63373589173
 20
5557.697715718241
 30
0.0
 11
5710.63373589173
 21
5678.857709892394
 31
0.0
  0
LINE
  5
36E3
330
18
100
AcDbEntity
  8
OBJECT
100
AcDbLine
 10
5668.782226681398
 20
5557.697706875654
 30
0.0
 11
5668.782226681398
 21
5678.857701049807
 31
0.0
  0
LINE
  5
36E4
330
18
100
AcDbEntity
  8
OBJECT
100
AcDbLine
 10
5649.164330389856
 20
5557.697698033066
 30
0.0
 11
5649.164330389856
 21
5678.857692207221
 31
0.0
  0
LINE
  5
36E5
330
18
100
AcDbEntity
  8
OBJECT
100
AcDbLine
 10
5651.780047017104
 20
5557.697698033066
 30
0.0
 11
5651.780047017104
 21
5678.857692207221
 31
0.0
  0
LINE
  5
36E6
330
18
100
AcDbEntity
  8
OBJECT
100
AcDbLine
 10
5808.723217349438
 20
5557.69768691729
 30
0.0
 11
5808.723217349438
 21
5678.857681091443
 31
0.0
  0
LINE
  5
36E7
330
18
100
AcDbEntity
  8
OBJECT
100
AcDbLine
 10
5825.72539701373
 20
5557.697695759878
 30
0.0
 11
5825.72539701373
 21
5678.85768993403
 31
0.0
  0
LINE
  5
36E8
330
18
100
AcDbEntity
  8
OBJECT
100
AcDbLine
 10
5828.34111364098
 20
5557.697695759878
 30
0.0
 11
5828.34111364098
 21
5678.85768993403
 31
0.0
  0
LINE
  5
36E9
330
18
100
AcDbEntity
  8
OBJECT
100
AcDbLine
 10
5632.162161854687
 20
5678.857696503428
 30
0.0
 11
5632.162161854687
 21
5302.16024415264
 31
0.0
  0
LINE
  5
36EA
330
18
100
AcDbEntity
  8
OBJECT
100
AcDbLine
 10
5629.54644522744
 20
5685.508969220469
 30
0.0
 11
5629.54644522744
 21
5295.508975981978
 31
0.0
  0
LINE
  5
36EB
330
18
100
AcDbEntity
  8
OBJECT
100
AcDbLine
 10
5845.343293305274
 20
5557.697695759878
 30
0.0
 11
5845.343293305274
 21
5648.915276445554
 31
0.0
  0
LINE
  5
36F4
330
18
100
AcDbEntity
  8
点線
100
AcDbLine
 10
5424.546445227439
 20
5640.508972601223
 30
0.0
 11
5849.546445227439
 21
5640.508972601223
 31
0.0
  0
LINE
  5
36F5
330
18
100
AcDbEntity
  8
点線
100
AcDbLine
 10
5424.546445227439
 20
5340.508972601223
 30
0.0
 11
5999.546445227439
 21
5340.508972601223
 31
0.0
  0
LINE
  5
36F6
102
{ACAD_REACTORS
330
36C8
102
}
330
18
100
AcDbEntity
  8
OBJECT
100
AcDbLine
 10
5618.54644522744
 20
5284.508972601223
 30
0.0
 11
6230.546445227439
 21
5284.508972601223
 31
0.0
  0
LINE
  5
36F7
102
{ACAD_REACTORS
330
36C8
102
}
330
18
100
AcDbEntity
  8
OBJECT
100
AcDbLine
 10
5624.546445227439
 20
5290.508972601223
 30
0.0
 11
6224.546445227439
 21
5290.508972601223
 31
0.0
  0
LINE
  5
36F8
330
18
100
AcDbEntity
  8
OBJECT
100
AcDbLine
 10
5424.546445227439
 20
5220.508972601223
 30
0.0
 11
6424.546445227439
 21
5220.508972601223
 31
0.0
  0
LINE
  5
36F9
330
18
100
AcDbEntity
  8
OBJECT
100
AcDbLine
 10
5958.140810091465
 20
5423.320242873171
 30
0.0
 11
5632.162161854687
 21
5423.320242873171
 31
0.0
  0
LINE
  5
36FA
330
18
100
AcDbEntity
  8
OBJECT
100
AcDbLine
 10
5954.836446460185
 20
5429.92897013573
 30
0.0
 11
5632.162161854687
 21
5429.92897013573
 31
0.0
  0
LINE
  5
36FB
330
18
100
AcDbEntity
  8
OBJECT
100
AcDbLine
 10
5894.256447099919
 20
5551.088968856264
 30
0.0
 11
5632.162161854687
 21
5551.088968856264
 31
0.0
  0
LINE
  5
36FC
330
18
100
AcDbEntity
  8
OBJECT
100
AcDbLine
 10
5890.952080363413
 20
5557.697702329274
 30
0.0
 11
5632.162161854687
 21
5557.697702329274
 31
0.0
  0
LINE
  5
36FD
330
18
100
AcDbEntity
  8
OBJECT
100
AcDbLine
 10
6022.046443537061
 20
5295.508975981977
 30
0.0
 11
5629.54644522744
 21
5295.508975981978
 31
0.0
  0
LINE
  5
36FE
330
18
100
AcDbEntity
  8
OBJECT
100
AcDbLine
 10
6018.720807178542
 20
5302.160248699016
 30
0.0
 11
5632.162161854687
 21
5302.160248699017
 31
0.0
  0
LINE
  5
3700
330
18
100
AcDbEntity
  8
上線
 48
10.0
100
AcDbLine
 10
7143.832159513152
 20
4820.508972601223
 30
0.0
 11
7140.250527901166
 21
4569.794759762075
 31
0.0
  0
LINE
  5
3701
330
18
100
AcDbEntity
  8
上線
 48
10.0
100
AcDbLine
 10
6845.260730941726
 20
4820.508972601223
 30
0.0
 11
6848.842362553712
 21
4569.794759762075
 31
0.0
  0
LINE
  5
3705
330
18
100
AcDbEntity
  8
OBJECT
100
AcDbLine
 10
6724.546445227439
 20
3620.508972601223
 30
0.0
 11
6724.546445227439
 21
4920.508972601223
 31
0.0
  0
LINE
  5
3706
330
18
100
AcDbEntity
  8
点線
100
AcDbLine
 10
6845.260730941726
 20
4870.508972601223
 30
0.0
 11
6845.260730941724
 21
3620.508972601222
 31
0.0
  0
LINE
  5
3707
330
18
100
AcDbEntity
  8
点線
100
AcDbLine
 10
7143.832159513152
 20
4870.508972601223
 30
0.0
 11
7143.832159513152
 21
3620.508972601222
 31
0.0
  0
ARC
  5
370D
330
18
100
AcDbEntity
  8
上線
100
AcDbCircle
 10
6898.837261293687
 20
4570.508972601223
 30
0.0
 40
50.0
100
AcDbArc
 50
180.8184554616945
 51
270.0
  0
LINE
  5
3713
330
18
100
AcDbEntity
  8
上線
100
AcDbLine
 10
7090.255629161191
 20
4520.508972601223
 30
0.0
 11
6898.837261293687
 21
4520.508972601223
 31
0.0
  0
HATCH
  5
3716
330
18
100
AcDbEntity
  8
OBJECT
100
AcDbHatch
 10
0.0
 20
0.0
 30
0.0
210
0.0
220
0.0
230
1.0
  2
AR-SAND
 70
     0
 71
     0
 91
        1
 92
        1
 93
        4
 72
     1
 10
6024.546445227439
 20
5290.508972601223
 11
6224.546445227439
 21
5290.508972601223
 72
     1
 10
6224.546445227439
 20
5290.508972601223
 11
6224.546445227439
 21
5340.508972601223
 72
     1
 10
6224.546445227439
 20
5340.508972601223
 11
5999.546445227439
 21
5340.508972601223
 72
     1
 10
5999.546445227439
 20
5340.508972601223
 11
6024.546445227439
 21
5290.508972601223
 97
        0
 75
     0
 76
     1
 52
90.0
 41
1.0
 77
     0
 78
     4
 53
127.5
 43
10383.15319666737
 44
-677.5245659971552
 45
-48.94132373293423
 46
-1.600031295984042
 79
     6
 49
0.0
 49
-38.608
 49
0.0
 49
-43.18
 49
0.0
 49
-41.275
 53
97.49999999999998
 43
10383.15319666737
 44
-677.5245659971552
 45
-71.68251005683543
 46
44.95232831380027
 79
     6
 49
0.0
 49
-20.828
 49
0.0
 49
-34.79799999999999
 49
0.0
 49
-13.33499999999999
 53
57.49999999999997
 43
10383.15319666737
 44
-708.7665659971553
 45
-0.1437184678545643
 46
79.09923702414579
 79
     6
 49
0.0
 49
-12.69999999999999
 49
0.0
 49
-45.71999999999998
 49
0.0
 49
-59.68999999999998
 53
47.49999999999999
 43
10383.15319666737
 44
-708.7665659971553
 45
-22.29293232572162
 46
76.35564524722972
 79
     6
 49
0.0
 49
-6.349999999999999
 49
0.0
 49
-29.97199999999999
 49
0.0
 49
-34.29
 98
        1
 10
10383.15319666737
 20
-677.5245659971552
  0
LINE
  5
3717
330
18
100
AcDbEntity
  8
OBJECT
100
AcDbLine
 10
5849.546445227439
 20
5640.508972601223
 30
0.0
 11
6224.546445227439
 21
5640.508972601223
 31
0.0
  0
LINE
  5
3718
330
18
100
AcDbEntity
  8
OBJECT
100
AcDbLine
 10
5999.546445227439
 20
5340.508972601223
 30
0.0
 11
6224.546445227439
 21
5340.508972601223
 31
0.0
  0
LINE
  5
3721
330
18
100
AcDbEntity
  8
上線
 48
10.0
100
AcDbLine
 10
6845.260730941726
 20
4820.508972601223
 30
0.0
 11
7143.832159513152
 21
4820.508972601223
 31
0.0
  0
LINE
  5
3722
330
18
100
AcDbEntity
  8
点線
100
AcDbLine
 10
6795.260730941726
 20
4870.508972601223
 30
0.0
 11
6795.260730941726
 21
4920.508972601223
 31
0.0
  0
LINE
  5
3727
330
18
100
AcDbEntity
  8
点線
100
AcDbLine
 10
6224.546445227439
 20
5640.508972601223
 30
0.0
 11
6424.546445227439
 21
5640.508972601223
 31
0.0
  0
LINE
  5
3728
330
18
100
AcDbEntity
  8
点線
100
AcDbLine
 10
6224.546445227439
 20
5340.508972601223
 30
0.0
 11
6424.546445227439
 21
5340.508972601223
 31
0.0
  0
LINE
  5
3729
330
18
100
AcDbEntity
  8
OBJECT
100
AcDbLine
 10
6224.546445227439
 20
5290.508972601223
 30
0.0
 11
6224.546445227439
 21
5340.508972601223
 31
0.0
  0
LINE
  5
372C
330
18
100
AcDbEntity
  8
OBJECT
100
AcDbLine
 10
5946.048491390229
 20
5429.92897013573
 30
0.0
 11
5946.048491390229
 21
5447.504880275641
 31
0.0
  0
LINE
  5
372D
330
18
100
AcDbEntity
  8
OBJECT
100
AcDbLine
 10
5943.432774762982
 20
5429.92897013573
 30
0.0
 11
5943.432774762982
 21
5452.736313530138
 31
0.0
  0
LINE
  5
372E
330
18
100
AcDbEntity
  8
OBJECT
100
AcDbLine
 10
5926.43059509869
 20
5429.928961293143
 30
0.0
 11
5926.43059509869
 21
5486.740672858723
 31
0.0
  0
LINE
  5
372F
330
18
100
AcDbEntity
  8
OBJECT
100
AcDbLine
 10
5923.814878471439
 20
5429.928961293143
 30
0.0
 11
5923.814878471439
 21
5491.972106113222
 31
0.0
  0
LINE
  5
3730
330
18
100
AcDbEntity
  8
OBJECT
100
AcDbLine
 10
5943.432774762982
 20
5423.320242873171
 30
0.0
 11
5943.432774762982
 21
5302.160248699017
 31
0.0
  0
LINE
  5
3731
330
18
100
AcDbEntity
  8
OBJECT
100
AcDbLine
 10
5923.814878471439
 20
5423.320251715758
 30
0.0
 11
5923.814878471439
 21
5302.160257541608
 31
0.0
  0
LINE
  5
3732
330
18
100
AcDbEntity
  8
OBJECT
100
AcDbLine
 10
5926.43059509869
 20
5423.320251715758
 30
0.0
 11
5926.43059509869
 21
5302.160257541608
 31
0.0
  0
LINE
  5
3733
330
18
100
AcDbEntity
  8
OBJECT
100
AcDbLine
 10
5946.048491390229
 20
5423.320242873171
 30
0.0
 11
5946.048491390229
 21
5302.160248699017
 31
0.0
  0
LINE
  5
3734
330
18
100
AcDbEntity
  8
OBJECT
100
AcDbLine
 10
5965.666387681771
 20
5408.269087692559
 30
0.0
 11
5965.666387681771
 21
5302.160264111002
 31
0.0
  0
LINE
  5
3735
330
18
100
AcDbEntity
  8
OBJECT
100
AcDbLine
 10
5963.050671054523
 20
5413.500520947055
 30
0.0
 11
5963.050671054523
 21
5302.160264111002
 31
0.0
  0
LINE
  5
3736
330
18
100
AcDbEntity
  8
OBJECT
100
AcDbLine
 10
6004.902180264855
 20
5329.797502526392
 30
0.0
 11
6004.902180264855
 21
5302.160255268416
 31
0.0
  0
LINE
  5
3737
330
18
100
AcDbEntity
  8
OBJECT
100
AcDbLine
 10
6002.286463637606
 20
5335.028935780889
 30
0.0
 11
6002.286463637606
 21
5302.160255268416
 31
0.0
  0
LINE
  5
3738
330
18
100
AcDbEntity
  8
OBJECT
100
AcDbLine
 10
5985.284283973313
 20
5369.033295109475
 30
0.0
 11
5985.284283973313
 21
5302.160255268416
 31
0.0
  0
LINE
  5
3739
330
18
100
AcDbEntity
  8
OBJECT
100
AcDbLine
 10
5982.668567346065
 20
5374.264728363971
 30
0.0
 11
5982.668567346065
 21
5302.160255268416
 31
0.0
  0
LINE
  5
373A
330
18
100
AcDbEntity
  8
OBJECT
100
AcDbLine
 10
5786.489604430648
 20
5429.928981251507
 30
0.0
 11
5786.489604430648
 21
5551.08897542566
 31
0.0
  0
LINE
  5
373B
330
18
100
AcDbEntity
  8
OBJECT
100
AcDbLine
 10
5789.105321057895
 20
5429.928981251507
 30
0.0
 11
5789.105321057895
 21
5551.08897542566
 31
0.0
  0
LINE
  5
373C
330
18
100
AcDbEntity
  8
OBJECT
100
AcDbLine
 10
5806.10750072219
 20
5429.928954723748
 30
0.0
 11
5806.10750072219
 21
5551.088948897901
 31
0.0
  0
LINE
  5
373D
330
18
100
AcDbEntity
  8
OBJECT
100
AcDbLine
 10
5808.723217349438
 20
5429.928954723748
 30
0.0
 11
5808.723217349438
 21
5551.088948897901
 31
0.0
  0
LINE
  5
373E
330
18
100
AcDbEntity
  8
OBJECT
100
AcDbLine
 10
5847.959009932521
 20
5429.928963566333
 30
0.0
 11
5847.959009932521
 21
5551.088957740486
 31
0.0
  0
LINE
  5
373F
330
18
100
AcDbEntity
  8
OBJECT
100
AcDbLine
 10
5845.343293305274
 20
5429.928963566333
 30
0.0
 11
5845.343293305274
 21
5551.088957740486
 31
0.0
  0
LINE
  5
3740
330
18
100
AcDbEntity
  8
OBJECT
100
AcDbLine
 10
5864.961189596813
 20
5429.928972408919
 30
0.0
 11
5864.961189596813
 21
5551.088966583073
 31
0.0
  0
LINE
  5
3741
330
18
100
AcDbEntity
  8
OBJECT
100
AcDbLine
 10
5867.576906224063
 20
5429.928972408919
 30
0.0
 11
5867.576906224063
 21
5551.088966583073
 31
0.0
  0
LINE
  5
3742
330
18
100
AcDbEntity
  8
OBJECT
100
AcDbLine
 10
5828.34111364098
 20
5429.928963566333
 30
0.0
 11
5828.34111364098
 21
5551.088957740486
 31
0.0
  0
LINE
  5
3743
330
18
100
AcDbEntity
  8
OBJECT
100
AcDbLine
 10
5825.72539701373
 20
5429.928963566333
 30
0.0
 11
5825.72539701373
 21
5551.088957740486
 31
0.0
  0
LINE
  5
3744
330
18
100
AcDbEntity
  8
OBJECT
100
AcDbLine
 10
5887.194802515605
 20
5429.928952450556
 30
0.0
 11
5887.194802515605
 21
5551.08894662471
 31
0.0
  0
LINE
  5
3745
330
18
100
AcDbEntity
  8
OBJECT
100
AcDbLine
 10
5884.579085888356
 20
5429.928952450556
 30
0.0
 11
5884.579085888356
 21
5551.08894662471
 31
0.0
  0
LINE
  5
3746
330
18
100
AcDbEntity
  8
OBJECT
100
AcDbLine
 10
5906.812698807147
 20
5429.928961293143
 30
0.0
 11
5906.812698807147
 21
5525.976465441807
 31
0.0
  0
LINE
  5
3747
330
18
100
AcDbEntity
  8
OBJECT
100
AcDbLine
 10
5904.196982179898
 20
5429.928961293143
 30
0.0
 11
5904.196982179898
 21
5531.207898696306
 31
0.0
  0
LINE
  5
3748
330
18
100
AcDbEntity
  8
OBJECT
100
AcDbLine
 10
5786.489604430648
 20
5423.320231757396
 30
0.0
 11
5786.489604430648
 21
5302.16023758324
 31
0.0
  0
LINE
  5
3749
330
18
100
AcDbEntity
  8
OBJECT
100
AcDbLine
 10
5789.105321057895
 20
5423.320231757396
 30
0.0
 11
5789.105321057895
 21
5302.16023758324
 31
0.0
  0
LINE
  5
374A
330
18
100
AcDbEntity
  8
OBJECT
100
AcDbLine
 10
5806.10750072219
 20
5423.320258285155
 30
0.0
 11
5806.10750072219
 21
5302.160264111002
 31
0.0
  0
LINE
  5
374B
330
18
100
AcDbEntity
  8
OBJECT
100
AcDbLine
 10
5808.723217349438
 20
5423.320258285155
 30
0.0
 11
5808.723217349438
 21
5302.160264111002
 31
0.0
  0
LINE
  5
374C
330
18
100
AcDbEntity
  8
OBJECT
100
AcDbLine
 10
5847.959009932521
 20
5423.32024944257
 30
0.0
 11
5847.959009932521
 21
5302.160255268416
 31
0.0
  0
LINE
  5
374D
330
18
100
AcDbEntity
  8
OBJECT
100
AcDbLine
 10
5845.343293305274
 20
5423.32024944257
 30
0.0
 11
5845.343293305274
 21
5302.160255268416
 31
0.0
  0
LINE
  5
374E
330
18
100
AcDbEntity
  8
OBJECT
100
AcDbLine
 10
5864.961189596813
 20
5423.320240599982
 30
0.0
 11
5864.961189596813
 21
5302.160246425831
 31
0.0
  0
LINE
  5
374F
330
18
100
AcDbEntity
  8
OBJECT
100
AcDbLine
 10
5867.576906224063
 20
5423.320240599982
 30
0.0
 11
5867.576906224063
 21
5302.160246425831
 31
0.0
  0
LINE
  5
3750
330
18
100
AcDbEntity
  8
OBJECT
100
AcDbLine
 10
5904.196982179898
 20
5423.320251715758
 30
0.0
 11
5904.196982179898
 21
5302.160257541608
 31
0.0
  0
LINE
  5
3751
330
18
100
AcDbEntity
  8
OBJECT
100
AcDbLine
 10
5906.812698807147
 20
5423.320251715758
 30
0.0
 11
5906.812698807147
 21
5302.160257541608
 31
0.0
  0
LINE
  5
3752
330
18
100
AcDbEntity
  8
OBJECT
100
AcDbLine
 10
5887.194802515605
 20
5423.320260558345
 30
0.0
 11
5887.194802515605
 21
5302.160266384191
 31
0.0
  0
LINE
  5
3753
330
18
100
AcDbEntity
  8
OBJECT
100
AcDbLine
 10
5884.579085888356
 20
5423.320260558345
 30
0.0
 11
5884.579085888356
 21
5302.160266384191
 31
0.0
  0
LINE
  5
3754
330
18
100
AcDbEntity
  8
OBJECT
100
AcDbLine
 10
5828.34111364098
 20
5423.32024944257
 30
0.0
 11
5828.34111364098
 21
5302.160255268416
 31
0.0
  0
LINE
  5
3755
330
18
100
AcDbEntity
  8
OBJECT
100
AcDbLine
 10
5825.72539701373
 20
5423.32024944257
 30
0.0
 11
5825.72539701373
 21
5302.160255268416
 31
0.0
  0
LINE
  5
3756
330
18
100
AcDbEntity
  8
OBJECT
100
AcDbLine
 10
5887.194802515605
 20
5557.697684644101
 30
0.0
 11
5887.194802515605
 21
5565.212258024891
 31
0.0
  0
LINE
  5
3757
330
18
100
AcDbEntity
  8
OBJECT
100
AcDbLine
 10
5884.579085888356
 20
5557.697684644101
 30
0.0
 11
5884.579085888356
 21
5570.443691279388
 31
0.0
  0
LINE
  5
3758
330
18
100
AcDbEntity
  8
OBJECT
100
AcDbLine
 10
5847.959009932521
 20
5557.697695759878
 30
0.0
 11
5847.959009932521
 21
5643.683843191059
 31
0.0
  0
LINE
  5
3759
330
18
100
AcDbEntity
  8
OBJECT
100
AcDbLine
 10
5867.576906224063
 20
5557.697704602464
 30
0.0
 11
5867.576906224063
 21
5604.448050607974
 31
0.0
  0
LINE
  5
375A
330
18
100
AcDbEntity
  8
OBJECT
100
AcDbLine
 10
5864.961189596813
 20
5557.697704602464
 30
0.0
 11
5864.961189596813
 21
5609.679483862471
 31
0.0
  0
LINE
  5
375B
330
18
100
AcDbEntity
  8
OBJECT
100
AcDbLine
 10
5651.780047017104
 20
5429.928965839523
 30
0.0
 11
5651.780047017104
 21
5551.088960013676
 31
0.0
  0
LINE
  5
375C
330
18
100
AcDbEntity
  8
OBJECT
100
AcDbLine
 10
5668.782226681398
 20
5429.928974682109
 30
0.0
 11
5668.782226681398
 21
5551.088968856264
 31
0.0
  0
LINE
  5
375D
330
18
100
AcDbEntity
  8
OBJECT
100
AcDbLine
 10
5671.397943308646
 20
5429.928974682109
 30
0.0
 11
5671.397943308646
 21
5551.088968856264
 31
0.0
  0
LINE
  5
375E
330
18
100
AcDbEntity
  8
OBJECT
100
AcDbLine
 10
5710.63373589173
 20
5429.928983524696
 30
0.0
 11
5710.63373589173
 21
5551.088977698849
 31
0.0
  0
LINE
  5
375F
330
18
100
AcDbEntity
  8
OBJECT
100
AcDbLine
 10
5708.018019264482
 20
5429.928983524696
 30
0.0
 11
5708.018019264482
 21
5551.088977698849
 31
0.0
  0
LINE
  5
3760
330
18
100
AcDbEntity
  8
OBJECT
100
AcDbLine
 10
5688.400122972939
 20
5429.928974682109
 30
0.0
 11
5688.400122972939
 21
5551.088968856264
 31
0.0
  0
LINE
  5
3761
330
18
100
AcDbEntity
  8
OBJECT
100
AcDbLine
 10
5691.015839600188
 20
5429.928974682109
 30
0.0
 11
5691.015839600188
 21
5551.088968856264
 31
0.0
  0
LINE
  5
3762
330
18
100
AcDbEntity
  8
OBJECT
100
AcDbLine
 10
5769.487424766354
 20
5429.928972408919
 30
0.0
 11
5769.487424766354
 21
5551.088966583073
 31
0.0
  0
LINE
  5
3763
330
18
100
AcDbEntity
  8
OBJECT
100
AcDbLine
 10
5766.871708139106
 20
5429.928972408919
 30
0.0
 11
5766.871708139106
 21
5551.088966583073
 31
0.0
  0
LINE
  5
3764
330
18
100
AcDbEntity
  8
OBJECT
100
AcDbLine
 10
5749.869528474814
 20
5429.928972408919
 30
0.0
 11
5749.869528474814
 21
5551.088966583073
 31
0.0
  0
LINE
  5
3765
330
18
100
AcDbEntity
  8
OBJECT
100
AcDbLine
 10
5747.253811847564
 20
5429.928972408919
 30
0.0
 11
5747.253811847564
 21
5551.088966583073
 31
0.0
  0
LINE
  5
3766
330
18
100
AcDbEntity
  8
OBJECT
100
AcDbLine
 10
5727.635915556022
 20
5429.928963566333
 30
0.0
 11
5727.635915556022
 21
5551.088957740486
 31
0.0
  0
LINE
  5
3767
330
18
100
AcDbEntity
  8
OBJECT
100
AcDbLine
 10
5730.251632183271
 20
5429.928963566333
 30
0.0
 11
5730.251632183271
 21
5551.088957740486
 31
0.0
  0
LINE
  5
3768
330
18
100
AcDbEntity
  8
OBJECT
100
AcDbLine
 10
5651.780047017104
 20
5423.32024716938
 30
0.0
 11
5651.780047017104
 21
5302.160252995225
 31
0.0
  0
LINE
  5
3769
330
18
100
AcDbEntity
  8
OBJECT
100
AcDbLine
 10
5668.782226681398
 20
5423.320238326793
 30
0.0
 11
5668.782226681398
 21
5302.16024415264
 31
0.0
  0
LINE
  5
376A
330
18
100
AcDbEntity
  8
OBJECT
100
AcDbLine
 10
5710.63373589173
 20
5423.320229484205
 30
0.0
 11
5710.63373589173
 21
5302.160235310052
 31
0.0
  0
LINE
  5
376B
330
18
100
AcDbEntity
  8
OBJECT
100
AcDbLine
 10
5708.018019264482
 20
5423.320229484205
 30
0.0
 11
5708.018019264482
 21
5302.160235310052
 31
0.0
  0
LINE
  5
376C
330
18
100
AcDbEntity
  8
OBJECT
100
AcDbLine
 10
5769.487424766354
 20
5423.320240599982
 30
0.0
 11
5769.487424766354
 21
5302.160246425831
 31
0.0
  0
LINE
  5
376D
330
18
100
AcDbEntity
  8
OBJECT
100
AcDbLine
 10
5766.871708139106
 20
5423.320240599982
 30
0.0
 11
5766.871708139106
 21
5302.160246425831
 31
0.0
  0
LINE
  5
376E
330
18
100
AcDbEntity
  8
OBJECT
100
AcDbLine
 10
5749.869528474814
 20
5423.320240599982
 30
0.0
 11
5749.869528474814
 21
5302.160246425831
 31
0.0
  0
LINE
  5
376F
330
18
100
AcDbEntity
  8
OBJECT
100
AcDbLine
 10
5747.253811847564
 20
5423.320240599982
 30
0.0
 11
5747.253811847564
 21
5302.160246425831
 31
0.0
  0
LINE
  5
3770
330
18
100
AcDbEntity
  8
OBJECT
100
AcDbLine
 10
5727.635915556022
 20
5423.32024944257
 30
0.0
 11
5727.635915556022
 21
5302.160255268416
 31
0.0
  0
LINE
  5
3771
330
18
100
AcDbEntity
  8
OBJECT
100
AcDbLine
 10
5730.251632183271
 20
5423.32024944257
 30
0.0
 11
5730.251632183271
 21
5302.160255268416
 31
0.0
  0
LINE
  5
3772
330
18
100
AcDbEntity
  8
OBJECT
100
AcDbLine
 10
5671.397943308646
 20
5423.320238326793
 30
0.0
 11
5671.397943308646
 21
5302.16024415264
 31
0.0
  0
LINE
  5
3773
330
18
100
AcDbEntity
  8
OBJECT
100
AcDbLine
 10
5688.400122972939
 20
5423.320238326793
 30
0.0
 11
5688.400122972939
 21
5302.16024415264
 31
0.0
  0
LINE
  5
3774
330
18
100
AcDbEntity
  8
OBJECT
100
AcDbLine
 10
5691.015839600188
 20
5423.320238326793
 30
0.0
 11
5691.015839600188
 21
5302.16024415264
 31
0.0
  0
LINE
  5
377E
330
18
100
AcDbEntity
  8
OBJECT
100
AcDbLine
 10
5649.164330389856
 20
5429.928965839523
 30
0.0
 11
5649.164330389856
 21
5551.088960013676
 31
0.0
  0
LINE
  5
377F
330
18
100
AcDbEntity
  8
OBJECT
100
AcDbLine
 10
5649.164330389856
 20
5423.32024716938
 30
0.0
 11
5649.164330389856
 21
5302.160252995225
 31
0.0
  0
LINE
  5
3788
102
{ACAD_REACTORS
330
36C8
102
}
330
18
100
AcDbEntity
  8
OBJECT
100
AcDbLine
 10
5618.54644522744
 20
5696.508972601223
 30
0.0
 11
6230.546445227439
 21
5696.508972601223
 31
0.0
  0
LINE
  5
3789
102
{ACAD_REACTORS
330
36C8
102
}
330
18
100
AcDbEntity
  8
OBJECT
100
AcDbLine
 10
5624.546445227439
 20
5690.508972601223
 30
0.0
 11
6224.546445227439
 21
5690.508972601223
 31
0.0
  0
LINE
  5
378A
330
18
100
AcDbEntity
  8
OBJECT
100
AcDbLine
 10
6424.546445227439
 20
5790.508972601223
 30
0.0
 11
5424.546445227439
 21
5790.508972601223
 31
0.0
  0
LINE
  5
378B
330
18
100
AcDbEntity
  8
OBJECT
100
AcDbLine
 10
5830.372083276336
 20
5678.85769650343
 30
0.0
 11
5632.162161854687
 21
5678.857696503428
 31
0.0
  0
LINE
  5
378C
330
18
100
AcDbEntity
  8
OBJECT
100
AcDbLine
 10
5827.046446917815
 20
5685.508969220469
 30
0.0
 11
5629.54644522744
 21
5685.508969220469
 31
0.0
  0
LINE
  5
378D
330
18
100
AcDbEntity
  8
OBJECT
100
AcDbLine
 10
6424.546445227439
 20
3620.508972601222
 30
0.0
 11
6424.546445227439
 21
4920.508972601223
 31
0.0
  0
LINE
  5
378E
330
18
100
AcDbEntity
  8
点線
100
AcDbLine
 10
6224.546445227439
 20
4870.508972601223
 30
0.0
 11
6224.546445227439
 21
3620.508972601222
 31
0.0
  0
LINE
  5
378F
330
18
100
AcDbEntity
  8
OBJECT
100
AcDbLine
 10
7294.546445227439
 20
4920.508972601223
 30
0.0
 11
7294.546445227439
 21
3620.508972601221
 31
0.0
  0
LINE
  5
3790
330
18
100
AcDbEntity
  8
OBJECT
100
AcDbLine
 10
5424.546445227439
 20
4920.508972601223
 30
0.0
 11
5424.546445227439
 21
3620.508972601222
 31
0.0
  0
LINE
  5
3791
330
18
100
AcDbEntity
  8
点線
100
AcDbLine
 10
5624.546445227439
 20
4870.508972601223
 30
0.0
 11
5624.546445227439
 21
3620.508972601222
 31
0.0
  0
LINE
  5
3792
330
18
100
AcDbEntity
  8
OBJECT
100
AcDbLine
 10
5424.546445227439
 20
3620.508972601222
 30
0.0
 11
6424.546445227439
 21
3620.508972601222
 31
0.0
  0
LINE
  5
3793
330
18
100
AcDbEntity
  8
点線
100
AcDbLine
 10
5624.546445227439
 20
4520.508972601221
 30
0.0
 11
5424.546445227439
 21
4520.508972601221
 31
0.0
  0
LINE
  5
3794
330
18
100
AcDbEntity
  8
点線
100
AcDbLine
 10
6224.546445227439
 20
4520.508972601221
 30
0.0
 11
6424.546445227439
 21
4520.508972601221
 31
0.0
  0
LINE
  5
3797
330
18
100
AcDbEntity
  8
OBJECT
100
AcDbLine
 10
5424.546445227439
 20
4920.508972601223
 30
0.0
 11
6424.546445227439
 21
4920.508972601223
 31
0.0
  0
LINE
  5
3798
330
18
100
AcDbEntity
  8
点線
100
AcDbLine
 10
5624.546445227439
 20
4870.508972601223
 30
0.0
 11
6224.546445227439
 21
4870.508972601223
 31
0.0
  0
LINE
  5
379D
330
18
100
AcDbEntity
  8
点線
100
AcDbLine
 10
5624.546445227439
 20
4820.508972601221
 30
0.0
 11
5424.546445227439
 21
4820.508972601221
 31
0.0
  0
LINE
  5
379E
330
18
100
AcDbEntity
  8
点線
100
AcDbLine
 10
7195.260730941726
 20
4870.508972601223
 30
0.0
 11
7195.260730941726
 21
4920.508972601223
 31
0.0
  0
LINE
  5
379F
330
18
100
AcDbEntity
  8
点線
100
AcDbLine
 10
5624.546445227439
 20
4920.508972601223
 30
0.0
 11
5624.546445227439
 21
4870.508972601223
 31
0.0
  0
LINE
  5
37A7
330
18
100
AcDbEntity
  8
点線
100
AcDbLine
 10
6224.546445227439
 20
4820.508972601221
 30
0.0
 11
6424.546445227439
 21
4820.508972601221
 31
0.0
  0
LINE
  5
37A8
330
18
100
AcDbEntity
  8
点線
100
AcDbLine
 10
6224.546445227439
 20
4870.508972601223
 30
0.0
 11
6224.546445227439
 21
4920.508972601223
 31
0.0
  0
MTEXT
  5
38DB
330
18
100
AcDbEntity
  8
上線
100
AcDbMText
 10
8537.32355123259
 20
4661.907301699047
 30
0.0
 40
49.968
 41
279.7559999999999
 71
     1
 72
     5
  1
1169
 73
     1
 44
1.0
  0
LINE
  5
38E9
330
18
100
AcDbEntity
  8
上線
100
AcDbLine
 10
7911.670611554619
 20
5081.196354247975
 30
0.0
 11
8729.401119200863
 21
5081.196354247975
 31
0.0
  0
LINE
  5
38EA
330
18
100
AcDbEntity
  8
上線
100
AcDbLine
 10
7911.670611554619
 20
4983.280996572908
 30
0.0
 11
8729.401119200863
 21
4983.280996572908
 31
0.0
  0
LINE
  5
38EB
330
18
100
AcDbEntity
  8
上線
100
AcDbLine
 10
7911.670611554619
 20
4885.36563889784
 30
0.0
 11
8729.401119200863
 21
4885.36563889784
 31
0.0
  0
LINE
  5
38EC
330
18
100
AcDbEntity
  8
上線
100
AcDbLine
 10
7911.670611554619
 20
4787.450281222773
 30
0.0
 11
8729.401119200863
 21
4787.450281222773
 31
0.0
  0
LINE
  5
38ED
330
18
100
AcDbEntity
  8
上線
100
AcDbLine
 10
7911.670611554619
 20
4689.534923547706
 30
0.0
 11
8729.401119200863
 21
4689.534923547706
 31
0.0
  0
LINE
  5
38EE
330
18
100
AcDbEntity
  8
上線
100
AcDbLine
 10
7911.670611554619
 20
4591.619565872639
 30
0.0
 11
8729.401119200863
 21
4591.619565872639
 31
0.0
  0
MTEXT
  5
3908
330
18
100
AcDbEntity
  8
上線
100
AcDbMText
 10
8026.012327301932
 20
5738.976236124787
 30
0.0
 40
49.968
 41
247.7879999999999
 71
     1
 72
     5
  1
350
 73
     1
 44
1.0
  0
MTEXT
  5
3909
330
18
100
AcDbEntity
  8
上線
100
AcDbMText
 10
8024.13787946843
 20
5543.225520660888
 30
0.0
 40
49.968
 41
247.7879999999999
 71
     1
 72
     5
  1
450
 73
     1
 44
1.0
  0
MTEXT
  5
390A
330
18
100
AcDbEntity
  8
上線
100
AcDbMText
 10
8024.13787946843
 20
5347.394805310754
 30
0.0
 40
49.968
 41
247.7879999999999
 71
     1
 72
     5
  1
550
 73
     1
 44
1.0
  0
MTEXT
  5
390B
330
18
100
AcDbEntity
  8
上線
100
AcDbMText
 10
8024.13787946843
 20
5151.564089960618
 30
0.0
 40
49.968
 41
247.7879999999999
 71
     1
 72
     5
  1
650
 73
     1
 44
1.0
  0
MTEXT
  5
390C
330
18
100
AcDbEntity
  8
上線
100
AcDbMText
 10
8024.13787946843
 20
4955.733374610485
 30
0.0
 40
49.968
 41
247.7879999999999
 71
     1
 72
     5
  1
750
 73
     1
 44
1.0
  0
MTEXT
  5
390D
330
18
100
AcDbEntity
  8
上線
100
AcDbMText
 10
8024.13787946843
 20
4759.902659260349
 30
0.0
 40
49.968
 41
247.7879999999999
 71
     1
 72
     5
  1
850
 73
     1
 44
1.0
  0
MTEXT
  5
390E
330
18
100
AcDbEntity
  8
上線
100
AcDbMText
 10
8298.589163184013
 20
5738.976236124787
 30
0.0
 40
49.968
 41
247.7879999999999
 71
     1
 72
     5
  1
750
 73
     1
 44
1.0
  0
MTEXT
  5
390F
330
18
100
AcDbEntity
  8
上線
100
AcDbMText
 10
8296.71471535051
 20
5543.225520660888
 30
0.0
 40
49.968
 41
247.7879999999999
 71
     1
 72
     5
  1
850
 73
     1
 44
1.0
  0
MTEXT
  5
3910
330
18
100
AcDbEntity
  8
上線
100
AcDbMText
 10
8296.71471535051
 20
5347.394805310754
 30
0.0
 40
49.968
 41
247.7879999999999
 71
     1
 72
     5
  1
950
 73
     1
 44
1.0
  0
MTEXT
  5
3911
330
18
100
AcDbEntity
  8
上線
100
AcDbMText
 10
8264.74671535051
 20
5151.564089960619
 30
0.0
 40
49.968
 41
279.7559999999999
 71
     1
 72
     5
  1
1050
 73
     1
 44
1.0
  0
MTEXT
  5
3912
330
18
100
AcDbEntity
  8
上線
100
AcDbMText
 10
8264.74671535051
 20
4955.733374610485
 30
0.0
 40
49.968
 41
279.7559999999999
 71
     1
 72
     5
  1
1150
 73
     1
 44
1.0
  0
MTEXT
  5
3913
330
18
100
AcDbEntity
  8
上線
100
AcDbMText
 10
8264.74671535051
 20
4759.902659260349
 30
0.0
 40
49.968
 41
279.7559999999999
 71
     1
 72
     5
  1
1250
 73
     1
 44
1.0
  0
MTEXT
  5
3914
330
18
100
AcDbEntity
  8
上線
100
AcDbMText
 10
8571.165999066094
 20
5738.976236124787
 30
0.0
 40
49.968
 41
247.7879999999999
 71
     1
 72
     5
  1
632
 73
     1
 44
1.0
  0
MTEXT
  5
3915
330
18
100
AcDbEntity
  8
上線
100
AcDbMText
 10
8569.291551232591
 20
5543.225520660888
 30
0.0
 40
49.968
 41
247.7879999999999
 71
     1
 72
     5
  1
730
 73
     1
 44
1.0
  0
MTEXT
  5
3916
330
18
100
AcDbEntity
  8
上線
100
AcDbMText
 10
8569.291551232591
 20
5347.394805310754
 30
0.0
 40
49.968
 41
247.7879999999999
 71
     1
 72
     5
  1
827
 73
     1
 44
1.0
  0
MTEXT
  5
3917
330
18
100
AcDbEntity
  8
上線
100
AcDbMText
 10
8569.291551232591
 20
5151.564089960618
 30
0.0
 40
49.968
 41
247.7879999999999
 71
     1
 72
     5
  1
925
 73
     1
 44
1.0
  0
MTEXT
  5
3924
330
18
100
AcDbEntity
  8
上線
100
AcDbMText
 10
8537.32355123259
 20
4759.822659374114
 30
0.0
 40
49.968
 41
279.7559999999999
 71
     1
 72
     5
  1
1120
 73
     1
 44
1.0
  0
MTEXT
  5
396E
330
18
100
AcDbEntity
  8
上線
100
AcDbMText
 10
8537.32355123259
 20
4955.653374724248
 30
0.0
 40
49.968
 41
279.7559999999999
 71
     1
 72
     5
  1
1022
 73
     1
 44
1.0
  0
MTEXT
  5
396F
330
18
100
AcDbEntity
  8
上線
100
AcDbMText
 10
8537.32355123259
 20
4857.738017049181
 30
0.0
 40
49.968
 41
279.7559999999999
 71
     1
 72
     5
  1
1071
 73
     1
 44
1.0
  0
LINE
  5
3ACF
330
18
100
AcDbEntity
  8
OBJECT
 48
10.0
100
AcDbLine
 10
6424.546445227439
 20
6120.508963837801
 30
0.0
 11
5424.546445227439
 21
6120.508963837803
 31
0.0
  0
LINE
  5
3AD0
330
18
100
AcDbEntity
  8
OBJECT
 48
10.0
100
AcDbLine
 10
5424.546445227439
 20
5970.508961861273
 30
0.0
 11
6424.546445227439
 21
5970.508961861273
 31
0.0
  0
MTEXT
  5
3AD1
330
18
100
AcDbEntity
  8
0
  6
ByBlock
 62
     0
 48
10.0
100
AcDbMText
 10
5924.546445227439
 20
6000.508972601224
 30
0.0
 40
37.5
 41
0.0
 71
     5
 72
     1
  1
600
 73
     1
 44
1.0
  0
MTEXT
  5
3AD2
330
18
100
AcDbEntity
  8
0
  6
ByBlock
 62
     0
 48
10.0
100
AcDbMText
 10
5924.546445227439
 20
6150.508972601223
 30
0.0
 40
37.5
 41
0.0
 71
     5
 72
     1
  1
1000
 73
     1
 44
1.0
  0
LINE
  5
3AD3
330
18
100
AcDbEntity
  8
WUWAGAKI
100
AcDbLine
 10
4629.212589377441
 20
3441.449069454903
 30
0.0
 11
8899.93150800436
 21
3441.449069454903
 31
0.0
  0
LINE
  5
3AD4
330
18
100
AcDbEntity
  8
WUWAGAKI
100
AcDbLine
 10
8899.93150800436
 20
6367.598921251026
 30
0.0
 11
4629.212589377441
 21
6367.598921251026
 31
0.0
  0
SOLID
  5
3AE5
330
18
100
AcDbEntity
  8
0
  6
ByBlock
 62
     0
 48
10.0
100
AcDbTrace
 10
5250.796436464014
 20
5378.008998423701
 30
0.0
 11
5238.296436464016
 21
5378.008998423701
 31
0.0
 12
5244.546436464013
 22
5340.5089984237
 32
0.0
 13
5244.546436464013
 23
5340.5089984237
 33
0.0
  0
LINE
  5
3AE6
330
18
100
AcDbEntity
  8
OBJECT
 48
10.0
100
AcDbLine
 10
5094.546445227433
 20
5220.508998423695
 30
0.0
 11
5094.546445227433
 21
5790.508998423717
 31
0.0
  0
LINE
  5
3AE7
330
18
100
AcDbEntity
  8
OBJECT
 48
10.0
100
AcDbLine
 10
5244.546453990857
 20
5220.508998423695
 30
0.0
 11
5244.546453990856
 21
5790.508998423739
 31
0.0
  0
LINE
  5
3AE8
330
18
100
AcDbEntity
  8
WUWAGAKI
100
AcDbLine
 10
4629.212589377441
 20
6367.598921251026
 30
0.0
 11
4629.212589377441
 21
3441.449069454903
 31
0.0
  0
LINE
  5
3B0F
330
18
100
AcDbEntity
  8
OBJECT
 48
10.0
100
AcDbLine
 10
5244.546455967389
 20
3620.508972601221
 30
0.0
 11
5244.546455967389
 21
4920.508972601223
 31
0.0
  0
LINE
  5
3B10
330
18
100
AcDbEntity
  8
OBJECT
 48
10.0
100
AcDbLine
 10
5094.546453990861
 20
4920.508972601223
 30
0.0
 11
5094.546453990857
 21
3620.508972601221
 31
0.0
  0
LINE
  5
3B13
330
18
100
AcDbEntity
  8
0
 48
10.0
100
AcDbLine
 10
5394.546445227439
 20
3620.508972601221
 30
0.0
 11
5064.546445227438
 21
3620.508972601221
 31
0.0
  0
SOLID
  5
3B14
330
18
100
AcDbEntity
  8
0
  6
ByBlock
 62
     0
 48
10.0
100
AcDbTrace
 10
5100.796445227438
 20
3658.008972601244
 30
0.0
 11
5088.296445227436
 21
3658.008972601244
 31
0.0
 12
5094.546445227436
 22
3620.508972601244
 32
0.0
 13
5094.546445227436
 23
3620.508972601244
 33
0.0
  0
SOLID
  5
3B15
330
18
100
AcDbEntity
  8
0
  6
ByBlock
 62
     0
 48
10.0
100
AcDbTrace
 10
5250.796455967386
 20
3658.008984460376
 30
0.0
 11
5238.296455967386
 21
3658.008984460376
 31
0.0
 12
5244.546455967387
 22
3620.508984460376
 32
0.0
 13
5244.546455967387
 23
3620.508984460376
 33
0.0
  0
MTEXT
  5
3B16
330
18
100
AcDbEntity
  8
0
  6
ByBlock
 62
     0
 48
10.0
100
AcDbMText
 10
5214.546453990859
 20
4070.508972601223
 30
0.0
 40
37.5
 41
0.0
 71
     5
 72
     1
  1
h1
 11
0.0000000000000001
 21
1.0
 31
0.0
 73
     1
 44
1.0
  0
MTEXT
  5
3B17
330
18
100
AcDbEntity
  8
0
  6
ByBlock
 62
     0
 48
10.0
100
AcDbMText
 10
5064.546445227438
 20
4270.508972601222
 30
0.0
 40
37.5
 41
0.0
 71
     5
 72
     1
  1
H
 11
0.0000000000000001
 21
1.0
 31
0.0
 73
     1
 44
1.0
  0
SOLID
  5
3B18
330
18
100
AcDbEntity
  8
0
  6
ByBlock
 62
     0
 48
10.0
100
AcDbTrace
 10
5250.796445227442
 20
4858.008972601226
 30
0.0
 11
5238.296445227442
 21
4858.008972601226
 31
0.0
 12
5244.54644522744
 22
4820.508972601226
 32
0.0
 13
5244.54644522744
 23
4820.508972601226
 33
0.0
  0
MTEXT
  5
3B19
330
18
100
AcDbEntity
  8
0
  6
ByBlock
 62
     0
 48
10.0
100
AcDbMText
 10
5214.546453990859
 20
4870.508972601223
 30
0.0
 40
37.5
 41
0.0
 71
     5
 72
     1
  1
100
 11
0.0000000000000001
 21
1.0
 31
0.0
 73
     1
 44
1.0
  0
LINE
  5
3B1A
330
18
100
AcDbEntity
  8
0
 48
10.0
100
AcDbLine
 10
5394.546445227439
 20
4820.508972601223
 30
0.0
 11
5214.546445227439
 21
4820.508972601223
 31
0.0
  0
LINE
  5
3B1B
330
18
100
AcDbEntity
  8
0
 48
10.0
100
AcDbLine
 10
5394.546445227439
 20
4520.508972601223
 30
0.0
 11
5214.546445227439
 21
4520.508972601223
 31
0.0
  0
SOLID
  5
3B1C
330
18
100
AcDbEntity
  8
0
  6
ByBlock
 62
     0
 48
10.0
100
AcDbTrace
 10
5250.796445227442
 20
4483.008972601223
 30
0.0
 11
5238.296445227442
 21
4483.008972601223
 31
0.0
 12
5244.54644522744
 22
4520.508972601223
 32
0.0
 13
5244.54644522744
 23
4520.508972601223
 33
0.0
  0
SOLID
  5
3B1D
330
18
100
AcDbEntity
  8
0
  6
ByBlock
 62
     0
 48
10.0
100
AcDbTrace
 10
5250.796445227442
 20
4558.008972601223
 30
0.0
 11
5238.296445227442
 21
4558.008972601223
 31
0.0
 12
5244.54644522744
 22
4520.508972601223
 32
0.0
 13
5244.54644522744
 23
4520.508972601223
 33
0.0
  0
MTEXT
  5
3B1E
330
18
100
AcDbEntity
  8
0
  6
ByBlock
 62
     0
 48
10.0
100
AcDbMText
 10
5214.546445227438
 20
4670.508972601223
 30
0.0
 40
37.5
 41
0.0
 71
     5
 72
     1
  1
300
 11
0.0000000000000001
 21
1.0
 31
0.0
 73
     1
 44
1.0
  0
SOLID
  5
3B1F
330
18
100
AcDbEntity
  8
0
  6
ByBlock
 62
     0
 48
10.0
100
AcDbTrace
 10
5250.796445227442
 20
4783.009037040918
 30
0.0
 11
5238.296445227442
 21
4783.009037040918
 31
0.0
 12
5244.54644522744
 22
4820.509037040918
 32
0.0
 13
5244.54644522744
 23
4820.509037040918
 33
0.0
  0
LINE
  5
3B22
330
18
100
AcDbEntity
  8
0
 48
10.0
100
AcDbLine
 10
5394.54645532263
 20
5340.508998423695
 30
0.0
 11
5214.54645532263
 21
5340.508998423695
 31
0.0
  0
LINE
  5
3B23
330
18
100
AcDbEntity
  8
0
 48
10.0
100
AcDbLine
 10
5394.546445227439
 20
5220.508998423695
 30
0.0
 11
5064.546445227438
 21
5220.508998423695
 31
0.0
  0
LINE
  5
3B24
330
18
100
AcDbEntity
  8
0
 48
10.0
100
AcDbLine
 10
5394.546445227439
 20
4920.508972601223
 30
0.0
 11
5064.546445227438
 21
4920.508972601223
 31
0.0
  0
SOLID
  5
3B25
330
18
100
AcDbEntity
  8
0
  6
ByBlock
 62
     0
 48
10.0
100
AcDbTrace
 10
5100.796445227438
 20
4883.008972601201
 30
0.0
 11
5088.296445227436
 21
4883.008972601201
 31
0.0
 12
5094.546445227436
 22
4920.508972601201
 32
0.0
 13
5094.546445227436
 23
4920.508972601201
 33
0.0
  0
SOLID
  5
3B26
330
18
100
AcDbEntity
  8
0
  6
ByBlock
 62
     0
 48
10.0
100
AcDbTrace
 10
5250.796455967386
 20
4883.008960742069
 30
0.0
 11
5238.296455967386
 21
4883.008960742069
 31
0.0
 12
5244.546455967387
 22
4920.508960742068
 32
0.0
 13
5244.546455967387
 23
4920.508960742068
 33
0.0
  0
SOLID
  5
3B28
330
18
100
AcDbEntity
  8
0
  6
ByBlock
 62
     0
 48
10.0
100
AcDbTrace
 10
5100.796445227436
 20
5258.008998423717
 30
0.0
 11
5088.296445227435
 21
5258.008998423717
 31
0.0
 12
5094.546445227433
 22
5220.508998423717
 32
0.0
 13
5094.546445227433
 23
5220.508998423717
 33
0.0
  0
LINE
  5
3B2C
330
18
100
AcDbEntity
  8
0
 48
10.0
100
AcDbLine
 10
5424.546445227439
 20
5820.508972601223
 30
0.0
 11
5424.546445227439
 21
6150.508972601222
 31
0.0
  0
LINE
  5
3B2D
330
18
100
AcDbEntity
  8
0
 48
10.0
100
AcDbLine
 10
5624.546445227439
 20
5820.508972601223
 30
0.0
 11
5624.546445227439
 21
6000.508972601223
 31
0.0
  0
LINE
  5
3B2E
330
18
100
AcDbEntity
  8
0
 48
10.0
100
AcDbLine
 10
5394.546445227439
 20
5690.508998423738
 30
0.0
 11
5214.546445227439
 21
5690.508998423738
 31
0.0
  0
LINE
  5
3B2F
330
18
100
AcDbEntity
  8
0
 48
10.0
100
AcDbLine
 10
5394.54645532263
 20
5640.508998423738
 30
0.0
 11
5214.54645532263
 21
5640.508998423738
 31
0.0
  0
LINE
  5
3B30
330
18
100
AcDbEntity
  8
0
 48
10.0
100
AcDbLine
 10
5394.546445227436
 20
5790.508998423739
 30
0.0
 11
5064.546445227435
 21
5790.508998423739
 31
0.0
  0
SOLID
  5
3B31
330
18
100
AcDbEntity
  8
0
  6
ByBlock
 62
     0
 48
10.0
100
AcDbTrace
 10
5250.796445227436
 20
5603.009103584784
 30
0.0
 11
5238.296445227437
 21
5603.009103584784
 31
0.0
 12
5244.546445227434
 22
5640.509103584784
 32
0.0
 13
5244.546445227434
 23
5640.509103584784
 33
0.0
  0
MTEXT
  5
3B32
330
18
100
AcDbEntity
  8
0
  6
ByBlock
 62
     0
 48
10.0
100
AcDbMText
 10
5064.546445227435
 20
5505.508998423739
 30
0.0
 40
37.5
 41
0.0
 71
     5
 72
     1
  1
570
 11
0.0000000000000001
 21
1.0
 31
0.0
 73
     1
 44
1.0
  0
MTEXT
  5
3B33
330
18
100
AcDbEntity
  8
0
  6
ByBlock
 62
     0
 48
10.0
100
AcDbMText
 10
5214.546445227437
 20
5490.508998423738
 30
0.0
 40
37.5
 41
0.0
 71
     5
 72
     1
  1
300
 11
0.0000000000000001
 21
1.0
 31
0.0
 73
     1
 44
1.0
  0
SOLID
  5
3B34
330
18
100
AcDbEntity
  8
0
  6
ByBlock
 62
     0
 48
10.0
100
AcDbTrace
 10
5100.796445227436
 20
5753.008998423716
 30
0.0
 11
5088.296445227435
 21
5753.008998423716
 31
0.0
 12
5094.546445227433
 22
5790.508998423717
 32
0.0
 13
5094.546445227433
 23
5790.508998423717
 33
0.0
  0
MTEXT
  5
3B35
330
18
100
AcDbEntity
  8
0
  6
ByBlock
 62
     0
 48
10.0
100
AcDbMText
 10
5214.546453990855
 20
5740.508998423738
 30
0.0
 40
37.5
 41
0.0
 71
     5
 72
     1
  1
100
 11
0.0000000000000001
 21
1.0
 31
0.0
 73
     1
 44
1.0
  0
MTEXT
  5
3B36
330
18
100
AcDbEntity
  8
0
  6
ByBlock
 62
     0
 48
10.0
100
AcDbMText
 10
5184.546453990855
 20
5665.508998423739
 30
0.0
 40
37.5
 41
0.0
 71
     5
 72
     1
  1
50
 11
0.0000000000000001
 21
1.0
 31
0.0
 73
     1
 44
1.0
  0
SOLID
  5
3B38
330
18
100
AcDbEntity
  8
0
  6
ByBlock
 62
     0
 48
10.0
100
AcDbTrace
 10
5238.296453990859
 20
5728.009022142035
 30
0.0
 11
5250.796453990861
 21
5728.009022142035
 31
0.0
 12
5244.54645399086
 22
5690.509022142036
 32
0.0
 13
5244.54645399086
 23
5690.509022142036
 33
0.0
  0
SOLID
  5
3B7B
330
18
100
AcDbEntity
  8
0
  6
ByBlock
 62
     0
 48
10.0
100
AcDbTrace
 10
5662.046380787744
 20
5964.258972601221
 30
0.0
 11
5662.046380787744
 21
5976.758972601221
 31
0.0
 12
5624.546380787744
 22
5970.508972601223
 32
0.0
 13
5624.546380787744
 23
5970.508972601223
 33
0.0
  0
MTEXT
  5
3B7C
330
18
100
AcDbEntity
  8
0
  6
ByBlock
 62
     0
 48
10.0
100
AcDbMText
 10
5524.546445227439
 20
6000.508963837803
 30
0.0
 40
37.5
 41
0.0
 71
     5
 72
     1
  1
200
 73
     1
 44
1.0
  0
SOLID
  5
3B7D
330
18
100
AcDbEntity
  8
0
  6
ByBlock
 62
     0
 48
10.0
100
AcDbTrace
 10
5462.046457086593
 20
5964.258961861276
 30
0.0
 11
5462.046457086593
 21
5976.758961861277
 31
0.0
 12
5424.546457086593
 22
5970.508961861277
 32
0.0
 13
5424.546457086593
 23
5970.508961861277
 33
0.0
  0
SOLID
  5
3B7E
330
18
100
AcDbEntity
  8
0
  6
ByBlock
 62
     0
 48
10.0
100
AcDbTrace
 10
5587.046445227436
 20
5964.258972601221
 30
0.0
 11
5587.046445227436
 21
5976.758972601221
 31
0.0
 12
5624.546445227436
 22
5970.508972601223
 32
0.0
 13
5624.546445227436
 23
5970.508972601223
 33
0.0
  0
SOLID
  5
3B7F
330
18
100
AcDbEntity
  8
0
  6
ByBlock
 62
     0
 48
10.0
100
AcDbTrace
 10
5462.046445227461
 20
6114.258972601224
 30
0.0
 11
5462.046445227461
 21
6126.758972601226
 31
0.0
 12
5424.546445227461
 22
6120.508972601227
 32
0.0
 13
5424.546445227461
 23
6120.508972601227
 33
0.0
  0
LINE
  5
3B80
330
18
100
AcDbEntity
  8
WUWAGAKI
100
AcDbLine
 10
8899.93150800436
 20
3441.449069454903
 30
0.0
 11
8899.93150800436
 21
6367.598921251026
 31
0.0
  0
TEXT
  5
3B8B
330
18
100
AcDbEntity
  8
WUWAGAKI
100
AcDbText
 10
8413.845653600544
 20
3665.399195711189
 30
0.0
 40
45.0
  1
重量
100
AcDbText
  0
TEXT
  5
3B8C
330
18
100
AcDbEntity
  8
WUWAGAKI
100
AcDbText
 10
7979.337352995455
 20
3541.556170703092
 30
0.0
 40
60.0
  1
㈱　ウ　チ　コ　ン
100
AcDbText
  0
TEXT
  5
3B8D
330
18
100
AcDbEntity
  8
WUWAGAKI
100
AcDbText
 10
8027.08479502732
 20
3763.916125168208
 30
0.0
 40
38.2725
  1
300×U300×1000×120/150×H
100
AcDbText
  0
LINE
  5
3B8E
330
18
100
AcDbEntity
  8
WUWAGAKI
100
AcDbLine
 10
7740.631920095982
 20
3640.977299451917
 30
0.0
 11
8833.428495196402
 21
3640.977299451917
 31
0.0
  0
LINE
  5
3B8F
330
18
100
AcDbEntity
  8
WUWAGAKI
100
AcDbLine
 10
7740.631920095982
 20
3739.492363616523
 30
0.0
 11
8833.428495196402
 21
3739.492363616523
 31
0.0
  0
LINE
  5
3B90
330
18
100
AcDbEntity
  8
WUWAGAKI
100
AcDbLine
 10
7740.631920095982
 20
3509.948603896706
 30
0.0
 11
8833.428495196404
 21
3509.948603896706
 31
0.0
  0
LINE
  5
3B91
330
18
100
AcDbEntity
  8
WUWAGAKI
100
AcDbLine
 10
7740.631920095982
 20
3835.398748581138
 30
0.0
 11
8830.796672860641
 21
3835.398748581138
 31
0.0
  0
LINE
  5
3B92
330
18
100
AcDbEntity
  8
WUWAGAKI
100
AcDbLine
 10
7740.631920095982
 20
3835.398748581138
 30
0.0
 11
8830.796672860641
 21
3835.398748581138
 31
0.0
  0
LINE
  5
3B93
330
18
100
AcDbEntity
  8
WUWAGAKI
100
AcDbLine
 10
7740.631920095982
 20
3929.929036526274
 30
0.0
 11
8833.428495196404
 21
3929.929036526274
 31
0.0
  0
LINE
  5
3BA3
330
18
100
AcDbEntity
  8
WUWAGAKI
100
AcDbLine
 10
7992.748391664488
 20
3929.929036526274
 30
0.0
 11
7992.748391664488
 21
3640.977299451917
 31
0.0
  0
LINE
  5
3BA4
330
18
100
AcDbEntity
  8
WUWAGAKI
100
AcDbLine
 10
7740.631920095982
 20
3929.929036526274
 30
0.0
 11
7740.631920095982
 21
3509.948603896706
 31
0.0
  0
TEXT
  5
3BA5
330
18
100
AcDbEntity
  8
WUWAGAKI
100
AcDbText
 10
7785.510363858262
 20
3760.545795761672
 30
0.0
 40
45.0
  1
寸　法
100
AcDbText
  0
TEXT
  5
3BA6
330
18
100
AcDbEntity
  8
WUWAGAKI
100
AcDbText
 10
7813.158121619342
 20
3664.047842770191
 30
0.0
 40
45.0
  1
縮尺
100
AcDbText
  0
TEXT
  5
3BA7
330
18
100
AcDbEntity
  8
WUWAGAKI
100
AcDbText
 10
8027.084795027318
 20
3665.349758199648
 30
0.0
 40
45.0
  1
S＝　1：15
100
AcDbText
  0
LINE
  5
3BA8
330
18
100
AcDbEntity
  8
WUWAGAKI
100
AcDbLine
 10
8386.917877848398
 20
3739.492363616523
 30
0.0
 11
8386.917877848398
 21
3640.977299451917
 31
0.0
  0
TEXT
  5
3BA9
330
18
100
AcDbEntity
  8
WUWAGAKI
100
AcDbText
 10
7788.165575744682
 20
3861.684635798653
 30
0.0
 40
45.0
  1
種　別
100
AcDbText
  0
TEXT
  5
3BAA
330
18
100
AcDbEntity
  8
WUWAGAKI
100
AcDbText
 10
8027.084795027318
 20
3859.105475602594
 30
0.0
 40
45.0
  1
集水桝
100
AcDbText
  0
LINE
  5
3BB0
330
18
100
AcDbEntity
  8
WUWAGAKI
 48
10.0
100
AcDbLine
 10
6878.800074496102
 20
4546.065186334113
 30
0.0
 11
6954.951809284783
 21
4602.494651269711
 31
0.0
210
0.0
220
0.0
230
-1.0
1001
ACAD
1000
DSTYLE
1002
{
1070
    78
1070
     8
1070
   270
1070
     8
1070
   140
1040
2.5
1070
    74
1070
     0
1070
   172
1070
     1
1070
    73
1070
     0
1070
    77
1070
     1
1070
    40
1040
10.0
1070
   147
1040
0.625
1070
    42
1040
0.625
1070
    44
1040
1.25
1070
    43
1040
3.75
1070
   141
1040
2.5
1070
    41
1040
2.5
1070
   273
1070
     8
1070
   274
1070
     4
1070
   143
1040
0.0394
1070
   171
1070
     4
1002
}
  0
SOLID
  5
3BB3
330
18
100
AcDbEntity
  8
0
  6
ByBlock
 62
     0
 48
10.0
100
AcDbTrace
 10
6890.281331833314
 20
4562.116405521922
 30
0.0
 11
6897.672701832594
 21
4552.035847524781
 31
0.0
 12
6863.735342841538
 22
4534.902016525497
 32
0.0
 13
6863.735342841538
 23
4534.902016525497
 33
0.0
  0
LINE
  5
3BB7
330
18
100
AcDbEntity
  8
OBJECT
 48
10.0
100
AcDbLine
 10
6849.546471049911
 20
4750.508963837805
 30
0.0
 11
7139.546471049955
 21
4750.508963837806
 31
0.0
  0
LINE
  5
3BB9
330
18
100
AcDbEntity
  8
0
 48
10.0
100
AcDbLine
 10
6849.546471049911
 20
4600.508962506032
 30
0.0
 11
6849.546471049911
 21
4780.508962506032
 31
0.0
  0
SOLID
  5
3BBA
330
18
100
AcDbEntity
  8
0
  6
ByBlock
 62
     0
 48
10.0
100
AcDbTrace
 10
6887.046471049917
 20
4744.258981364647
 30
0.0
 11
6887.046471049917
 21
4756.758981364646
 31
0.0
 12
6849.546471049918
 22
4750.508981364649
 32
0.0
 13
6849.546471049918
 23
4750.508981364649
 33
0.0
  0
LINE
  5
3BBB
330
18
100
AcDbEntity
  8
0
 48
10.0
100
AcDbLine
 10
7139.546471049955
 20
4600.508962506032
 30
0.0
 11
7139.546471049955
 21
4780.508962506032
 31
0.0
  0
LINE
  5
3BBC
330
18
100
AcDbEntity
  8
OBJECT
 48
10.0
100
AcDbLine
 10
6954.951809284783
 20
4602.494651269711
 30
0.0
 11
7059.951809284783
 21
4602.494651269711
 31
0.0
  0
MTEXT
  5
3BBD
330
18
100
AcDbEntity
  8
0
  6
ByBlock
 62
     0
 48
10.0
100
AcDbMText
 10
7007.451809284782
 20
4632.494651269711
 30
0.0
 40
30.0
 41
0.0
 71
     5
 72
     1
  1
50R
 73
     1
 44
1.0
  0
MTEXT
  5
3BBE
330
18
100
AcDbEntity
  8
0
  6
ByBlock
 62
     0
 48
10.0
100
AcDbMText
 10
6994.546471049955
 20
4780.508972601224
 30
0.0
 40
37.5
 41
0.0
 71
     5
 72
     1
  1
290
 73
     1
 44
1.0
  0
SOLID
  5
3BBF
330
18
100
AcDbEntity
  8
0
  6
ByBlock
 62
     0
 48
10.0
100
AcDbTrace
 10
7102.046576210999
 20
4744.258972601226
 30
0.0
 11
7102.046576210999
 21
4756.758972601224
 31
0.0
 12
7139.546576210999
 22
4750.508972601228
 32
0.0
 13
7139.546576210999
 23
4750.508972601228
 33
0.0
  0
LINE
  5
3BED
330
18
100
AcDbEntity
  8
WUWAGAKI
100
AcDbLine
 10
8833.428495196404
 20
3509.948603896706
 30
0.0
 11
8833.428495196404
 21
3929.929036526274
 31
0.0
  0
LINE
  5
3BEE
330
18
100
AcDbEntity
  8
WUWAGAKI
100
AcDbLine
 10
8571.146304610717
 20
3739.492363616523
 30
0.0
 11
8571.146304610717
 21
3640.977299451917
 31
0.0
  0
LINE
  5
3BFF
330
18
100
AcDbEntity
  8
0
 48
10.0
100
AcDbLine
 10
6224.546445227439
 20
5820.508972601223
 30
0.0
 11
6224.546445227439
 21
6000.508972601223
 31
0.0
  0
LINE
  5
3C00
330
18
100
AcDbEntity
  8
0
 48
10.0
100
AcDbLine
 10
6424.546445227439
 20
5820.508972601223
 30
0.0
 11
6424.546445227439
 21
6150.508972601222
 31
0.0
  0
MTEXT
  5
3C01
330
18
100
AcDbEntity
  8
0
  6
ByBlock
 62
     0
 48
10.0
100
AcDbMText
 10
6577.096257621722
 20
5422.821722732776
 30
0.0
 40
30.0
 41
0.0
 71
     5
 72
     1
  1
グレーチング
 73
     1
 44
1.0
  0
LINE
  5
3C02
330
18
100
AcDbEntity
  8
OBJECT
 48
10.0
100
AcDbLine
 10
5973.390070161662
 20
5392.821722732776
 30
0.0
 11
6704.596257621719
 21
5392.821722732776
 31
0.0
  0
SOLID
  5
3C03
330
18
100
AcDbEntity
  8
0
  6
ByBlock
 62
     0
 48
10.0
100
AcDbTrace
 10
6128.364698652256
 20
5631.393194622753
 30
0.0
 11
6123.413192380004
 21
5619.915712946191
 31
0.0
 12
6091.456500486437
 22
5640.508972601223
 32
0.0
 13
6091.456500486437
 23
5640.508972601223
 33
0.0
  0
LINE
  5
3C04
330
18
100
AcDbEntity
  8
WUWAGAKI
 48
10.0
100
AcDbLine
 10
6108.709960436791
 20
5633.168630664943
 30
0.0
 11
6459.59625762172
 21
5483.886955597538
 31
0.0
210
0.0
220
0.0
230
-1.0
1001
ACAD
1000
DSTYLE
1002
{
1070
    78
1070
     8
1070
   270
1070
     8
1070
   140
1040
2.5
1070
    74
1070
     0
1070
   172
1070
     1
1070
    73
1070
     0
1070
    77
1070
     1
1070
    40
1040
10.0
1070
   147
1040
0.625
1070
    42
1040
0.625
1070
    44
1040
1.25
1070
    43
1040
3.75
1070
   141
1040
2.5
1070
    41
1040
2.5
1070
   273
1070
     8
1070
   274
1070
     4
1070
   143
1040
0.0394
1070
   171
1070
     4
1002
}
  0
SOLID
  5
3C05
330
18
100
AcDbEntity
  8
0
  6
ByBlock
 62
     0
 48
10.0
100
AcDbTrace
 10
6010.313618218146
 20
5398.793713964612
 30
0.0
 11
6010.25364435073
 21
5386.293857840032
 31
0.0
 12
5972.784062910694
 22
5392.723707504562
 32
0.0
 13
5972.784062910694
 23
5392.723707504562
 33
0.0
  0
MTEXT
  5
3C06
330
18
100
AcDbEntity
  8
0
  6
ByBlock
 62
     0
 48
10.0
100
AcDbMText
 10
6512.09625762172
 20
5513.886955597538
 30
0.0
 40
30.0
 41
0.0
 71
     5
 72
     1
  1
受枠
 73
     1
 44
1.0
  0
LINE
  5
3C07
330
18
100
AcDbEntity
  8
OBJECT
 48
10.0
100
AcDbLine
 10
6459.59625762172
 20
5483.886955597538
 30
0.0
 11
6564.59625762172
 21
5483.886955597538
 31
0.0
  0
SOLID
  5
3C09
330
18
100
AcDbEntity
  8
0
  6
ByBlock
 62
     0
 48
10.0
100
AcDbTrace
 10
6187.046509667134
 20
5964.258972601221
 30
0.0
 11
6187.046509667134
 21
5976.758972601221
 31
0.0
 12
6224.546509667135
 22
5970.508972601223
 32
0.0
 13
6224.546509667135
 23
5970.508972601223
 33
0.0
  0
SOLID
  5
3C0A
330
18
100
AcDbEntity
  8
0
  6
ByBlock
 62
     0
 48
10.0
100
AcDbTrace
 10
6262.046445227442
 20
5964.258972601221
 30
0.0
 11
6262.046445227442
 21
5976.758972601221
 31
0.0
 12
6224.546445227442
 22
5970.508972601223
 32
0.0
 13
6224.546445227442
 23
5970.508972601223
 33
0.0
  0
SOLID
  5
3C0B
330
18
100
AcDbEntity
  8
0
  6
ByBlock
 62
     0
 48
10.0
100
AcDbTrace
 10
6387.046433368285
 20
5964.258961861276
 30
0.0
 11
6387.046433368285
 21
5976.758961861277
 31
0.0
 12
6424.546433368284
 22
5970.508961861277
 32
0.0
 13
6424.546433368284
 23
5970.508961861277
 33
0.0
  0
MTEXT
  5
3C0C
330
18
100
AcDbEntity
  8
0
  6
ByBlock
 62
     0
 48
10.0
100
AcDbMText
 10
6324.546445227439
 20
6000.508963837803
 30
0.0
 40
37.5
 41
0.0
 71
     5
 72
     1
  1
200
 73
     1
 44
1.0
  0
SOLID
  5
3C0D
330
18
100
AcDbEntity
  8
0
  6
ByBlock
 62
     0
 48
10.0
100
AcDbTrace
 10
6387.046445227418
 20
6114.258972601224
 30
0.0
 11
6387.046445227418
 21
6126.758972601226
 31
0.0
 12
6424.546445227417
 22
6120.508972601227
 32
0.0
 13
6424.546445227417
 23
6120.508972601227
 33
0.0
  0
MTEXT
  5
3C31
330
18
100
AcDbEntity
  8
0
  6
ByBlock
 62
     0
 48
10.0
100
AcDbMText
 10
5184.546453990859
 20
5315.508998423695
 30
0.0
 40
37.5
 41
0.0
 71
     5
 72
     1
  1
50
 11
0.0000000000000001
 21
1.0
 31
0.0
 73
     1
 44
1.0
  0
MTEXT
  5
3C32
330
18
100
AcDbEntity
  8
0
  6
ByBlock
 62
     0
 48
10.0
100
AcDbMText
 10
5214.546453990859
 20
5255.508998423695
 30
0.0
 40
37.5
 41
0.0
 71
     5
 72
     1
  1
70
 11
0.0000000000000001
 21
1.0
 31
0.0
 73
     1
 44
1.0
  0
LINE
  5
3C38
330
18
100
AcDbEntity
  8
0
 48
10.0
100
AcDbLine
 10
5394.546455322633
 20
5340.508998423695
 30
0.0
 11
5214.546455322634
 21
5340.508998423695
 31
0.0
  0
LINE
  5
3C3A
330
18
100
AcDbEntity
  8
0
 48
10.0
100
AcDbLine
 10
5394.546445227443
 20
5290.508998423695
 30
0.0
 11
5214.546445227443
 21
5290.508998423695
 31
0.0
  0
LINE
  5
3C3C
330
18
100
AcDbEntity
  8
OBJECT
 48
10.0
100
AcDbLine
 10
5244.54645399086
 20
5220.508998423717
 30
0.0
 11
5244.54645399086
 21
5108.008998423716
 31
0.0
  0
SOLID
  5
3C3D
330
18
100
AcDbEntity
  8
0
  6
ByBlock
 62
     0
 48
10.0
100
AcDbTrace
 10
5238.296453990862
 20
5183.008986564562
 30
0.0
 11
5250.796453990864
 21
5183.008986564562
 31
0.0
 12
5244.546453990864
 22
5220.508986564563
 32
0.0
 13
5244.546453990864
 23
5220.508986564563
 33
0.0
  0
LWPOLYLINE
  5
3C3E
330
18
100
AcDbEntity
  8
上線
 48
10.0
100
AcDbPolyline
 90
        2
 70
     1
 43
5.0
 10
5244.568391598666
 20
5293.008998423695
 42
-1.0
 10
5244.568391598666
 20
5288.008998423695
 42
-1.0
  0
SOLID
  5
3C3F
330
18
100
AcDbEntity
  8
0
  6
ByBlock
 62
     0
 48
10.0
100
AcDbTrace
 10
5238.296453990859
 20
5753.008986564606
 30
0.0
 11
5250.796453990861
 21
5753.008986564606
 31
0.0
 12
5244.54645399086
 22
5790.508986564606
 32
0.0
 13
5244.54645399086
 23
5790.508986564606
 33
0.0
  0
MTEXT
  5
3C5E
330
18
100
AcDbEntity
  8
0
  6
ByBlock
 62
     0
 48
10.0
100
AcDbMText
 10
7244.546471049955
 20
5130.508963837807
 30
0.0
 40
37.5
 41
0.0
 71
     5
 72
     1
  1
100
 73
     1
 44
1.0
  0
LINE
  5
3C5F
330
18
100
AcDbEntity
  8
0
 48
10.0
100
AcDbLine
 10
6724.546471049911
 20
4950.508972601223
 30
0.0
 11
6724.546471049911
 21
5280.508972601222
 31
0.0
  0
MTEXT
  5
3C60
330
18
100
AcDbEntity
  8
0
  6
ByBlock
 62
     0
 48
10.0
100
AcDbMText
 10
7169.546471049955
 20
5160.508963837806
 30
0.0
 40
37.5
 41
0.0
 71
     5
 72
     1
  1
50
 73
     1
 44
1.0
  0
MTEXT
  5
3C61
330
18
100
AcDbEntity
  8
0
  6
ByBlock
 62
     0
 48
10.0
100
AcDbMText
 10
6994.546471049955
 20
5130.508972601225
 30
0.0
 40
37.5
 41
0.0
 71
     5
 72
     1
  1
300
 73
     1
 44
1.0
  0
MTEXT
  5
3C62
330
18
100
AcDbEntity
  8
0
  6
ByBlock
 62
     0
 48
10.0
100
AcDbMText
 10
6759.546471049912
 20
5130.508963837804
 30
0.0
 40
37.5
 41
0.0
 71
     5
 72
     1
  1
70
 73
     1
 44
1.0
  0
MTEXT
  5
3C63
330
18
100
AcDbEntity
  8
0
  6
ByBlock
 62
     0
 48
10.0
100
AcDbMText
 10
6819.54647104991
 20
5160.508963837803
 30
0.0
 40
37.5
 41
0.0
 71
     5
 72
     1
  1
50
 73
     1
 44
1.0
  0
LINE
  5
3C64
330
18
100
AcDbEntity
  8
0
 48
10.0
100
AcDbLine
 10
7294.546471049955
 20
4950.508972601227
 30
0.0
 11
7294.546471049955
 21
5280.508972601227
 31
0.0
  0
LINE
  5
3C65
330
18
100
AcDbEntity
  8
OBJECT
 48
10.0
100
AcDbLine
 10
6724.546471049911
 20
5250.508972601228
 30
0.0
 11
7294.546471049932
 21
5250.508972601228
 31
0.0
  0
SOLID
  5
3C66
330
18
100
AcDbEntity
  8
0
  6
ByBlock
 62
     0
 48
10.0
100
AcDbTrace
 10
6762.046471049933
 20
5244.258972601226
 30
0.0
 11
6762.046471049933
 21
5256.758972601225
 31
0.0
 12
6724.546471049933
 22
5250.508972601227
 32
0.0
 13
6724.546471049933
 23
5250.508972601227
 33
0.0
  0
MTEXT
  5
3C67
330
18
100
AcDbEntity
  8
0
  6
ByBlock
 62
     0
 48
10.0
100
AcDbMText
 10
7009.546471049954
 20
5280.508972601227
 30
0.0
 40
37.5
 41
0.0
 71
     5
 72
     1
  1
570
 73
     1
 44
1.0
  0
SOLID
  5
3C68
330
18
100
AcDbEntity
  8
0
  6
ByBlock
 62
     0
 48
10.0
100
AcDbTrace
 10
7257.046471049932
 20
5244.258972601226
 30
0.0
 11
7257.046471049932
 21
5256.758972601225
 31
0.0
 12
7294.546471049932
 22
5250.508972601227
 32
0.0
 13
7294.546471049932
 23
5250.508972601227
 33
0.0
  0
LINE
  5
3C69
330
18
100
AcDbEntity
  8
OBJECT
 48
10.0
100
AcDbLine
 10
6724.546471049911
 20
5100.508963837805
 30
0.0
 11
7294.546471049955
 21
5100.508963837807
 31
0.0
  0
LINE
  5
3C6A
330
18
100
AcDbEntity
  8
OBJECT
 48
10.0
100
AcDbLine
 10
6724.546471049933
 20
5100.508963837802
 30
0.0
 11
6612.046471049933
 21
5100.508963837802
 31
0.0
  0
SOLID
  5
3C6B
330
18
100
AcDbEntity
  8
0
  6
ByBlock
 62
     0
 48
10.0
100
AcDbTrace
 10
6687.046459190779
 20
5106.758963837799
 30
0.0
 11
6687.046459190779
 21
5094.258963837797
 31
0.0
 12
6724.546459190779
 22
5100.508963837796
 32
0.0
 13
6724.546459190779
 23
5100.508963837796
 33
0.0
  0
LINE
  5
3C6C
330
18
100
AcDbEntity
  8
0
 48
10.0
100
AcDbLine
 10
6844.546471049911
 20
4950.508962506032
 30
0.0
 11
6844.546471049911
 21
5130.508962506032
 31
0.0
  0
LINE
  5
3C6D
330
18
100
AcDbEntity
  8
0
 48
10.0
100
AcDbLine
 10
6794.546471049911
 20
4950.50897260122
 30
0.0
 11
6794.546471049911
 21
5130.508972601219
 31
0.0
  0
LINE
  5
3C6E
330
18
100
AcDbEntity
  8
0
 48
10.0
100
AcDbLine
 10
6844.546471049911
 20
4950.508962506028
 30
0.0
 11
6844.546471049911
 21
5130.508962506028
 31
0.0
  0
LWPOLYLINE
  5
3C6F
330
18
100
AcDbEntity
  8
上線
 48
10.0
100
AcDbPolyline
 90
        2
 70
     1
 43
5.0
 10
6797.046471049911
 20
5100.487026229996
 42
-1.0
 10
6792.046471049911
 20
5100.487026229996
 42
-1.0
  0
SOLID
  5
3C70
330
18
100
AcDbEntity
  8
0
  6
ByBlock
 62
     0
 48
10.0
100
AcDbTrace
 10
6882.046471049918
 20
5094.258981364647
 30
0.0
 11
6882.046471049918
 21
5106.758981364645
 31
0.0
 12
6844.546471049918
 22
5100.508981364649
 32
0.0
 13
6844.546471049918
 23
5100.508981364649
 33
0.0
  0
LINE
  5
3C71
330
18
100
AcDbEntity
  8
0
 48
10.0
100
AcDbLine
 10
7144.546471049955
 20
4950.508962506032
 30
0.0
 11
7144.546471049955
 21
5130.508962506032
 31
0.0
  0
LINE
  5
3C72
330
18
100
AcDbEntity
  8
0
 48
10.0
100
AcDbLine
 10
7194.546471049955
 20
4950.508972601223
 30
0.0
 11
7194.546471049955
 21
5130.508972601223
 31
0.0
  0
SOLID
  5
3C73
330
18
100
AcDbEntity
  8
0
  6
ByBlock
 62
     0
 48
10.0
100
AcDbTrace
 10
7107.046576211001
 20
5094.258972601226
 30
0.0
 11
7107.046576211001
 21
5106.758972601223
 31
0.0
 12
7144.546576211
 22
5100.508972601227
 32
0.0
 13
7144.546576211
 23
5100.508972601227
 33
0.0
  0
SOLID
  5
3C74
330
18
100
AcDbEntity
  8
0
  6
ByBlock
 62
     0
 48
10.0
100
AcDbTrace
 10
7232.046494768252
 20
5106.758963837802
 30
0.0
 11
7232.046494768252
 21
5094.2589638378
 31
0.0
 12
7194.546494768252
 22
5100.5089638378
 32
0.0
 13
7194.546494768252
 23
5100.5089638378
 33
0.0
  0
SOLID
  5
3C75
330
18
100
AcDbEntity
  8
0
  6
ByBlock
 62
     0
 48
10.0
100
AcDbTrace
 10
7257.046459190822
 20
5106.758963837802
 30
0.0
 11
7257.046459190822
 21
5094.2589638378
 31
0.0
 12
7294.546459190822
 22
5100.5089638378
 32
0.0
 13
7294.546459190822
 23
5100.5089638378
 33
0.0
  0
VIEWPORT
  5
298
330
15
100
AcDbEntity
 67
     1
  8
0
100
AcDbViewport
 10
291.7632241813602
 20
148.5
 30
0.0
 40
583.5264483627204
 41
297.0
 68
     1
 69
     1
 12
291.7632241813602
 22
148.5
 13
0.0
 23
0.0
 14
10.0
 24
10.0
 15
10.0
 25
10.0
 16
0.0
 26
0.0
 36
1.0
 17
0.0
 27
0.0
 37
0.0
 42
50.0
 43
0.0
 44
0.0
 45
297.0
 50
0.0
 51
0.0
 72
   100
 90
    32800
  1

281
     0
 71
     1
 74
     0
110
0.0
120
0.0
130
0.0
111
1.0
121
0.0
131
0.0
112
0.0
122
1.0
132
0.0
 79
     0
146
0.0
  0
ENDSEC
  0
SECTION
  2
OBJECTS
  0
DICTIONARY
  5
C
330
0
100
AcDbDictionary
281
     1
  3
ACAD_GROUP
350
D
  3
ACAD_LAYOUT
350
15FE
  3
ACAD_MLINESTYLE
350
1B
  3
ACAD_PLOTSETTINGS
350
15FF
  3
ACAD_PLOTSTYLENAME
350
15FC
  3
ACDBVARIABLEDICTIONARY
350
B2A
  3
DRAWINGVARIABLESDICT
350
1212
  0
DICTIONARY
  5
D
102
{ACAD_REACTORS
330
C
102
}
330
C
100
AcDbDictionary
281
     1
  3
*A1
350
1DE1
  3
*A2
350
2483
  3
*A3
350
2486
  3
*A4
350
2971
  3
*A5
350
3003
  3
*A6
350
34F4
  0
DICTIONARY
  5
15FE
102
{ACAD_REACTORS
330
C
102
}
330
C
100
AcDbDictionary
281
     1
  3
Model
350
1600
  3
ﾚｲｱｳﾄ1
350
1601
  0
DICTIONARY
  5
1B
102
{ACAD_REACTORS
330
C
102
}
330
C
100
AcDbDictionary
281
     1
  3
STANDARD
350
1C
  0
DICTIONARY
  5
15FF
102
{ACAD_REACTORS
330
C
102
}
330
C
100
AcDbDictionary
281
     1
  0
ACDBDICTIONARYWDFLT
  5
15FC
102
{ACAD_REACTORS
330
C
102
}
330
C
100
AcDbDictionary
281
     1
  3
Normal
350
15FD
100
AcDbDictionaryWithDefault
340
15FD
  0
DICTIONARY
  5
B2A
102
{ACAD_REACTORS
330
C
102
}
330
C
100
AcDbDictionary
281
     1
  3
SORTENTS
350
B2B
  0
DICTIONARY
  5
1212
102
{ACAD_REACTORS
330
C
102
}
330
C
100
AcDbDictionary
281
     1
1001
DRAWINGVARIABLESXDATA
1000
POLARANG
1000
0.785398
1000
POLARMODE
1000
0
  0
GROUP
  5
1DE1
102
{ACAD_REACTORS
330
D
102
}
330
D
100
AcDbGroup
300

 70
     1
 71
     1
  0
GROUP
  5
2483
102
{ACAD_REACTORS
330
D
102
}
330
D
100
AcDbGroup
300

 70
     1
 71
     1
  0
GROUP
  5
2486
102
{ACAD_REACTORS
330
D
102
}
330
D
100
AcDbGroup
300

 70
     1
 71
     1
  0
GROUP
  5
2971
102
{ACAD_REACTORS
330
D
102
}
330
D
100
AcDbGroup
300

 70
     1
 71
     1
  0
GROUP
  5
3003
102
{ACAD_REACTORS
330
D
102
}
330
D
100
AcDbGroup
300

 70
     1
 71
     1
  0
GROUP
  5
34F4
102
{ACAD_REACTORS
330
D
102
}
330
D
100
AcDbGroup
300

 70
     1
 71
     1
  0
LAYOUT
  5
1600
102
{ACAD_REACTORS
330
15FE
102
}
330
15FE
100
AcDbPlotSettings
  1

  2
Canon LBP3800 LIPSLX
  4
A4
  6

 40
5.873749732971191
 41
5.873747825622558
 42
5.873748779296875
 43
5.873748779296875
 44
209.9733276367187
 45
296.9259948730469
 46
0.0
 47
0.0
 48
0.0
 49
0.0
140
0.0
141
0.0
142
1.0
143
1.0
 70
 11952
 72
     1
 73
     1
 74
     0
  7

 75
     0
147
1.0
148
-1119.838883806218
149
-2764.341960111367
100
AcDbLayout
  1
Model
 70
     1
 71
     0
 10
0.0
 20
0.0
 11
12.0
 21
9.0
 12
0.0
 22
0.0
 32
0.0
 14
0.0
 24
0.0
 34
0.0
 15
0.0
 25
0.0
 35
0.0
146
0.0
 13
0.0
 23
0.0
 33
0.0
 16
1.0
 26
0.0
 36
0.0
 17
0.0
 27
1.0
 37
0.0
 76
     0
330
18
  0
LAYOUT
  5
1601
102
{ACAD_REACTORS
330
15FE
102
}
330
15FE
100
AcDbPlotSettings
  1

  2
Canon LBP3800 LIPSLX
  4

  6

 40
0.0
 41
0.0
 42
0.0
 43
0.0
 44
0.0
 45
0.0
 46
0.0
 47
0.0
 48
0.0
 49
0.0
140
0.0
141
0.0
142
1.0
143
1.0
 70
   688
 72
     0
 73
     0
 74
     5
  7

 75
    16
147
1.0
148
0.0
149
0.0
100
AcDbLayout
  1
ﾚｲｱｳﾄ1
 70
     1
 71
     1
 10
0.0
 20
0.0
 11
420.0
 21
297.0
 12
0.0
 22
0.0
 32
0.0
 14
1.000000000000000E+20
 24
1.000000000000000E+20
 34
1.000000000000000E+20
 15
-1.000000000000000E+20
 25
-1.000000000000000E+20
 35
-1.000000000000000E+20
146
0.0
 13
0.0
 23
0.0
 33
0.0
 16
1.0
 26
0.0
 36
0.0
 17
0.0
 27
1.0
 37
0.0
 76
     0
330
15
331
298
  0
MLINESTYLE
  5
1C
102
{ACAD_REACTORS
330
1B
102
}
330
1B
100
AcDbMlineStyle
  2
STANDARD
 70
     0
  3

 62
   256
 51
90.0
 52
90.0
 71
     2
 49
0.5
 62
   256
  6
BYLAYER
 49
-0.5
 62
   256
  6
BYLAYER
  0
ACDBPLACEHOLDER
  5
15FD
102
{ACAD_REACTORS
330
15FC
102
}
330
15FC
  0
DICTIONARYVAR
  5
B2B
102
{ACAD_REACTORS
330
B2A
102
}
330
B2A
100
DictionaryVariables
280
     0
  1
96
  0
ENDSEC
  0
EOF
