  0
SECTION
  2
HEADER
  9
$ACADVER
  1
AC1015
  9
$ACADMAINTVER
 70
     6
  9
$DWGCODEPAGE
  3
ANSI_932
  9
$INSBASE
 10
0.0
 20
0.0
 30
0.0
  9
$EXTMIN
 10
91.09669124359426
 20
15.17912432367302
 30
0.0
  9
$EXTMAX
 10
16234.49458609373
 20
2840.961357661346
 30
0.0
  9
$LIMMIN
 10
0.0
 20
0.0
  9
$LIMMAX
 10
4200.0
 20
2970.0
  9
$ORTHOMODE
 70
     0
  9
$REGENMODE
 70
     1
  9
$FILLMODE
 70
     1
  9
$QTEXTMODE
 70
     0
  9
$MIRRTEXT
 70
     1
  9
$LTSCALE
 40
3.0
  9
$ATTMODE
 70
     1
  9
$TEXTSIZE
 40
2.5
  9
$TRACEWID
 40
1.0
  9
$TEXTSTYLE
  7
STANDARD
  9
$CLAYER
  8
OBJECT
  9
$CELTYPE
  6
BYLAYER
  9
$CECOLOR
 62
   256
  9
$CELTSCALE
 40
1.0
  9
$DISPSILH
 70
     0
  9
$DIMSCALE
 40
10.0
  9
$DIMASZ
 40
2.5
  9
$DIMEXO
 40
0.625
  9
$DIMDLI
 40
3.75
  9
$DIMRND
 40
0.0
  9
$DIMDLE
 40
0.0
  9
$DIMEXE
 40
1.25
  9
$DIMTP
 40
0.0
  9
$DIMTM
 40
0.0
  9
$DIMTXT
 40
2.5
  9
$DIMCEN
 40
2.5
  9
$DIMTSZ
 40
0.0
  9
$DIMTOL
 70
     0
  9
$DIMLIM
 70
     0
  9
$DIMTIH
 70
     0
  9
$DIMTOH
 70
     0
  9
$DIMSE1
 70
     0
  9
$DIMSE2
 70
     0
  9
$DIMTAD
 70
     1
  9
$DIMZIN
 70
     8
  9
$DIMBLK
  1

  9
$DIMASO
 70
     1
  9
$DIMSHO
 70
     1
  9
$DIMPOST
  1

  9
$DIMAPOST
  1

  9
$DIMALT
 70
     0
  9
$DIMALTD
 70
     4
  9
$DIMALTF
 40
0.0394
  9
$DIMLFAC
 40
1.0
  9
$DIMTOFL
 70
     1
  9
$DIMTVP
 40
0.0
  9
$DIMTIX
 70
     0
  9
$DIMSOXD
 70
     0
  9
$DIMSAH
 70
     0
  9
$DIMBLK1
  1

  9
$DIMBLK2
  1

  9
$DIMSTYLE
  2
STANDARD
  9
$DIMCLRD
 70
     0
  9
$DIMCLRE
 70
     0
  9
$DIMCLRT
 70
     0
  9
$DIMTFAC
 40
1.0
  9
$DIMGAP
 40
0.625
  9
$DIMJUST
 70
     0
  9
$DIMSD1
 70
     0
  9
$DIMSD2
 70
     0
  9
$DIMTOLJ
 70
     1
  9
$DIMTZIN
 70
     0
  9
$DIMALTZ
 70
     0
  9
$DIMALTTZ
 70
     0
  9
$DIMUPT
 70
     0
  9
$DIMDEC
 70
     4
  9
$DIMTDEC
 70
     4
  9
$DIMALTU
 70
     8
  9
$DIMALTTD
 70
     4
  9
$DIMTXSTY
  7
STANDARD
  9
$DIMAUNIT
 70
     0
  9
$DIMADEC
 70
     0
  9
$DIMALTRND
 40
0.0
  9
$DIMAZIN
 70
     0
  9
$DIMDSEP
 70
    46
  9
$DIMATFIT
 70
     3
  9
$DIMFRAC
 70
     0
  9
$DIMLDRBLK
  1

  9
$DIMLUNIT
 70
     6
  9
$DIMLWD
 70
    -2
  9
$DIMLWE
 70
    -2
  9
$DIMTMOVE
 70
     0
  9
$LUNITS
 70
     2
  9
$LUPREC
 70
     4
  9
$SKETCHINC
 40
1.0
  9
$FILLETRAD
 40
80.0
  9
$AUNITS
 70
     0
  9
$AUPREC
 70
     0
  9
$MENU
  1
acad
  9
$ELEVATION
 40
0.0
  9
$PELEVATION
 40
0.0
  9
$THICKNESS
 40
0.0
  9
$LIMCHECK
 70
     0
  9
$CHAMFERA
 40
10.0
  9
$CHAMFERB
 40
10.0
  9
$CHAMFERC
 40
20.0
  9
$CHAMFERD
 40
0.0
  9
$SKPOLY
 70
     0
  9
$TDCREATE
 40
2452179.387794213
  9
$TDUCREATE
 40
2452179.012794213
  9
$TDUPDATE
 40
2454544.380801088
  9
$TDUUPDATE
 40
2454544.005801088
  9
$TDINDWG
 40
1.2565395370
  9
$TDUSRTIMER
 40
1.2565395370
  9
$USRTIMER
 70
     1
  9
$ANGBASE
 50
0.0
  9
$ANGDIR
 70
     0
  9
$PDMODE
 70
     0
  9
$PDSIZE
 40
0.0
  9
$PLINEWID
 40
0.0
  9
$SPLFRAME
 70
     0
  9
$SPLINETYPE
 70
     6
  9
$SPLINESEGS
 70
     8
  9
$HANDSEED
  5
4E47
  9
$SURFTAB1
 70
     6
  9
$SURFTAB2
 70
     6
  9
$SURFTYPE
 70
     6
  9
$SURFU
 70
     6
  9
$SURFV
 70
     6
  9
$UCSBASE
  2

  9
$UCSNAME
  2

  9
$UCSORG
 10
0.0
 20
0.0
 30
0.0
  9
$UCSXDIR
 10
1.0
 20
0.0
 30
0.0
  9
$UCSYDIR
 10
0.0
 20
1.0
 30
0.0
  9
$UCSORTHOREF
  2

  9
$UCSORTHOVIEW
 70
     0
  9
$UCSORGTOP
 10
0.0
 20
0.0
 30
0.0
  9
$UCSORGBOTTOM
 10
0.0
 20
0.0
 30
0.0
  9
$UCSORGLEFT
 10
0.0
 20
0.0
 30
0.0
  9
$UCSORGRIGHT
 10
0.0
 20
0.0
 30
0.0
  9
$UCSORGFRONT
 10
0.0
 20
0.0
 30
0.0
  9
$UCSORGBACK
 10
0.0
 20
0.0
 30
0.0
  9
$PUCSBASE
  2

  9
$PUCSNAME
  2

  9
$PUCSORG
 10
0.0
 20
0.0
 30
0.0
  9
$PUCSXDIR
 10
1.0
 20
0.0
 30
0.0
  9
$PUCSYDIR
 10
0.0
 20
1.0
 30
0.0
  9
$PUCSORTHOREF
  2

  9
$PUCSORTHOVIEW
 70
     0
  9
$PUCSORGTOP
 10
0.0
 20
0.0
 30
0.0
  9
$PUCSORGBOTTOM
 10
0.0
 20
0.0
 30
0.0
  9
$PUCSORGLEFT
 10
0.0
 20
0.0
 30
0.0
  9
$PUCSORGRIGHT
 10
0.0
 20
0.0
 30
0.0
  9
$PUCSORGFRONT
 10
0.0
 20
0.0
 30
0.0
  9
$PUCSORGBACK
 10
0.0
 20
0.0
 30
0.0
  9
$USERI1
 70
     0
  9
$USERI2
 70
     0
  9
$USERI3
 70
     0
  9
$USERI4
 70
     0
  9
$USERI5
 70
     0
  9
$USERR1
 40
0.0
  9
$USERR2
 40
0.0
  9
$USERR3
 40
0.0
  9
$USERR4
 40
0.0
  9
$USERR5
 40
0.0
  9
$WORLDVIEW
 70
     1
  9
$SHADEDGE
 70
     3
  9
$SHADEDIF
 70
    70
  9
$TILEMODE
 70
     1
  9
$MAXACTVP
 70
    48
  9
$PINSBASE
 10
0.0
 20
0.0
 30
0.0
  9
$PLIMCHECK
 70
     0
  9
$PEXTMIN
 10
1.000000000000000E+20
 20
1.000000000000000E+20
 30
1.000000000000000E+20
  9
$PEXTMAX
 10
-1.000000000000000E+20
 20
-1.000000000000000E+20
 30
-1.000000000000000E+20
  9
$PLIMMIN
 10
0.0
 20
0.0
  9
$PLIMMAX
 10
420.0
 20
297.0
  9
$UNITMODE
 70
     0
  9
$VISRETAIN
 70
     1
  9
$PLINEGEN
 70
     0
  9
$PSLTSCALE
 70
     1
  9
$TREEDEPTH
 70
  3020
  9
$CMLSTYLE
  2
STANDARD
  9
$CMLJUST
 70
     0
  9
$CMLSCALE
 40
20.0
  9
$PROXYGRAPHICS
 70
     1
  9
$MEASUREMENT
 70
     1
  9
$CELWEIGHT
370
    -1
  9
$ENDCAPS
280
     0
  9
$JOINSTYLE
280
     0
  9
$LWDISPLAY
290
     0
  9
$INSUNITS
 70
     0
  9
$HYPERLINKBASE
  1

  9
$STYLESHEET
  1

  9
$XEDIT
290
     1
  9
$CEPSNTYPE
380
     0
  9
$PSTYLEMODE
290
     1
  9
$FINGERPRINTGUID
  2
{4BE61844-F865-4B65-9DF8-C67D6F70EC6B}
  9
$VERSIONGUID
  2
{25C3389D-27FA-4418-8CD2-13A80C3DCC9C}
  9
$EXTNAMES
290
     1
  9
$PSVPSCALE
 40
0.0
  9
$OLESTARTUP
290
     0
  0
ENDSEC
  0
SECTION
  2
CLASSES
  0
CLASS
  1
LWPOLYLINE
  2
AcDbPolyline
  3
AutoCAD 2000
 90
    32768
280
     0
281
     1
  0
CLASS
  1
HATCH
  2
AcDbHatch
  3
AutoCAD 2000
 90
    32768
280
     0
281
     1
  0
CLASS
  1
DICTIONARYVAR
  2
AcDbDictionaryVar
  3
AutoCAD 2000
 90
        0
280
     0
281
     0
  0
CLASS
  1
ACDBDICTIONARYWDFLT
  2
AcDbDictionaryWithDefault
  3
AutoCAD 2000
 90
        0
280
     0
281
     0
  0
CLASS
  1
ACDBPLACEHOLDER
  2
AcDbPlaceHolder
  3
AutoCAD 2000
 90
        0
280
     0
281
     0
  0
CLASS
  1
LAYOUT
  2
AcDbLayout
  3
AutoCAD 2000
 90
        0
280
     0
281
     0
  0
ENDSEC
  0
SECTION
  2
TABLES
  0
TABLE
  2
VPORT
  5
8
330
0
100
AcDbSymbolTable
 70
     2
  0
VPORT
  5
4E46
330
8
100
AcDbSymbolTableRecord
100
AcDbViewportTableRecord
  2
*Active
 70
     0
 10
0.0
 20
0.0
 11
1.0
 21
1.0
 12
14863.53469482574
 22
1247.998623393714
 13
0.0
 23
0.0
 14
10.0
 24
10.0
 15
10.0
 25
10.0
 16
0.0
 26
0.0
 36
1.0
 17
0.0
 27
0.0
 37
0.0
 40
2338.055001249693
 41
1.731203007518796
 42
50.0
 43
0.0
 44
0.0
 50
0.0
 51
0.0
 71
     0
 72
   100
 73
     1
 74
     1
 75
     0
 76
     0
 77
     0
 78
     0
281
     0
 65
     1
110
0.0
120
0.0
130
0.0
111
1.0
121
0.0
131
0.0
112
0.0
122
1.0
132
0.0
 79
     0
146
0.0
  0
ENDTAB
  0
TABLE
  2
LTYPE
  5
5
330
0
100
AcDbSymbolTable
 70
    46
  0
LTYPE
  5
12
330
5
100
AcDbSymbolTableRecord
100
AcDbLinetypeTableRecord
  2
BYBLOCK
 70
     0
  3

 72
    65
 73
     0
 40
0.0
  0
LTYPE
  5
13
330
5
100
AcDbSymbolTableRecord
100
AcDbLinetypeTableRecord
  2
BYLAYER
 70
     0
  3

 72
    65
 73
     0
 40
0.0
  0
LTYPE
  5
14
330
5
100
AcDbSymbolTableRecord
100
AcDbLinetypeTableRecord
  2
CONTINUOUS
 70
     0
  3
Solid line
 72
    65
 73
     0
 40
0.0
  0
LTYPE
  5
BC
330
5
100
AcDbSymbolTableRecord
100
AcDbLinetypeTableRecord
  2
ACAD_ISO02W100
 70
     0
  3
ISO dash __ __ __ __ __ __ __ __ __ __ __ __ __
 72
    65
 73
     2
 40
15.0
 49
12.0
 74
     0
 49
-3.0
 74
     0
  0
LTYPE
  5
BD
330
5
100
AcDbSymbolTableRecord
100
AcDbLinetypeTableRecord
  2
ACAD_ISO03W100
 70
     0
  3
ISO dash space __    __    __    __    __    __
 72
    65
 73
     2
 40
30.0
 49
12.0
 74
     0
 49
-18.0
 74
     0
  0
LTYPE
  5
BE
330
5
100
AcDbSymbolTableRecord
100
AcDbLinetypeTableRecord
  2
ACAD_ISO04W100
 70
     0
  3
ISO long-dash dot ____ . ____ . ____ . ____ . _
 72
    65
 73
     4
 40
30.5
 49
24.0
 74
     0
 49
-3.0
 74
     0
 49
0.5
 74
     0
 49
-3.0
 74
     0
  0
LTYPE
  5
BF
330
5
100
AcDbSymbolTableRecord
100
AcDbLinetypeTableRecord
  2
ACAD_ISO05W100
 70
     0
  3
ISO long-dash double-dot ____ .. ____ .. ____ .
 72
    65
 73
     8
 40
37.5
 49
24.0
 74
     0
 49
-3.0
 74
     0
 49
0.5
 74
     0
 49
-3.0
 74
     0
 49
0.5
 74
     0
 49
-3.0
 74
     0
 49
0.5
 74
     0
 49
-3.0
 74
     0
  0
LTYPE
  5
C0
330
5
100
AcDbSymbolTableRecord
100
AcDbLinetypeTableRecord
  2
ACAD_ISO06W100
 70
     0
  3
ISO long-dash triple-dot ____ ... ____ ... ____
 72
    65
 73
     8
 40
37.5
 49
24.0
 74
     0
 49
-3.0
 74
     0
 49
0.5
 74
     0
 49
-3.0
 74
     0
 49
0.5
 74
     0
 49
-3.0
 74
     0
 49
0.5
 74
     0
 49
-3.0
 74
     0
  0
LTYPE
  5
C1
330
5
100
AcDbSymbolTableRecord
100
AcDbLinetypeTableRecord
  2
ACAD_ISO07W100
 70
     0
  3
ISO dot . . . . . . . . . . . . . . . . . . . .
 72
    65
 73
     2
 40
3.5
 49
0.5
 74
     0
 49
-3.0
 74
     0
  0
LTYPE
  5
C2
330
5
100
AcDbSymbolTableRecord
100
AcDbLinetypeTableRecord
  2
ACAD_ISO08W100
 70
     0
  3
ISO long-dash short-dash ____ __ ____ __ ____ _
 72
    65
 73
     4
 40
36.0
 49
24.0
 74
     0
 49
-3.0
 74
     0
 49
6.0
 74
     0
 49
-3.0
 74
     0
  0
LTYPE
  5
C3
330
5
100
AcDbSymbolTableRecord
100
AcDbLinetypeTableRecord
  2
ACAD_ISO09W100
 70
     0
  3
ISO long-dash double-short-dash ____ __ __ ____
 72
    65
 73
     6
 40
45.0
 49
24.0
 74
     0
 49
-3.0
 74
     0
 49
6.0
 74
     0
 49
-3.0
 74
     0
 49
6.0
 74
     0
 49
-3.0
 74
     0
  0
LTYPE
  5
C4
330
5
100
AcDbSymbolTableRecord
100
AcDbLinetypeTableRecord
  2
ACAD_ISO10W100
 70
     0
  3
ISO dash dot __ . __ . __ . __ . __ . __ . __ .
 72
    65
 73
     4
 40
18.5
 49
12.0
 74
     0
 49
-3.0
 74
     0
 49
0.5
 74
     0
 49
-3.0
 74
     0
  0
LTYPE
  5
C5
330
5
100
AcDbSymbolTableRecord
100
AcDbLinetypeTableRecord
  2
ACAD_ISO11W100
 70
     0
  3
ISO double-dash dot __ __ . __ __ . __ __ . __ 
 72
    65
 73
     6
 40
33.5
 49
12.0
 74
     0
 49
-3.0
 74
     0
 49
12.0
 74
     0
 49
-3.0
 74
     0
 49
0.5
 74
     0
 49
-3.0
 74
     0
  0
LTYPE
  5
C6
330
5
100
AcDbSymbolTableRecord
100
AcDbLinetypeTableRecord
  2
ACAD_ISO12W100
 70
     0
  3
ISO dash double-dot __ . . __ . . __ . . __ . .
 72
    65
 73
     6
 40
22.0
 49
12.0
 74
     0
 49
-3.0
 74
     0
 49
0.5
 74
     0
 49
-3.0
 74
     0
 49
0.5
 74
     0
 49
-3.0
 74
     0
  0
LTYPE
  5
C7
330
5
100
AcDbSymbolTableRecord
100
AcDbLinetypeTableRecord
  2
ACAD_ISO13W100
 70
     0
  3
ISO double-dash double-dot __ __ . . __ __ . . 
 72
    65
 73
     8
 40
37.0
 49
12.0
 74
     0
 49
-3.0
 74
     0
 49
12.0
 74
     0
 49
-3.0
 74
     0
 49
0.5
 74
     0
 49
-3.0
 74
     0
 49
0.5
 74
     0
 49
-3.0
 74
     0
  0
LTYPE
  5
C8
330
5
100
AcDbSymbolTableRecord
100
AcDbLinetypeTableRecord
  2
ACAD_ISO14W100
 70
     0
  3
ISO dash triple-dot __ . . . __ . . . __ . . . 
 72
    65
 73
     8
 40
25.5
 49
12.0
 74
     0
 49
-3.0
 74
     0
 49
0.5
 74
     0
 49
-3.0
 74
     0
 49
0.5
 74
     0
 49
-3.0
 74
     0
 49
0.5
 74
     0
 49
-3.0
 74
     0
  0
LTYPE
  5
C9
330
5
100
AcDbSymbolTableRecord
100
AcDbLinetypeTableRecord
  2
ACAD_ISO15W100
 70
     0
  3
ISO double-dash triple-dot __ __ . . . __ __ . 
 72
    65
 73
    10
 40
40.49999999999999
 49
12.0
 74
     0
 49
-3.0
 74
     0
 49
12.0
 74
     0
 49
-3.0
 74
     0
 49
0.5
 74
     0
 49
-3.0
 74
     0
 49
0.5
 74
     0
 49
-3.0
 74
     0
 49
0.5
 74
     0
 49
-3.0
 74
     0
  0
LTYPE
  5
CA
330
5
100
AcDbSymbolTableRecord
100
AcDbLinetypeTableRecord
  2
BATTING
 70
     0
  3
Batting SSSSSSSSSSSSSSSSSSSSSSSSSSSSSSSSSSSSSSS
 72
    65
 73
     4
 40
10.16253999999999
 49
0.00254
 74
     0
 49
-2.54
 74
     4
 75
   134
340
BB
 46
2.54
 50
0.0
 44
-2.54
 45
0.0
 49
-5.08
 74
     4
 75
   134
340
BB
 46
2.54
 50
180.0
 44
2.54
 45
0.0
 49
-2.54
 74
     0
  0
LTYPE
  5
CB
330
5
100
AcDbSymbolTableRecord
100
AcDbLinetypeTableRecord
  2
BORDER
 70
     0
  3
Border __ __ . __ __ . __ __ . __ __ . __ __ .
 72
    65
 73
     6
 40
44.45
 49
12.7
 74
     0
 49
-6.349999999999999
 74
     0
 49
12.7
 74
     0
 49
-6.349999999999999
 74
     0
 49
0.0
 74
     0
 49
-6.349999999999999
 74
     0
  0
LTYPE
  5
CC
330
5
100
AcDbSymbolTableRecord
100
AcDbLinetypeTableRecord
  2
BORDER2
 70
     0
  3
Border (.5x) __.__.__.__.__.__.__.__.__.__.__.
 72
    65
 73
     6
 40
22.225
 49
6.349999999999999
 74
     0
 49
-3.174999999999999
 74
     0
 49
6.349999999999999
 74
     0
 49
-3.174999999999999
 74
     0
 49
0.0
 74
     0
 49
-3.174999999999999
 74
     0
  0
LTYPE
  5
CD
330
5
100
AcDbSymbolTableRecord
100
AcDbLinetypeTableRecord
  2
BORDERX2
 70
     0
  3
Border (2x) ____  ____  .  ____  ____  .  ___
 72
    65
 73
     6
 40
88.9
 49
25.4
 74
     0
 49
-12.7
 74
     0
 49
25.4
 74
     0
 49
-12.7
 74
     0
 49
0.0
 74
     0
 49
-12.7
 74
     0
  0
LTYPE
  5
CE
330
5
100
AcDbSymbolTableRecord
100
AcDbLinetypeTableRecord
  2
CENTER
 70
     0
  3
Center ____ _ ____ _ ____ _ ____ _ ____ _ ____
 72
    65
 73
     4
 40
50.8
 49
31.75
 74
     0
 49
-6.349999999999999
 74
     0
 49
6.349999999999999
 74
     0
 49
-6.349999999999999
 74
     0
  0
LTYPE
  5
CF
330
5
100
AcDbSymbolTableRecord
100
AcDbLinetypeTableRecord
  2
CENTER2
 70
     0
  3
Center (.5x) ___ _ ___ _ ___ _ ___ _ ___ _ ___
 72
    65
 73
     4
 40
28.57499999999999
 49
19.05
 74
     0
 49
-3.174999999999999
 74
     0
 49
3.174999999999999
 74
     0
 49
-3.174999999999999
 74
     0
  0
LTYPE
  5
D0
330
5
100
AcDbSymbolTableRecord
100
AcDbLinetypeTableRecord
  2
CENTERX2
 70
     0
  3
Center (2x) ________  __  ________  __  _____
 72
    65
 73
     4
 40
101.6
 49
63.5
 74
     0
 49
-12.7
 74
     0
 49
12.7
 74
     0
 49
-12.7
 74
     0
  0
LTYPE
  5
D1
330
5
100
AcDbSymbolTableRecord
100
AcDbLinetypeTableRecord
  2
DASHDOT
 70
     0
  3
Dash dot __ . __ . __ . __ . __ . __ . __ . __
 72
    65
 73
     4
 40
25.4
 49
12.7
 74
     0
 49
-6.349999999999999
 74
     0
 49
0.0
 74
     0
 49
-6.349999999999999
 74
     0
  0
LTYPE
  5
D2
330
5
100
AcDbSymbolTableRecord
100
AcDbLinetypeTableRecord
  2
DASHDOT2
 70
     0
  3
Dash dot (.5x) _._._._._._._._._._._._._._._.
 72
    65
 73
     4
 40
12.7
 49
6.349999999999999
 74
     0
 49
-3.174999999999999
 74
     0
 49
0.0
 74
     0
 49
-3.174999999999999
 74
     0
  0
LTYPE
  5
D3
330
5
100
AcDbSymbolTableRecord
100
AcDbLinetypeTableRecord
  2
DASHDOTX2
 70
     0
  3
Dash dot (2x) ____  .  ____  .  ____  .  ___
 72
    65
 73
     4
 40
50.8
 49
25.4
 74
     0
 49
-12.7
 74
     0
 49
0.0
 74
     0
 49
-12.7
 74
     0
  0
LTYPE
  5
D4
330
5
100
AcDbSymbolTableRecord
100
AcDbLinetypeTableRecord
  2
DASHED
 70
     0
  3
Dashed __ __ __ __ __ __ __ __ __ __ __ __ __ _
 72
    65
 73
     2
 40
19.04999999999999
 49
12.7
 74
     0
 49
-6.349999999999999
 74
     0
  0
LTYPE
  5
D5
330
5
100
AcDbSymbolTableRecord
100
AcDbLinetypeTableRecord
  2
DASHED2
 70
     0
  3
Dashed (.5x) _ _ _ _ _ _ _ _ _ _ _ _ _ _ _ _ _
 72
    65
 73
     2
 40
9.524999999999998
 49
6.349999999999999
 74
     0
 49
-3.174999999999999
 74
     0
  0
LTYPE
  5
D6
330
5
100
AcDbSymbolTableRecord
100
AcDbLinetypeTableRecord
  2
DASHEDX2
 70
     0
  3
Dashed (2x) ____  ____  ____  ____  ____  ___
 72
    65
 73
     2
 40
38.09999999999999
 49
25.4
 74
     0
 49
-12.7
 74
     0
  0
LTYPE
  5
D7
330
5
100
AcDbSymbolTableRecord
100
AcDbLinetypeTableRecord
  2
DIVIDE
 70
     0
  3
Divide ____ . . ____ . . ____ . . ____ . . ____
 72
    65
 73
     6
 40
31.74999999999999
 49
12.7
 74
     0
 49
-6.349999999999999
 74
     0
 49
0.0
 74
     0
 49
-6.349999999999999
 74
     0
 49
0.0
 74
     0
 49
-6.349999999999999
 74
     0
  0
LTYPE
  5
D8
330
5
100
AcDbSymbolTableRecord
100
AcDbLinetypeTableRecord
  2
DIVIDE2
 70
     0
  3
Divide (.5x) __..__..__..__..__..__..__..__.._
 72
    65
 73
     6
 40
15.87499999999999
 49
6.349999999999999
 74
     0
 49
-3.174999999999999
 74
     0
 49
0.0
 74
     0
 49
-3.174999999999999
 74
     0
 49
0.0
 74
     0
 49
-3.174999999999999
 74
     0
  0
LTYPE
  5
D9
330
5
100
AcDbSymbolTableRecord
100
AcDbLinetypeTableRecord
  2
DIVIDEX2
 70
     0
  3
Divide (2x) ________  .  .  ________  .  .  _
 72
    65
 73
     6
 40
63.49999999999999
 49
25.4
 74
     0
 49
-12.7
 74
     0
 49
0.0
 74
     0
 49
-12.7
 74
     0
 49
0.0
 74
     0
 49
-12.7
 74
     0
  0
LTYPE
  5
DA
330
5
100
AcDbSymbolTableRecord
100
AcDbLinetypeTableRecord
  2
DOT
 70
     0
  3
Dot . . . . . . . . . . . . . . . . . . . . . .
 72
    65
 73
     2
 40
6.349999999999999
 49
0.0
 74
     0
 49
-6.349999999999999
 74
     0
  0
LTYPE
  5
DB
330
5
100
AcDbSymbolTableRecord
100
AcDbLinetypeTableRecord
  2
DOT2
 70
     0
  3
Dot (.5x) .....................................
 72
    65
 73
     2
 40
3.174999999999999
 49
0.0
 74
     0
 49
-3.174999999999999
 74
     0
  0
LTYPE
  5
DC
330
5
100
AcDbSymbolTableRecord
100
AcDbLinetypeTableRecord
  2
DOTX2
 70
     0
  3
Dot (2x) .  .  .  .  .  .  .  .  .  .  .  .  . 
 72
    65
 73
     2
 40
12.7
 49
0.0
 74
     0
 49
-12.7
 74
     0
  0
LTYPE
  5
DD
330
5
100
AcDbSymbolTableRecord
100
AcDbLinetypeTableRecord
  2
FENCELINE1
 70
     0
  3
Fenceline circle ----0-----0----0-----0----0---
 72
    65
 73
     4
 40
36.82999999999999
 49
6.349999999999999
 74
     0
 49
-2.54
 74
     4
 75
   133
340
BB
 46
2.54
 50
0.0
 44
-2.54
 45
0.0
 49
-2.54
 74
     0
 49
25.4
 74
     0
  0
LTYPE
  5
DE
330
5
100
AcDbSymbolTableRecord
100
AcDbLinetypeTableRecord
  2
FENCELINE2
 70
     0
  3
Fenceline square ----[]-----[]----[]-----[]----
 72
    65
 73
     4
 40
36.82999999999999
 49
6.349999999999999
 74
     0
 49
-2.54
 74
     4
 75
   132
340
BB
 46
2.54
 50
0.0
 44
-2.54
 45
0.0
 49
-2.54
 74
     0
 49
25.4
 74
     0
  0
LTYPE
  5
DF
330
5
100
AcDbSymbolTableRecord
100
AcDbLinetypeTableRecord
  2
GAS_LINE
 70
     0
  3
Gas line ----GAS----GAS----GAS----GAS----GAS---
 72
    65
 73
     3
 40
24.13
 49
12.7
 74
     0
 49
-5.08
 74
     2
 75
     0
340
F
 46
2.54
 50
0.0
 44
-2.54
 45
-1.27
  9
GAS
 49
-6.349999999999999
 74
     0
  0
LTYPE
  5
E0
330
5
100
AcDbSymbolTableRecord
100
AcDbLinetypeTableRecord
  2
HIDDEN
 70
     0
  3
Hidden __ __ __ __ __ __ __ __ __ __ __ __ __ _
 72
    65
 73
     2
 40
9.524999999999998
 49
6.349999999999999
 74
     0
 49
-3.174999999999999
 74
     0
  0
LTYPE
  5
E1
330
5
100
AcDbSymbolTableRecord
100
AcDbLinetypeTableRecord
  2
HIDDEN2
 70
     0
  3
Hidden (.5x) _ _ _ _ _ _ _ _ _ _ _ _ _ _ _ _ _
 72
    65
 73
     2
 40
4.762499999999999
 49
3.174999999999999
 74
     0
 49
-1.587499999999999
 74
     0
  0
LTYPE
  5
E2
330
5
100
AcDbSymbolTableRecord
100
AcDbLinetypeTableRecord
  2
HIDDENX2
 70
     0
  3
Hidden (2x) ____ ____ ____ ____ ____ ____ ____
 72
    65
 73
     2
 40
19.04999999999999
 49
12.7
 74
     0
 49
-6.349999999999999
 74
     0
  0
LTYPE
  5
E3
330
5
100
AcDbSymbolTableRecord
100
AcDbLinetypeTableRecord
  2
HOT_WATER_SUPPLY
 70
     0
  3
Hot water supply ---- HW ---- HW ---- HW ----
 72
    65
 73
     3
 40
22.86
 49
12.7
 74
     0
 49
-5.08
 74
     2
 75
     0
340
F
 46
2.54
 50
0.0
 44
-2.54
 45
-1.27
  9
HW
 49
-5.08
 74
     0
  0
LTYPE
  5
E4
330
5
100
AcDbSymbolTableRecord
100
AcDbLinetypeTableRecord
  2
PHANTOM
 70
     0
  3
Phantom ______  __  __  ______  __  __  ______
 72
    65
 73
     6
 40
63.5
 49
31.75
 74
     0
 49
-6.349999999999999
 74
     0
 49
6.349999999999999
 74
     0
 49
-6.349999999999999
 74
     0
 49
6.349999999999999
 74
     0
 49
-6.349999999999999
 74
     0
  0
LTYPE
  5
E5
330
5
100
AcDbSymbolTableRecord
100
AcDbLinetypeTableRecord
  2
PHANTOM2
 70
     0
  3
Phantom (.5x) ___ _ _ ___ _ _ ___ _ _ ___ _ _
 72
    65
 73
     6
 40
31.75
 49
15.875
 74
     0
 49
-3.174999999999999
 74
     0
 49
3.174999999999999
 74
     0
 49
-3.174999999999999
 74
     0
 49
3.174999999999999
 74
     0
 49
-3.174999999999999
 74
     0
  0
LTYPE
  5
E6
330
5
100
AcDbSymbolTableRecord
100
AcDbLinetypeTableRecord
  2
PHANTOMX2
 70
     0
  3
Phantom (2x) ____________    ____    ____   _
 72
    65
 73
     6
 40
127.0
 49
63.5
 74
     0
 49
-12.7
 74
     0
 49
12.7
 74
     0
 49
-12.7
 74
     0
 49
12.7
 74
     0
 49
-12.7
 74
     0
  0
LTYPE
  5
E7
330
5
100
AcDbSymbolTableRecord
100
AcDbLinetypeTableRecord
  2
TRACKS
 70
     0
  3
Tracks -|-|-|-|-|-|-|-|-|-|-|-|-|-|-|-|-|-|-|-|
 72
    65
 73
     2
 40
7.62
 49
3.81
 74
     4
 75
   130
340
BB
 46
6.349999999999999
 50
0.0
 44
0.0
 45
0.0
 49
3.81
 74
     0
  0
LTYPE
  5
E8
330
5
100
AcDbSymbolTableRecord
100
AcDbLinetypeTableRecord
  2
ZIGZAG
 70
     0
  3
Zig zag /\/\/\/\/\/\/\/\/\/\/\/\/\/\/\/\/\/\/\/
 72
    65
 73
     4
 40
20.32254
 49
0.00254
 74
     0
 49
-5.08
 74
     4
 75
   131
340
BB
 46
5.08
 50
0.0
 44
-5.08
 45
0.0
 49
-10.16
 74
     4
 75
   131
340
BB
 46
5.08
 50
180.0
 44
5.08
 45
0.0
 49
-5.08
 74
     0
  0
ENDTAB
  0
TABLE
  2
LAYER
  5
2
330
0
100
AcDbSymbolTable
 70
    11
  0
LAYER
  5
E
330
2
100
AcDbSymbolTableRecord
100
AcDbLayerTableRecord
  2
0
 70
     0
 62
     7
  6
CONTINUOUS
370
    -3
390
204C
  0
LAYER
  5
20
330
2
100
AcDbSymbolTableRecord
100
AcDbLayerTableRecord
  2
DEFPOINTS
 70
     0
 62
     7
  6
CONTINUOUS
290
     0
370
    -3
390
204C
  0
LAYER
  5
21
330
2
100
AcDbSymbolTableRecord
100
AcDbLayerTableRecord
  2
OBJECT
 70
     0
 62
     7
  6
CONTINUOUS
370
    -3
390
204C
  0
LAYER
  5
E9
330
2
100
AcDbSymbolTableRecord
100
AcDbLayerTableRecord
  2
基準線
 70
     0
 62
    -1
  6
CONTINUOUS
370
    -3
390
204C
  0
LAYER
  5
EA
330
2
100
AcDbSymbolTableRecord
100
AcDbLayerTableRecord
  2
上線
 70
     0
 62
     7
  6
CONTINUOUS
370
    -3
390
204C
  0
LAYER
  5
EB
330
2
100
AcDbSymbolTableRecord
100
AcDbLayerTableRecord
  2
点線
 70
     0
 62
     5
  6
HIDDEN
370
    -3
390
204C
  0
LAYER
  5
EC
330
2
100
AcDbSymbolTableRecord
100
AcDbLayerTableRecord
  2
中心線
 70
     0
 62
     6
  6
CENTER
370
    -3
390
204C
  0
LAYER
  5
135E
330
2
100
AcDbSymbolTableRecord
100
AcDbLayerTableRecord
  2
上書線
 70
     0
 62
     7
  6
CONTINUOUS
370
    -3
390
204C
  0
LAYER
  5
2056
330
2
100
AcDbSymbolTableRecord
100
AcDbLayerTableRecord
  2
上書き線
 70
     0
 62
     7
  6
CONTINUOUS
370
    -3
390
204C
  0
LAYER
  5
4835
330
2
100
AcDbSymbolTableRecord
100
AcDbLayerTableRecord
  2
HOZIXYO
 70
     0
 62
     7
  6
HIDDEN
370
    -3
390
204C
  0
LAYER
  5
4836
330
2
100
AcDbSymbolTableRecord
100
AcDbLayerTableRecord
  2
WUWAGAKI
 70
     0
 62
     7
  6
CONTINUOUS
370
    -3
390
204C
  0
ENDTAB
  0
TABLE
  2
STYLE
  5
3
330
0
100
AcDbSymbolTable
 70
     3
  0
STYLE
  5
F
330
3
100
AcDbSymbolTableRecord
100
AcDbTextStyleTableRecord
  2
STANDARD
 70
     0
 40
0.0
 41
1.0
 50
0.0
 71
     0
 42
2.5
  3
MS PMincho.ttf
  4

1001
ACAD
1000
MS PMincho
1071
    32786
  0
STYLE
  5
22
330
3
100
AcDbSymbolTableRecord
100
AcDbTextStyleTableRecord
  2
ADESK1
 70
     0
 40
0.0
 41
1.0
 50
0.0
 71
     0
 42
5.0
  3
romans
  4
bigfont
  0
STYLE
  5
BB
330
3
100
AcDbSymbolTableRecord
100
AcDbTextStyleTableRecord
  2

 70
     1
 40
0.0
 41
1.0
 50
0.0
 71
     0
 42
2.5
  3
ltypeshp.shx
  4

  0
ENDTAB
  0
TABLE
  2
VIEW
  5
6
330
0
100
AcDbSymbolTable
 70
     0
  0
ENDTAB
  0
TABLE
  2
UCS
  5
7
330
0
100
AcDbSymbolTable
 70
     0
  0
ENDTAB
  0
TABLE
  2
APPID
  5
9
330
0
100
AcDbSymbolTable
 70
     1
  0
APPID
  5
10
330
9
100
AcDbSymbolTableRecord
100
AcDbRegAppTableRecord
  2
ACAD
 70
     0
  0
ENDTAB
  0
TABLE
  2
DIMSTYLE
  5
A
330
0
100
AcDbSymbolTable
 70
     2
100
AcDbDimStyleTable
 71
     1
340
1D
  0
DIMSTYLE
105
1D
102
{ACAD_REACTORS
330
1360
330
1361
330
1362
330
1363
330
1484
330
1485
330
14A8
330
16BF
330
1739
102
}
330
A
100
AcDbSymbolTableRecord
100
AcDbDimStyleTableRecord
  2
STANDARD
 70
     0
340
F
  0
DIMSTYLE
105
23
330
A
100
AcDbSymbolTableRecord
100
AcDbDimStyleTableRecord
  2
JIS
 70
     0
 41
2.5
 42
1.0
 43
7.0
 44
1.0
 73
     0
 74
     0
 77
     1
 78
     8
140
2.5
141
0.0
143
0.0394
147
0.0
172
     1
174
     1
175
     1
340
F
  0
ENDTAB
  0
TABLE
  2
BLOCK_RECORD
  5
1
330
0
100
AcDbSymbolTable
 70
    12
  0
BLOCK_RECORD
  5
18
330
1
100
AcDbSymbolTableRecord
100
AcDbBlockTableRecord
  2
*MODEL_SPACE
340
204F
  0
BLOCK_RECORD
  5
15
330
1
100
AcDbSymbolTableRecord
100
AcDbBlockTableRecord
  2
*PAPER_SPACE
340
2050
  0
BLOCK_RECORD
  5
24
330
1
100
AcDbSymbolTableRecord
100
AcDbBlockTableRecord
  2
JIS_A3
340
0
  0
BLOCK_RECORD
  5
12EC
330
1
100
AcDbSymbolTableRecord
100
AcDbBlockTableRecord
  2
*D1
340
0
  0
BLOCK_RECORD
  5
12F8
330
1
100
AcDbSymbolTableRecord
100
AcDbBlockTableRecord
  2
*D2
340
0
  0
BLOCK_RECORD
  5
1304
330
1
100
AcDbSymbolTableRecord
100
AcDbBlockTableRecord
  2
*D3
340
0
  0
BLOCK_RECORD
  5
1310
330
1
100
AcDbSymbolTableRecord
100
AcDbBlockTableRecord
  2
*D4
340
0
  0
BLOCK_RECORD
  5
131C
330
1
100
AcDbSymbolTableRecord
100
AcDbBlockTableRecord
  2
*D5
340
0
  0
BLOCK_RECORD
  5
132A
330
1
100
AcDbSymbolTableRecord
100
AcDbBlockTableRecord
  2
*D6
340
0
  0
BLOCK_RECORD
  5
1338
330
1
100
AcDbSymbolTableRecord
100
AcDbBlockTableRecord
  2
*D7
340
0
  0
BLOCK_RECORD
  5
1344
330
1
100
AcDbSymbolTableRecord
100
AcDbBlockTableRecord
  2
*D8
340
0
  0
BLOCK_RECORD
  5
1350
330
1
100
AcDbSymbolTableRecord
100
AcDbBlockTableRecord
  2
*D9
340
0
  0
BLOCK_RECORD
  5
135F
330
1
100
AcDbSymbolTableRecord
100
AcDbBlockTableRecord
  2
A$C771F5B68
340
0
  0
BLOCK_RECORD
  5
2D41
330
1
100
AcDbSymbolTableRecord
100
AcDbBlockTableRecord
  2
A$C169F75C1
340
0
  0
ENDTAB
  0
ENDSEC
  0
SECTION
  2
BLOCKS
  0
BLOCK
  5
19
330
18
100
AcDbEntity
  8
0
100
AcDbBlockBegin
  2
*MODEL_SPACE
 70
     0
 10
0.0
 20
0.0
 30
0.0
  3
*MODEL_SPACE
  1

  0
ENDBLK
  5
1A
330
18
100
AcDbEntity
  8
0
100
AcDbBlockEnd
  0
BLOCK
  5
16
330
15
100
AcDbEntity
 67
     1
  8
0
100
AcDbBlockBegin
  2
*PAPER_SPACE
 70
     0
 10
0.0
 20
0.0
 30
0.0
  3
*PAPER_SPACE
  1

  0
ENDBLK
  5
17
330
15
100
AcDbEntity
 67
     1
  8
0
100
AcDbBlockEnd
  0
BLOCK
  5
B1
330
24
100
AcDbEntity
  8
0
100
AcDbBlockBegin
  2
JIS_A3
 70
     2
 10
0.0
 20
0.0
 30
0.0
  3
JIS_A3
  1

  0
LINE
  5
25
330
24
100
AcDbEntity
  8
0
100
AcDbLine
 10
0.0
 20
0.0
 30
0.0
 11
0.0
 21
10.0
 31
0.0
  0
LINE
  5
26
330
24
100
AcDbEntity
  8
0
100
AcDbLine
 10
0.0
 20
297.0
 30
0.0
 11
25.0
 21
297.0
 31
0.0
  0
LINE
  5
27
330
24
100
AcDbEntity
  8
0
100
AcDbLine
 10
420.0
 20
297.0
 30
0.0
 11
420.0
 21
287.0
 31
0.0
  0
LINE
  5
28
330
24
100
AcDbEntity
  8
0
100
AcDbLine
 10
420.0
 20
0.0
 30
0.0
 11
410.0
 21
0.0
 31
0.0
  0
LINE
  5
29
330
24
100
AcDbEntity
  8
0
100
AcDbLine
 10
25.0
 20
10.0
 30
0.0
 11
25.0
 21
287.0
 31
0.0
  0
LINE
  5
2A
330
24
100
AcDbEntity
  8
0
100
AcDbLine
 10
410.0
 20
10.0
 30
0.0
 11
25.0
 21
10.0
 31
0.0
  0
LINE
  5
2B
330
24
100
AcDbEntity
  8
0
100
AcDbLine
 10
410.0
 20
287.0
 30
0.0
 11
410.0
 21
10.0
 31
0.0
  0
LINE
  5
2C
330
24
100
AcDbEntity
  8
0
100
AcDbLine
 10
25.0
 20
287.0
 30
0.0
 11
410.0
 21
287.0
 31
0.0
  0
LINE
  5
2D
330
24
100
AcDbEntity
  8
0
100
AcDbLine
 10
0.0
 20
287.0
 30
0.0
 11
0.0
 21
297.0
 31
0.0
  0
LINE
  5
2E
330
24
100
AcDbEntity
  8
0
100
AcDbLine
 10
25.0
 20
0.0
 30
0.0
 11
0.0
 21
0.0
 31
0.0
  0
LINE
  5
2F
330
24
100
AcDbEntity
  8
0
100
AcDbLine
 10
420.0
 20
10.0
 30
0.0
 11
420.0
 21
0.0
 31
0.0
  0
LINE
  5
30
330
24
100
AcDbEntity
  8
0
100
AcDbLine
 10
410.0
 20
297.0
 30
0.0
 11
420.0
 21
297.0
 31
0.0
  0
ATTDEF
  5
31
330
24
100
AcDbEntity
  8
0
 62
     0
100
AcDbText
 10
19.0
 20
10.0
 30
0.0
 40
3.0
  1

 50
90.0
  7
ADESK1
100
AcDbAttributeDefinition
  3

  2
USER
 70
     8
  0
ATTDEF
  5
32
330
24
100
AcDbEntity
  8
0
 62
     0
100
AcDbText
 10
19.0
 20
70.0
 30
0.0
 40
3.0
  1

 50
90.0
  7
ADESK1
100
AcDbAttributeDefinition
  3

  2
REVDATE
 70
     8
  0
ATTDEF
  5
33
330
24
100
AcDbEntity
  8
0
 62
     0
100
AcDbText
 10
19.0
 20
118.0
 30
0.0
 40
3.0
  1

 50
90.0
  7
ADESK1
100
AcDbAttributeDefinition
  3

  2
FNAME
 70
     8
  0
LINE
  5
34
330
24
100
AcDbEntity
  8
OBJECT
100
AcDbLine
 10
130.0
 20
16.0
 30
0.0
 11
25.0
 21
16.0
 31
0.0
  0
LINE
  5
35
330
24
100
AcDbEntity
  8
OBJECT
100
AcDbLine
 10
130.0
 20
22.0
 30
0.0
 11
25.0
 21
22.0
 31
0.0
  0
LINE
  5
36
330
24
100
AcDbEntity
  8
OBJECT
100
AcDbLine
 10
130.0
 20
28.0
 30
0.0
 11
25.0
 21
28.0
 31
0.0
  0
LINE
  5
37
330
24
100
AcDbEntity
  8
OBJECT
100
AcDbLine
 10
130.0
 20
34.0
 30
0.0
 11
25.0
 21
34.0
 31
0.0
  0
LINE
  5
38
330
24
100
AcDbEntity
  8
OBJECT
100
AcDbLine
 10
130.0
 20
40.0
 30
0.0
 11
25.0
 21
40.0
 31
0.0
  0
LINE
  5
39
330
24
100
AcDbEntity
  8
OBJECT
100
AcDbLine
 10
28.0
 20
11.53589799999999
 30
0.0
 11
30.0
 21
15.0
 31
0.0
  0
LINE
  5
3A
330
24
100
AcDbEntity
  8
OBJECT
100
AcDbLine
 10
32.0
 20
11.53589799999999
 30
0.0
 11
30.0
 21
15.0
 31
0.0
  0
LINE
  5
3B
330
24
100
AcDbEntity
  8
OBJECT
100
AcDbLine
 10
35.0
 20
10.0
 30
0.0
 11
35.0
 21
40.0
 31
0.0
  0
LINE
  5
3C
330
24
100
AcDbEntity
  8
OBJECT
100
AcDbLine
 10
50.0
 20
10.0
 30
0.0
 11
50.0
 21
40.0
 31
0.0
  0
LINE
  5
3D
330
24
100
AcDbEntity
  8
OBJECT
100
AcDbLine
 10
80.0
 20
10.0
 30
0.0
 11
80.0
 21
40.0
 31
0.0
  0
LINE
  5
3E
330
24
100
AcDbEntity
  8
OBJECT
100
AcDbLine
 10
28.0
 20
11.53589799999999
 30
0.0
 11
32.0
 21
11.53589799999999
 31
0.0
  0
LINE
  5
3F
330
24
100
AcDbEntity
  8
OBJECT
100
AcDbLine
 10
39.5
 20
13.0
 30
0.0
 11
40.49999999999999
 21
13.0
 31
0.0
  0
LINE
  5
40
330
24
100
AcDbEntity
  8
OBJECT
100
AcDbLine
 10
44.5
 20
13.0
 30
0.0
 11
45.49999999999999
 21
13.0
 31
0.0
  0
LINE
  5
41
330
24
100
AcDbEntity
  8
OBJECT
100
AcDbLine
 10
32.0
 20
17.535898
 30
0.0
 11
30.0
 21
20.99999999999999
 31
0.0
  0
LINE
  5
42
330
24
100
AcDbEntity
  8
OBJECT
100
AcDbLine
 10
28.0
 20
17.535898
 30
0.0
 11
32.0
 21
17.535898
 31
0.0
  0
LINE
  5
43
330
24
100
AcDbEntity
  8
OBJECT
100
AcDbLine
 10
28.0
 20
17.535898
 30
0.0
 11
30.0
 21
20.99999999999999
 31
0.0
  0
LINE
  5
44
330
24
100
AcDbEntity
  8
OBJECT
100
AcDbLine
 10
32.0
 20
23.53589799999999
 30
0.0
 11
30.0
 21
26.99999999999999
 31
0.0
  0
LINE
  5
45
330
24
100
AcDbEntity
  8
OBJECT
100
AcDbLine
 10
28.0
 20
23.53589799999999
 30
0.0
 11
32.0
 21
23.53589799999999
 31
0.0
  0
LINE
  5
46
330
24
100
AcDbEntity
  8
OBJECT
100
AcDbLine
 10
28.0
 20
23.53589799999999
 30
0.0
 11
30.0
 21
26.99999999999999
 31
0.0
  0
LINE
  5
47
330
24
100
AcDbEntity
  8
OBJECT
100
AcDbLine
 10
28.0
 20
35.53589799999999
 30
0.0
 11
30.0
 21
39.0
 31
0.0
  0
LINE
  5
48
330
24
100
AcDbEntity
  8
OBJECT
100
AcDbLine
 10
32.0
 20
35.53589799999999
 30
0.0
 11
30.0
 21
39.0
 31
0.0
  0
LINE
  5
49
330
24
100
AcDbEntity
  8
OBJECT
100
AcDbLine
 10
28.0
 20
35.53589799999999
 30
0.0
 11
32.0
 21
35.53589799999999
 31
0.0
  0
LINE
  5
4A
330
24
100
AcDbEntity
  8
OBJECT
100
AcDbLine
 10
32.0
 20
29.535898
 30
0.0
 11
30.0
 21
33.0
 31
0.0
  0
LINE
  5
4B
330
24
100
AcDbEntity
  8
OBJECT
100
AcDbLine
 10
28.0
 20
29.535898
 30
0.0
 11
32.0
 21
29.535898
 31
0.0
  0
LINE
  5
4C
330
24
100
AcDbEntity
  8
OBJECT
100
AcDbLine
 10
28.0
 20
29.535898
 30
0.0
 11
30.0
 21
33.0
 31
0.0
  0
LINE
  5
4D
330
24
100
AcDbEntity
  8
OBJECT
100
AcDbLine
 10
39.5
 20
19.0
 30
0.0
 11
40.49999999999999
 21
19.0
 31
0.0
  0
LINE
  5
4E
330
24
100
AcDbEntity
  8
OBJECT
100
AcDbLine
 10
44.5
 20
19.0
 30
0.0
 11
45.49999999999999
 21
19.0
 31
0.0
  0
LINE
  5
4F
330
24
100
AcDbEntity
  8
OBJECT
100
AcDbLine
 10
39.5
 20
25.0
 30
0.0
 11
40.49999999999999
 21
25.0
 31
0.0
  0
LINE
  5
50
330
24
100
AcDbEntity
  8
OBJECT
100
AcDbLine
 10
44.5
 20
25.0
 30
0.0
 11
45.49999999999999
 21
25.0
 31
0.0
  0
LINE
  5
51
330
24
100
AcDbEntity
  8
OBJECT
100
AcDbLine
 10
39.5
 20
31.0
 30
0.0
 11
40.49999999999999
 21
31.0
 31
0.0
  0
LINE
  5
52
330
24
100
AcDbEntity
  8
OBJECT
100
AcDbLine
 10
39.5
 20
37.0
 30
0.0
 11
40.49999999999999
 21
37.0
 31
0.0
  0
LINE
  5
53
330
24
100
AcDbEntity
  8
OBJECT
100
AcDbLine
 10
44.5
 20
31.0
 30
0.0
 11
45.49999999999999
 21
31.0
 31
0.0
  0
LINE
  5
54
330
24
100
AcDbEntity
  8
OBJECT
100
AcDbLine
 10
44.5
 20
37.0
 30
0.0
 11
45.49999999999999
 21
37.0
 31
0.0
  0
LINE
  5
55
330
24
100
AcDbEntity
  8
OBJECT
100
AcDbLine
 10
120.0
 20
10.0
 30
0.0
 11
120.0
 21
40.0
 31
0.0
  0
LINE
  5
56
330
24
100
AcDbEntity
  8
OBJECT
100
AcDbLine
 10
130.0
 20
40.0
 30
0.0
 11
130.0
 21
10.0
 31
0.0
  0
LINE
  5
57
330
24
100
AcDbEntity
  8
0
100
AcDbLine
 10
217.5
 20
10.0
 30
0.0
 11
217.5
 21
0.0
 31
0.0
  0
LINE
  5
58
330
24
100
AcDbEntity
  8
0
100
AcDbLine
 10
217.5
 20
287.0
 30
0.0
 11
217.5
 21
297.0
 31
0.0
  0
LINE
  5
59
330
24
100
AcDbEntity
  8
0
100
AcDbLine
 10
410.0
 20
148.5
 30
0.0
 11
420.0
 21
148.5
 31
0.0
  0
LINE
  5
5A
330
24
100
AcDbEntity
  8
0
100
AcDbLine
 10
25.0
 20
148.5
 30
0.0
 11
0.0
 21
148.5
 31
0.0
  0
TEXT
  5
5B
330
24
100
AcDbEntity
  8
0
100
AcDbText
 10
1.0
 20
1.0
 30
0.0
 40
3.0
  1
この図枠はサンプルです。社内の規格やプロッタの出力範囲に合わせて適当に変更してご利用ください。
  7
ADESK1
100
AcDbText
  0
LINE
  5
5C
330
24
100
AcDbEntity
  8
0
100
AcDbLine
 10
25.0
 20
240.8333333333333
 30
0.0
 11
20.0
 21
240.8333333333333
 31
0.0
  0
LINE
  5
5D
330
24
100
AcDbEntity
  8
0
100
AcDbLine
 10
25.0
 20
194.6666666666666
 30
0.0
 11
20.0
 21
194.6666666666666
 31
0.0
  0
LINE
  5
5E
330
24
100
AcDbEntity
  8
0
100
AcDbLine
 10
25.0
 20
148.5
 30
0.0
 11
20.0
 21
148.5
 31
0.0
  0
LINE
  5
5F
330
24
100
AcDbEntity
  8
0
100
AcDbLine
 10
25.0
 20
102.3333333333333
 30
0.0
 11
20.0
 21
102.3333333333333
 31
0.0
  0
LINE
  5
60
330
24
100
AcDbEntity
  8
0
100
AcDbLine
 10
25.0
 20
56.16666666666667
 30
0.0
 11
20.0
 21
56.16666666666667
 31
0.0
  0
LINE
  5
61
330
24
100
AcDbEntity
  8
0
100
AcDbLine
 10
410.0
 20
56.16666666666668
 30
0.0
 11
415.0
 21
56.16666666666668
 31
0.0
  0
LINE
  5
62
330
24
100
AcDbEntity
  8
0
100
AcDbLine
 10
410.0
 20
102.3333333333333
 30
0.0
 11
415.0
 21
102.3333333333333
 31
0.0
  0
LINE
  5
63
330
24
100
AcDbEntity
  8
0
100
AcDbLine
 10
410.0
 20
148.5
 30
0.0
 11
415.0
 21
148.5
 31
0.0
  0
LINE
  5
64
330
24
100
AcDbEntity
  8
0
100
AcDbLine
 10
410.0
 20
194.6666666666667
 30
0.0
 11
415.0
 21
194.6666666666667
 31
0.0
  0
LINE
  5
65
330
24
100
AcDbEntity
  8
0
100
AcDbLine
 10
410.0
 20
240.8333333333333
 30
0.0
 11
415.0
 21
240.8333333333333
 31
0.0
  0
LINE
  5
66
330
24
100
AcDbEntity
  8
0
100
AcDbLine
 10
73.125
 20
10.0
 30
0.0
 11
73.125
 21
5.0
 31
0.0
  0
LINE
  5
67
330
24
100
AcDbEntity
  8
0
100
AcDbLine
 10
121.25
 20
10.0
 30
0.0
 11
121.25
 21
5.0
 31
0.0
  0
LINE
  5
68
330
24
100
AcDbEntity
  8
0
100
AcDbLine
 10
169.375
 20
10.0
 30
0.0
 11
169.375
 21
5.0
 31
0.0
  0
LINE
  5
69
330
24
100
AcDbEntity
  8
0
100
AcDbLine
 10
217.5
 20
10.0
 30
0.0
 11
217.5
 21
5.0
 31
0.0
  0
LINE
  5
6A
330
24
100
AcDbEntity
  8
0
100
AcDbLine
 10
265.625
 20
10.0
 30
0.0
 11
265.625
 21
5.0
 31
0.0
  0
LINE
  5
6B
330
24
100
AcDbEntity
  8
0
100
AcDbLine
 10
313.75
 20
10.0
 30
0.0
 11
313.75
 21
5.0
 31
0.0
  0
LINE
  5
6C
330
24
100
AcDbEntity
  8
0
100
AcDbLine
 10
361.8749999999999
 20
10.0
 30
0.0
 11
361.8749999999999
 21
5.0
 31
0.0
  0
LINE
  5
6D
330
24
100
AcDbEntity
  8
0
100
AcDbLine
 10
361.8749999999999
 20
287.0
 30
0.0
 11
361.8749999999999
 21
292.0
 31
0.0
  0
LINE
  5
6E
330
24
100
AcDbEntity
  8
0
100
AcDbLine
 10
313.75
 20
287.0
 30
0.0
 11
313.75
 21
292.0
 31
0.0
  0
LINE
  5
6F
330
24
100
AcDbEntity
  8
0
100
AcDbLine
 10
265.625
 20
287.0
 30
0.0
 11
265.625
 21
292.0
 31
0.0
  0
LINE
  5
70
330
24
100
AcDbEntity
  8
0
100
AcDbLine
 10
217.5
 20
287.0
 30
0.0
 11
217.5
 21
292.0
 31
0.0
  0
LINE
  5
71
330
24
100
AcDbEntity
  8
0
100
AcDbLine
 10
169.375
 20
287.0
 30
0.0
 11
169.375
 21
292.0
 31
0.0
  0
LINE
  5
72
330
24
100
AcDbEntity
  8
0
100
AcDbLine
 10
121.25
 20
287.0
 30
0.0
 11
121.25
 21
292.0
 31
0.0
  0
LINE
  5
73
330
24
100
AcDbEntity
  8
0
100
AcDbLine
 10
73.125
 20
287.0
 30
0.0
 11
73.125
 21
292.0
 31
0.0
  0
TEXT
  5
74
330
24
100
AcDbEntity
  8
0
100
AcDbText
 10
47.84821428571429
 20
288.0
 30
0.0
 40
3.0
  1
1
  7
ADESK1
 72
     1
 11
49.0625
 21
288.0
 31
0.0
100
AcDbText
  0
TEXT
  5
75
330
24
100
AcDbEntity
  8
0
100
AcDbText
 10
21.32144707381961
 20
263.9166666666666
 30
0.0
 40
3.0
  1
A
  7
ADESK1
 72
     1
 11
22.60716135953389
 21
263.9166666666666
 31
0.0
100
AcDbText
  0
TEXT
  5
76
330
24
100
AcDbEntity
  8
0
100
AcDbText
 10
95.75892857142857
 20
288.0
 30
0.0
 40
3.0
  1
2
  7
ADESK1
 72
     1
 11
97.1875
 21
288.0
 31
0.0
100
AcDbText
  0
TEXT
  5
77
330
24
100
AcDbEntity
  8
0
100
AcDbText
 10
143.8839285714285
 20
288.0
 30
0.0
 40
3.0
  1
3
  7
ADESK1
 72
     1
 11
145.3125
 21
288.0
 31
0.0
100
AcDbText
  0
TEXT
  5
78
330
24
100
AcDbEntity
  8
0
100
AcDbText
 10
191.9375
 20
288.0
 30
0.0
 40
3.0
  1
4
  7
ADESK1
 72
     1
 11
193.4375
 21
288.0
 31
0.0
100
AcDbText
  0
TEXT
  5
79
330
24
100
AcDbEntity
  8
0
100
AcDbText
 10
240.1339285714285
 20
288.0
 30
0.0
 40
3.0
  1
5
  7
ADESK1
 72
     1
 11
241.5624999999999
 21
288.0
 31
0.0
100
AcDbText
  0
TEXT
  5
7A
330
24
100
AcDbEntity
  8
0
100
AcDbText
 10
288.1874999999999
 20
288.0
 30
0.0
 40
3.0
  1
6
  7
ADESK1
 72
     1
 11
289.6875
 21
288.0
 31
0.0
100
AcDbText
  0
TEXT
  5
7B
330
24
100
AcDbEntity
  8
0
100
AcDbText
 10
336.3839285714285
 20
288.0
 30
0.0
 40
3.0
  1
7
  7
ADESK1
 72
     1
 11
337.8125
 21
288.0
 31
0.0
100
AcDbText
  0
TEXT
  5
7C
330
24
100
AcDbEntity
  8
0
100
AcDbText
 10
384.5089285714285
 20
288.0
 30
0.0
 40
3.0
  1
8
  7
ADESK1
 72
     1
 11
385.9375
 21
288.0
 31
0.0
100
AcDbText
  0
TEXT
  5
7D
330
24
100
AcDbEntity
  8
0
100
AcDbText
 10
21.03573278810532
 20
217.7499999999999
 30
0.0
 40
3.0
  1
B
  7
ADESK1
 72
     1
 11
22.60716135953389
 21
217.7499999999999
 31
0.0
100
AcDbText
  0
TEXT
  5
7E
330
24
100
AcDbEntity
  8
0
100
AcDbText
 10
21.10716135953389
 20
171.5833333333333
 30
0.0
 40
3.0
  1
C
  7
ADESK1
 72
     1
 11
22.60716135953389
 21
171.5833333333333
 31
0.0
100
AcDbText
  0
TEXT
  5
7F
330
24
100
AcDbEntity
  8
0
100
AcDbText
 10
21.03573278810532
 20
125.4166666666666
 30
0.0
 40
3.0
  1
D
  7
ADESK1
 72
     1
 11
22.60716135953389
 21
125.4166666666666
 31
0.0
100
AcDbText
  0
TEXT
  5
80
330
24
100
AcDbEntity
  8
0
100
AcDbText
 10
21.10716135953389
 20
79.25
 30
0.0
 40
3.0
  1
E
  7
ADESK1
 72
     1
 11
22.60716135953389
 21
79.25
 31
0.0
100
AcDbText
  0
TEXT
  5
81
330
24
100
AcDbEntity
  8
0
100
AcDbText
 10
21.10716135953389
 20
33.08333333333334
 30
0.0
 40
3.0
  1
F
  7
ADESK1
 72
     1
 11
22.60716135953389
 21
33.08333333333334
 31
0.0
100
AcDbText
  0
TEXT
  5
82
330
24
100
AcDbEntity
  8
0
100
AcDbText
 10
47.84821428571429
 20
6.019997240728748
 30
0.0
 40
3.0
  1
1
  7
ADESK1
 72
     1
 11
49.0625
 21
6.019997240728748
 31
0.0
100
AcDbText
  0
TEXT
  5
83
330
24
100
AcDbEntity
  8
0
100
AcDbText
 10
95.75892857142857
 20
6.019997240728748
 30
0.0
 40
3.0
  1
2
  7
ADESK1
 72
     1
 11
97.1875
 21
6.019997240728748
 31
0.0
100
AcDbText
  0
TEXT
  5
84
330
24
100
AcDbEntity
  8
0
100
AcDbText
 10
143.8839285714285
 20
6.019997240728748
 30
0.0
 40
3.0
  1
3
  7
ADESK1
 72
     1
 11
145.3125
 21
6.019997240728748
 31
0.0
100
AcDbText
  0
TEXT
  5
85
330
24
100
AcDbEntity
  8
0
100
AcDbText
 10
191.9375
 20
6.019997240728748
 30
0.0
 40
3.0
  1
4
  7
ADESK1
 72
     1
 11
193.4375
 21
6.019997240728748
 31
0.0
100
AcDbText
  0
TEXT
  5
86
330
24
100
AcDbEntity
  8
0
100
AcDbText
 10
240.1339285714285
 20
6.019997240728748
 30
0.0
 40
3.0
  1
5
  7
ADESK1
 72
     1
 11
241.5624999999999
 21
6.019997240728748
 31
0.0
100
AcDbText
  0
TEXT
  5
87
330
24
100
AcDbEntity
  8
0
100
AcDbText
 10
288.1874999999999
 20
6.019997240728748
 30
0.0
 40
3.0
  1
6
  7
ADESK1
 72
     1
 11
289.6875
 21
6.019997240728748
 31
0.0
100
AcDbText
  0
TEXT
  5
88
330
24
100
AcDbEntity
  8
0
100
AcDbText
 10
336.3839285714285
 20
6.019997240728748
 30
0.0
 40
3.0
  1
7
  7
ADESK1
 72
     1
 11
337.8125
 21
6.019997240728748
 31
0.0
100
AcDbText
  0
TEXT
  5
89
330
24
100
AcDbEntity
  8
0
100
AcDbText
 10
384.5089285714285
 20
6.019997240728748
 30
0.0
 40
3.0
  1
8
  7
ADESK1
 72
     1
 11
385.9375
 21
6.019997240728748
 31
0.0
100
AcDbText
  0
TEXT
  5
8A
330
24
100
AcDbEntity
  8
0
100
AcDbText
 10
411.5851108826324
 20
263.9166666666666
 30
0.0
 40
3.0
  1
A
  7
ADESK1
 72
     1
 11
412.8708251683468
 21
263.9166666666666
 31
0.0
100
AcDbText
  0
TEXT
  5
8B
330
24
100
AcDbEntity
  8
0
100
AcDbText
 10
411.2993965969182
 20
217.7499999999999
 30
0.0
 40
3.0
  1
B
  7
ADESK1
 72
     1
 11
412.8708251683468
 21
217.7499999999999
 31
0.0
100
AcDbText
  0
TEXT
  5
8C
330
24
100
AcDbEntity
  8
0
100
AcDbText
 10
411.3708251683467
 20
171.5833333333333
 30
0.0
 40
3.0
  1
C
  7
ADESK1
 72
     1
 11
412.8708251683468
 21
171.5833333333333
 31
0.0
100
AcDbText
  0
TEXT
  5
8D
330
24
100
AcDbEntity
  8
0
100
AcDbText
 10
411.2993965969182
 20
125.4166666666666
 30
0.0
 40
3.0
  1
D
  7
ADESK1
 72
     1
 11
412.8708251683468
 21
125.4166666666666
 31
0.0
100
AcDbText
  0
TEXT
  5
8E
330
24
100
AcDbEntity
  8
0
100
AcDbText
 10
411.3708251683467
 20
79.25
 30
0.0
 40
3.0
  1
E
  7
ADESK1
 72
     1
 11
412.8708251683468
 21
79.25
 31
0.0
100
AcDbText
  0
TEXT
  5
8F
330
24
100
AcDbEntity
  8
0
100
AcDbText
 10
411.3708251683467
 20
33.08333333333334
 30
0.0
 40
3.0
  1
F
  7
ADESK1
 72
     1
 11
412.8708251683468
 21
33.08333333333334
 31
0.0
100
AcDbText
  0
LINE
  5
90
330
24
100
AcDbEntity
  8
0
 62
     0
100
AcDbLine
 10
280.2978723404241
 20
49.00000000000036
 30
0.0
 11
410.0
 21
49.00000000000036
 31
0.0
  0
LINE
  5
91
330
24
100
AcDbEntity
  8
0
 62
     0
100
AcDbLine
 10
280.2978723404241
 20
13.00000000000004
 30
0.0
 11
410.0
 21
13.00000000000004
 31
0.0
  0
LINE
  5
92
330
24
100
AcDbEntity
  8
0
 62
     0
100
AcDbLine
 10
280.2978723404241
 20
37.00000000000024
 30
0.0
 11
410.0
 21
37.00000000000024
 31
0.0
  0
LINE
  5
93
330
24
100
AcDbEntity
  8
0
 62
     0
100
AcDbLine
 10
318.1276595744673
 20
22.00000000000012
 30
0.0
 11
410.0
 21
22.00000000000012
 31
0.0
  0
LINE
  5
94
330
24
100
AcDbEntity
  8
0
 62
     0
100
AcDbLine
 10
280.2978723404241
 20
10.0
 30
0.0
 11
410.0
 21
10.0
 31
0.0
  0
LINE
  5
95
330
24
100
AcDbEntity
  8
0
 62
     0
100
AcDbLine
 10
410.0
 20
49.00000000000036
 30
0.0
 11
280.2978723404241
 21
49.00000000000036
 31
0.0
  0
LINE
  5
96
330
24
100
AcDbEntity
  8
0
 62
     0
100
AcDbLine
 10
303.7163120567365
 20
37.00000000000024
 30
0.0
 11
303.7163120567365
 21
10.0
 31
0.0
  0
LINE
  5
97
330
24
100
AcDbEntity
  8
0
 62
     0
100
AcDbLine
 10
285.702127659573
 20
37.00000000000024
 30
0.0
 11
285.702127659573
 21
10.0
 31
0.0
  0
LINE
  5
98
330
24
100
AcDbEntity
  8
0
 62
     0
100
AcDbLine
 10
312.7234042553184
 20
37.00000000000024
 30
0.0
 11
312.7234042553184
 21
10.0
 31
0.0
  0
LINE
  5
99
330
24
100
AcDbEntity
  8
0
 62
     0
100
AcDbLine
 10
318.1276595744673
 20
25.00000000000012
 30
0.0
 11
318.1276595744673
 21
10.0
 31
0.0
  0
LINE
  5
9A
330
24
100
AcDbEntity
  8
0
 62
     0
100
AcDbLine
 10
280.2978723404241
 20
49.00000000000036
 30
0.0
 11
280.2978723404241
 21
10.0
 31
0.0
  0
LINE
  5
9B
330
24
100
AcDbEntity
  8
0
 62
     0
100
AcDbLine
 10
348.7517730496447
 20
49.00000000000036
 30
0.0
 11
348.7517730496447
 21
10.0
 31
0.0
  0
LINE
  5
9C
330
24
100
AcDbEntity
  8
0
 62
     0
100
AcDbLine
 10
328.7659574468077
 20
22.00000000000007
 30
0.0
 11
328.7659574468077
 21
10.0
 31
0.0
  0
LINE
  5
9D
330
24
100
AcDbEntity
  8
0
 62
     0
100
AcDbLine
 10
339.4042553191484
 20
22.00000000000007
 30
0.0
 11
339.4042553191484
 21
10.0
 31
0.0
  0
LINE
  5
9E
330
24
100
AcDbEntity
  8
0
 62
     0
100
AcDbLine
 10
280.2978723404241
 20
16.00000000000008
 30
0.0
 11
318.1276595744673
 21
16.00000000000008
 31
0.0
  0
LINE
  5
9F
330
24
100
AcDbEntity
  8
0
 62
     0
100
AcDbLine
 10
280.2978723404241
 20
10.0
 30
0.0
 11
280.2978723404241
 21
13.00000000000004
 31
0.0
  0
TEXT
  5
A0
330
24
100
AcDbEntity
  8
0
 62
     0
100
AcDbText
 10
321.7174935280942
 20
10.48329012996929
 30
0.0
 40
1.791674070777747
  1
製図
  7
ADESK1
 72
     1
 11
323.5688900678979
 21
10.48329012996929
 31
0.0
100
AcDbText
  0
TEXT
  5
A1
330
24
100
AcDbEntity
  8
0
 62
     0
100
AcDbText
 10
332.2960689314087
 20
10.48329012996929
 30
0.0
 40
1.791674070777747
  1
設計
  7
ADESK1
 72
     1
 11
334.2071879402383
 21
10.48329012996929
 31
0.0
100
AcDbText
  0
TEXT
  5
A2
330
24
100
AcDbEntity
  8
0
 62
     0
100
AcDbText
 10
342.2447163844405
 20
10.55220101068186
 30
0.0
 40
1.791674070777747
  1
照査
  7
ADESK1
 72
     1
 11
344.1558353932701
 21
10.55220101068186
 31
0.0
100
AcDbText
  0
LINE
  5
A3
330
24
100
AcDbEntity
  8
0
 62
     0
100
AcDbLine
 10
280.2978723404241
 20
25.00000000000012
 30
0.0
 11
318.1276595744673
 21
25.00000000000012
 31
0.0
  0
LINE
  5
A4
330
24
100
AcDbEntity
  8
0
 62
     0
100
AcDbLine
 10
280.2978723404241
 20
22.00000000000007
 30
0.0
 11
318.1276595744673
 21
22.00000000000012
 31
0.0
  0
LINE
  5
A5
330
24
100
AcDbEntity
  8
0
 62
     0
100
AcDbLine
 10
280.2978723404241
 20
19.00000000000007
 30
0.0
 11
318.1276595744673
 21
19.00000000000012
 31
0.0
  0
LINE
  5
A6
330
24
100
AcDbEntity
  8
0
 62
     0
100
AcDbLine
 10
280.2978723404241
 20
34.00000000000024
 30
0.0
 11
348.7517730496447
 21
34.00000000000024
 31
0.0
  0
LINE
  5
A7
330
24
100
AcDbEntity
  8
0
 62
     0
100
AcDbLine
 10
280.2978723404241
 20
31.0000000000002
 30
0.0
 11
348.7517730496447
 21
31.0000000000002
 31
0.0
  0
LINE
  5
A8
330
24
100
AcDbEntity
  8
0
 62
     0
100
AcDbLine
 10
280.2978723404241
 20
28.00000000000015
 30
0.0
 11
348.7517730496447
 21
28.00000000000015
 31
0.0
  0
LINE
  5
A9
330
24
100
AcDbEntity
  8
0
 62
     0
100
AcDbLine
 10
318.1276595744673
 20
25.00000000000012
 30
0.0
 11
348.7517730496447
 21
25.00000000000012
 31
0.0
  0
LINE
  5
AA
330
24
100
AcDbEntity
  8
0
 62
     0
100
AcDbLine
 10
318.1276595744673
 20
49.00000000000036
 30
0.0
 11
318.1276595744673
 21
25.00000000000012
 31
0.0
  0
LINE
  5
AB
330
24
100
AcDbEntity
  8
0
 62
     0
100
AcDbLine
 10
325.3333333333325
 20
37.00000000000024
 30
0.0
 11
325.3333333333325
 21
25.00000000000012
 31
0.0
  0
LINE
  5
AC
330
24
100
AcDbEntity
  8
0
 62
     0
100
AcDbLine
 10
336.1418439716306
 20
49.00000000000036
 30
0.0
 11
336.1418439716306
 21
22.00000000000012
 31
0.0
  0
LINE
  5
AD
330
24
100
AcDbEntity
  8
0
 62
     0
100
AcDbLine
 10
402.7943262411347
 20
22.00000000000012
 30
0.0
 11
402.7943262411347
 21
10.0
 31
0.0
  0
LINE
  5
AE
330
24
100
AcDbEntity
  8
0
 62
     0
100
AcDbLine
 10
410.0
 20
49.00000000000036
 30
0.0
 11
410.0
 21
10.0
 31
0.0
  0
LINE
  5
AF
330
24
100
AcDbEntity
  8
0
 62
     0
100
AcDbLine
 10
410.0
 20
10.0
 30
0.0
 11
410.0
 21
49.00000000000036
 31
0.0
  0
LINE
  5
B0
330
24
100
AcDbEntity
  8
0
 62
     0
100
AcDbLine
 10
402.7943262411347
 20
16.00000000000008
 30
0.0
 11
410.0
 21
16.00000000000008
 31
0.0
  0
ENDBLK
  5
B2
330
24
100
AcDbEntity
  8
0
100
AcDbBlockEnd
  0
BLOCK
  5
12F6
330
12EC
100
AcDbEntity
  8
0
 48
10.0
100
AcDbBlockBegin
  2
*D1
 70
     1
 10
0.0
 20
0.0
 30
0.0
  3
*D1
  1

  0
LINE
  5
12ED
330
12EC
100
AcDbEntity
  8
0
  6
ByBlock
 62
     0
 48
10.0
100
AcDbLine
 10
734.1961940441506
 20
1686.575337888401
 30
0.0
 11
734.1961940441506
 21
1843.269484159574
 31
0.0
  0
LINE
  5
12EE
330
12EC
100
AcDbEntity
  8
0
  6
ByBlock
 62
     0
 48
10.0
100
AcDbLine
 10
1024.19619404415
 20
1686.575337888401
 30
0.0
 11
1024.19619404415
 21
1843.269484159574
 31
0.0
  0
LINE
  5
12EF
330
12EC
100
AcDbEntity
  8
0
  6
ByBlock
 62
     0
 48
10.0
100
AcDbLine
 10
759.1961940441506
 20
1830.769484159574
 30
0.0
 11
999.1961940441505
 21
1830.769484159574
 31
0.0
  0
SOLID
  5
12F0
330
12EC
100
AcDbEntity
  8
0
  6
ByBlock
 62
     0
 48
10.0
100
AcDbTrace
 10
759.1961940441506
 20
1834.93615082624
 30
0.0
 11
759.1961940441506
 21
1826.602817492907
 31
0.0
 12
734.1961940441506
 22
1830.769484159574
 32
0.0
 13
734.1961940441506
 23
1830.769484159574
 33
0.0
  0
SOLID
  5
12F1
330
12EC
100
AcDbEntity
  8
0
  6
ByBlock
 62
     0
 48
10.0
100
AcDbTrace
 10
999.1961940441505
 20
1834.93615082624
 30
0.0
 11
999.1961940441505
 21
1826.602817492907
 31
0.0
 12
1024.19619404415
 22
1830.769484159574
 32
0.0
 13
1024.19619404415
 23
1830.769484159574
 33
0.0
  0
MTEXT
  5
12F2
330
12EC
100
AcDbEntity
  8
0
  6
ByBlock
 62
     0
 48
10.0
100
AcDbMText
 10
879.1961940441506
 20
1849.519484159574
 30
0.0
 40
25.0
 41
0.0
 71
     5
 72
     1
  1
\A1;290
 73
     1
 44
1.0
  0
POINT
  5
12F3
330
12EC
100
AcDbEntity
  8
DEFPOINTS
  6
ByBlock
 62
     0
 48
10.0
100
AcDbPoint
 10
734.1961940441506
 20
1680.325337888401
 30
0.0
  0
POINT
  5
12F4
330
12EC
100
AcDbEntity
  8
DEFPOINTS
  6
ByBlock
 62
     0
 48
10.0
100
AcDbPoint
 10
1024.19619404415
 20
1680.325337888401
 30
0.0
  0
POINT
  5
12F5
330
12EC
100
AcDbEntity
  8
DEFPOINTS
  6
ByBlock
 62
     0
 48
10.0
100
AcDbPoint
 10
1024.19619404415
 20
1830.769484159574
 30
0.0
  0
ENDBLK
  5
12F7
330
12EC
100
AcDbEntity
  8
0
 48
10.0
100
AcDbBlockEnd
  0
BLOCK
  5
1302
330
12F8
100
AcDbEntity
  8
0
100
AcDbBlockBegin
  2
*D2
 70
     1
 10
0.0
 20
0.0
 30
0.0
  3
*D2
  1

  0
LINE
  5
12F9
330
12F8
100
AcDbEntity
  8
0
  6
ByBlock
 62
     0
100
AcDbLine
 10
708.1037244631861
 20
2070.914176170601
 30
0.0
 11
473.2245008670197
 21
2070.914176170601
 31
0.0
  0
LINE
  5
12FA
330
12F8
100
AcDbEntity
  8
0
  6
ByBlock
 62
     0
100
AcDbLine
 10
708.1037244631846
 20
1340.914176170601
 30
0.0
 11
473.2245008670197
 21
1340.914176170601
 31
0.0
  0
LINE
  5
12FB
330
12F8
100
AcDbEntity
  8
0
  6
ByBlock
 62
     0
100
AcDbLine
 10
485.7245008670197
 20
2045.914176170601
 30
0.0
 11
485.7245008670197
 21
1365.914176170601
 31
0.0
  0
SOLID
  5
12FC
330
12F8
100
AcDbEntity
  8
0
  6
ByBlock
 62
     0
100
AcDbTrace
 10
481.5578342003531
 20
2045.914176170601
 30
0.0
 11
489.8911675336864
 21
2045.914176170601
 31
0.0
 12
485.7245008670197
 22
2070.914176170601
 32
0.0
 13
485.7245008670197
 23
2070.914176170601
 33
0.0
  0
SOLID
  5
12FD
330
12F8
100
AcDbEntity
  8
0
  6
ByBlock
 62
     0
100
AcDbTrace
 10
481.557834200353
 20
1365.914176170601
 30
0.0
 11
489.8911675336864
 21
1365.914176170601
 31
0.0
 12
485.7245008670197
 22
1340.914176170601
 32
0.0
 13
485.7245008670197
 23
1340.914176170601
 33
0.0
  0
MTEXT
  5
12FE
330
12F8
100
AcDbEntity
  8
0
  6
ByBlock
 62
     0
100
AcDbMText
 10
466.9745008670197
 20
1705.914176170601
 30
0.0
 40
25.0
 41
0.0
 71
     5
 72
     1
  1
\A1;730
 11
0.0000000000000001
 21
1.0
 31
0.0
 73
     1
 44
1.0
  0
POINT
  5
12FF
330
12F8
100
AcDbEntity
  8
DEFPOINTS
  6
ByBlock
 62
     0
100
AcDbPoint
 10
714.3537244631861
 20
2070.914176170601
 30
0.0
  0
POINT
  5
1300
330
12F8
100
AcDbEntity
  8
DEFPOINTS
  6
ByBlock
 62
     0
100
AcDbPoint
 10
714.3537244631846
 20
1340.914176170601
 30
0.0
  0
POINT
  5
1301
330
12F8
100
AcDbEntity
  8
DEFPOINTS
  6
ByBlock
 62
     0
100
AcDbPoint
 10
485.7245008670197
 20
1340.914176170601
 30
0.0
  0
ENDBLK
  5
1303
330
12F8
100
AcDbEntity
  8
0
100
AcDbBlockEnd
  0
BLOCK
  5
130E
330
1304
100
AcDbEntity
  8
0
100
AcDbBlockBegin
  2
*D3
 70
     1
 10
0.0
 20
0.0
 30
0.0
  3
*D3
  1

  0
LINE
  5
1305
330
1304
100
AcDbEntity
  8
0
  6
ByBlock
 62
     0
100
AcDbLine
 10
708.1037244631861
 20
2140.914176170601
 30
0.0
 11
379.57826554436
 21
2140.914176170601
 31
0.0
  0
LINE
  5
1306
330
1304
100
AcDbEntity
  8
0
  6
ByBlock
 62
     0
100
AcDbLine
 10
708.1037244631861
 20
1190.914176170601
 30
0.0
 11
379.57826554436
 21
1190.914176170601
 31
0.0
  0
LINE
  5
1307
330
1304
100
AcDbEntity
  8
0
  6
ByBlock
 62
     0
100
AcDbLine
 10
392.07826554436
 20
2115.914176170601
 30
0.0
 11
392.07826554436
 21
1215.914176170601
 31
0.0
  0
SOLID
  5
1308
330
1304
100
AcDbEntity
  8
0
  6
ByBlock
 62
     0
100
AcDbTrace
 10
387.9115988776934
 20
2115.914176170601
 30
0.0
 11
396.2449322110267
 21
2115.914176170601
 31
0.0
 12
392.07826554436
 22
2140.914176170601
 32
0.0
 13
392.07826554436
 23
2140.914176170601
 33
0.0
  0
SOLID
  5
1309
330
1304
100
AcDbEntity
  8
0
  6
ByBlock
 62
     0
100
AcDbTrace
 10
387.9115988776933
 20
1215.914176170601
 30
0.0
 11
396.2449322110267
 21
1215.914176170601
 31
0.0
 12
392.07826554436
 22
1190.914176170601
 32
0.0
 13
392.07826554436
 23
1190.914176170601
 33
0.0
  0
MTEXT
  5
130A
330
1304
100
AcDbEntity
  8
0
  6
ByBlock
 62
     0
100
AcDbMText
 10
373.32826554436
 20
1665.914176170601
 30
0.0
 40
25.0
 41
0.0
 71
     5
 72
     1
  1
\A1;950
 11
0.0000000000000001
 21
1.0
 31
0.0
 73
     1
 44
1.0
  0
POINT
  5
130B
330
1304
100
AcDbEntity
  8
DEFPOINTS
  6
ByBlock
 62
     0
100
AcDbPoint
 10
714.3537244631861
 20
2140.914176170601
 30
0.0
  0
POINT
  5
130C
330
1304
100
AcDbEntity
  8
DEFPOINTS
  6
ByBlock
 62
     0
100
AcDbPoint
 10
714.3537244631861
 20
1190.914176170601
 30
0.0
  0
POINT
  5
130D
330
1304
100
AcDbEntity
  8
DEFPOINTS
  6
ByBlock
 62
     0
100
AcDbPoint
 10
392.07826554436
 20
1190.914176170601
 30
0.0
  0
ENDBLK
  5
130F
330
1304
100
AcDbEntity
  8
0
100
AcDbBlockEnd
  0
BLOCK
  5
131A
330
1310
100
AcDbEntity
  8
0
100
AcDbBlockBegin
  2
*D4
 70
     1
 10
0.0
 20
0.0
 30
0.0
  3
*D4
  1

  0
LINE
  5
1311
330
1310
100
AcDbEntity
  8
0
  6
ByBlock
 62
     0
100
AcDbLine
 10
2687.155222128043
 20
873.4409958424967
 30
0.0
 11
2687.155222128043
 21
1017.646241119608
 31
0.0
  0
LINE
  5
1312
330
1310
100
AcDbEntity
  8
0
  6
ByBlock
 62
     0
100
AcDbLine
 10
2797.155222128044
 20
873.4409958424967
 30
0.0
 11
2797.155222128044
 21
1017.646241119608
 31
0.0
  0
LINE
  5
1313
330
1310
100
AcDbEntity
  8
0
  6
ByBlock
 62
     0
100
AcDbLine
 10
2712.155222128043
 20
1005.146241119609
 30
0.0
 11
2772.155222128043
 21
1005.146241119609
 31
0.0
  0
SOLID
  5
1314
330
1310
100
AcDbEntity
  8
0
  6
ByBlock
 62
     0
100
AcDbTrace
 10
2712.155222128043
 20
1009.312907786275
 30
0.0
 11
2712.155222128043
 21
1000.979574452942
 31
0.0
 12
2687.155222128043
 22
1005.146241119609
 32
0.0
 13
2687.155222128043
 23
1005.146241119609
 33
0.0
  0
SOLID
  5
1315
330
1310
100
AcDbEntity
  8
0
  6
ByBlock
 62
     0
100
AcDbTrace
 10
2772.155222128043
 20
1009.312907786275
 30
0.0
 11
2772.155222128043
 21
1000.979574452942
 31
0.0
 12
2797.155222128044
 22
1005.146241119609
 32
0.0
 13
2797.155222128044
 23
1005.146241119609
 33
0.0
  0
MTEXT
  5
1316
330
1310
100
AcDbEntity
  8
0
  6
ByBlock
 62
     0
100
AcDbMText
 10
2742.155222128043
 20
1023.896241119609
 30
0.0
 40
25.0
 41
0.0
 71
     5
 72
     1
  1
\A1;110
 73
     1
 44
1.0
  0
POINT
  5
1317
330
1310
100
AcDbEntity
  8
DEFPOINTS
  6
ByBlock
 62
     0
100
AcDbPoint
 10
2687.155222128043
 20
867.1909958424967
 30
0.0
  0
POINT
  5
1318
330
1310
100
AcDbEntity
  8
DEFPOINTS
  6
ByBlock
 62
     0
100
AcDbPoint
 10
2797.155222128044
 20
867.1909958424967
 30
0.0
  0
POINT
  5
1319
330
1310
100
AcDbEntity
  8
DEFPOINTS
  6
ByBlock
 62
     0
100
AcDbPoint
 10
2797.155222128044
 20
1005.146241119609
 30
0.0
  0
ENDBLK
  5
131B
330
1310
100
AcDbEntity
  8
0
100
AcDbBlockEnd
  0
BLOCK
  5
1328
330
131C
100
AcDbEntity
  8
0
100
AcDbBlockBegin
  2
*D5
 70
     1
 10
0.0
 20
0.0
 30
0.0
  3
*D5
  1

  0
LINE
  5
131D
330
131C
100
AcDbEntity
  8
0
  6
ByBlock
 62
     0
100
AcDbLine
 10
1336.621457272169
 20
2405.271545699223
 30
0.0
 11
1492.871457272169
 21
2405.271545699223
 31
0.0
  0
LINE
  5
131E
330
131C
100
AcDbEntity
  8
0
  6
ByBlock
 62
     0
100
AcDbLine
 10
1336.621457272169
 20
2435.271545699222
 30
0.0
 11
1492.871457272169
 21
2435.271545699222
 31
0.0
  0
LINE
  5
131F
330
131C
100
AcDbEntity
  8
0
  6
ByBlock
 62
     0
100
AcDbLine
 10
1480.371457272169
 20
2380.271545699222
 30
0.0
 11
1480.371457272169
 21
2355.271545699222
 31
0.0
  0
LINE
  5
1320
330
131C
100
AcDbEntity
  8
0
  6
ByBlock
 62
     0
100
AcDbLine
 10
1480.371457272169
 20
2460.271545699223
 30
0.0
 11
1480.371457272169
 21
2529.794017609335
 31
0.0
  0
LINE
  5
1321
330
131C
100
AcDbEntity
  8
0
  6
ByBlock
 62
     0
100
AcDbLine
 10
1480.371457272169
 20
2405.271545699223
 30
0.0
 11
1480.371457272169
 21
2435.271545699222
 31
0.0
  0
SOLID
  5
1322
330
131C
100
AcDbEntity
  8
0
  6
ByBlock
 62
     0
100
AcDbTrace
 10
1476.204790605502
 20
2380.271545699222
 30
0.0
 11
1484.538123938835
 21
2380.271545699222
 31
0.0
 12
1480.371457272169
 22
2405.271545699223
 32
0.0
 13
1480.371457272169
 23
2405.271545699223
 33
0.0
  0
SOLID
  5
1323
330
131C
100
AcDbEntity
  8
0
  6
ByBlock
 62
     0
100
AcDbTrace
 10
1476.204790605502
 20
2460.271545699223
 30
0.0
 11
1484.538123938835
 21
2460.271545699223
 31
0.0
 12
1480.371457272169
 22
2435.271545699222
 32
0.0
 13
1480.371457272169
 23
2435.271545699222
 33
0.0
  0
MTEXT
  5
1324
330
131C
100
AcDbEntity
  8
0
  6
ByBlock
 62
     0
100
AcDbMText
 10
1461.621457272169
 20
2507.532781654279
 30
0.0
 40
25.0
 41
0.0
 71
     5
 72
     1
  1
\A1;30
 11
0.0000000000000001
 21
1.0
 31
0.0
 73
     1
 44
1.0
  0
POINT
  5
1325
330
131C
100
AcDbEntity
  8
DEFPOINTS
  6
ByBlock
 62
     0
100
AcDbPoint
 10
1330.371457272169
 20
2405.271545699223
 30
0.0
  0
POINT
  5
1326
330
131C
100
AcDbEntity
  8
DEFPOINTS
  6
ByBlock
 62
     0
100
AcDbPoint
 10
1330.371457272169
 20
2435.271545699222
 30
0.0
  0
POINT
  5
1327
330
131C
100
AcDbEntity
  8
DEFPOINTS
  6
ByBlock
 62
     0
100
AcDbPoint
 10
1480.371457272169
 20
2435.271545699222
 30
0.0
  0
ENDBLK
  5
1329
330
131C
100
AcDbEntity
  8
0
100
AcDbBlockEnd
  0
BLOCK
  5
1336
330
132A
100
AcDbEntity
  8
0
100
AcDbBlockBegin
  2
*D6
 70
     1
 10
0.0
 20
0.0
 30
0.0
  3
*D6
  1

  0
LINE
  5
132B
330
132A
100
AcDbEntity
  8
0
  6
ByBlock
 62
     0
100
AcDbLine
 10
1336.621457272169
 20
1510.271545699222
 30
0.0
 11
1492.871457272169
 21
1510.271545699222
 31
0.0
  0
LINE
  5
132C
330
132A
100
AcDbEntity
  8
0
  6
ByBlock
 62
     0
100
AcDbLine
 10
1336.621457272169
 20
1485.271545699222
 30
0.0
 11
1492.871457272169
 21
1485.271545699222
 31
0.0
  0
LINE
  5
132D
330
132A
100
AcDbEntity
  8
0
  6
ByBlock
 62
     0
100
AcDbLine
 10
1480.371457272169
 20
1535.271545699222
 30
0.0
 11
1480.371457272169
 21
1560.271545699222
 31
0.0
  0
LINE
  5
132E
330
132A
100
AcDbEntity
  8
0
  6
ByBlock
 62
     0
100
AcDbLine
 10
1480.371457272169
 20
1460.271545699223
 30
0.0
 11
1480.371457272169
 21
1390.889523227312
 31
0.0
  0
LINE
  5
132F
330
132A
100
AcDbEntity
  8
0
  6
ByBlock
 62
     0
100
AcDbLine
 10
1480.371457272169
 20
1510.271545699222
 30
0.0
 11
1480.371457272169
 21
1485.271545699222
 31
0.0
  0
SOLID
  5
1330
330
132A
100
AcDbEntity
  8
0
  6
ByBlock
 62
     0
100
AcDbTrace
 10
1476.204790605502
 20
1535.271545699222
 30
0.0
 11
1484.538123938835
 21
1535.271545699222
 31
0.0
 12
1480.371457272169
 22
1510.271545699222
 32
0.0
 13
1480.371457272169
 23
1510.271545699222
 33
0.0
  0
SOLID
  5
1331
330
132A
100
AcDbEntity
  8
0
  6
ByBlock
 62
     0
100
AcDbTrace
 10
1476.204790605502
 20
1460.271545699223
 30
0.0
 11
1484.538123938835
 21
1460.271545699223
 31
0.0
 12
1480.371457272169
 22
1485.271545699222
 32
0.0
 13
1480.371457272169
 23
1485.271545699222
 33
0.0
  0
MTEXT
  5
1332
330
132A
100
AcDbEntity
  8
0
  6
ByBlock
 62
     0
100
AcDbMText
 10
1461.621457272169
 20
1413.080534463267
 30
0.0
 40
25.0
 41
0.0
 71
     5
 72
     1
  1
\A1;25
 11
0.0000000000000001
 21
1.0
 31
0.0
 73
     1
 44
1.0
  0
POINT
  5
1333
330
132A
100
AcDbEntity
  8
DEFPOINTS
  6
ByBlock
 62
     0
100
AcDbPoint
 10
1330.371457272169
 20
1510.271545699222
 30
0.0
  0
POINT
  5
1334
330
132A
100
AcDbEntity
  8
DEFPOINTS
  6
ByBlock
 62
     0
100
AcDbPoint
 10
1330.371457272169
 20
1485.271545699222
 30
0.0
  0
POINT
  5
1335
330
132A
100
AcDbEntity
  8
DEFPOINTS
  6
ByBlock
 62
     0
100
AcDbPoint
 10
1480.371457272169
 20
1485.271545699222
 30
0.0
  0
ENDBLK
  5
1337
330
132A
100
AcDbEntity
  8
0
100
AcDbBlockEnd
  0
BLOCK
  5
1342
330
1338
100
AcDbEntity
  8
0
100
AcDbBlockBegin
  2
*D7
 70
     1
 10
0.0
 20
0.0
 30
0.0
  3
*D7
  1

  0
LINE
  5
1339
330
1338
100
AcDbEntity
  8
0
  6
ByBlock
 62
     0
100
AcDbLine
 10
1336.621457272169
 20
1510.271545699222
 30
0.0
 11
1492.871457272169
 21
1510.271545699222
 31
0.0
  0
LINE
  5
133A
330
1338
100
AcDbEntity
  8
0
  6
ByBlock
 62
     0
100
AcDbLine
 10
1336.621457272169
 20
1610.271545699222
 30
0.0
 11
1492.871457272169
 21
1610.271545699222
 31
0.0
  0
LINE
  5
133B
330
1338
100
AcDbEntity
  8
0
  6
ByBlock
 62
     0
100
AcDbLine
 10
1480.371457272169
 20
1535.271545699222
 30
0.0
 11
1480.371457272169
 21
1585.271545699223
 31
0.0
  0
SOLID
  5
133C
330
1338
100
AcDbEntity
  8
0
  6
ByBlock
 62
     0
100
AcDbTrace
 10
1476.204790605502
 20
1535.271545699222
 30
0.0
 11
1484.538123938835
 21
1535.271545699222
 31
0.0
 12
1480.371457272169
 22
1510.271545699222
 32
0.0
 13
1480.371457272169
 23
1510.271545699222
 33
0.0
  0
SOLID
  5
133D
330
1338
100
AcDbEntity
  8
0
  6
ByBlock
 62
     0
100
AcDbTrace
 10
1476.204790605502
 20
1585.271545699223
 30
0.0
 11
1484.538123938835
 21
1585.271545699223
 31
0.0
 12
1480.371457272169
 22
1610.271545699222
 32
0.0
 13
1480.371457272169
 23
1610.271545699222
 33
0.0
  0
MTEXT
  5
133E
330
1338
100
AcDbEntity
  8
0
  6
ByBlock
 62
     0
100
AcDbMText
 10
1461.621457272169
 20
1560.271545699222
 30
0.0
 40
25.0
 41
0.0
 71
     5
 72
     1
  1
\A1;100
 11
0.0000000000000001
 21
1.0
 31
0.0
 73
     1
 44
1.0
  0
POINT
  5
133F
330
1338
100
AcDbEntity
  8
DEFPOINTS
  6
ByBlock
 62
     0
100
AcDbPoint
 10
1330.371457272169
 20
1510.271545699222
 30
0.0
  0
POINT
  5
1340
330
1338
100
AcDbEntity
  8
DEFPOINTS
  6
ByBlock
 62
     0
100
AcDbPoint
 10
1330.371457272169
 20
1610.271545699222
 30
0.0
  0
POINT
  5
1341
330
1338
100
AcDbEntity
  8
DEFPOINTS
  6
ByBlock
 62
     0
100
AcDbPoint
 10
1480.371457272169
 20
1610.271545699222
 30
0.0
  0
ENDBLK
  5
1343
330
1338
100
AcDbEntity
  8
0
100
AcDbBlockEnd
  0
BLOCK
  5
134E
330
1344
100
AcDbEntity
  8
0
100
AcDbBlockBegin
  2
*D8
 70
     1
 10
0.0
 20
0.0
 30
0.0
  3
*D8
  1

  0
LINE
  5
1345
330
1344
100
AcDbEntity
  8
0
  6
ByBlock
 62
     0
100
AcDbLine
 10
1336.621457272169
 20
1610.271545699222
 30
0.0
 11
1492.871457272169
 21
1610.271545699222
 31
0.0
  0
LINE
  5
1346
330
1344
100
AcDbEntity
  8
0
  6
ByBlock
 62
     0
100
AcDbLine
 10
1336.621457272169
 20
2405.271545699223
 30
0.0
 11
1492.871457272169
 21
2405.271545699223
 31
0.0
  0
LINE
  5
1347
330
1344
100
AcDbEntity
  8
0
  6
ByBlock
 62
     0
100
AcDbLine
 10
1480.371457272169
 20
1635.271545699223
 30
0.0
 11
1480.371457272169
 21
2380.271545699222
 31
0.0
  0
SOLID
  5
1348
330
1344
100
AcDbEntity
  8
0
  6
ByBlock
 62
     0
100
AcDbTrace
 10
1476.204790605502
 20
1635.271545699223
 30
0.0
 11
1484.538123938835
 21
1635.271545699223
 31
0.0
 12
1480.371457272169
 22
1610.271545699222
 32
0.0
 13
1480.371457272169
 23
1610.271545699222
 33
0.0
  0
SOLID
  5
1349
330
1344
100
AcDbEntity
  8
0
  6
ByBlock
 62
     0
100
AcDbTrace
 10
1476.204790605502
 20
2380.271545699222
 30
0.0
 11
1484.538123938835
 21
2380.271545699222
 31
0.0
 12
1480.371457272169
 22
2405.271545699223
 32
0.0
 13
1480.371457272169
 23
2405.271545699223
 33
0.0
  0
MTEXT
  5
134A
330
1344
100
AcDbEntity
  8
0
  6
ByBlock
 62
     0
100
AcDbMText
 10
1461.621457272169
 20
2007.771545699222
 30
0.0
 40
25.0
 41
0.0
 71
     5
 72
     1
  1
\A1;3@265=795
 11
0.0000000000000001
 21
1.0
 31
0.0
 73
     1
 44
1.0
  0
POINT
  5
134B
330
1344
100
AcDbEntity
  8
DEFPOINTS
  6
ByBlock
 62
     0
100
AcDbPoint
 10
1330.371457272169
 20
1610.271545699222
 30
0.0
  0
POINT
  5
134C
330
1344
100
AcDbEntity
  8
DEFPOINTS
  6
ByBlock
 62
     0
100
AcDbPoint
 10
1330.371457272169
 20
2405.271545699223
 30
0.0
  0
POINT
  5
134D
330
1344
100
AcDbEntity
  8
DEFPOINTS
  6
ByBlock
 62
     0
100
AcDbPoint
 10
1480.371457272169
 20
2405.271545699223
 30
0.0
  0
ENDBLK
  5
134F
330
1344
100
AcDbEntity
  8
0
100
AcDbBlockEnd
  0
BLOCK
  5
135C
330
1350
100
AcDbEntity
  8
0
100
AcDbBlockBegin
  2
*D9
 70
     1
 10
0.0
 20
0.0
 30
0.0
  3
*D9
  1

  0
LINE
  5
1351
330
1350
100
AcDbEntity
  8
0
  6
ByBlock
 62
     0
100
AcDbLine
 10
2092.336011486938
 20
2518.290364659071
 30
0.0
 11
2092.336011486938
 21
2716.001100442128
 31
0.0
  0
LINE
  5
1352
330
1350
100
AcDbEntity
  8
0
  6
ByBlock
 62
     0
100
AcDbLine
 10
2052.336011486939
 20
2518.290364659071
 30
0.0
 11
2052.336011486939
 21
2716.001100442128
 31
0.0
  0
LINE
  5
1353
330
1350
100
AcDbEntity
  8
0
  6
ByBlock
 62
     0
100
AcDbLine
 10
2117.336011486938
 20
2703.501100442128
 30
0.0
 11
2142.336011486939
 21
2703.501100442128
 31
0.0
  0
LINE
  5
1354
330
1350
100
AcDbEntity
  8
0
  6
ByBlock
 62
     0
100
AcDbLine
 10
2027.336011486939
 20
2703.501100442128
 30
0.0
 11
1956.970842947613
 21
2703.501100442128
 31
0.0
  0
LINE
  5
1355
330
1350
100
AcDbEntity
  8
0
  6
ByBlock
 62
     0
100
AcDbLine
 10
2092.336011486938
 20
2703.501100442128
 30
0.0
 11
2052.336011486939
 21
2703.501100442128
 31
0.0
  0
SOLID
  5
1356
330
1350
100
AcDbEntity
  8
0
  6
ByBlock
 62
     0
100
AcDbTrace
 10
2117.336011486938
 20
2707.667767108794
 30
0.0
 11
2117.336011486938
 21
2699.334433775462
 31
0.0
 12
2092.336011486938
 22
2703.501100442128
 32
0.0
 13
2092.336011486938
 23
2703.501100442128
 33
0.0
  0
SOLID
  5
1357
330
1350
100
AcDbEntity
  8
0
  6
ByBlock
 62
     0
100
AcDbTrace
 10
2027.336011486939
 20
2707.667767108794
 30
0.0
 11
2027.336011486939
 21
2699.334433775462
 31
0.0
 12
2052.336011486939
 22
2703.501100442128
 32
0.0
 13
2052.336011486939
 23
2703.501100442128
 33
0.0
  0
MTEXT
  5
1358
330
1350
100
AcDbEntity
  8
0
  6
ByBlock
 62
     0
100
AcDbMText
 10
1979.653427217276
 20
2722.251100442128
 30
0.0
 40
25.0
 41
0.0
 71
     5
 72
     1
  1
\A1;40
 73
     1
 44
1.0
  0
POINT
  5
1359
330
1350
100
AcDbEntity
  8
DEFPOINTS
  6
ByBlock
 62
     0
100
AcDbPoint
 10
2092.336011486938
 20
2512.040364659071
 30
0.0
  0
POINT
  5
135A
330
1350
100
AcDbEntity
  8
DEFPOINTS
  6
ByBlock
 62
     0
100
AcDbPoint
 10
2052.336011486939
 20
2512.040364659071
 30
0.0
  0
POINT
  5
135B
330
1350
100
AcDbEntity
  8
DEFPOINTS
  6
ByBlock
 62
     0
100
AcDbPoint
 10
2052.336011486939
 20
2703.501100442128
 30
0.0
  0
ENDBLK
  5
135D
330
1350
100
AcDbEntity
  8
0
100
AcDbBlockEnd
  0
BLOCK
  5
174F
330
135F
100
AcDbEntity
  8
0
100
AcDbBlockBegin
  2
A$C771F5B68
 70
     0
 10
0.0
 20
0.0
 30
0.0
  3
A$C771F5B68
  1

  0
DIMENSION
  5
1360
330
135F
100
AcDbEntity
  8
上書線
100
AcDbDimension
  2
*D8
 10
1479.906455613949
 20
2315.218426848239
 30
0.0
 11
1461.156455613949
 21
1917.718426848239
 31
0.0
 12
-0.4650016582199897
 22
-90.05311885098308
 32
0.0
  1
3@265=795
 71
     5
 42
-1.0
  3
STANDARD
100
AcDbAlignedDimension
 13
1329.906455613949
 23
1520.21842684824
 33
0.0
 14
1329.906455613949
 24
2315.218426848239
 34
0.0
 50
90.0
100
AcDbRotatedDimension
1001
ACAD
1000
DSTYLE
1002
{
1070
    40
1040
10.0
1070
    41
1040
2.5
1070
    42
1040
0.625
1070
    43
1040
3.75
1070
    44
1040
1.25
1070
    73
1070
     0
1070
    74
1070
     0
1070
    77
1070
     1
1070
    78
1070
     8
1070
   140
1040
2.5
1070
   141
1040
2.5
1070
   143
1040
0.0394
1070
   147
1040
0.625
1070
   171
1070
     4
1070
   172
1070
     1
1070
   273
1070
     8
1070
   274
1070
     4
1070
   277
1070
     6
1002
}
  0
DIMENSION
  5
1361
330
135F
100
AcDbEntity
  8
上書線
100
AcDbDimension
  2
*D7
 10
1479.906455613949
 20
1520.218426848239
 30
0.0
 11
1461.156455613949
 21
1470.218426848239
 31
0.0
 12
-0.4650016582199897
 22
-90.05311885098308
 32
0.0
 71
     5
 42
-1.0
  3
STANDARD
100
AcDbAlignedDimension
 13
1329.906455613949
 23
1420.218426848239
 33
0.0
 14
1329.906455613949
 24
1520.218426848239
 34
0.0
 50
90.0
100
AcDbRotatedDimension
1001
ACAD
1000
DSTYLE
1002
{
1070
    40
1040
10.0
1070
    41
1040
2.5
1070
    42
1040
0.625
1070
    43
1040
3.75
1070
    44
1040
1.25
1070
    73
1070
     0
1070
    74
1070
     0
1070
    77
1070
     1
1070
    78
1070
     8
1070
   140
1040
2.5
1070
   141
1040
2.5
1070
   143
1040
0.0394
1070
   147
1040
0.625
1070
   171
1070
     4
1070
   172
1070
     1
1070
   273
1070
     8
1070
   274
1070
     4
1070
   277
1070
     6
1002
}
  0
DIMENSION
  5
1362
330
135F
100
AcDbEntity
  8
上書線
100
AcDbDimension
  2
*D6
 10
1479.906455613949
 20
1395.218426848239
 30
0.0
 11
1461.156455613949
 21
1323.027415612284
 31
0.0
 12
-0.4650016582199897
 22
-90.05311885098308
 32
0.0
 71
     5
 42
-1.0
  3
STANDARD
100
AcDbAlignedDimension
 13
1329.906455613949
 23
1420.218426848239
 33
0.0
 14
1329.906455613949
 24
1395.218426848239
 34
0.0
 50
90.0
100
AcDbRotatedDimension
1001
ACAD
1000
DSTYLE
1002
{
1070
    40
1040
10.0
1070
    41
1040
2.5
1070
    42
1040
0.625
1070
    43
1040
3.75
1070
    44
1040
1.25
1070
    73
1070
     0
1070
    74
1070
     0
1070
    77
1070
     1
1070
    78
1070
     8
1070
   140
1040
2.5
1070
   141
1040
2.5
1070
   143
1040
0.0394
1070
   147
1040
0.625
1070
   171
1070
     4
1070
   172
1070
     1
1070
   273
1070
     8
1070
   274
1070
     4
1070
   277
1070
     6
1002
}
  0
DIMENSION
  5
1363
330
135F
100
AcDbEntity
  8
上書線
100
AcDbDimension
  2
*D5
 10
1479.906455613949
 20
2345.218426848239
 30
0.0
 11
1461.156455613949
 21
2417.479662803296
 31
0.0
 12
-0.4650016582199897
 22
-90.05311885098308
 32
0.0
 71
     5
 42
-1.0
  3
STANDARD
100
AcDbAlignedDimension
 13
1329.906455613949
 23
2315.218426848239
 33
0.0
 14
1329.906455613949
 24
2345.218426848239
 34
0.0
 50
90.0
100
AcDbRotatedDimension
1001
ACAD
1000
DSTYLE
1002
{
1070
    40
1040
10.0
1070
    41
1040
2.5
1070
    42
1040
0.625
1070
    43
1040
3.75
1070
    44
1040
1.25
1070
    73
1070
     0
1070
    74
1070
     0
1070
    77
1070
     1
1070
    78
1070
     8
1070
   140
1040
2.5
1070
   141
1040
2.5
1070
   143
1040
0.0394
1070
   147
1040
0.625
1070
   171
1070
     4
1070
   172
1070
     1
1070
   273
1070
     8
1070
   274
1070
     4
1070
   277
1070
     6
1002
}
  0
HATCH
  5
1364
330
135F
100
AcDbEntity
  8
上書線
100
AcDbHatch
 10
0.0
 20
0.0
 30
0.0
210
0.0
220
0.0
230
1.0
  2
ANGLE
 70
     0
 71
     0
 91
        2
 92
        7
 72
     0
 73
     1
 93
        4
 10
1796.690220469823
 20
828.2601980130685
 10
796.6902204698235
 20
828.2601980130685
 10
796.6902204698235
 20
728.2601980130684
 10
1796.690220469823
 20
728.2601980130685
 97
        0
 92
        7
 72
     0
 73
     1
 93
        4
 10
1796.690220469823
 20
328.2601980130684
 10
796.6902204698235
 20
328.2601980130685
 10
796.6902204698234
 20
228.2601980130684
 10
1796.690220469823
 20
228.2601980130684
 97
        0
 75
     0
 76
     1
 52
0.0
 41
3.0
 77
     0
 78
     2
 53
0.0
 43
-0.4650016582199897
 44
-15.17912158980289
 45
0.0
 46
20.955
 79
     2
 49
15.24
 49
-5.714999999999999
 53
90.0
 43
-0.4650016582199897
 44
-15.17912158980289
 45
-20.955
 46
0.0000000000000013
 79
     2
 49
15.24
 49
-5.714999999999999
 47
2.215407867627659
 98
        2
 10
1444.350213267505
 20
785.3580316973748
 10
1357.879251369427
 20
284.6758564745759
  0
ARC
  5
1365
330
135F
100
AcDbEntity
  8
上書線
100
AcDbCircle
 10
1441.262709129823
 20
614.4601980130685
 30
0.0
 40
16.50000000000011
100
AcDbArc
 50
180.0
 51
0.000000000000007
  0
ARC
  5
1366
330
135F
100
AcDbEntity
  8
上書線
100
AcDbCircle
 10
1441.262709129823
 20
573.1601980130683
 30
0.0
 40
16.5
100
AcDbArc
 50
0.0000000000004141
 51
179.9999999999996
  0
ARC
  5
1367
330
135F
100
AcDbEntity
  8
上書線
100
AcDbCircle
 10
1441.262709129823
 20
442.0601980130682
 30
0.0
 40
16.50000000000011
100
AcDbArc
 50
0.0000000000004141
 51
179.9999999999996
  0
ARC
  5
1368
330
135F
100
AcDbEntity
  8
上書線
100
AcDbCircle
 10
1441.262709129823
 20
483.3601980130686
 30
0.0
 40
16.50000000000022
100
AcDbArc
 50
180.0000000000006
 51
359.9999999999994
  0
ARC
  5
1369
330
135F
100
AcDbEntity
  8
上書線
100
AcDbCircle
 10
1441.262709129823
 20
353.0601980130682
 30
0.0
 40
16.49999999999988
100
AcDbArc
 50
179.9999999999992
 51
0.0000000000007958
  0
ARC
  5
136A
330
135F
100
AcDbEntity
  8
上書線
100
AcDbCircle
 10
1441.262709129823
 20
703.4601980130685
 30
0.0
 40
16.5
100
AcDbArc
 50
0.000000000000007
 51
180.0
  0
LINE
  5
136B
330
135F
100
AcDbEntity
  8
上書線
100
AcDbLine
 10
799.1902204698237
 20
328.2601980130684
 30
0.0
 11
1794.190220469823
 21
328.2601980130687
 31
0.0
  0
LINE
  5
136C
330
135F
100
AcDbEntity
  8
上書線
100
AcDbLine
 10
796.6902204698235
 20
728.2601980130684
 30
0.0
 11
1794.190220469823
 21
728.2601980130687
 31
0.0
  0
LINE
  5
136D
330
135F
100
AcDbEntity
  8
点線
100
AcDbLine
 10
1796.690220469823
 20
328.2601980130684
 30
0.0
 11
796.6902204698235
 21
328.2601980130684
 31
0.0
  0
LINE
  5
136E
330
135F
100
AcDbEntity
  8
点線
100
AcDbLine
 10
1796.690220469823
 20
378.2601980130684
 30
0.0
 11
796.6902204698235
 21
378.2601980130684
 31
0.0
  0
LINE
  5
136F
330
135F
100
AcDbEntity
  8
点線
100
AcDbLine
 10
1796.690220469823
 20
678.2601980130684
 30
0.0
 11
796.6902204698235
 21
678.2601980130684
 31
0.0
  0
LINE
  5
1370
330
135F
100
AcDbEntity
  8
点線
100
AcDbLine
 10
1796.690220469823
 20
728.2601980130684
 30
0.0
 11
796.6902204698235
 21
728.2601980130684
 31
0.0
  0
LINE
  5
1371
330
135F
100
AcDbEntity
  8
0
  6
ByBlock
 62
     0
100
AcDbLine
 10
824.1902204698234
 20
989.9679664432403
 30
0.0
 11
1769.190220469823
 21
989.9679664432403
 31
0.0
  0
LINE
  5
1372
330
135F
100
AcDbEntity
  8
上線
100
AcDbLine
 10
4196.832919401553
 20
2947.34108876557
 30
0.0
 11
-0.0000101458608697
 21
2947.34108876557
 31
0.0
  0
LINE
  5
1373
330
135F
100
AcDbEntity
  8
上線
100
AcDbLine
 10
-0.0000101458608696
 20
0.0000027338701329
 30
0.0
 11
4196.832919401553
 21
0.0000027338701329
 31
0.0
  0
LINE
  5
1374
330
135F
100
AcDbEntity
  8
上線
100
AcDbLine
 10
796.6902204698235
 20
228.2601980130684
 30
0.0
 11
2796.690220469823
 21
228.2601980130684
 31
0.0
  0
LINE
  5
1375
330
135F
100
AcDbEntity
  8
上線
100
AcDbLine
 10
2796.690220469823
 20
828.2601980130685
 30
0.0
 11
796.6902204698235
 21
828.2601980130685
 31
0.0
  0
LINE
  5
1376
330
135F
100
AcDbEntity
  8
上線
100
AcDbLine
 10
-0.0000101458608697
 20
2947.341088765569
 30
0.0
 11
-0.0000101458608697
 21
0.0000027338701329
 31
0.0
  0
LINE
  5
1377
330
135F
100
AcDbEntity
  8
中心線
100
AcDbLine
 10
989.9006217137248
 20
1532.05983460975
 30
0.0
 11
989.9006217137248
 21
1205.119018055317
 31
0.0
  0
LINE
  5
1378
330
135F
100
AcDbEntity
  8
上書線
100
AcDbLine
 10
1301.905318209823
 20
378.2601980130684
 30
0.0
 11
1301.905318209823
 21
353.0601980130684
 31
0.0
  0
LINE
  5
1379
330
135F
100
AcDbEntity
  8
上書線
100
AcDbLine
 10
1334.905318209823
 20
376.9601980130683
 30
0.0
 11
1334.905318209823
 21
353.0601980130684
 31
0.0
  0
LINE
  5
137A
330
135F
100
AcDbEntity
  8
上書線
100
AcDbLine
 10
1383.811345489823
 20
378.2601980130684
 30
0.0
 11
1383.811345489823
 21
353.0601980130684
 31
0.0
  0
LINE
  5
137B
330
135F
100
AcDbEntity
  8
上書線
100
AcDbLine
 10
1342.856681849823
 20
442.0601980130684
 30
0.0
 11
1342.856681849823
 21
353.0601980130684
 31
0.0
  0
LINE
  5
137C
330
135F
100
AcDbEntity
  8
上書線
100
AcDbLine
 10
1375.856681849823
 20
442.0601980130684
 30
0.0
 11
1375.856681849823
 21
353.0601980130684
 31
0.0
  0
LINE
  5
137D
330
135F
100
AcDbEntity
  8
上書線
100
AcDbLine
 10
1416.432709189823
 20
376.9601980130683
 30
0.0
 11
1416.432709189823
 21
353.0601980130684
 31
0.0
  0
LINE
  5
137E
330
135F
100
AcDbEntity
  8
上書線
100
AcDbLine
 10
1424.762709129822
 20
442.0601980130684
 30
0.0
 11
1424.762709129823
 21
353.0601980130684
 31
0.0
  0
LINE
  5
137F
330
135F
100
AcDbEntity
  8
上書線
100
AcDbLine
 10
1291.475122729824
 20
378.2601980130684
 30
0.0
 11
1291.475122729824
 21
353.0601980130684
 31
0.0
  0
LINE
  5
1380
330
135F
100
AcDbEntity
  8
上書線
100
AcDbLine
 10
1258.475122729824
 20
376.9601980130683
 30
0.0
 11
1258.475122729824
 21
353.0601980130684
 31
0.0
  0
LINE
  5
1381
330
135F
100
AcDbEntity
  8
上書線
100
AcDbLine
 10
1217.523759089824
 20
442.0601980130684
 30
0.0
 11
1217.523759089824
 21
353.0601980130684
 31
0.0
  0
LINE
  5
1382
330
135F
100
AcDbEntity
  8
上書線
100
AcDbLine
 10
1250.523759089824
 20
442.0601980130684
 30
0.0
 11
1250.523759089824
 21
353.0601980130684
 31
0.0
  0
LINE
  5
1383
330
135F
100
AcDbEntity
  8
上書線
100
AcDbLine
 10
1209.569095449824
 20
378.2601980130684
 30
0.0
 11
1209.569095449824
 21
353.0601980130684
 31
0.0
  0
LINE
  5
1384
330
135F
100
AcDbEntity
  8
上書線
100
AcDbLine
 10
1176.947731749824
 20
376.9601980130683
 30
0.0
 11
1176.947731749823
 21
353.0601980130684
 31
0.0
  0
LINE
  5
1385
330
135F
100
AcDbEntity
  8
上書線
100
AcDbLine
 10
1168.617731809824
 20
442.0601980130684
 30
0.0
 11
1168.617731809824
 21
353.0601980130684
 31
0.0
  0
LINE
  5
1386
330
135F
100
AcDbEntity
  8
上書線
100
AcDbLine
 10
1135.617731809823
 20
442.0601980130684
 30
0.0
 11
1135.617731809824
 21
353.0601980130684
 31
0.0
  0
LINE
  5
1387
330
135F
100
AcDbEntity
  8
上書線
100
AcDbLine
 10
1127.663067809824
 20
378.2601980130684
 30
0.0
 11
1127.663067809824
 21
353.0601980130684
 31
0.0
  0
LINE
  5
1388
330
135F
100
AcDbEntity
  8
上書線
100
AcDbLine
 10
1094.663067809824
 20
376.9601980130683
 30
0.0
 11
1094.663067809823
 21
353.0601980130684
 31
0.0
  0
LINE
  5
1389
330
135F
100
AcDbEntity
  8
上書線
100
AcDbLine
 10
1053.711703809823
 20
442.0601980130684
 30
0.0
 11
1053.711703809824
 21
353.0601980130684
 31
0.0
  0
LINE
  5
138A
330
135F
100
AcDbEntity
  8
上書線
100
AcDbLine
 10
1086.711703809824
 20
442.0601980130684
 30
0.0
 11
1086.711703809823
 21
353.0601980130684
 31
0.0
  0
LINE
  5
138B
330
135F
100
AcDbEntity
  8
上書線
100
AcDbLine
 10
1045.757039809823
 20
378.2601980130684
 30
0.0
 11
1045.757039809823
 21
353.0601980130684
 31
0.0
  0
LINE
  5
138C
330
135F
100
AcDbEntity
  8
上書線
100
AcDbLine
 10
1012.757039809824
 20
376.9601980130683
 30
0.0
 11
1012.757039809824
 21
353.0601980130684
 31
0.0
  0
LINE
  5
138D
330
135F
100
AcDbEntity
  8
上書線
100
AcDbLine
 10
971.8056761698237
 20
442.0601980130684
 30
0.0
 11
971.8056761698239
 21
353.0601980130684
 31
0.0
  0
LINE
  5
138E
330
135F
100
AcDbEntity
  8
上書線
100
AcDbLine
 10
1004.805676169824
 20
442.0601980130684
 30
0.0
 11
1004.805676169823
 21
353.0601980130684
 31
0.0
  0
LINE
  5
138F
330
135F
100
AcDbEntity
  8
上書線
100
AcDbLine
 10
807.4902204698235
 20
442.0601980130684
 30
0.0
 11
807.4902204698236
 21
353.0601980130684
 31
0.0
  0
LINE
  5
1390
330
135F
100
AcDbEntity
  8
上書線
100
AcDbLine
 10
840.4902204698236
 20
442.0601980130684
 30
0.0
 11
840.4902204698235
 21
353.0601980130684
 31
0.0
  0
LINE
  5
1391
330
135F
100
AcDbEntity
  8
上線
100
AcDbLine
 10
799.1902204698235
 20
728.2601980130684
 30
0.0
 11
799.1902204698236
 21
328.2601980130684
 31
0.0
  0
LINE
  5
1392
330
135F
100
AcDbEntity
  8
上線
100
AcDbLine
 10
796.6902204698235
 20
828.2601980130685
 30
0.0
 11
796.6902204698235
 21
228.2601980130684
 31
0.0
  0
LWPOLYLINE
  5
1393
330
135F
100
AcDbEntity
  8
上書線
100
AcDbPolyline
 90
        4
 70
     1
 43
0.0
 10
865.2902204698236
 20
373.3591801846475
 10
948.5202204698238
 20
373.3591801846475
 10
948.5202204698238
 20
333.1612157421802
 10
865.2902204698236
 20
333.1612157421802
  0
MTEXT
  5
1394
102
{ACAD_REACTORS
330
1395
102
}
330
135F
100
AcDbEntity
  8
上線
 48
10.0
100
AcDbMText
 10
978.9272358430917
 20
163.0377901357951
 30
0.0
 40
25.0
 41
0.0
 71
     6
 72
     1
  1
CRG
 73
     1
 44
1.0
  0
LEADER
  5
1395
330
135F
100
AcDbEntity
  8
上線
 48
10.0
100
AcDbLeader
  3
STANDARD
 73
     0
 75
     1
 40
25.0
 41
68.67977528089888
 76
     3
 10
1177.666133596101
 20
351.2948873113737
 30
0.0
 10
1010.177235843091
 20
144.2877901357951
 30
0.0
 10
985.1772358430917
 20
144.2877901357951
 30
0.0
340
1394
1001
ACAD
1000
DSTYLE
1002
{
1070
    78
1070
     8
1070
   270
1070
     8
1070
   140
1040
2.5
1070
    74
1070
     0
1070
   172
1070
     1
1070
    73
1070
     0
1070
    77
1070
     1
1070
    40
1040
10.0
1070
   147
1040
0.625
1070
    42
1040
0.625
1070
    44
1040
1.25
1070
    43
1040
3.75
1070
   141
1040
2.5
1070
    41
1040
2.5
1070
   273
1070
     8
1070
   274
1070
     4
1070
   143
1040
0.0394
1070
   171
1070
     4
1002
}
  0
POINT
  5
1396
330
135F
100
AcDbEntity
  8
DEFPOINTS
  6
ByBlock
 62
     0
 48
10.0
100
AcDbPoint
 10
796.6902204698235
 20
243.2601980130684
 30
0.0
  0
ARC
  5
1397
330
135F
100
AcDbEntity
  8
上書線
100
AcDbCircle
 10
823.9902204698235
 20
353.0601980130682
 30
0.0
 40
16.49999999999988
100
AcDbArc
 50
179.9999999999992
 51
0.0000000000007761
  0
ARC
  5
1398
330
135F
100
AcDbEntity
  8
上書線
100
AcDbCircle
 10
883.6100335908165
 20
353.2601979634139
 30
0.0
 40
10.10873319594241
100
AcDbArc
 50
85.90842018539047
 51
274.0915798146096
  0
CIRCLE
  5
1399
330
135F
100
AcDbEntity
  8
上線
100
AcDbCircle
 10
906.6902294753058
 20
353.2601979634139
 30
0.0
 40
8.0
  0
CIRCLE
  5
139A
330
135F
100
AcDbEntity
  8
上線
100
AcDbCircle
 10
906.6902294753058
 20
353.2601979634139
 30
0.0
 40
10.0
  0
LINE
  5
139B
330
135F
100
AcDbEntity
  8
上書線
100
AcDbLine
 10
884.3313003948745
 20
363.3431668230362
 30
0.0
 11
929.0491585557372
 21
363.3431668230362
 31
0.0
  0
LINE
  5
139C
330
135F
100
AcDbEntity
  8
上書線
100
AcDbLine
 10
884.3313003948745
 20
343.1772291037916
 30
0.0
 11
929.0491585557372
 21
343.1772291037915
 31
0.0
  0
ARC
  5
139D
330
135F
100
AcDbEntity
  8
上書線
100
AcDbCircle
 10
929.7704253597951
 20
353.2601979634139
 30
0.0
 40
10.1087331959424
100
AcDbArc
 50
265.908420185391
 51
94.09157981460893
  0
CIRCLE
  5
139E
330
135F
100
AcDbEntity
  8
上線
100
AcDbCircle
 10
906.6902294753058
 20
353.260198062723
 30
0.0
 40
8.0
  0
CIRCLE
  5
139F
330
135F
100
AcDbEntity
  8
上線
100
AcDbCircle
 10
906.6902294753058
 20
353.260198062723
 30
0.0
 40
10.0
  0
ARC
  5
13A0
330
135F
100
AcDbEntity
  8
上書線
100
AcDbCircle
 10
1193.069095449824
 20
353.0601980130683
 30
0.0
 40
16.5
100
AcDbArc
 50
179.9999999999994
 51
0.0000000000005979
  0
ARC
  5
13A1
330
135F
100
AcDbEntity
  8
上書線
100
AcDbCircle
 10
1070.211703809823
 20
353.0601980130682
 30
0.0
 40
16.49999999999988
100
AcDbArc
 50
179.9999999999992
 51
0.0000000000007761
  0
ARC
  5
13A2
330
135F
100
AcDbEntity
  8
上書線
100
AcDbCircle
 10
988.3056761698238
 20
353.0601980130682
 30
0.0
 40
16.49999999999988
100
AcDbArc
 50
179.9999999999992
 51
0.0000000000007761
  0
ARC
  5
13A3
330
135F
100
AcDbEntity
  8
上書線
100
AcDbCircle
 10
1029.257039809823
 20
353.0601980130683
 30
0.0
 40
16.5
100
AcDbArc
 50
179.9999999999994
 51
0.0000000000005979
  0
ARC
  5
13A4
330
135F
100
AcDbEntity
  8
上書線
100
AcDbCircle
 10
1111.163067809824
 20
353.0601980130683
 30
0.0
 40
16.5
100
AcDbArc
 50
179.9999999999994
 51
0.0000000000005979
  0
ARC
  5
13A5
330
135F
100
AcDbEntity
  8
上書線
100
AcDbCircle
 10
1152.117731809823
 20
353.0601980130682
 30
0.0
 40
16.49999999999988
100
AcDbArc
 50
179.9999999999992
 51
0.0000000000007761
  0
ARC
  5
13A6
330
135F
100
AcDbEntity
  8
上書線
100
AcDbCircle
 10
1318.405318209823
 20
353.0601980130683
 30
0.0
 40
16.5
100
AcDbArc
 50
179.9999999999993
 51
0.0000000000005668
  0
ARC
  5
13A7
330
135F
100
AcDbEntity
  8
上書線
100
AcDbCircle
 10
1234.023759089823
 20
353.0601980130682
 30
0.0
 40
16.49999999999988
100
AcDbArc
 50
179.9999999999992
 51
0.0000000000007761
  0
ARC
  5
13A8
330
135F
100
AcDbEntity
  8
上書線
100
AcDbCircle
 10
1274.975122729824
 20
353.0601980130683
 30
0.0
 40
16.5
100
AcDbArc
 50
179.9999999999994
 51
0.0000000000005979
  0
ARC
  5
13A9
330
135F
100
AcDbEntity
  8
上書線
100
AcDbCircle
 10
1359.356681849823
 20
353.0601980130682
 30
0.0
 40
16.49999999999988
100
AcDbArc
 50
179.9999999999992
 51
0.0000000000007958
  0
ARC
  5
13AA
330
135F
100
AcDbEntity
  8
上書線
100
AcDbCircle
 10
1400.311345489823
 20
353.0601980130683
 30
0.0
 40
16.5
100
AcDbArc
 50
179.9999999999993
 51
0.0000000000005668
  0
MTEXT
  5
13AB
330
135F
100
AcDbEntity
  8
上線
 48
10.0
100
AcDbMText
 10
235.7158609057441
 20
623.8453913061175
 30
0.0
 40
40.0
 41
558.2059
 71
     1
 72
     5
  1
平面図   
 73
     1
 44
1.0
  0
LINE
  5
13AC
330
135F
100
AcDbEntity
  8
上線
100
AcDbLine
 10
211.6609914806667
 20
652.867491055083
 30
0.0
 11
211.6609914806667
 21
553.1631083090769
 31
0.0
  0
LINE
  5
13AD
330
135F
100
AcDbEntity
  8
上線
100
AcDbLine
 10
429.5903367384253
 20
553.1631083090769
 30
0.0
 11
429.5903367384253
 21
654.064333745571
 31
0.0
  0
LINE
  5
13AE
330
135F
100
AcDbEntity
  8
上線
100
AcDbLine
 10
214.6609914806667
 20
649.8674910550826
 30
0.0
 11
214.6609914806667
 21
556.163108309077
 31
0.0
  0
LINE
  5
13AF
330
135F
100
AcDbEntity
  8
上線
100
AcDbLine
 10
426.5903367384253
 20
556.163108309077
 30
0.0
 11
426.5903367384253
 21
651.0643337455704
 31
0.0
  0
LINE
  5
13B0
330
135F
100
AcDbEntity
  8
上線
100
AcDbLine
 10
211.6609914806667
 20
553.1631083090769
 30
0.0
 11
429.5903367384253
 21
553.1631083090769
 31
0.0
  0
LINE
  5
13B1
330
135F
100
AcDbEntity
  8
上線
100
AcDbLine
 10
214.6609914806667
 20
556.163108309077
 30
0.0
 11
426.5903367384253
 21
556.163108309077
 31
0.0
  0
LINE
  5
13B2
330
135F
100
AcDbEntity
  8
上線
100
AcDbLine
 10
429.5903367384253
 20
654.064333745571
 30
0.0
 11
211.6609914806667
 21
654.0643337455708
 31
0.0
  0
LINE
  5
13B3
330
135F
100
AcDbEntity
  8
上線
100
AcDbLine
 10
426.5903367384253
 20
651.0643337455704
 30
0.0
 11
214.6609914806667
 21
651.0643337455704
 31
0.0
  0
LINE
  5
13B4
330
135F
100
AcDbEntity
  8
0
  6
ByBlock
 62
     0
100
AcDbLine
 10
796.6902204698235
 20
858.2618742526937
 30
0.0
 11
796.6902204698235
 21
1002.467119529806
 31
0.0
  0
LINE
  5
13B5
330
135F
100
AcDbEntity
  8
0
  6
ByBlock
 62
     0
100
AcDbLine
 10
799.1902204698235
 20
858.2618742526937
 30
0.0
 11
799.1902204698235
 21
1002.467119529806
 31
0.0
  0
LINE
  5
13B6
330
135F
100
AcDbEntity
  8
0
  6
ByBlock
 62
     0
100
AcDbLine
 10
799.1902204698235
 20
858.2618742526939
 30
0.0
 11
799.1902204698235
 21
1002.258784695559
 31
0.0
  0
LWPOLYLINE
  5
13B7
330
135F
100
AcDbEntity
  8
上書線
100
AcDbPolyline
 90
        4
 70
     1
 43
0.0
 10
865.2902204698236
 20
683.1612158414893
 10
948.5202204698238
 20
683.1612158414893
 10
948.5202204698238
 20
723.3591802839566
 10
865.2902204698236
 20
723.3591802839566
  0
ARC
  5
13B8
330
135F
100
AcDbEntity
  8
上書線
100
AcDbCircle
 10
947.3843121698239
 20
414.0601980130684
 30
0.0
 40
16.5
100
AcDbArc
 50
180.0
 51
0.0
  0
ARC
  5
13B9
330
135F
100
AcDbEntity
  8
上書線
100
AcDbCircle
 10
947.3843121698237
 20
548.9601980130686
 30
0.0
 40
16.49999999999988
100
AcDbArc
 50
180.0000000000004
 51
359.9999999999996
  0
ARC
  5
13BA
330
135F
100
AcDbEntity
  8
上書線
100
AcDbCircle
 10
947.3843121698239
 20
507.5601980130683
 30
0.0
 40
16.5
100
AcDbArc
 50
0.0
 51
180.0
  0
ARC
  5
13BB
330
135F
100
AcDbEntity
  8
上書線
100
AcDbCircle
 10
947.3843121698237
 20
642.4601980130686
 30
0.0
 40
16.49999999999988
100
AcDbArc
 50
359.9999999999996
 51
180.0000000000004
  0
LWPOLYLINE
  5
13BC
330
135F
100
AcDbEntity
  8
上書線
100
AcDbPolyline
 90
        2
 70
     0
 43
0.0
 10
930.884312169824
 20
642.4601980130685
 10
930.884312169824
 20
548.9601980130652
  0
LINE
  5
13BD
330
135F
100
AcDbEntity
  8
上書線
100
AcDbLine
 10
922.9329574753061
 20
642.4601980130614
 30
0.0
 11
922.9329574753061
 21
614.466619746483
 31
0.0
  0
LINE
  5
13BE
330
135F
100
AcDbEntity
  8
上書線
100
AcDbLine
 10
888.9329574753061
 20
642.4601980130692
 30
0.0
 11
888.9329574753061
 21
614.466619746483
 31
0.0
  0
LWPOLYLINE
  5
13BF
330
135F
100
AcDbEntity
  8
上書線
100
AcDbPolyline
 90
        2
 70
     0
 43
0.0
 10
881.4115844698237
 20
548.9601980130754
 10
881.4115844698237
 20
642.4601980130685
  0
LWPOLYLINE
  5
13C0
330
135F
100
AcDbEntity
  8
上書線
100
AcDbPolyline
 90
        2
 70
     0
 43
0.0
 10
848.4115844698237
 20
642.4601980130685
 10
848.4115844698237
 20
548.9601980130652
  0
LINE
  5
13C1
330
135F
100
AcDbEntity
  8
上線
100
AcDbLine
 10
840.4902204698236
 20
703.4601980130685
 30
0.0
 11
840.4902204698236
 21
614.4601980130685
 31
0.0
  0
LINE
  5
13C2
330
135F
100
AcDbEntity
  8
上線
100
AcDbLine
 10
807.4902204698233
 20
703.4601980130685
 30
0.0
 11
807.4902204698235
 21
614.4601980130685
 31
0.0
  0
LINE
  5
13C3
330
135F
100
AcDbEntity
  8
上書線
100
AcDbLine
 10
930.884312169824
 20
507.560198013065
 30
0.0
 11
930.884312169824
 21
414.0601980130684
 31
0.0
  0
LWPOLYLINE
  5
13C4
330
135F
100
AcDbEntity
  8
上書線
100
AcDbPolyline
 90
        2
 70
     0
 43
0.0
 10
930.884312169824
 20
507.560198013065
 10
930.884312169824
 20
414.060198013065
  0
LINE
  5
13C5
330
135F
100
AcDbEntity
  8
上線
100
AcDbLine
 10
888.9329484698235
 20
573.1601980130684
 30
0.0
 11
888.9329484698237
 21
483.3601980130686
 31
0.0
  0
LINE
  5
13C6
330
135F
100
AcDbEntity
  8
上書線
100
AcDbLine
 10
921.9329484698235
 20
573.1601980130684
 30
0.0
 11
921.9329484698242
 21
483.3601980130684
 31
0.0
  0
LWPOLYLINE
  5
13C7
330
135F
100
AcDbEntity
  8
上書線
100
AcDbPolyline
 90
        2
 70
     0
 43
0.0
 10
881.4115844698237
 20
414.0601980130752
 10
881.4115844698237
 20
507.5601980130752
  0
LINE
  5
13C8
330
135F
100
AcDbEntity
  8
上書線
100
AcDbLine
 10
881.4115844698237
 20
507.5601980130752
 30
0.0
 11
881.4115844698237
 21
414.0601980130752
 31
0.0
  0
LINE
  5
13C9
330
135F
100
AcDbEntity
  8
上書線
100
AcDbLine
 10
848.4115844698237
 20
507.560198013065
 30
0.0
 11
848.4115844698237
 21
414.0601980130684
 31
0.0
  0
LWPOLYLINE
  5
13CA
330
135F
100
AcDbEntity
  8
上書線
100
AcDbPolyline
 90
        2
 70
     0
 43
0.0
 10
848.4115844698237
 20
507.560198013065
 10
848.4115844698237
 20
414.060198013065
  0
LINE
  5
13CB
330
135F
100
AcDbEntity
  8
上書線
100
AcDbLine
 10
840.4902204698233
 20
573.1601980130684
 30
0.0
 11
840.490220469824
 21
483.3601980130684
 31
0.0
  0
LINE
  5
13CC
330
135F
100
AcDbEntity
  8
上線
100
AcDbLine
 10
807.4902204698233
 20
573.1601980130684
 30
0.0
 11
807.4902204698235
 21
483.3601980130686
 31
0.0
  0
ARC
  5
13CD
330
135F
100
AcDbEntity
  8
上書線
100
AcDbCircle
 10
823.9902204698235
 20
442.0601980130682
 30
0.0
 40
16.50000000000011
100
AcDbArc
 50
0.0000000000003997
 51
179.9999999999996
  0
ARC
  5
13CE
330
135F
100
AcDbEntity
  8
上書線
100
AcDbCircle
 10
823.9902204698237
 20
483.3601980130686
 30
0.0
 40
16.50000000000022
100
AcDbArc
 50
180.0000000000005
 51
359.9999999999993
  0
LINE
  5
13CF
330
135F
100
AcDbEntity
  8
上書線
100
AcDbLine
 10
922.9329574753061
 20
442.0774369467415
 30
0.0
 11
922.9329574753061
 21
414.0601980130756
 31
0.0
  0
LINE
  5
13D0
330
135F
100
AcDbEntity
  8
上書線
100
AcDbLine
 10
888.9329574753061
 20
442.0774369467483
 30
0.0
 11
888.9329574753061
 21
414.0601980130685
 31
0.0
  0
ARC
  5
13D1
330
135F
100
AcDbEntity
  8
上書線
100
AcDbCircle
 10
864.9115844698238
 20
414.0601980130684
 30
0.0
 40
16.5
100
AcDbArc
 50
180.0
 51
0.0
  0
ARC
  5
13D2
330
135F
100
AcDbEntity
  8
上書線
100
AcDbCircle
 10
905.9329574753059
 20
414.5677737706442
 30
0.0
 40
17.00757575757564
100
AcDbArc
 50
181.7101947925336
 51
358.2898052074663
  0
ARC
  5
13D3
330
135F
100
AcDbEntity
  8
上書線
100
AcDbCircle
 10
905.9329574753059
 20
441.5442612285968
 30
0.0
 40
17.00835901392084
100
AcDbArc
 50
1.79639457812331
 51
178.2036054218766
  0
ARC
  5
13D4
330
135F
100
AcDbEntity
  8
上書線
100
AcDbCircle
 10
905.4329484698239
 20
483.3601980130686
 30
0.0
 40
16.50000000000022
100
AcDbArc
 50
180.0000000000005
 51
359.9999999999993
  0
ARC
  5
13D5
330
135F
100
AcDbEntity
  8
上書線
100
AcDbCircle
 10
823.9902204698234
 20
573.1601980130683
 30
0.0
 40
16.5
100
AcDbArc
 50
0.0000000000003997
 51
179.9999999999996
  0
ARC
  5
13D6
330
135F
100
AcDbEntity
  8
上書線
100
AcDbCircle
 10
823.9902204698235
 20
614.4601980130685
 30
0.0
 40
16.50000000000011
100
AcDbArc
 50
180.0
 51
0.0
  0
POINT
  5
13D7
330
135F
100
AcDbEntity
  8
DEFPOINTS
  6
ByBlock
 62
     0
 48
10.0
100
AcDbPoint
 10
796.6902204698235
 20
513.2601980130685
 30
0.0
  0
ARC
  5
13D8
330
135F
100
AcDbEntity
  8
上書線
100
AcDbCircle
 10
864.9115844698238
 20
507.5601980130683
 30
0.0
 40
16.5
100
AcDbArc
 50
0.0
 51
180.0
  0
ARC
  5
13D9
330
135F
100
AcDbEntity
  8
上書線
100
AcDbCircle
 10
864.9115844698236
 20
548.9601980130686
 30
0.0
 40
16.49999999999988
100
AcDbArc
 50
180.0000000000004
 51
359.9999999999996
  0
ARC
  5
13DA
330
135F
100
AcDbEntity
  8
上書線
100
AcDbCircle
 10
905.9329574753061
 20
614.9741955040556
 30
0.0
 40
17.00757575757564
100
AcDbArc
 50
181.7101947925096
 51
358.2898052074428
  0
ARC
  5
13DB
330
135F
100
AcDbEntity
  8
上書線
100
AcDbCircle
 10
905.4329484698236
 20
573.1601980130683
 30
0.0
 40
16.5
100
AcDbArc
 50
0.0000000000003997
 51
179.9999999999996
  0
ARC
  5
13DC
330
135F
100
AcDbEntity
  8
上書線
100
AcDbCircle
 10
823.9902204698235
 20
703.4601980130685
 30
0.0
 40
16.5
100
AcDbArc
 50
0.0
 51
180.0
  0
ARC
  5
13DD
330
135F
100
AcDbEntity
  8
上書線
100
AcDbCircle
 10
864.9115844698236
 20
642.4601980130686
 30
0.0
 40
16.49999999999988
100
AcDbArc
 50
359.9999999999996
 51
180.0000000000004
  0
ARC
  5
13DE
330
135F
100
AcDbEntity
  8
上書線
100
AcDbCircle
 10
905.9329574753059
 20
641.9526222554927
 30
0.0
 40
17.00757575757564
100
AcDbArc
 50
1.710194792533394
 51
178.2898052074665
  0
ARC
  5
13DF
330
135F
100
AcDbEntity
  8
上書線
100
AcDbCircle
 10
883.6100335908165
 20
703.260198062723
 30
0.0
 40
10.10873319594241
100
AcDbArc
 50
85.90842018539037
 51
274.0915798146095
  0
ARC
  5
13E0
330
135F
100
AcDbEntity
  8
上書線
100
AcDbCircle
 10
929.7704253597951
 20
703.260198062723
 30
0.0
 40
10.1087331959424
100
AcDbArc
 50
265.908420185391
 51
94.09157981460891
  0
LINE
  5
13E1
330
135F
100
AcDbEntity
  8
上書線
100
AcDbLine
 10
884.3313003948745
 20
693.1772292031007
 30
0.0
 11
929.0491585557372
 21
693.1772292031007
 31
0.0
  0
LINE
  5
13E2
330
135F
100
AcDbEntity
  8
上書線
100
AcDbLine
 10
884.3313003948745
 20
713.3431669223453
 30
0.0
 11
929.0491585557372
 21
713.3431669223454
 31
0.0
  0
CIRCLE
  5
13E3
330
135F
100
AcDbEntity
  8
上線
100
AcDbCircle
 10
906.6902294753058
 20
703.260198062723
 30
0.0
 40
8.0
  0
CIRCLE
  5
13E4
330
135F
100
AcDbEntity
  8
上線
100
AcDbCircle
 10
906.6902294753058
 20
703.260198062723
 30
0.0
 40
10.0
  0
POINT
  5
13E5
330
135F
100
AcDbEntity
  8
DEFPOINTS
  6
ByBlock
 62
     0
100
AcDbPoint
 10
796.6902204698235
 20
828.2601980130685
 30
0.0
  0
POINT
  5
13E6
330
135F
100
AcDbEntity
  8
DEFPOINTS
  6
ByBlock
 62
     0
100
AcDbPoint
 10
799.1902204698235
 20
828.2601980130685
 30
0.0
  0
POINT
  5
13E7
330
135F
100
AcDbEntity
  8
DEFPOINTS
  6
ByBlock
 62
     0
100
AcDbPoint
 10
799.1902204698235
 20
828.2601980130685
 30
0.0
  0
LINE
  5
13E8
330
135F
100
AcDbEntity
  8
上書線
100
AcDbLine
 10
1301.905318209823
 20
638.3601980130684
 30
0.0
 11
1301.905318209823
 21
548.8601980130685
 31
0.0
  0
LINE
  5
13E9
330
135F
100
AcDbEntity
  8
上書線
100
AcDbLine
 10
1383.811345489823
 20
638.3601980130684
 30
0.0
 11
1383.811345489823
 21
548.8601980130685
 31
0.0
  0
LINE
  5
13EA
330
135F
100
AcDbEntity
  8
上線
100
AcDbLine
 10
1342.856681849823
 20
703.4601980130685
 30
0.0
 11
1342.856681849823
 21
614.4601980130685
 31
0.0
  0
LINE
  5
13EB
330
135F
100
AcDbEntity
  8
上線
100
AcDbLine
 10
1375.856681849823
 20
703.4601980130685
 30
0.0
 11
1375.856681849823
 21
614.4601980130685
 31
0.0
  0
LINE
  5
13EC
330
135F
100
AcDbEntity
  8
上書線
100
AcDbLine
 10
1334.905318209823
 20
638.3601980130684
 30
0.0
 11
1334.905318209823
 21
548.8601980130685
 31
0.0
  0
LINE
  5
13ED
330
135F
100
AcDbEntity
  8
上線
100
AcDbLine
 10
1424.762709129823
 20
703.4601980130685
 30
0.0
 11
1424.762709129823
 21
614.4601980130685
 31
0.0
  0
LINE
  5
13EE
330
135F
100
AcDbEntity
  8
上書線
100
AcDbLine
 10
1416.811345489823
 20
638.3601980130684
 30
0.0
 11
1416.811345489823
 21
548.8601980130685
 31
0.0
  0
LINE
  5
13EF
330
135F
100
AcDbEntity
  8
上書線
100
AcDbLine
 10
1291.475122729824
 20
638.3601980130684
 30
0.0
 11
1291.475122729824
 21
548.8601980130685
 31
0.0
  0
LINE
  5
13F0
330
135F
100
AcDbEntity
  8
上書線
100
AcDbLine
 10
1258.475122729824
 20
638.3601980130684
 30
0.0
 11
1258.475122729824
 21
548.8601980130685
 31
0.0
  0
LINE
  5
13F1
330
135F
100
AcDbEntity
  8
上線
100
AcDbLine
 10
1217.523759089824
 20
703.4601980130685
 30
0.0
 11
1217.523759089824
 21
614.4601980130685
 31
0.0
  0
LINE
  5
13F2
330
135F
100
AcDbEntity
  8
上線
100
AcDbLine
 10
1250.523759089824
 20
703.4601980130685
 30
0.0
 11
1250.523759089824
 21
614.4601980130685
 31
0.0
  0
LINE
  5
13F3
330
135F
100
AcDbEntity
  8
上書線
100
AcDbLine
 10
1209.569095449824
 20
638.3601980130684
 30
0.0
 11
1209.569095449824
 21
548.8601980130685
 31
0.0
  0
LINE
  5
13F4
330
135F
100
AcDbEntity
  8
上線
100
AcDbLine
 10
1168.617731809824
 20
703.4601980130685
 30
0.0
 11
1168.617731809824
 21
614.4601980130685
 31
0.0
  0
LINE
  5
13F5
330
135F
100
AcDbEntity
  8
上線
100
AcDbLine
 10
1135.617731809823
 20
703.4601980130685
 30
0.0
 11
1135.617731809823
 21
614.4601980130685
 31
0.0
  0
LINE
  5
13F6
330
135F
100
AcDbEntity
  8
上書線
100
AcDbLine
 10
1176.569095449824
 20
638.3601980130684
 30
0.0
 11
1176.569095449823
 21
548.8601980130685
 31
0.0
  0
LINE
  5
13F7
330
135F
100
AcDbEntity
  8
上書線
100
AcDbLine
 10
1127.663067809824
 20
638.3601980130684
 30
0.0
 11
1127.663067809824
 21
548.8601980130685
 31
0.0
  0
LINE
  5
13F8
330
135F
100
AcDbEntity
  8
上書線
100
AcDbLine
 10
1094.663067809824
 20
638.3601980130684
 30
0.0
 11
1094.663067809823
 21
548.8601980130685
 31
0.0
  0
LINE
  5
13F9
330
135F
100
AcDbEntity
  8
上線
100
AcDbLine
 10
1053.711703809823
 20
703.4601980130685
 30
0.0
 11
1053.711703809823
 21
614.4601980130685
 31
0.0
  0
LINE
  5
13FA
330
135F
100
AcDbEntity
  8
上線
100
AcDbLine
 10
1086.711703809823
 20
703.4601980130685
 30
0.0
 11
1086.711703809823
 21
614.4601980130685
 31
0.0
  0
LINE
  5
13FB
330
135F
100
AcDbEntity
  8
上書線
100
AcDbLine
 10
1045.757039809823
 20
638.3601980130684
 30
0.0
 11
1045.757039809823
 21
548.8601980130685
 31
0.0
  0
LINE
  5
13FC
330
135F
100
AcDbEntity
  8
上書線
100
AcDbLine
 10
1012.757039809824
 20
638.3601980130684
 30
0.0
 11
1012.757039809824
 21
548.8601980130685
 31
0.0
  0
LWPOLYLINE
  5
13FD
330
135F
100
AcDbEntity
  8
上書線
100
AcDbPolyline
 90
        2
 70
     0
 43
0.0
 10
963.884312169824
 20
548.9601980130754
 10
963.884312169824
 20
642.4601980130685
  0
LINE
  5
13FE
330
135F
100
AcDbEntity
  8
上線
100
AcDbLine
 10
971.8056761698235
 20
703.4601980130685
 30
0.0
 11
971.8056761698237
 21
614.4601980130685
 31
0.0
  0
LINE
  5
13FF
330
135F
100
AcDbEntity
  8
上線
100
AcDbLine
 10
1004.805676169824
 20
703.4601980130685
 30
0.0
 11
1004.805676169824
 21
614.4601980130685
 31
0.0
  0
ARC
  5
1400
330
135F
100
AcDbEntity
  8
上書線
100
AcDbCircle
 10
1193.069095449824
 20
418.1601980130683
 30
0.0
 40
16.5
100
AcDbArc
 50
179.9999999999996
 51
0.0000000000003944
  0
ARC
  5
1401
330
135F
100
AcDbEntity
  8
上書線
100
AcDbCircle
 10
1193.069095449824
 20
376.9601980130683
 30
0.0
 40
16.5
100
AcDbArc
 50
0.0
 51
180.0
  0
ARC
  5
1402
330
135F
100
AcDbEntity
  8
上書線
100
AcDbCircle
 10
1193.069095449824
 20
507.6601980130684
 30
0.0
 40
16.5
100
AcDbArc
 50
0.0
 51
180.0
  0
ARC
  5
1403
330
135F
100
AcDbEntity
  8
上書線
100
AcDbCircle
 10
1193.069095449824
 20
548.8601980130685
 30
0.0
 40
16.50000000000011
100
AcDbArc
 50
180.0
 51
0.0
  0
LINE
  5
1404
330
135F
100
AcDbEntity
  8
上書線
100
AcDbLine
 10
1176.569095449824
 20
507.6601980130684
 30
0.0
 11
1176.569095449823
 21
418.1601980130684
 31
0.0
  0
LINE
  5
1405
330
135F
100
AcDbEntity
  8
上書線
100
AcDbLine
 10
1168.617731809824
 20
573.1601980130684
 30
0.0
 11
1168.617731809824
 21
483.3601980130684
 31
0.0
  0
LINE
  5
1406
330
135F
100
AcDbEntity
  8
上線
100
AcDbLine
 10
1135.617731809823
 20
573.1601980130684
 30
0.0
 11
1135.617731809823
 21
483.3601980130686
 31
0.0
  0
LINE
  5
1407
330
135F
100
AcDbEntity
  8
上書線
100
AcDbLine
 10
1127.663067809824
 20
507.6601980130684
 30
0.0
 11
1127.663067809824
 21
418.1601980130684
 31
0.0
  0
LINE
  5
1408
330
135F
100
AcDbEntity
  8
上書線
100
AcDbLine
 10
1094.663067809824
 20
507.6601980130684
 30
0.0
 11
1094.663067809823
 21
418.1601980130684
 31
0.0
  0
LINE
  5
1409
330
135F
100
AcDbEntity
  8
上線
100
AcDbLine
 10
1053.711703809823
 20
573.1601980130684
 30
0.0
 11
1053.711703809823
 21
483.3601980130686
 31
0.0
  0
LINE
  5
140A
330
135F
100
AcDbEntity
  8
上書線
100
AcDbLine
 10
1086.711703809823
 20
573.1601980130684
 30
0.0
 11
1086.711703809824
 21
483.3601980130684
 31
0.0
  0
LINE
  5
140B
330
135F
100
AcDbEntity
  8
上書線
100
AcDbLine
 10
1045.757039809823
 20
507.6601980130684
 30
0.0
 11
1045.757039809823
 21
418.1601980130684
 31
0.0
  0
LINE
  5
140C
330
135F
100
AcDbEntity
  8
上書線
100
AcDbLine
 10
1012.757039809824
 20
507.6601980130684
 30
0.0
 11
1012.757039809824
 21
418.1601980130684
 31
0.0
  0
LWPOLYLINE
  5
140D
330
135F
100
AcDbEntity
  8
上書線
100
AcDbPolyline
 90
        2
 70
     0
 43
0.0
 10
963.884312169824
 20
414.0601980130752
 10
963.884312169824
 20
507.5601980130752
  0
LINE
  5
140E
330
135F
100
AcDbEntity
  8
上線
100
AcDbLine
 10
971.8056761698235
 20
573.1601980130684
 30
0.0
 11
971.8056761698237
 21
483.3601980130686
 31
0.0
  0
LINE
  5
140F
330
135F
100
AcDbEntity
  8
上書線
100
AcDbLine
 10
1004.805676169823
 20
573.1601980130684
 30
0.0
 11
1004.805676169824
 21
483.3601980130684
 31
0.0
  0
ARC
  5
1410
330
135F
100
AcDbEntity
  8
上書線
100
AcDbCircle
 10
1070.211703809823
 20
483.3601980130686
 30
0.0
 40
16.50000000000022
100
AcDbArc
 50
180.0000000000005
 51
359.9999999999993
  0
ARC
  5
1411
330
135F
100
AcDbEntity
  8
上書線
100
AcDbCircle
 10
1070.211703809823
 20
442.0601980130682
 30
0.0
 40
16.50000000000011
100
AcDbArc
 50
0.0000000000003997
 51
179.9999999999996
  0
ARC
  5
1412
330
135F
100
AcDbEntity
  8
上書線
100
AcDbCircle
 10
1029.635676109823
 20
418.1601980130683
 30
0.0
 40
16.5
100
AcDbArc
 50
179.9999999999996
 51
0.0000000000003944
  0
ARC
  5
1413
330
135F
100
AcDbEntity
  8
上書線
100
AcDbCircle
 10
1029.257039809823
 20
376.9601980130683
 30
0.0
 40
16.5
100
AcDbArc
 50
0.0
 51
180.0
  0
ARC
  5
1414
330
135F
100
AcDbEntity
  8
上書線
100
AcDbCircle
 10
988.3056761698238
 20
442.0601980130682
 30
0.0
 40
16.50000000000011
100
AcDbArc
 50
0.0000000000003997
 51
179.9999999999996
  0
ARC
  5
1415
330
135F
100
AcDbEntity
  8
上書線
100
AcDbCircle
 10
988.305676169824
 20
483.3601980130686
 30
0.0
 40
16.50000000000022
100
AcDbArc
 50
180.0000000000005
 51
359.9999999999993
  0
ARC
  5
1416
330
135F
100
AcDbEntity
  8
上書線
100
AcDbCircle
 10
1111.163067809824
 20
376.9601980130683
 30
0.0
 40
16.5
100
AcDbArc
 50
0.0
 51
180.0
  0
ARC
  5
1417
330
135F
100
AcDbEntity
  8
上書線
100
AcDbCircle
 10
1111.541704109824
 20
418.1601980130683
 30
0.0
 40
16.5
100
AcDbArc
 50
179.9999999999996
 51
0.0000000000003944
  0
ARC
  5
1418
330
135F
100
AcDbEntity
  8
上書線
100
AcDbCircle
 10
1152.117731809824
 20
483.3601980130686
 30
0.0
 40
16.50000000000022
100
AcDbArc
 50
180.0000000000005
 51
359.9999999999993
  0
ARC
  5
1419
330
135F
100
AcDbEntity
  8
上書線
100
AcDbCircle
 10
1152.117731809823
 20
442.0601980130682
 30
0.0
 40
16.50000000000011
100
AcDbArc
 50
0.0000000000003997
 51
179.9999999999996
  0
ARC
  5
141A
330
135F
100
AcDbEntity
  8
上書線
100
AcDbCircle
 10
1070.211703809823
 20
573.1601980130683
 30
0.0
 40
16.5
100
AcDbArc
 50
0.0000000000003997
 51
179.9999999999996
  0
ARC
  5
141B
330
135F
100
AcDbEntity
  8
上書線
100
AcDbCircle
 10
1070.211703809823
 20
614.4601980130685
 30
0.0
 40
16.50000000000011
100
AcDbArc
 50
180.0
 51
0.0
  0
ARC
  5
141C
330
135F
100
AcDbEntity
  8
上書線
100
AcDbCircle
 10
1029.257039809823
 20
548.8601980130685
 30
0.0
 40
16.50000000000011
100
AcDbArc
 50
180.0
 51
0.0
  0
ARC
  5
141D
330
135F
100
AcDbEntity
  8
上書線
100
AcDbCircle
 10
1029.257039809823
 20
507.6601980130684
 30
0.0
 40
16.5
100
AcDbArc
 50
0.0
 51
180.0
  0
ARC
  5
141E
330
135F
100
AcDbEntity
  8
上書線
100
AcDbCircle
 10
988.3056761698236
 20
573.1601980130683
 30
0.0
 40
16.5
100
AcDbArc
 50
0.0000000000003997
 51
179.9999999999996
  0
ARC
  5
141F
330
135F
100
AcDbEntity
  8
上書線
100
AcDbCircle
 10
988.3056761698238
 20
614.4601980130685
 30
0.0
 40
16.50000000000011
100
AcDbArc
 50
180.0
 51
0.0
  0
ARC
  5
1420
330
135F
100
AcDbEntity
  8
上書線
100
AcDbCircle
 10
1111.163067809824
 20
548.8601980130685
 30
0.0
 40
16.50000000000011
100
AcDbArc
 50
180.0
 51
0.0
  0
ARC
  5
1421
330
135F
100
AcDbEntity
  8
上書線
100
AcDbCircle
 10
1111.163067809824
 20
507.6601980130684
 30
0.0
 40
16.5
100
AcDbArc
 50
0.0
 51
180.0
  0
ARC
  5
1422
330
135F
100
AcDbEntity
  8
上書線
100
AcDbCircle
 10
1152.117731809823
 20
573.1601980130683
 30
0.0
 40
16.5
100
AcDbArc
 50
0.0000000000003997
 51
179.9999999999996
  0
ARC
  5
1423
330
135F
100
AcDbEntity
  8
上書線
100
AcDbCircle
 10
1152.117731809823
 20
614.4601980130685
 30
0.0
 40
16.50000000000011
100
AcDbArc
 50
180.0
 51
0.0
  0
LINE
  5
1424
330
135F
100
AcDbEntity
  8
上書線
100
AcDbLine
 10
1301.905318209823
 20
507.6601980130684
 30
0.0
 11
1301.905318209823
 21
418.1601980130684
 31
0.0
  0
LINE
  5
1425
330
135F
100
AcDbEntity
  8
上書線
100
AcDbLine
 10
1334.905318209823
 20
507.6601980130684
 30
0.0
 11
1334.905318209823
 21
418.1601980130684
 31
0.0
  0
LINE
  5
1426
330
135F
100
AcDbEntity
  8
上書線
100
AcDbLine
 10
1383.811345489823
 20
507.6601980130684
 30
0.0
 11
1383.811345489823
 21
418.1601980130684
 31
0.0
  0
LINE
  5
1427
330
135F
100
AcDbEntity
  8
上書線
100
AcDbLine
 10
1416.811345489823
 20
507.6601980130684
 30
0.0
 11
1416.811345489823
 21
418.1601980130684
 31
0.0
  0
LINE
  5
1428
330
135F
100
AcDbEntity
  8
上書線
100
AcDbLine
 10
1424.762709129823
 20
573.1601980130684
 30
0.0
 11
1424.762709129822
 21
483.3601980130684
 31
0.0
  0
LINE
  5
1429
330
135F
100
AcDbEntity
  8
上書線
100
AcDbLine
 10
1342.856681849823
 20
573.1601980130684
 30
0.0
 11
1342.856681849822
 21
483.3601980130684
 31
0.0
  0
LINE
  5
142A
330
135F
100
AcDbEntity
  8
上線
100
AcDbLine
 10
1375.856681849823
 20
573.1601980130684
 30
0.0
 11
1375.856681849823
 21
483.3601980130686
 31
0.0
  0
LINE
  5
142B
330
135F
100
AcDbEntity
  8
上書線
100
AcDbLine
 10
1291.475122729824
 20
507.6601980130684
 30
0.0
 11
1291.475122729824
 21
418.1601980130684
 31
0.0
  0
LINE
  5
142C
330
135F
100
AcDbEntity
  8
上書線
100
AcDbLine
 10
1258.475122729824
 20
507.6601980130684
 30
0.0
 11
1258.475122729824
 21
418.1601980130684
 31
0.0
  0
LINE
  5
142D
330
135F
100
AcDbEntity
  8
上線
100
AcDbLine
 10
1217.523759089824
 20
573.1601980130684
 30
0.0
 11
1217.523759089824
 21
483.3601980130686
 31
0.0
  0
LINE
  5
142E
330
135F
100
AcDbEntity
  8
上書線
100
AcDbLine
 10
1250.523759089824
 20
573.1601980130684
 30
0.0
 11
1250.523759089824
 21
483.3601980130684
 31
0.0
  0
LINE
  5
142F
330
135F
100
AcDbEntity
  8
上書線
100
AcDbLine
 10
1209.569095449824
 20
507.6601980130684
 30
0.0
 11
1209.569095449824
 21
418.1601980130684
 31
0.0
  0
ARC
  5
1430
330
135F
100
AcDbEntity
  8
上書線
100
AcDbCircle
 10
1318.405318209823
 20
376.9601980130683
 30
0.0
 40
16.5
100
AcDbArc
 50
0.000000000000007
 51
180.0
  0
ARC
  5
1431
330
135F
100
AcDbEntity
  8
上書線
100
AcDbCircle
 10
1318.405318209823
 20
418.1601980130683
 30
0.0
 40
16.5
100
AcDbArc
 50
179.9999999999996
 51
0.0000000000004141
  0
ARC
  5
1432
330
135F
100
AcDbEntity
  8
上書線
100
AcDbCircle
 10
1274.975122729824
 20
376.9601980130683
 30
0.0
 40
16.5
100
AcDbArc
 50
0.0
 51
180.0
  0
ARC
  5
1433
330
135F
100
AcDbEntity
  8
上書線
100
AcDbCircle
 10
1274.975122729824
 20
418.1601980130683
 30
0.0
 40
16.5
100
AcDbArc
 50
179.9999999999996
 51
0.0000000000003944
  0
ARC
  5
1434
330
135F
100
AcDbEntity
  8
上書線
100
AcDbCircle
 10
1234.023759089823
 20
442.0601980130682
 30
0.0
 40
16.50000000000011
100
AcDbArc
 50
0.0000000000003997
 51
179.9999999999996
  0
ARC
  5
1435
330
135F
100
AcDbEntity
  8
上書線
100
AcDbCircle
 10
1234.023759089824
 20
483.3601980130686
 30
0.0
 40
16.50000000000022
100
AcDbArc
 50
180.0000000000005
 51
359.9999999999993
  0
ARC
  5
1436
330
135F
100
AcDbEntity
  8
上書線
100
AcDbCircle
 10
1400.311345489823
 20
418.1601980130683
 30
0.0
 40
16.5
100
AcDbArc
 50
179.9999999999996
 51
0.0000000000004141
  0
ARC
  5
1437
330
135F
100
AcDbEntity
  8
上書線
100
AcDbCircle
 10
1400.311345489823
 20
376.9601980130683
 30
0.0
 40
16.5
100
AcDbArc
 50
0.000000000000007
 51
180.0
  0
ARC
  5
1438
330
135F
100
AcDbEntity
  8
上書線
100
AcDbCircle
 10
1359.356681849823
 20
483.3601980130686
 30
0.0
 40
16.50000000000022
100
AcDbArc
 50
180.0000000000006
 51
359.9999999999994
  0
ARC
  5
1439
330
135F
100
AcDbEntity
  8
上書線
100
AcDbCircle
 10
1359.356681849823
 20
442.0601980130682
 30
0.0
 40
16.50000000000011
100
AcDbArc
 50
0.0000000000004141
 51
179.9999999999996
  0
ARC
  5
143A
330
135F
100
AcDbEntity
  8
上書線
100
AcDbCircle
 10
1318.405318209823
 20
548.8601980130685
 30
0.0
 40
16.50000000000011
100
AcDbArc
 50
180.0
 51
0.000000000000007
  0
ARC
  5
143B
330
135F
100
AcDbEntity
  8
上書線
100
AcDbCircle
 10
1318.405318209823
 20
507.6601980130684
 30
0.0
 40
16.5
100
AcDbArc
 50
0.000000000000007
 51
180.0
  0
ARC
  5
143C
330
135F
100
AcDbEntity
  8
上書線
100
AcDbCircle
 10
1274.975122729824
 20
548.8601980130685
 30
0.0
 40
16.50000000000011
100
AcDbArc
 50
180.0
 51
0.0
  0
ARC
  5
143D
330
135F
100
AcDbEntity
  8
上書線
100
AcDbCircle
 10
1274.975122729824
 20
507.6601980130684
 30
0.0
 40
16.5
100
AcDbArc
 50
0.0
 51
180.0
  0
ARC
  5
143E
330
135F
100
AcDbEntity
  8
上書線
100
AcDbCircle
 10
1234.023759089823
 20
573.1601980130683
 30
0.0
 40
16.5
100
AcDbArc
 50
0.0000000000003997
 51
179.9999999999996
  0
ARC
  5
143F
330
135F
100
AcDbEntity
  8
上書線
100
AcDbCircle
 10
1234.023759089823
 20
614.4601980130685
 30
0.0
 40
16.50000000000011
100
AcDbArc
 50
180.0
 51
0.0
  0
ARC
  5
1440
330
135F
100
AcDbEntity
  8
上書線
100
AcDbCircle
 10
1400.311345489823
 20
548.8601980130685
 30
0.0
 40
16.50000000000011
100
AcDbArc
 50
180.0
 51
0.000000000000007
  0
ARC
  5
1441
330
135F
100
AcDbEntity
  8
上書線
100
AcDbCircle
 10
1400.311345489823
 20
507.6601980130684
 30
0.0
 40
16.5
100
AcDbArc
 50
0.000000000000007
 51
180.0
  0
ARC
  5
1442
330
135F
100
AcDbEntity
  8
上書線
100
AcDbCircle
 10
1359.356681849823
 20
614.4601980130685
 30
0.0
 40
16.50000000000011
100
AcDbArc
 50
180.0
 51
0.000000000000007
  0
ARC
  5
1443
330
135F
100
AcDbEntity
  8
上書線
100
AcDbCircle
 10
1359.356681849823
 20
573.1601980130683
 30
0.0
 40
16.5
100
AcDbArc
 50
0.0000000000004141
 51
179.9999999999996
  0
ARC
  5
1444
330
135F
100
AcDbEntity
  8
上書線
100
AcDbCircle
 10
1193.066802459354
 20
703.4579050225995
 30
0.0
 40
16.50229314977445
100
AcDbArc
 50
0.0079612376029203
 51
181.3508253600809
  0
ARC
  5
1445
330
135F
100
AcDbEntity
  8
上書線
100
AcDbCircle
 10
1193.069095449824
 20
638.3601980130684
 30
0.0
 40
16.50000000000011
100
AcDbArc
 50
0.0
 51
180.0
  0
ARC
  5
1446
330
135F
100
AcDbEntity
  8
上書線
100
AcDbCircle
 10
1193.069095449824
 20
679.5601980130685
 30
0.0
 40
16.50000000000011
100
AcDbArc
 50
180.0
 51
0.0
  0
ARC
  5
1447
330
135F
100
AcDbEntity
  8
上書線
100
AcDbCircle
 10
1070.211703809823
 20
703.4601980130685
 30
0.0
 40
16.5
100
AcDbArc
 50
0.0
 51
180.0
  0
LINE
  5
1448
330
135F
100
AcDbEntity
  8
上書線
100
AcDbLine
 10
1045.757039809823
 20
703.4601980130685
 30
0.0
 11
1045.757039809823
 21
679.5601980130685
 31
0.0
  0
LINE
  5
1449
330
135F
100
AcDbEntity
  8
上書線
100
AcDbLine
 10
1012.757039809824
 20
703.0688772231184
 30
0.0
 11
1012.757039809824
 21
679.5601980130685
 31
0.0
  0
ARC
  5
144A
330
135F
100
AcDbEntity
  8
上書線
100
AcDbCircle
 10
1029.257039809823
 20
638.3601980130684
 30
0.0
 40
16.50000000000011
100
AcDbArc
 50
0.0
 51
180.0
  0
ARC
  5
144B
330
135F
100
AcDbEntity
  8
上書線
100
AcDbCircle
 10
1029.257039809823
 20
679.5601980130685
 30
0.0
 40
16.50000000000011
100
AcDbArc
 50
180.0
 51
0.0
  0
ARC
  5
144C
330
135F
100
AcDbEntity
  8
上書線
100
AcDbCircle
 10
988.3056761698238
 20
703.4601980130685
 30
0.0
 40
16.5
100
AcDbArc
 50
0.0
 51
180.0
  0
ARC
  5
144D
330
135F
100
AcDbEntity
  8
上書線
100
AcDbCircle
 10
1029.254746819354
 20
703.4579050225995
 30
0.0
 40
16.50229314977445
100
AcDbArc
 50
0.0079612376029203
 51
181.3508253600809
  0
LINE
  5
144E
330
135F
100
AcDbEntity
  8
上書線
100
AcDbLine
 10
1176.569095449824
 20
703.0688772231184
 30
0.0
 11
1176.569095449824
 21
679.5601980130685
 31
0.0
  0
LINE
  5
144F
330
135F
100
AcDbEntity
  8
上書線
100
AcDbLine
 10
1127.663067809824
 20
703.4601980130685
 30
0.0
 11
1127.663067809824
 21
679.5601980130685
 31
0.0
  0
LINE
  5
1450
330
135F
100
AcDbEntity
  8
上書線
100
AcDbLine
 10
1094.663067809824
 20
703.0688772231184
 30
0.0
 11
1094.663067809824
 21
679.5601980130685
 31
0.0
  0
ARC
  5
1451
330
135F
100
AcDbEntity
  8
上書線
100
AcDbCircle
 10
1111.163067809824
 20
679.5601980130685
 30
0.0
 40
16.50000000000011
100
AcDbArc
 50
180.0
 51
0.0
  0
ARC
  5
1452
330
135F
100
AcDbEntity
  8
上書線
100
AcDbCircle
 10
1111.163067809824
 20
638.3601980130684
 30
0.0
 40
16.50000000000011
100
AcDbArc
 50
0.0
 51
180.0
  0
ARC
  5
1453
330
135F
100
AcDbEntity
  8
上書線
100
AcDbCircle
 10
1111.160774819355
 20
703.4579050225995
 30
0.0
 40
16.50229314977445
100
AcDbArc
 50
0.0079612376029203
 51
181.3508253600809
  0
ARC
  5
1454
330
135F
100
AcDbEntity
  8
上書線
100
AcDbCircle
 10
1152.117731809823
 20
703.4601980130685
 30
0.0
 40
16.5
100
AcDbArc
 50
0.0
 51
180.0
  0
ARC
  5
1455
330
135F
100
AcDbEntity
  8
上書線
100
AcDbCircle
 10
1318.405318209823
 20
679.5601980130685
 30
0.0
 40
16.50000000000011
100
AcDbArc
 50
180.0
 51
0.000000000000007
  0
ARC
  5
1456
330
135F
100
AcDbEntity
  8
上書線
100
AcDbCircle
 10
1318.405318209823
 20
638.3601980130684
 30
0.0
 40
16.50000000000011
100
AcDbArc
 50
0.000000000000007
 51
180.0
  0
ARC
  5
1457
330
135F
100
AcDbEntity
  8
上書線
100
AcDbCircle
 10
1318.407611200292
 20
703.4579050225995
 30
0.0
 40
16.50229314977445
100
AcDbArc
 50
358.649174639919
 51
179.9920387623971
  0
LINE
  5
1458
330
135F
100
AcDbEntity
  8
上書線
100
AcDbLine
 10
1301.905318209823
 20
703.4601980130685
 30
0.0
 11
1301.905318209823
 21
679.5601980130685
 31
0.0
  0
LINE
  5
1459
330
135F
100
AcDbEntity
  8
上書線
100
AcDbLine
 10
1291.475122729824
 20
703.4601980130685
 30
0.0
 11
1291.475122729824
 21
679.5601980130685
 31
0.0
  0
LINE
  5
145A
330
135F
100
AcDbEntity
  8
上書線
100
AcDbLine
 10
1258.475122729824
 20
703.0688772231184
 30
0.0
 11
1258.475122729824
 21
679.5601980130685
 31
0.0
  0
LINE
  5
145B
330
135F
100
AcDbEntity
  8
上書線
100
AcDbLine
 10
1209.569095449824
 20
703.4601980130685
 30
0.0
 11
1209.569095449824
 21
679.5601980130685
 31
0.0
  0
ARC
  5
145C
330
135F
100
AcDbEntity
  8
上書線
100
AcDbCircle
 10
1274.975122729824
 20
679.5601980130685
 30
0.0
 40
16.50000000000011
100
AcDbArc
 50
180.0
 51
0.0
  0
ARC
  5
145D
330
135F
100
AcDbEntity
  8
上書線
100
AcDbCircle
 10
1274.975122729824
 20
638.3601980130684
 30
0.0
 40
16.50000000000011
100
AcDbArc
 50
0.0
 51
180.0
  0
ARC
  5
145E
330
135F
100
AcDbEntity
  8
上書線
100
AcDbCircle
 10
1234.023759089823
 20
703.4601980130685
 30
0.0
 40
16.5
100
AcDbArc
 50
0.0
 51
180.0
  0
ARC
  5
145F
330
135F
100
AcDbEntity
  8
上書線
100
AcDbCircle
 10
1274.972829739354
 20
703.4579050225995
 30
0.0
 40
16.50229314977445
100
AcDbArc
 50
0.0079612376029203
 51
181.3508253600809
  0
LINE
  5
1460
330
135F
100
AcDbEntity
  8
上書線
100
AcDbLine
 10
1334.905318209823
 20
703.0688772231184
 30
0.0
 11
1334.905318209823
 21
679.5601980130685
 31
0.0
  0
LINE
  5
1461
330
135F
100
AcDbEntity
  8
上書線
100
AcDbLine
 10
1383.811345489823
 20
703.4601980130685
 30
0.0
 11
1383.811345489823
 21
679.5601980130685
 31
0.0
  0
LINE
  5
1462
330
135F
100
AcDbEntity
  8
上書線
100
AcDbLine
 10
1416.811345489823
 20
703.0688772231184
 30
0.0
 11
1416.811345489823
 21
679.5601980130685
 31
0.0
  0
ARC
  5
1463
330
135F
100
AcDbEntity
  8
上書線
100
AcDbCircle
 10
1400.311345489823
 20
638.3601980130684
 30
0.0
 40
16.50000000000011
100
AcDbArc
 50
0.000000000000007
 51
180.0
  0
ARC
  5
1464
330
135F
100
AcDbEntity
  8
上書線
100
AcDbCircle
 10
1400.311345489823
 20
679.5601980130685
 30
0.0
 40
16.50000000000011
100
AcDbArc
 50
180.0
 51
0.000000000000007
  0
ARC
  5
1465
330
135F
100
AcDbEntity
  8
上書線
100
AcDbCircle
 10
1359.356681849823
 20
703.4601980130685
 30
0.0
 40
16.5
100
AcDbArc
 50
0.000000000000007
 51
180.0
  0
ARC
  5
1466
330
135F
100
AcDbEntity
  8
上書線
100
AcDbCircle
 10
1400.313638480292
 20
703.4579050225995
 30
0.0
 40
16.50229314977445
100
AcDbArc
 50
358.649174639919
 51
179.9920387623971
  0
POINT
  5
1467
330
135F
100
AcDbEntity
  8
DEFPOINTS
  6
ByBlock
 62
     0
100
AcDbPoint
 10
1297.940229475305
 20
750.6918676961141
 30
0.0
  0
POINT
  5
1468
330
135F
100
AcDbEntity
  8
DEFPOINTS
  6
ByBlock
 62
     0
100
AcDbPoint
 10
1297.940229475305
 20
750.6918676961141
 30
0.0
  0
POINT
  5
1469
330
135F
100
AcDbEntity
  8
DEFPOINTS
  6
ByBlock
 62
     0
100
AcDbPoint
 10
1295.440220469823
 20
750.6918676961141
 30
0.0
  0
MTEXT
  5
146A
330
135F
100
AcDbEntity
  8
0
  6
ByBlock
 62
     0
100
AcDbMText
 10
719.0216811439809
 20
1008.717119529806
 30
0.0
 40
25.0
 41
0.0
 71
     5
 72
     1
  1
\A1;2.5
 73
     1
 44
1.0
  0
LINE
  5
146B
330
135F
100
AcDbEntity
  8
0
  6
ByBlock
 62
     0
100
AcDbLine
 10
771.6902204698235
 20
989.9671195298061
 30
0.0
 11
691.3531418181382
 21
989.9671195298061
 31
0.0
  0
SOLID
  5
146C
330
135F
100
AcDbEntity
  8
0
  6
ByBlock
 62
     0
100
AcDbTrace
 10
824.1902204698234
 20
994.1337861964727
 30
0.0
 11
824.1902204698234
 21
985.8004528631395
 31
0.0
 12
799.1902204698235
 22
989.9671195298061
 32
0.0
 13
799.1902204698235
 23
989.9671195298061
 33
0.0
  0
SOLID
  5
146D
330
135F
100
AcDbEntity
  8
0
  6
ByBlock
 62
     0
100
AcDbTrace
 10
824.1902204698234
 20
993.9254513622257
 30
0.0
 11
824.1902204698234
 21
985.5921180288923
 31
0.0
 12
799.1902204698235
 22
989.7587846955589
 32
0.0
 13
799.1902204698235
 23
989.7587846955589
 33
0.0
  0
POINT
  5
146E
330
135F
100
AcDbEntity
  8
DEFPOINTS
  6
ByBlock
 62
     0
100
AcDbPoint
 10
796.6902204698235
 20
989.9671195298061
 30
0.0
  0
SOLID
  5
146F
330
135F
100
AcDbEntity
  8
0
  6
ByBlock
 62
     0
100
AcDbTrace
 10
771.6902204698235
 20
994.1337861964727
 30
0.0
 11
771.6902204698235
 21
985.8004528631395
 31
0.0
 12
796.6902204698235
 22
989.9671195298061
 32
0.0
 13
796.6902204698235
 23
989.9671195298061
 33
0.0
  0
LINE
  5
1470
330
135F
100
AcDbEntity
  8
0
  6
ByBlock
 62
     0
100
AcDbLine
 10
799.1902204698235
 20
989.9671195298061
 30
0.0
 11
796.6902204698235
 21
989.9671195298061
 31
0.0
  0
LINE
  5
1471
330
135F
100
AcDbEntity
  8
0
  6
ByBlock
 62
     0
100
AcDbLine
 10
824.1902204698234
 20
989.9671195298061
 30
0.0
 11
849.1902204698234
 21
989.9671195298061
 31
0.0
  0
MTEXT
  5
1472
330
135F
100
AcDbEntity
  8
0
  6
ByBlock
 62
     0
100
AcDbMText
 10
1296.690220469823
 20
1008.508784695558
 30
0.0
 40
25.0
 41
0.0
 71
     5
 72
     1
  1
\A1;995
 73
     1
 44
1.0
  0
MTEXT
  5
1473
330
135F
100
AcDbEntity
  8
0
  6
ByBlock
 62
     0
 48
10.0
100
AcDbMText
 10
1127.409548169433
 20
1263.616921205326
 30
0.0
 40
25.0
 41
0.0
 71
     5
 72
     1
  1
2@270=550
 73
     1
 44
1.0
  0
LINE
  5
1474
330
135F
100
AcDbEntity
  8
0
  6
ByBlock
 62
     0
 48
10.0
100
AcDbLine
 10
989.9006217137248
 20
1244.866921205326
 30
0.0
 11
1260.316999098555
 21
1244.866921205326
 31
0.0
  0
MTEXT
  5
1475
330
135F
100
AcDbEntity
  8
上線
 48
10.0
100
AcDbMText
 10
958.8305669904402
 20
1193.862564453745
 30
0.0
 40
40.0
 41
1003.0154
 71
     1
 72
     5
  1
￡
 73
     1
 44
1.0
  0
SOLID
  5
1476
330
135F
100
AcDbEntity
  8
0
  6
ByBlock
 62
     0
 48
10.0
100
AcDbTrace
 10
1240.316999098555
 20
1249.033587871993
 30
0.0
 11
1240.316999098555
 21
1240.700254538659
 31
0.0
 12
1265.316999098555
 22
1244.866921205326
 32
0.0
 13
1265.316999098555
 23
1244.866921205326
 33
0.0
  0
LINE
  5
1477
330
135F
100
AcDbEntity
  8
0
  6
ByBlock
 62
     0
 48
10.0
100
AcDbLine
 10
1265.316999098555
 20
1358.608788937732
 30
0.0
 11
1265.316999098555
 21
1232.366921205326
 31
0.0
  0
SOLID
  5
1478
330
135F
100
AcDbEntity
  8
0
  6
ByBlock
 62
     0
 48
10.0
100
AcDbTrace
 10
1314.900621713724
 20
1249.033587871993
 30
0.0
 11
1314.900621713724
 21
1240.700254538659
 31
0.0
 12
1289.900621713725
 22
1244.866921205326
 32
0.0
 13
1289.900621713725
 23
1244.866921205326
 33
0.0
  0
LINE
  5
1479
330
135F
100
AcDbEntity
  8
0
  6
ByBlock
 62
     0
 48
10.0
100
AcDbLine
 10
1289.900621713725
 20
1364.858788937732
 30
0.0
 11
1289.900621713725
 21
1232.366921205326
 31
0.0
  0
LINE
  5
147A
330
135F
100
AcDbEntity
  8
0
  6
ByBlock
 62
     0
 48
10.0
100
AcDbLine
 10
1265.316999098555
 20
1364.858788937732
 30
0.0
 11
1265.316999098555
 21
1232.322856165647
 31
0.0
  0
POINT
  5
147B
330
135F
100
AcDbEntity
  8
DEFPOINTS
  6
ByBlock
 62
     0
 48
10.0
100
AcDbPoint
 10
1260.316999098555
 20
1244.866921205326
 30
0.0
  0
POINT
  5
147C
330
135F
100
AcDbEntity
  8
DEFPOINTS
  6
ByBlock
 62
     0
 48
10.0
100
AcDbPoint
 10
1289.900621713725
 20
1244.866921205326
 30
0.0
  0
LINE
  5
147D
330
135F
100
AcDbEntity
  8
0
  6
ByBlock
 62
     0
 48
10.0
100
AcDbLine
 10
1259.900621713724
 20
1244.866921205326
 30
0.0
 11
1289.900621713725
 21
1244.866921205326
 31
0.0
  0
POINT
  5
147E
330
135F
100
AcDbEntity
  8
DEFPOINTS
  6
ByBlock
 62
     0
 48
10.0
100
AcDbPoint
 10
1260.316999098555
 20
1244.822856165647
 30
0.0
  0
MTEXT
  5
147F
330
135F
100
AcDbEntity
  8
0
  6
ByBlock
 62
     0
 48
10.0
100
AcDbMText
 10
1364.900621713724
 20
1263.616921205326
 30
0.0
 40
25.0
 41
0.0
 71
     5
 72
     1
  1
\A1;25
 73
     1
 44
1.0
  0
LINE
  5
1480
330
135F
100
AcDbEntity
  8
0
  6
ByBlock
 62
     0
 48
10.0
100
AcDbLine
 10
1314.900621713724
 20
1244.866921205326
 30
0.0
 11
1389.900621713724
 21
1244.866921205326
 31
0.0
  0
MTEXT
  5
1481
102
{ACAD_REACTORS
330
1482
102
}
330
135F
100
AcDbEntity
  8
上線
 48
10.0
100
AcDbMText
 10
623.9809399829773
 20
2507.839827675781
 30
0.0
 40
25.0
 41
0.0
 71
     6
 72
     1
  1
CRG
 73
     1
 44
1.0
  0
LEADER
  5
1482
330
135F
100
AcDbEntity
  8
上線
 48
10.0
100
AcDbLeader
  3
STANDARD
 73
     0
 75
     1
 40
25.0
 41
68.67977528089888
 76
     3
 10
855.0743134681962
 20
2341.707365198581
 30
0.0
 10
655.2309399829773
 20
2489.089827675782
 30
0.0
 10
630.2309399829773
 20
2489.089827675782
 30
0.0
340
1481
1001
ACAD
1000
DSTYLE
1002
{
1070
    78
1070
     8
1070
   270
1070
     8
1070
   140
1040
2.5
1070
    74
1070
     0
1070
   172
1070
     1
1070
    73
1070
     0
1070
    77
1070
     1
1070
    40
1040
10.0
1070
   147
1040
0.625
1070
    42
1040
0.625
1070
    44
1040
1.25
1070
    43
1040
3.75
1070
   141
1040
2.5
1070
    41
1040
2.5
1070
   273
1070
     8
1070
   274
1070
     4
1070
   143
1040
0.0394
1070
   171
1070
     4
1002
}
  0
LINE
  5
1483
330
135F
100
AcDbEntity
  8
中心線
100
AcDbLine
 10
989.9006217137248
 20
2420.310527682799
 30
0.0
 11
989.9006217137239
 21
1545.218426848239
 31
0.0
  0
DIMENSION
  5
1484
330
135F
100
AcDbEntity
  8
上線
100
AcDbDimension
  2
*D3
 10
279.2775893980378
 20
1395.218426848239
 30
0.0
 11
260.5275893980378
 21
1870.218426848239
 31
0.0
 12
-112.800676146322
 22
204.3042506776382
 32
0.0
 71
     5
 42
-1.0
  3
STANDARD
100
AcDbAlignedDimension
 13
601.5530483168641
 23
2345.218426848239
 33
0.0
 14
601.5530483168641
 24
1395.218426848239
 34
0.0
 50
90.0
100
AcDbRotatedDimension
1001
ACAD
1000
DSTYLE
1002
{
1070
    40
1040
10.0
1070
    41
1040
2.5
1070
    42
1040
0.625
1070
    43
1040
3.75
1070
    44
1040
1.25
1070
    73
1070
     0
1070
    74
1070
     0
1070
    77
1070
     1
1070
    78
1070
     8
1070
   140
1040
2.5
1070
   141
1040
2.5
1070
   143
1040
0.0394
1070
   147
1040
0.625
1070
   171
1070
     4
1070
   172
1070
     1
1070
   273
1070
     8
1070
   274
1070
     4
1070
   277
1070
     6
1002
}
  0
DIMENSION
  5
1485
330
135F
100
AcDbEntity
  8
上線
100
AcDbDimension
  2
*D2
 10
372.9238247206976
 20
1545.218426848239
 30
0.0
 11
354.1738247206976
 21
1910.218426848239
 31
0.0
 12
-112.800676146322
 22
204.3042506776382
 32
0.0
 71
     5
 42
-1.0
  3
STANDARD
100
AcDbAlignedDimension
 13
601.5530483168641
 23
2275.21842684824
 33
0.0
 14
601.5530483168622
 24
1545.218426848239
 34
0.0
 50
90.0
100
AcDbRotatedDimension
1001
ACAD
1000
DSTYLE
1002
{
1070
    40
1040
10.0
1070
    41
1040
2.5
1070
    42
1040
0.625
1070
    43
1040
3.75
1070
    44
1040
1.25
1070
    73
1070
     0
1070
    74
1070
     0
1070
    77
1070
     1
1070
    78
1070
     8
1070
   140
1040
2.5
1070
   141
1040
2.5
1070
   143
1040
0.0394
1070
   147
1040
0.625
1070
   171
1070
     4
1070
   172
1070
     1
1070
   273
1070
     8
1070
   274
1070
     4
1070
   277
1070
     6
1002
}
  0
LINE
  5
1486
330
135F
100
AcDbEntity
  8
0
  6
ByBlock
 62
     0
 48
10.0
100
AcDbLine
 10
601.5530483168641
 20
1395.218426848239
 30
0.0
 11
266.7775893980378
 21
1395.218426848239
 31
0.0
  0
LINE
  5
1487
330
135F
100
AcDbEntity
  8
0
  6
ByBlock
 62
     0
 48
10.0
100
AcDbLine
 10
601.5530483168641
 20
2345.218426848239
 30
0.0
 11
266.7775893980378
 21
2345.218426848239
 31
0.0
  0
MTEXT
  5
1488
102
{ACAD_REACTORS
330
1489
102
}
330
135F
100
AcDbEntity
  8
上線
 48
10.0
100
AcDbMText
 10
648.1176389619395
 20
1939.098003120856
 30
0.0
 40
25.0
 41
0.0
 71
     6
 72
     1
  1
埋込インサート
 73
     1
 44
1.0
  0
LEADER
  5
1489
330
135F
100
AcDbEntity
  8
上線
 48
10.0
100
AcDbLeader
  3
STANDARD
 73
     0
 75
     1
 40
29.91573033707865
 41
220.3651685393258
 76
     3
 10
817.004525923514
 20
2219.660239705397
 30
0.0
 10
679.3676389619395
 20
1917.890137952317
 30
0.0
 10
654.3676389619395
 20
1917.890137952317
 30
0.0
340
1488
1001
ACAD
1000
DSTYLE
1002
{
1070
    78
1070
     8
1070
   270
1070
     8
1070
   140
1040
2.5
1070
    74
1070
     0
1070
   172
1070
     1
1070
    73
1070
     0
1070
    77
1070
     1
1070
    40
1040
10.0
1070
   147
1040
0.625
1070
    42
1040
0.625
1070
    44
1040
1.25
1070
    43
1040
3.75
1070
   141
1040
2.5
1070
    41
1040
2.5
1070
   273
1070
     8
1070
   274
1070
     4
1070
   143
1040
0.0394
1070
   171
1070
     4
1002
}
  0
LINE
  5
148A
330
135F
100
AcDbEntity
  8
0
  6
ByBlock
 62
     0
 48
10.0
100
AcDbLine
 10
601.5530483168641
 20
1545.218426848239
 30
0.0
 11
360.4238247206976
 21
1545.218426848239
 31
0.0
  0
LINE
  5
148B
330
135F
100
AcDbEntity
  8
0
  6
ByBlock
 62
     0
 48
10.0
100
AcDbLine
 10
601.5530483168641
 20
2275.21842684824
 30
0.0
 11
360.4238247206976
 21
2275.21842684824
 31
0.0
  0
LINE
  5
148C
330
135F
100
AcDbEntity
  8
0
  6
ByBlock
 62
     0
 48
10.0
100
AcDbLine
 10
459.3584340209636
 20
2345.218426848239
 30
0.0
 11
360.4238247206976
 21
2345.218426848239
 31
0.0
  0
LINE
  5
148D
330
135F
100
AcDbEntity
  8
0
  6
ByBlock
 62
     0
 48
10.0
100
AcDbLine
 10
279.2775893980378
 20
2320.218426848239
 30
0.0
 11
279.2775893980378
 21
1395.218426848239
 31
0.0
  0
LINE
  5
148E
330
135F
100
AcDbEntity
  8
0
  6
ByBlock
 62
     0
 48
10.0
100
AcDbLine
 10
372.9238247206976
 20
2275.21842684824
 30
0.0
 11
372.9238247206976
 21
1470.218426848239
 31
0.0
  0
MTEXT
  5
148F
330
135F
100
AcDbEntity
  8
0
  6
ByBlock
 62
     0
 48
10.0
100
AcDbMText
 10
354.1738247206976
 20
1470.218426848239
 30
0.0
 40
25.0
 41
0.0
 71
     5
 72
     1
  1
\A1;150
 11
0.0000000000000001
 21
1.0
 31
0.0
 73
     1
 44
1.0
  0
SOLID
  5
1490
330
135F
100
AcDbEntity
  8
0
  6
ByBlock
 62
     0
 48
10.0
100
AcDbTrace
 10
275.1109227313709
 20
1420.218426848239
 30
0.0
 11
283.4442560647048
 21
1420.218426848239
 31
0.0
 12
279.2775893980378
 22
1395.218426848239
 32
0.0
 13
279.2775893980378
 23
1395.218426848239
 33
0.0
  0
LINE
  5
1491
330
135F
100
AcDbEntity
  8
0
  6
ByBlock
 62
     0
 48
10.0
100
AcDbLine
 10
372.9238247206976
 20
1470.218426848239
 30
0.0
 11
372.9238247206976
 21
1420.218426848239
 31
0.0
  0
SOLID
  5
1492
330
135F
100
AcDbEntity
  8
0
  6
ByBlock
 62
     0
 48
10.0
100
AcDbTrace
 10
368.7571580540307
 20
1420.218426848239
 30
0.0
 11
377.0904913873637
 21
1420.218426848239
 31
0.0
 12
372.9238247206976
 22
1395.218426848239
 32
0.0
 13
372.9238247206976
 23
1395.218426848239
 33
0.0
  0
POINT
  5
1493
330
135F
100
AcDbEntity
  8
DEFPOINTS
  6
ByBlock
 62
     0
 48
10.0
100
AcDbPoint
 10
372.9238247206976
 20
1445.218426848239
 30
0.0
  0
SOLID
  5
1494
330
135F
100
AcDbEntity
  8
0
  6
ByBlock
 62
     0
 48
10.0
100
AcDbTrace
 10
368.7571580540307
 20
1570.218426848239
 30
0.0
 11
377.0904913873637
 21
1570.218426848239
 31
0.0
 12
372.9238247206976
 22
1545.218426848239
 32
0.0
 13
372.9238247206976
 23
1545.218426848239
 33
0.0
  0
SOLID
  5
1495
330
135F
100
AcDbEntity
  8
0
  6
ByBlock
 62
     0
 48
10.0
100
AcDbTrace
 10
368.7571580540307
 20
1520.218426848239
 30
0.0
 11
377.0904913873637
 21
1520.218426848239
 31
0.0
 12
372.9238247206976
 22
1545.218426848239
 32
0.0
 13
372.9238247206976
 23
1545.218426848239
 33
0.0
  0
POINT
  5
1496
330
135F
100
AcDbEntity
  8
DEFPOINTS
  6
ByBlock
 62
     0
 48
10.0
100
AcDbPoint
 10
279.2775893980378
 20
1845.218426848239
 30
0.0
  0
POINT
  5
1497
330
135F
100
AcDbEntity
  8
DEFPOINTS
  6
ByBlock
 62
     0
 48
10.0
100
AcDbPoint
 10
372.9238247206976
 20
1845.218426848239
 30
0.0
  0
MTEXT
  5
1498
330
135F
100
AcDbEntity
  8
0
  6
ByBlock
 62
     0
 48
10.0
100
AcDbMText
 10
354.1738247206976
 20
2310.218426848239
 30
0.0
 40
25.0
 41
0.0
 71
     5
 72
     1
  1
\A1;70
 11
0.0000000000000001
 21
1.0
 31
0.0
 73
     1
 44
1.0
  0
SOLID
  5
1499
330
135F
100
AcDbEntity
  8
0
  6
ByBlock
 62
     0
 48
10.0
100
AcDbTrace
 10
275.1109227313709
 20
2320.218426848239
 30
0.0
 11
283.4442560647048
 21
2320.218426848239
 31
0.0
 12
279.2775893980378
 22
2345.218426848239
 32
0.0
 13
279.2775893980378
 23
2345.218426848239
 33
0.0
  0
SOLID
  5
149A
330
135F
100
AcDbEntity
  8
0
  6
ByBlock
 62
     0
 48
10.0
100
AcDbTrace
 10
368.7571580540307
 20
2300.218426848239
 30
0.0
 11
377.0904913873637
 21
2300.218426848239
 31
0.0
 12
372.9238247206976
 22
2275.21842684824
 32
0.0
 13
372.9238247206976
 23
2275.21842684824
 33
0.0
  0
LINE
  5
149B
330
135F
100
AcDbEntity
  8
0
  6
ByBlock
 62
     0
 48
10.0
100
AcDbLine
 10
372.9238247206976
 20
2245.218426848239
 30
0.0
 11
372.9238247206976
 21
2320.218426848239
 31
0.0
  0
SOLID
  5
149C
330
135F
100
AcDbEntity
  8
0
  6
ByBlock
 62
     0
 48
10.0
100
AcDbTrace
 10
368.7571580540307
 20
2250.21842684824
 30
0.0
 11
377.0904913873637
 21
2250.21842684824
 31
0.0
 12
372.9238247206976
 22
2275.21842684824
 32
0.0
 13
372.9238247206976
 23
2275.21842684824
 33
0.0
  0
POINT
  5
149D
330
135F
100
AcDbEntity
  8
DEFPOINTS
  6
ByBlock
 62
     0
 48
10.0
100
AcDbPoint
 10
372.9238247206976
 20
2345.218426848239
 30
0.0
  0
SOLID
  5
149E
330
135F
100
AcDbEntity
  8
0
  6
ByBlock
 62
     0
 48
10.0
100
AcDbTrace
 10
368.7571580540307
 20
2320.218426848239
 30
0.0
 11
377.0904913873637
 21
2320.218426848239
 31
0.0
 12
372.9238247206976
 22
2345.218426848239
 32
0.0
 13
372.9238247206976
 23
2345.218426848239
 33
0.0
  0
LINE
  5
149F
330
135F
100
AcDbEntity
  8
上線
100
AcDbLine
 10
820.3173973608764
 20
2275.09221142038
 30
0.0
 11
824.6133146871498
 21
1594.377998581237
 31
0.0
  0
LINE
  5
14A0
330
135F
100
AcDbEntity
  8
上線
100
AcDbLine
 10
1140.316999098555
 20
2275.21842684824
 30
0.0
 11
1136.021081772281
 21
1594.504214009097
 31
0.0
  0
LINE
  5
14A1
330
135F
100
AcDbEntity
  8
上線
100
AcDbLine
 10
840.3169990985553
 20
2275.21842684824
 30
0.0
 11
844.6129164248286
 21
1594.504214009097
 31
0.0
  0
LINE
  5
14A2
330
135F
100
AcDbEntity
  8
上線
 48
10.0
100
AcDbLine
 10
1265.316999098555
 20
2315.218426848239
 30
0.0
 11
1265.316999098555
 21
1420.21842684824
 31
0.0
  0
LINE
  5
14A3
330
135F
100
AcDbEntity
  8
上線
100
AcDbLine
 10
1290.316999098555
 20
1405.218426848239
 30
0.0
 11
1290.316999098555
 21
1895.218426848239
 31
0.0
  0
LINE
  5
14A4
330
135F
100
AcDbEntity
  8
上線
100
AcDbLine
 10
690.3169990985552
 20
1895.218426848239
 30
0.0
 11
690.3169990985552
 21
1405.218426848239
 31
0.0
  0
LINE
  5
14A5
330
135F
100
AcDbEntity
  8
上線
100
AcDbLine
 10
989.9006217137248
 20
1525.218426848239
 30
0.0
 11
894.6078151648043
 21
1525.218426848239
 31
0.0
  0
MTEXT
  5
14A6
102
{ACAD_REACTORS
330
14A7
102
}
330
135F
100
AcDbEntity
  8
上線
 48
10.0
100
AcDbMText
 10
915.0187404846164
 20
1696.632227734593
 30
0.0
 40
25.0
 41
0.0
 71
     4
 72
     1
  1
\A1;\fＭＳ Ｐ明朝|b0|i0|c128|p18;R=50
 73
     1
 44
1.0
  0
LEADER
  5
14A7
330
135F
100
AcDbEntity
  8
上線
 48
10.0
100
AcDbLeader
  3
STANDARD
 73
     0
 74
     0
 75
     1
 40
25.0
 41
72.0505617977528
 76
     3
 10
862.6236401629485
 20
1559.610386106417
 30
0.0
 10
883.7687404846164
 20
1677.882227734593
 30
0.0
 10
908.7687404846164
 20
1677.882227734593
 30
0.0
340
14A6
1001
ACAD
1000
DSTYLE
1002
{
1070
    78
1070
     8
1070
   270
1070
     8
1070
   140
1040
2.5
1070
    74
1070
     0
1070
   172
1070
     1
1070
    73
1070
     0
1070
    77
1070
     1
1070
    40
1040
10.0
1070
   147
1040
0.625
1070
    42
1040
0.625
1070
    44
1040
1.25
1070
    43
1040
3.75
1070
   141
1040
2.5
1070
    41
1040
2.5
1070
   273
1070
     8
1070
   274
1070
     4
1070
   143
1040
0.0394
1070
   171
1070
     4
1002
}
  0
DIMENSION
  5
14A8
330
135F
100
AcDbEntity
  8
上線
 48
10.0
100
AcDbDimension
  2
*D1
 10
1135.316999098555
 20
1785.930331110415
 30
0.0
 11
990.3169990985553
 21
1804.680331110414
 31
0.0
 12
111.1208050544046
 22
-44.83915304915899
 32
0.0
 71
     5
 42
-1.0
  3
STANDARD
100
AcDbAlignedDimension
 13
845.3169990985552
 23
1635.486184839242
 33
0.0
 14
1135.316999098555
 24
1635.486184839242
 34
0.0
100
AcDbRotatedDimension
1001
ACAD
1000
DSTYLE
1002
{
1070
    40
1040
10.0
1070
    41
1040
2.5
1070
    42
1040
0.625
1070
    43
1040
3.75
1070
    44
1040
1.25
1070
    73
1070
     0
1070
    74
1070
     0
1070
    77
1070
     1
1070
    78
1070
     8
1070
   140
1040
2.5
1070
   141
1040
2.5
1070
   143
1040
0.0394
1070
   147
1040
0.625
1070
   171
1070
     4
1070
   172
1070
     1
1070
   273
1070
     8
1070
   274
1070
     4
1070
   277
1070
     6
1002
}
  0
LINE
  5
14A9
330
135F
100
AcDbEntity
  8
上線
100
AcDbLine
 10
700.3169990985552
 20
1395.218426848239
 30
0.0
 11
1280.316999098555
 21
1395.218426848239
 31
0.0
  0
LINE
  5
14AA
330
135F
100
AcDbEntity
  8
上線
100
AcDbLine
 10
1086.026183032306
 20
1545.218426848239
 30
0.0
 11
894.6078151648043
 21
1545.218426848239
 31
0.0
  0
LINE
  5
14AB
330
135F
100
AcDbEntity
  8
上線
100
AcDbLine
 10
690.3169990985552
 20
1405.218426848239
 30
0.0
 11
700.3169990985552
 21
1395.21842684824
 31
0.0
  0
ARC
  5
14AC
330
135F
100
AcDbEntity
  8
上線
100
AcDbCircle
 10
894.6078151648043
 20
1595.218426848239
 30
0.0
 40
70.0
100
AcDbArc
 50
180.8184554616886
 51
270.0
  0
ARC
  5
14AD
330
135F
100
AcDbEntity
  8
上線
100
AcDbCircle
 10
894.6078151648043
 20
1595.218426848239
 30
0.0
 40
50.0
100
AcDbArc
 50
180.8184554616886
 51
270.0
  0
POINT
  5
14AE
330
135F
100
AcDbEntity
  8
DEFPOINTS
  6
ByBlock
 62
     0
 48
10.0
100
AcDbPoint
 10
690.3501981076187
 20
1795.218426848239
 30
0.0
  0
POINT
  5
14AF
330
135F
100
AcDbEntity
  8
DEFPOINTS
  6
ByBlock
 62
     0
 48
10.0
100
AcDbPoint
 10
720.3169990985552
 20
1777.012675559435
 30
0.0
  0
POINT
  5
14B0
330
135F
100
AcDbEntity
  8
DEFPOINTS
  6
ByBlock
 62
     0
 48
10.0
100
AcDbPoint
 10
750.3169990985552
 20
1777.012675559435
 30
0.0
  0
LINE
  5
14B1
330
135F
100
AcDbEntity
  8
上書線
100
AcDbLine
 10
1032.844204910348
 20
1414.267397368152
 30
0.0
 11
1271.328802216339
 21
1652.751916738606
 31
0.0
  0
MTEXT
  5
14B2
102
{ACAD_REACTORS
330
14B3
102
}
330
135F
100
AcDbEntity
  8
上線
 48
10.0
100
AcDbMText
 10
1092.606765708097
 20
1734.613621306788
 30
0.0
 40
25.0
 41
0.0
 71
     6
 72
     1
  1
D10
 73
     1
 44
1.0
  0
LEADER
  5
14B3
330
135F
100
AcDbEntity
  8
上線
 48
10.0
100
AcDbLeader
  3
STANDARD
 73
     0
 75
     1
 40
25.0
 41
57.30337078651685
 76
     3
 10
1178.150633164512
 20
1519.356859240057
 30
0.0
 10
1123.856765708097
 20
1715.863621306788
 30
0.0
 10
1098.856765708097
 20
1715.863621306788
 30
0.0
340
14B2
1001
ACAD
1000
DSTYLE
1002
{
1070
    78
1070
     8
1070
   270
1070
     8
1070
   140
1040
2.5
1070
    74
1070
     0
1070
   172
1070
     1
1070
    73
1070
     0
1070
    77
1070
     1
1070
    40
1040
10.0
1070
   147
1040
0.625
1070
    42
1040
0.625
1070
    44
1040
1.25
1070
    43
1040
3.75
1070
   141
1040
2.5
1070
    41
1040
2.5
1070
   273
1070
     8
1070
   274
1070
     4
1070
   143
1040
0.0394
1070
   171
1070
     4
1002
}
  0
LINE
  5
14B4
330
135F
100
AcDbEntity
  8
上線
100
AcDbLine
 10
1265.316999098555
 20
1520.218426848239
 30
0.0
 11
989.9006217137248
 21
1520.218426848239
 31
0.0
  0
LINE
  5
14B5
330
135F
100
AcDbEntity
  8
上線
100
AcDbLine
 10
989.9006217137248
 20
1420.218426848239
 30
0.0
 11
1265.316999098555
 21
1420.218426848239
 31
0.0
  0
LWPOLYLINE
  5
14B6
330
135F
100
AcDbEntity
  8
上線
 48
10.0
100
AcDbPolyline
 90
        2
 70
     1
 43
5.0
 10
987.1083973632357
 20
1425.242157827764
 42
1.0
 10
992.1083973632358
 20
1425.242157827764
 42
1.0
  0
LINE
  5
14B7
330
135F
100
AcDbEntity
  8
上書線
100
AcDbLine
 10
1032.844204910348
 20
1414.267397368152
 30
0.0
 11
989.9006217137248
 21
1414.267397368152
 31
0.0
  0
ARC
  5
14B8
330
135F
100
AcDbEntity
  8
上線
100
AcDbCircle
 10
1086.026183032306
 20
1595.218426848239
 30
0.0
 40
50.0
100
AcDbArc
 50
270.0
 51
359.1815445383113
  0
LWPOLYLINE
  5
14B9
330
135F
100
AcDbEntity
  8
上線
 48
10.0
100
AcDbPolyline
 90
        2
 70
     1
 43
5.0
 10
1257.759260015264
 20
1425.378946320979
 42
1.0
 10
1262.759260015263
 20
1425.378946320979
 42
1.0
  0
LINE
  5
14BA
330
135F
100
AcDbEntity
  8
上線
100
AcDbLine
 10
1290.316999098555
 20
1405.218426848239
 30
0.0
 11
1280.316999098555
 21
1395.218426848239
 31
0.0
  0
LWPOLYLINE
  5
14BB
330
135F
100
AcDbEntity
  8
上線
 48
10.0
100
AcDbPolyline
 90
        2
 70
     1
 43
5.0
 10
1257.759260015264
 20
1525.118188941704
 42
1.0
 10
1262.759260015263
 20
1525.118188941704
 42
1.0
  0
LINE
  5
14BC
330
135F
100
AcDbEntity
  8
上書線
100
AcDbLine
 10
1271.328802216339
 20
1652.751916738606
 30
0.0
 11
1271.328802216339
 21
1807.284196724586
 31
0.0
  0
POINT
  5
14BD
330
135F
100
AcDbEntity
  8
DEFPOINTS
  6
ByBlock
 62
     0
 48
10.0
100
AcDbPoint
 10
1229.900621713724
 20
1778.918606231637
 30
0.0
  0
POINT
  5
14BE
330
135F
100
AcDbEntity
  8
DEFPOINTS
  6
ByBlock
 62
     0
 48
10.0
100
AcDbPoint
 10
1230.316999098555
 20
1767.943906500215
 30
0.0
  0
LWPOLYLINE
  5
14BF
330
135F
100
AcDbEntity
  8
上線
 48
10.0
100
AcDbPolyline
 90
        2
 70
     1
 43
5.0
 10
1257.759260015264
 20
1785.486294653121
 42
1.0
 10
1262.759260015263
 20
1785.486294653121
 42
1.0
  0
POINT
  5
14C0
330
135F
100
AcDbEntity
  8
DEFPOINTS
  6
ByBlock
 62
     0
 48
10.0
100
AcDbPoint
 10
1259.900621713724
 20
1778.918606231637
 30
0.0
  0
POINT
  5
14C1
330
135F
100
AcDbEntity
  8
DEFPOINTS
  6
ByBlock
 62
     0
 48
10.0
100
AcDbPoint
 10
1230.316999098555
 20
1814.858788937732
 30
0.0
  0
POINT
  5
14C2
330
135F
100
AcDbEntity
  8
DEFPOINTS
  6
ByBlock
 62
     0
 48
10.0
100
AcDbPoint
 10
1321.822574040419
 20
1795.218426848239
 30
0.0
  0
POINT
  5
14C3
330
135F
100
AcDbEntity
  8
DEFPOINTS
  6
ByBlock
 62
     0
 48
10.0
100
AcDbPoint
 10
1321.822574040419
 20
1825.218426848239
 30
0.0
  0
POINT
  5
14C4
330
135F
100
AcDbEntity
  8
DEFPOINTS
  6
ByBlock
 62
     0
 48
10.0
100
AcDbPoint
 10
1321.822574040419
 20
1825.218426848239
 30
0.0
  0
LINE
  5
14C5
330
135F
100
AcDbEntity
  8
上線
 48
10.0
100
AcDbLine
 10
799.8169990985553
 20
2340.718426848239
 30
0.0
 11
989.9006217137253
 21
2340.718426848239
 31
0.0
  0
LINE
  5
14C6
330
135F
100
AcDbEntity
  8
上線
 48
10.0
100
AcDbLine
 10
799.8169990985553
 20
2299.718426848239
 30
0.0
 11
989.9006217137248
 21
2299.718426848239
 31
0.0
  0
LINE
  5
14C7
330
135F
100
AcDbEntity
  8
上線
 48
10.0
100
AcDbLine
 10
795.3169990985552
 20
2295.21842684824
 30
0.0
 11
989.9006217137248
 21
2295.218426848239
 31
0.0
  0
LINE
  5
14C8
330
135F
100
AcDbEntity
  8
上線
 48
10.0
100
AcDbLine
 10
795.3169990985552
 20
2345.218426848239
 30
0.0
 11
989.9006217137253
 21
2345.218426848239
 31
0.0
  0
MTEXT
  5
14C9
102
{ACAD_REACTORS
330
14CA
102
}
330
135F
100
AcDbEntity
  8
上線
 48
10.0
100
AcDbMText
 10
631.5223328038318
 20
2112.562950373142
 30
0.0
 40
25.0
 41
0.0
 71
     6
 72
     1
  1
\A1;締付ボルト
 73
     1
 44
1.0
  0
LEADER
  5
14CA
330
135F
100
AcDbEntity
  8
上線
 48
10.0
100
AcDbLeader
  3
STANDARD
 73
     0
 75
     1
 40
32.7247191011236
 41
159.8314606741573
 76
     3
 10
816.719453814192
 20
2299.060736131124
 30
0.0
 10
662.7723328038318
 20
2089.95059082258
 30
0.0
 10
637.7723328038318
 20
2089.95059082258
 30
0.0
340
14C9
1001
ACAD
1000
DSTYLE
1002
{
1070
    78
1070
     8
1070
   270
1070
     8
1070
   140
1040
2.5
1070
    74
1070
     0
1070
   172
1070
     1
1070
    73
1070
     0
1070
    77
1070
     1
1070
    40
1040
10.0
1070
   147
1040
0.625
1070
    42
1040
0.625
1070
    44
1040
1.25
1070
    43
1040
3.75
1070
   141
1040
2.5
1070
    41
1040
2.5
1070
   273
1070
     8
1070
   274
1070
     4
1070
   143
1040
0.0394
1070
   171
1070
     4
1002
}
  0
LINE
  5
14CB
330
135F
100
AcDbEntity
  8
上線
100
AcDbLine
 10
690.3169990985552
 20
2345.218426848239
 30
0.0
 11
690.3169990985552
 21
1895.218426848239
 31
0.0
  0
POINT
  5
14CC
330
135F
100
AcDbEntity
  8
DEFPOINTS
  6
ByBlock
 62
     0
 48
10.0
100
AcDbPoint
 10
690.3501981076187
 20
1895.218426848239
 30
0.0
  0
POINT
  5
14CD
330
135F
100
AcDbEntity
  8
DEFPOINTS
  6
ByBlock
 62
     0
 48
10.0
100
AcDbPoint
 10
690.3501981076187
 20
1895.218426848239
 30
0.0
  0
LINE
  5
14CE
330
135F
100
AcDbEntity
  8
上線
100
AcDbLine
 10
785.3169990985552
 20
2340.218426848239
 30
0.0
 11
695.3169990985552
 21
2340.218426848239
 31
0.0
  0
LINE
  5
14CF
330
135F
100
AcDbEntity
  8
上線
100
AcDbLine
 10
790.3169990985552
 20
2345.218426848239
 30
0.0
 11
690.3169990985552
 21
2345.21842684824
 31
0.0
  0
POINT
  5
14D0
330
135F
100
AcDbEntity
  8
DEFPOINTS
  6
ByBlock
 62
     0
 48
10.0
100
AcDbPoint
 10
465.6084340209636
 20
2345.218426848239
 30
0.0
  0
POINT
  5
14D1
330
135F
100
AcDbEntity
  8
DEFPOINTS
  6
ByBlock
 62
     0
 48
10.0
100
AcDbPoint
 10
690.3501981076187
 20
2245.218426848239
 30
0.0
  0
POINT
  5
14D2
330
135F
100
AcDbEntity
  8
DEFPOINTS
  6
ByBlock
 62
     0
 48
10.0
100
AcDbPoint
 10
690.3501981076187
 20
2295.21842684824
 30
0.0
  0
LINE
  5
14D3
330
135F
100
AcDbEntity
  8
上線
100
AcDbLine
 10
695.3169990985552
 20
2310.218426848239
 30
0.0
 11
690.3169990985552
 21
2310.218426848239
 31
0.0
  0
LINE
  5
14D4
330
135F
100
AcDbEntity
  8
上線
100
AcDbLine
 10
695.3169990985552
 20
2340.218426848239
 30
0.0
 11
695.3169990985552
 21
2310.218426848239
 31
0.0
  0
POINT
  5
14D5
330
135F
100
AcDbEntity
  8
DEFPOINTS
  6
ByBlock
 62
     0
 48
10.0
100
AcDbPoint
 10
690.3501981076187
 20
2345.218426848239
 30
0.0
  0
LINE
  5
14D6
330
135F
100
AcDbEntity
  8
点線
100
AcDbLine
 10
813.9006217137248
 20
2225.285377605624
 30
0.0
 11
813.9006217137248
 21
2299.718426848239
 31
0.0
  0
LINE
  5
14D7
330
135F
100
AcDbEntity
  8
点線
100
AcDbLine
 10
825.9006217137248
 20
2299.718426848239
 30
0.0
 11
825.9006217137248
 21
2225.285377605624
 31
0.0
  0
LINE
  5
14D8
330
135F
100
AcDbEntity
  8
点線
100
AcDbLine
 10
830.9006217137248
 20
2225.285377605624
 30
0.0
 11
830.9006217137248
 21
2270.218426848239
 31
0.0
  0
LINE
  5
14D9
330
135F
100
AcDbEntity
  8
点線
100
AcDbLine
 10
808.9006217137248
 20
2270.218426848239
 30
0.0
 11
808.9006217137248
 21
2225.285377605624
 31
0.0
  0
LINE
  5
14DA
330
135F
100
AcDbEntity
  8
点線
100
AcDbLine
 10
825.9006217137248
 20
2225.285377605624
 30
0.0
 11
813.9006217137248
 21
2225.285377605624
 31
0.0
  0
LINE
  5
14DB
330
135F
100
AcDbEntity
  8
点線
100
AcDbLine
 10
805.9006217137248
 20
2220.285377605623
 30
0.0
 11
833.9006217137248
 21
2220.285377605623
 31
0.0
  0
LINE
  5
14DC
330
135F
100
AcDbEntity
  8
点線
 48
10.0
100
AcDbLine
 10
813.9006217137248
 20
2225.285377605624
 30
0.0
 11
825.9006217137248
 21
2225.285377605624
 31
0.0
  0
LINE
  5
14DD
330
135F
100
AcDbEntity
  8
上書線
100
AcDbLine
 10
746.4750477029001
 20
2218.862358924088
 30
0.0
 11
747.2729252591697
 21
2218.862358924088
 31
0.0
  0
LINE
  5
14DE
330
135F
100
AcDbEntity
  8
上書線
100
AcDbLine
 10
747.2729252591707
 20
2217.480010031905
 30
0.0
 11
746.4747370331624
 21
2218.862512593354
 31
0.0
  0
LINE
  5
14DF
330
135F
100
AcDbEntity
  8
上書線
100
AcDbLine
 10
734.5684887401394
 20
2222.9869595644
 30
0.0
 11
734.2729252591698
 21
2223.498890530301
 31
0.0
  0
LINE
  5
14E0
330
135F
100
AcDbEntity
  8
点線
100
AcDbLine
 10
805.9006217137248
 20
2225.285377605624
 30
0.0
 11
805.9006217137248
 21
2220.285377605623
 31
0.0
  0
LINE
  5
14E1
330
135F
100
AcDbEntity
  8
点線
100
AcDbLine
 10
808.9006217137248
 20
2225.285377605624
 30
0.0
 11
805.9006217137248
 21
2225.285377605624
 31
0.0
  0
LINE
  5
14E2
330
135F
100
AcDbEntity
  8
点線
100
AcDbLine
 10
833.9006217137248
 20
2225.285377605624
 30
0.0
 11
830.9006217137248
 21
2225.285377605624
 31
0.0
  0
LINE
  5
14E3
330
135F
100
AcDbEntity
  8
点線
100
AcDbLine
 10
833.9006217137248
 20
2220.285377605623
 30
0.0
 11
833.9006217137248
 21
2225.285377605624
 31
0.0
  0
LINE
  5
14E4
330
135F
100
AcDbEntity
  8
上線
100
AcDbLine
 10
840.3169990985553
 20
2275.218426848258
 30
0.0
 11
790.3169990985552
 21
2275.218426848258
 31
0.0
  0
LINE
  5
14E5
330
135F
100
AcDbEntity
  8
上線
100
AcDbLine
 10
785.3169990985552
 20
2270.218426848239
 30
0.0
 11
840.3485535838681
 21
2270.218426848239
 31
0.0
  0
LINE
  5
14E6
330
135F
100
AcDbEntity
  8
上線
 48
10.0
100
AcDbLine
 10
807.9006217137248
 20
2309.71842684824
 30
0.0
 11
831.9006217137248
 21
2309.71842684824
 31
0.0
  0
LINE
  5
14E7
330
135F
100
AcDbEntity
  8
上線
 48
10.0
100
AcDbLine
 10
799.7395322113306
 20
2292.018426848239
 30
0.0
 11
837.1135322113314
 21
2292.018426848239
 31
0.0
  0
LINE
  5
14E8
330
135F
100
AcDbEntity
  8
点線
100
AcDbLine
 10
733.7416914931191
 20
2340.218426848239
 30
0.0
 11
733.74169149312
 21
2244.930720763959
 31
0.0
  0
LINE
  5
14E9
330
135F
100
AcDbEntity
  8
点線
100
AcDbLine
 10
747.2729252591697
 20
2244.930720763959
 30
0.0
 11
747.2729252591697
 21
2340.218426848239
 31
0.0
  0
LINE
  5
14EA
330
135F
100
AcDbEntity
  8
上書線
100
AcDbLine
 10
747.2729252591707
 20
2297.365510789593
 30
0.0
 11
746.4747319122325
 21
2298.748022220752
 31
0.0
  0
LINE
  5
14EB
330
135F
100
AcDbEntity
  8
上書線
100
AcDbLine
 10
739.3309836192092
 20
2294.623577220753
 30
0.0
 11
736.9497336192089
 21
2298.748023206276
 31
0.0
  0
LINE
  5
14EC
330
135F
100
AcDbEntity
  8
上書線
100
AcDbLine
 10
739.3312857540641
 20
2294.62376545572
 30
0.0
 11
741.7125357540644
 21
2298.748211441243
 31
0.0
  0
LINE
  5
14ED
330
135F
100
AcDbEntity
  8
上線
 48
10.0
100
AcDbLine
 10
785.3169990985552
 20
2340.218426848239
 30
0.0
 11
785.3169990985552
 21
2270.218426848239
 31
0.0
  0
LINE
  5
14EE
330
135F
100
AcDbEntity
  8
上線
 48
10.0
100
AcDbLine
 10
795.3169990985552
 20
2345.218426848239
 30
0.0
 11
795.3169990985552
 21
2295.21842684824
 31
0.0
  0
LINE
  5
14EF
330
135F
100
AcDbEntity
  8
上線
 48
10.0
100
AcDbLine
 10
790.3169990985552
 20
2345.218426848239
 30
0.0
 11
790.3169990985552
 21
2275.218426848258
 31
0.0
  0
LINE
  5
14F0
330
135F
100
AcDbEntity
  8
点線
100
AcDbLine
 10
733.74169149312
 20
2244.930720763959
 30
0.0
 11
747.2729252591697
 21
2244.930720763959
 31
0.0
  0
LINE
  5
14F1
330
135F
100
AcDbEntity
  8
上書線
100
AcDbLine
 10
736.9500477029005
 20
2249.254519681777
 30
0.0
 11
741.7125477029003
 21
2249.254519681777
 31
0.0
  0
LINE
  5
14F2
330
135F
100
AcDbEntity
  8
上書線
100
AcDbLine
 10
741.7125477029003
 20
2257.503409681777
 30
0.0
 11
746.4750477029001
 21
2257.503409681777
 31
0.0
  0
LINE
  5
14F3
330
135F
100
AcDbEntity
  8
上書線
100
AcDbLine
 10
734.2729252591698
 20
2257.503409681777
 30
0.0
 11
736.9500477029005
 21
2257.503409681777
 31
0.0
  0
LINE
  5
14F4
330
135F
100
AcDbEntity
  8
上書線
100
AcDbLine
 10
746.4750477029001
 20
2265.752299681777
 30
0.0
 11
747.2729252591697
 21
2265.752299681777
 31
0.0
  0
LINE
  5
14F5
330
135F
100
AcDbEntity
  8
上書線
100
AcDbLine
 10
736.9500477029005
 20
2265.752299681777
 30
0.0
 11
741.7125477029003
 21
2265.752299681777
 31
0.0
  0
LINE
  5
14F6
330
135F
100
AcDbEntity
  8
上書線
100
AcDbLine
 10
741.7125477029003
 20
2274.001189681777
 30
0.0
 11
746.4750477029001
 21
2274.001189681777
 31
0.0
  0
LINE
  5
14F7
330
135F
100
AcDbEntity
  8
上書線
100
AcDbLine
 10
734.2729252591698
 20
2274.001189681777
 30
0.0
 11
736.9500477029005
 21
2274.001189681777
 31
0.0
  0
LINE
  5
14F8
330
135F
100
AcDbEntity
  8
上書線
100
AcDbLine
 10
746.4750477029001
 20
2282.250079681777
 30
0.0
 11
747.2729252591697
 21
2282.250079681777
 31
0.0
  0
LINE
  5
14F9
330
135F
100
AcDbEntity
  8
上書線
100
AcDbLine
 10
736.9500477029005
 20
2282.250079681777
 30
0.0
 11
741.7125477029003
 21
2282.250079681777
 31
0.0
  0
LINE
  5
14FA
330
135F
100
AcDbEntity
  8
上書線
100
AcDbLine
 10
741.7125477029003
 20
2290.498969681777
 30
0.0
 11
746.4750477029001
 21
2290.498969681777
 31
0.0
  0
LINE
  5
14FB
330
135F
100
AcDbEntity
  8
上書線
100
AcDbLine
 10
734.2729252591698
 20
2290.498969681777
 30
0.0
 11
736.9500477029005
 21
2290.498969681777
 31
0.0
  0
LINE
  5
14FC
330
135F
100
AcDbEntity
  8
上書線
100
AcDbLine
 10
744.0934836192091
 20
2286.374685249706
 30
0.0
 11
741.7122336192096
 21
2290.499131235229
 31
0.0
  0
LINE
  5
14FD
330
135F
100
AcDbEntity
  8
上書線
100
AcDbLine
 10
747.2729252591707
 20
2280.867730789593
 30
0.0
 11
746.4747336192094
 21
2282.250239264182
 31
0.0
  0
LINE
  5
14FE
330
135F
100
AcDbEntity
  8
上書線
100
AcDbLine
 10
734.5684853261864
 20
2286.374686235229
 30
0.0
 11
734.2729252591698
 21
2286.886611287989
 31
0.0
  0
LINE
  5
14FF
330
135F
100
AcDbEntity
  8
上書線
100
AcDbLine
 10
739.3309853261862
 20
2278.125794264183
 30
0.0
 11
736.9497353261858
 21
2282.250240249706
 31
0.0
  0
LINE
  5
1500
330
135F
100
AcDbEntity
  8
上書線
100
AcDbLine
 10
744.093485326186
 20
2269.876902293136
 30
0.0
 11
741.7122353261857
 21
2274.001348278659
 31
0.0
  0
LINE
  5
1501
330
135F
100
AcDbEntity
  8
上書線
100
AcDbLine
 10
747.2729252591707
 20
2264.369950789594
 30
0.0
 11
746.4747353261864
 21
2265.752456307612
 31
0.0
  0
LINE
  5
1502
330
135F
100
AcDbEntity
  8
上書線
100
AcDbLine
 10
734.5684870331624
 20
2269.876903278659
 30
0.0
 11
734.2729252591698
 21
2270.38883128799
 31
0.0
  0
LINE
  5
1503
330
135F
100
AcDbEntity
  8
上書線
100
AcDbLine
 10
739.3309870331632
 20
2261.628011307612
 30
0.0
 11
736.9497370331628
 21
2265.752457293136
 31
0.0
  0
LINE
  5
1504
330
135F
100
AcDbEntity
  8
上書線
100
AcDbLine
 10
744.093487033163
 20
2253.379119336565
 30
0.0
 11
741.7122370331626
 21
2257.503565322089
 31
0.0
  0
LINE
  5
1505
330
135F
100
AcDbEntity
  8
上書線
100
AcDbLine
 10
739.3309887401392
 20
2245.130228351042
 30
0.0
 11
736.9497387401398
 21
2249.254674336565
 31
0.0
  0
LINE
  5
1506
330
135F
100
AcDbEntity
  8
上書線
100
AcDbLine
 10
744.0937806331349
 20
2253.379308557057
 30
0.0
 11
746.4750306331343
 21
2257.50375454258
 31
0.0
  0
LINE
  5
1507
330
135F
100
AcDbEntity
  8
上書線
100
AcDbLine
 10
739.3312806331342
 20
2245.13041658601
 30
0.0
 11
741.7125306331345
 21
2249.254862571533
 31
0.0
  0
LINE
  5
1508
330
135F
100
AcDbEntity
  8
上書線
100
AcDbLine
 10
744.0937823401108
 20
2269.877091513627
 30
0.0
 11
746.4750323401112
 21
2274.00153749915
 31
0.0
  0
LINE
  5
1509
330
135F
100
AcDbEntity
  8
上書線
100
AcDbLine
 10
739.331282340111
 20
2261.628199542581
 30
0.0
 11
741.7125323401115
 21
2265.752645528104
 31
0.0
  0
LINE
  5
150A
330
135F
100
AcDbEntity
  8
上書線
100
AcDbLine
 10
734.5687823401113
 20
2253.379307571534
 30
0.0
 11
736.9500323401116
 21
2257.503753557057
 31
0.0
  0
LINE
  5
150B
330
135F
100
AcDbEntity
  8
上書線
100
AcDbLine
 10
744.0937840470878
 20
2286.374874470197
 30
0.0
 11
746.4750340470882
 21
2290.49932045572
 31
0.0
  0
LINE
  5
150C
330
135F
100
AcDbEntity
  8
上書線
100
AcDbLine
 10
739.331284047088
 20
2278.125982499151
 30
0.0
 11
741.7125340470883
 21
2282.250428484674
 31
0.0
  0
LINE
  5
150D
330
135F
100
AcDbEntity
  8
上書線
100
AcDbLine
 10
734.5687840470882
 20
2269.877090528104
 30
0.0
 11
736.9500340470876
 21
2274.001536513627
 31
0.0
  0
LINE
  5
150E
330
135F
100
AcDbEntity
  8
上書線
100
AcDbLine
 10
734.5687857540642
 20
2286.374873484673
 30
0.0
 11
736.9500357540646
 21
2290.499319470197
 31
0.0
  0
LINE
  5
150F
330
135F
100
AcDbEntity
  8
上線
 48
10.0
100
AcDbLine
 10
799.7395322113306
 20
2292.018426848239
 30
0.0
 11
799.7395322113306
 21
2275.218426848258
 31
0.0
  0
LINE
  5
1510
330
135F
100
AcDbEntity
  8
上線
 48
10.0
100
AcDbLine
 10
796.5395322113309
 20
2295.21842684824
 30
0.0
 11
796.5395322113309
 21
2275.218426848258
 31
0.0
  0
LINE
  5
1511
330
135F
100
AcDbEntity
  8
上線
100
AcDbLine
 10
790.3169990985552
 20
2245.218426848239
 30
0.0
 11
790.3169990985552
 21
2245.218426848239
 31
0.0
  0
LINE
  5
1512
330
135F
100
AcDbEntity
  8
上書線
100
AcDbLine
 10
746.4750477029001
 20
2298.747859681777
 30
0.0
 11
747.2729252591697
 21
2298.747859681777
 31
0.0
  0
LINE
  5
1513
330
135F
100
AcDbEntity
  8
上書線
100
AcDbLine
 10
736.9500477029005
 20
2298.747859681777
 30
0.0
 11
741.7125477029003
 21
2298.747859681777
 31
0.0
  0
LINE
  5
1514
330
135F
100
AcDbEntity
  8
上書線
100
AcDbLine
 10
741.7125477029003
 20
2306.996749681777
 30
0.0
 11
746.4750477029001
 21
2306.996749681777
 31
0.0
  0
LINE
  5
1515
330
135F
100
AcDbEntity
  8
上書線
100
AcDbLine
 10
734.2729252591698
 20
2306.996749681777
 30
0.0
 11
736.9500477029005
 21
2306.996749681777
 31
0.0
  0
LINE
  5
1516
330
135F
100
AcDbEntity
  8
上書線
100
AcDbLine
 10
746.4750477029001
 20
2315.245639681776
 30
0.0
 11
747.2729252591697
 21
2315.245639681776
 31
0.0
  0
LINE
  5
1517
330
135F
100
AcDbEntity
  8
上書線
100
AcDbLine
 10
736.9500477029005
 20
2315.245639681776
 30
0.0
 11
741.7125477029003
 21
2315.245639681776
 31
0.0
  0
LINE
  5
1518
330
135F
100
AcDbEntity
  8
上書線
100
AcDbLine
 10
741.7125477029003
 20
2323.494529681777
 30
0.0
 11
746.4750477029001
 21
2323.494529681777
 31
0.0
  0
LINE
  5
1519
330
135F
100
AcDbEntity
  8
上書線
100
AcDbLine
 10
734.2729252591698
 20
2323.494529681777
 30
0.0
 11
736.9500477029005
 21
2323.494529681777
 31
0.0
  0
LINE
  5
151A
330
135F
100
AcDbEntity
  8
上書線
100
AcDbLine
 10
746.4750477029001
 20
2331.743419681777
 30
0.0
 11
747.2729252591697
 21
2331.743419681777
 31
0.0
  0
LINE
  5
151B
330
135F
100
AcDbEntity
  8
上書線
100
AcDbLine
 10
736.9500477029005
 20
2331.743419681777
 30
0.0
 11
741.7125477029003
 21
2331.743419681777
 31
0.0
  0
LINE
  5
151C
330
135F
100
AcDbEntity
  8
上書線
100
AcDbLine
 10
744.09347849828
 20
2335.868034119416
 30
0.0
 11
741.581778085213
 21
2340.218426848239
 31
0.0
  0
LINE
  5
151D
330
135F
100
AcDbEntity
  8
上書線
100
AcDbLine
 10
747.2729252591707
 20
2330.361070789594
 30
0.0
 11
746.4747284982804
 21
2331.743588133893
 31
0.0
  0
LINE
  5
151E
330
135F
100
AcDbEntity
  8
上書線
100
AcDbLine
 10
734.5684802052565
 20
2335.868035104939
 30
0.0
 11
733.7416914931191
 21
2337.300075161484
 31
0.0
  0
LINE
  5
151F
330
135F
100
AcDbEntity
  8
上書線
100
AcDbLine
 10
739.3309802052563
 20
2327.619143133893
 30
0.0
 11
736.9497302052559
 21
2331.743589119416
 31
0.0
  0
LINE
  5
1520
330
135F
100
AcDbEntity
  8
上書線
100
AcDbLine
 10
744.0934802052561
 20
2319.370251162846
 30
0.0
 11
741.7122302052566
 21
2323.494697148369
 31
0.0
  0
LINE
  5
1521
330
135F
100
AcDbEntity
  8
上書線
100
AcDbLine
 10
747.2729252591707
 20
2313.863290789593
 30
0.0
 11
746.4747302052565
 21
2315.245805177323
 31
0.0
  0
LINE
  5
1522
330
135F
100
AcDbEntity
  8
上書線
100
AcDbLine
 10
734.5684819122325
 20
2319.370252148369
 30
0.0
 11
734.2729252591707
 21
2319.882171287988
 31
0.0
  0
LINE
  5
1523
330
135F
100
AcDbEntity
  8
上書線
100
AcDbLine
 10
739.3309819122332
 20
2311.121360177323
 30
0.0
 11
736.9497319122329
 21
2315.245806162846
 31
0.0
  0
LINE
  5
1524
330
135F
100
AcDbEntity
  8
上書線
100
AcDbLine
 10
744.0934819122331
 20
2302.872468206276
 30
0.0
 11
741.7122319122327
 21
2306.996914191799
 31
0.0
  0
LINE
  5
1525
330
135F
100
AcDbEntity
  8
上書線
100
AcDbLine
 10
734.5684836192094
 20
2302.872469191799
 30
0.0
 11
734.2729252591698
 21
2303.384391287989
 31
0.0
  0
LINE
  5
1526
330
135F
100
AcDbEntity
  8
上書線
100
AcDbLine
 10
744.0937857540648
 20
2302.872657426767
 30
0.0
 11
746.4750357540642
 21
2306.99710341229
 31
0.0
  0
LINE
  5
1527
330
135F
100
AcDbEntity
  8
上書線
100
AcDbLine
 10
744.0937874610408
 20
2319.370440383337
 30
0.0
 11
746.4750374610412
 21
2323.49488636886
 31
0.0
  0
LINE
  5
1528
330
135F
100
AcDbEntity
  8
上書線
100
AcDbLine
 10
739.331287461041
 20
2311.12154841229
 30
0.0
 11
741.7125374610405
 21
2315.245994397813
 31
0.0
  0
LINE
  5
1529
330
135F
100
AcDbEntity
  8
上書線
100
AcDbLine
 10
734.5687874610412
 20
2302.872656441243
 30
0.0
 11
736.9500374610407
 21
2306.997102426767
 31
0.0
  0
LINE
  5
152A
330
135F
100
AcDbEntity
  8
上書線
100
AcDbLine
 10
744.0937891680178
 20
2335.868223339907
 30
0.0
 11
746.605380334583
 21
2340.218426848239
 31
0.0
  0
LINE
  5
152B
330
135F
100
AcDbEntity
  8
上書線
100
AcDbLine
 10
739.331289168018
 20
2327.619331368861
 30
0.0
 11
741.7125391680174
 21
2331.743777354384
 31
0.0
  0
LINE
  5
152C
330
135F
100
AcDbEntity
  8
上書線
100
AcDbLine
 10
734.5687891680172
 20
2319.370439397814
 30
0.0
 11
736.9500391680176
 21
2323.494885383337
 31
0.0
  0
LINE
  5
152D
330
135F
100
AcDbEntity
  8
上書線
100
AcDbLine
 10
734.5687908749941
 20
2335.868222354384
 30
0.0
 11
737.0803826105511
 21
2340.218426848239
 31
0.0
  0
POINT
  5
152E
330
135F
100
AcDbEntity
  8
DEFPOINTS
  6
ByBlock
 62
     0
 48
10.0
100
AcDbPoint
 10
720.3169990985552
 20
2342.974312893125
 30
0.0
  0
POINT
  5
152F
330
135F
100
AcDbEntity
  8
DEFPOINTS
  6
ByBlock
 62
     0
 48
10.0
100
AcDbPoint
 10
720.3169990985552
 20
2342.974312893125
 30
0.0
  0
LINE
  5
1530
330
135F
100
AcDbEntity
  8
上線
 48
10.0
100
AcDbLine
 10
807.9006217137248
 20
2309.71842684824
 30
0.0
 11
807.9006217137248
 21
2299.718426848239
 31
0.0
  0
LINE
  5
1531
330
135F
100
AcDbEntity
  8
上線
 48
10.0
100
AcDbLine
 10
799.8169990985553
 20
2340.718426848239
 30
0.0
 11
799.8169990985553
 21
2299.718426848239
 31
0.0
  0
POINT
  5
1532
330
135F
100
AcDbEntity
  8
DEFPOINTS
  6
ByBlock
 62
     0
 48
10.0
100
AcDbPoint
 10
790.3169990985552
 20
2342.974312893125
 30
0.0
  0
POINT
  5
1533
330
135F
100
AcDbEntity
  8
DEFPOINTS
  6
ByBlock
 62
     0
 48
10.0
100
AcDbPoint
 10
790.3169990985552
 20
2342.974312893125
 30
0.0
  0
LINE
  5
1534
330
135F
100
AcDbEntity
  8
上線
 48
10.0
100
AcDbLine
 10
837.1135322113314
 20
2292.018426848239
 30
0.0
 11
837.1135322113314
 21
2275.218426848258
 31
0.0
  0
LINE
  5
1535
330
135F
100
AcDbEntity
  8
上線
100
AcDbLine
 10
840.3169990985553
 20
2245.218426848239
 30
0.0
 11
840.3169990985553
 21
2245.218426848239
 31
0.0
  0
LINE
  5
1536
330
135F
100
AcDbEntity
  8
上線
 48
10.0
100
AcDbLine
 10
831.9006217137248
 20
2309.71842684824
 30
0.0
 11
831.9006217137248
 21
2299.718426848239
 31
0.0
  0
LINE
  5
1537
330
135F
100
AcDbEntity
  8
上線
100
AcDbLine
 10
1290.316999098555
 20
2345.218426848239
 30
0.0
 11
1290.316999098555
 21
1895.218426848239
 31
0.0
  0
POINT
  5
1538
330
135F
100
AcDbEntity
  8
DEFPOINTS
  6
ByBlock
 62
     0
 48
10.0
100
AcDbPoint
 10
1294.239301222733
 20
1915.218426848239
 30
0.0
  0
POINT
  5
1539
330
135F
100
AcDbEntity
  8
DEFPOINTS
  6
ByBlock
 62
     0
 48
10.0
100
AcDbPoint
 10
1321.822574040419
 20
1895.218426848239
 30
0.0
  0
POINT
  5
153A
330
135F
100
AcDbEntity
  8
DEFPOINTS
  6
ByBlock
 62
     0
 48
10.0
100
AcDbPoint
 10
1321.822574040419
 20
1865.218426848239
 30
0.0
  0
POINT
  5
153B
330
135F
100
AcDbEntity
  8
DEFPOINTS
  6
ByBlock
 62
     0
 48
10.0
100
AcDbPoint
 10
1321.822574040419
 20
1865.218426848239
 30
0.0
  0
LWPOLYLINE
  5
153C
330
135F
100
AcDbEntity
  8
上線
 48
10.0
100
AcDbPolyline
 90
        2
 70
     1
 43
5.0
 10
1257.759260015264
 20
2050.486294653121
 42
1.0
 10
1262.759260015263
 20
2050.486294653121
 42
1.0
  0
POINT
  5
153D
330
135F
100
AcDbEntity
  8
DEFPOINTS
  6
ByBlock
 62
     0
 48
10.0
100
AcDbPoint
 10
1294.239301222733
 20
2095.218426848239
 30
0.0
  0
POINT
  5
153E
330
135F
100
AcDbEntity
  8
DEFPOINTS
  6
ByBlock
 62
     0
 48
10.0
100
AcDbPoint
 10
1294.239301222733
 20
2095.218426848239
 30
0.0
  0
LINE
  5
153F
330
135F
100
AcDbEntity
  8
上線
100
AcDbLine
 10
1190.316999098555
 20
2275.21842684824
 30
0.0
 11
1140.316999098555
 21
2275.21842684824
 31
0.0
  0
LINE
  5
1540
330
135F
100
AcDbEntity
  8
上線
100
AcDbLine
 10
1195.316999098555
 20
2270.218426848239
 30
0.0
 11
1140.285444613242
 21
2270.218426848239
 31
0.0
  0
LINE
  5
1541
330
135F
100
AcDbEntity
  8
上書線
100
AcDbLine
 10
1169.922095454219
 20
2232.169176751417
 30
0.0
 11
1172.30334545422
 21
2236.29362273694
 31
0.0
  0
LINE
  5
1542
330
135F
100
AcDbEntity
  8
上書線
100
AcDbLine
 10
1169.921805268201
 20
2232.1690032993
 30
0.0
 11
1167.540555268201
 21
2236.293449284823
 31
0.0
  0
LINE
  5
1543
330
135F
100
AcDbEntity
  8
上書線
100
AcDbLine
 10
1161.301228131419
 20
2233.735176543016
 30
0.0
 11
1162.778347161196
 21
2236.293621751417
 31
0.0
  0
LWPOLYLINE
  5
1544
330
135F
100
AcDbEntity
  8
点線
100
AcDbPolyline
 90
        4
 70
     1
 43
0.0
 10
1161.301228131419
 20
2175.218379799077
 10
1174.301228131419
 20
2175.218379799077
 10
1174.301228131419
 20
2270.218379799076
 10
1161.301228131419
 20
2270.218379799076
  0
LINE
  5
1545
330
135F
100
AcDbEntity
  8
上書線
100
AcDbLine
 10
1174.227269904478
 20
2175.218379799077
 30
0.0
 11
1172.303060389131
 21
2178.551208444067
 31
0.0
  0
LINE
  5
1546
330
135F
100
AcDbEntity
  8
上書線
100
AcDbLine
 10
1174.301228131419
 20
2191.588060392378
 30
0.0
 11
1172.303058682154
 21
2195.048991400637
 31
0.0
  0
LINE
  5
1547
330
135F
100
AcDbEntity
  8
上書線
100
AcDbLine
 10
1174.301228131419
 20
2208.085840392377
 30
0.0
 11
1172.303056975178
 21
2211.546774357207
 31
0.0
  0
LINE
  5
1548
330
135F
100
AcDbEntity
  8
上書線
100
AcDbLine
 10
1174.301228131419
 20
2224.583620392378
 30
0.0
 11
1172.303055268202
 21
2228.044557313777
 31
0.0
  0
LINE
  5
1549
330
135F
100
AcDbEntity
  8
上書線
100
AcDbLine
 10
1172.30335057515
 20
2211.546618716894
 30
0.0
 11
1174.301228131419
 21
2211.546618716894
 31
0.0
  0
LINE
  5
154A
330
135F
100
AcDbEntity
  8
上書線
100
AcDbLine
 10
1172.30335057515
 20
2195.048838716895
 30
0.0
 11
1174.301228131419
 21
2195.048838716895
 31
0.0
  0
LINE
  5
154B
330
135F
100
AcDbEntity
  8
上書線
100
AcDbLine
 10
1172.30335057515
 20
2178.551058716895
 30
0.0
 11
1174.301228131419
 21
2178.551058716895
 31
0.0
  0
LINE
  5
154C
330
135F
100
AcDbEntity
  8
上書線
100
AcDbLine
 10
1172.30335057515
 20
2228.044398716895
 30
0.0
 11
1174.301228131419
 21
2228.044398716895
 31
0.0
  0
LINE
  5
154D
330
135F
100
AcDbEntity
  8
上書線
100
AcDbLine
 10
1169.922093747243
 20
2215.671393794847
 30
0.0
 11
1172.303343747243
 21
2219.79583978037
 31
0.0
  0
LINE
  5
154E
330
135F
100
AcDbEntity
  8
上書線
100
AcDbLine
 10
1169.922092040266
 20
2199.173610838277
 30
0.0
 11
1172.303342040267
 21
2203.2980568238
 31
0.0
  0
LINE
  5
154F
330
135F
100
AcDbEntity
  8
上書線
100
AcDbLine
 10
1169.92209033329
 20
2182.675827881707
 30
0.0
 11
1172.30334033329
 21
2186.80027386723
 31
0.0
  0
LINE
  5
1550
330
135F
100
AcDbEntity
  8
上書線
100
AcDbLine
 10
1169.92181038913
 20
2182.67565442959
 30
0.0
 11
1167.540560389131
 21
2186.800100415113
 31
0.0
  0
LINE
  5
1551
330
135F
100
AcDbEntity
  8
上書線
100
AcDbLine
 10
1169.921808682154
 20
2199.17343738616
 30
0.0
 11
1167.540558682154
 21
2203.297883371683
 31
0.0
  0
LINE
  5
1552
330
135F
100
AcDbEntity
  8
上書線
100
AcDbLine
 10
1169.921806975177
 20
2215.67122034273
 30
0.0
 11
1167.540556975178
 21
2219.795666328253
 31
0.0
  0
LINE
  5
1553
330
135F
100
AcDbEntity
  8
上書線
100
AcDbLine
 10
1167.540850575149
 20
2219.795508716895
 30
0.0
 11
1172.30335057515
 21
2219.795508716895
 31
0.0
  0
LINE
  5
1554
330
135F
100
AcDbEntity
  8
上書線
100
AcDbLine
 10
1167.540850575149
 20
2203.297728716895
 30
0.0
 11
1172.30335057515
 21
2203.297728716895
 31
0.0
  0
LINE
  5
1555
330
135F
100
AcDbEntity
  8
上書線
100
AcDbLine
 10
1167.54085057515
 20
2186.799948716895
 30
0.0
 11
1172.30335057515
 21
2186.799948716895
 31
0.0
  0
LINE
  5
1556
330
135F
100
AcDbEntity
  8
上書線
100
AcDbLine
 10
1161.301228131419
 20
2217.237396543016
 30
0.0
 11
1162.778345454219
 21
2219.795838794847
 31
0.0
  0
LINE
  5
1557
330
135F
100
AcDbEntity
  8
上書線
100
AcDbLine
 10
1161.301228131419
 20
2200.739616543016
 30
0.0
 11
1162.778343747243
 21
2203.298055838277
 31
0.0
  0
LINE
  5
1558
330
135F
100
AcDbEntity
  8
上書線
100
AcDbLine
 10
1161.301228131419
 20
2184.241836543016
 30
0.0
 11
1162.778342040267
 21
2186.800272881707
 31
0.0
  0
LINE
  5
1559
330
135F
100
AcDbEntity
  8
上書線
100
AcDbLine
 10
1164.702272180446
 20
2175.218379799078
 30
0.0
 11
1162.778062096107
 21
2178.55120942959
 31
0.0
  0
LINE
  5
155A
330
135F
100
AcDbEntity
  8
上書線
100
AcDbLine
 10
1165.159310389131
 20
2190.924546400637
 30
0.0
 11
1162.778060389131
 21
2195.04899238616
 31
0.0
  0
LINE
  5
155B
330
135F
100
AcDbEntity
  8
上書線
100
AcDbLine
 10
1165.159308682154
 20
2207.422329357207
 30
0.0
 11
1162.778058682154
 21
2211.54677534273
 31
0.0
  0
LINE
  5
155C
330
135F
100
AcDbEntity
  8
上書線
100
AcDbLine
 10
1165.159306975177
 20
2223.920112313777
 30
0.0
 11
1162.778056975178
 21
2228.0445582993
 31
0.0
  0
LINE
  5
155D
330
135F
100
AcDbEntity
  8
上書線
100
AcDbLine
 10
1161.301228131419
 20
2219.795508716895
 30
0.0
 11
1162.778350575149
 21
2219.795508716895
 31
0.0
  0
LINE
  5
155E
330
135F
100
AcDbEntity
  8
上書線
100
AcDbLine
 10
1161.301228131419
 20
2203.297728716895
 30
0.0
 11
1162.778350575149
 21
2203.297728716895
 31
0.0
  0
LINE
  5
155F
330
135F
100
AcDbEntity
  8
上書線
100
AcDbLine
 10
1161.301228131419
 20
2186.799948716895
 30
0.0
 11
1162.77835057515
 21
2186.799948716895
 31
0.0
  0
LINE
  5
1560
330
135F
100
AcDbEntity
  8
上書線
100
AcDbLine
 10
1165.159595454219
 20
2223.92028478037
 30
0.0
 11
1167.540845454219
 21
2228.044730765894
 31
0.0
  0
LINE
  5
1561
330
135F
100
AcDbEntity
  8
上書線
100
AcDbLine
 10
1165.159593747243
 20
2207.4225018238
 30
0.0
 11
1167.540843747243
 21
2211.546947809324
 31
0.0
  0
LINE
  5
1562
330
135F
100
AcDbEntity
  8
上書線
100
AcDbLine
 10
1165.159592040267
 20
2190.92471886723
 30
0.0
 11
1167.540842040266
 21
2195.049164852754
 31
0.0
  0
LINE
  5
1563
330
135F
100
AcDbEntity
  8
上書線
100
AcDbLine
 10
1165.616530675316
 20
2175.218379799077
 30
0.0
 11
1167.54084033329
 21
2178.551381896183
 31
0.0
  0
LINE
  5
1564
330
135F
100
AcDbEntity
  8
上書線
100
AcDbLine
 10
1162.778350575149
 20
2211.546618716894
 30
0.0
 11
1167.540850575149
 21
2211.546618716894
 31
0.0
  0
LINE
  5
1565
330
135F
100
AcDbEntity
  8
上書線
100
AcDbLine
 10
1162.778350575149
 20
2195.048838716895
 30
0.0
 11
1167.540850575149
 21
2195.048838716895
 31
0.0
  0
LINE
  5
1566
330
135F
100
AcDbEntity
  8
上書線
100
AcDbLine
 10
1162.778350575149
 20
2178.551058716895
 30
0.0
 11
1167.540850575149
 21
2178.551058716895
 31
0.0
  0
LINE
  5
1567
330
135F
100
AcDbEntity
  8
上書線
100
AcDbLine
 10
1162.77835057515
 20
2228.044398716895
 30
0.0
 11
1167.54085057515
 21
2228.044398716895
 31
0.0
  0
LINE
  5
1568
330
135F
100
AcDbEntity
  8
上書線
100
AcDbLine
 10
1174.301228131419
 20
2257.579180392378
 30
0.0
 11
1172.303051854248
 21
2261.040123226917
 31
0.0
  0
LINE
  5
1569
330
135F
100
AcDbEntity
  8
上書線
100
AcDbLine
 10
1172.30335057515
 20
2261.039958716895
 30
0.0
 11
1174.301228131419
 21
2261.039958716895
 31
0.0
  0
LINE
  5
156A
330
135F
100
AcDbEntity
  8
上書線
100
AcDbLine
 10
1165.159303561224
 20
2256.915678226917
 30
0.0
 11
1162.778053561225
 21
2261.04012421244
 31
0.0
  0
LINE
  5
156B
330
135F
100
AcDbEntity
  8
上書線
100
AcDbLine
 10
1165.159598868172
 20
2256.91585069351
 30
0.0
 11
1167.540848868173
 21
2261.040296679034
 31
0.0
  0
LINE
  5
156C
330
135F
100
AcDbEntity
  8
上書線
100
AcDbLine
 10
1162.778350575149
 20
2261.039958716895
 30
0.0
 11
1167.540850575149
 21
2261.039958716895
 31
0.0
  0
LINE
  5
156D
330
135F
100
AcDbEntity
  8
上書線
100
AcDbLine
 10
1169.922097161196
 20
2248.666959707987
 30
0.0
 11
1172.303347161196
 21
2252.79140569351
 31
0.0
  0
LINE
  5
156E
330
135F
100
AcDbEntity
  8
上書線
100
AcDbLine
 10
1169.921803561224
 20
2248.66678625587
 30
0.0
 11
1167.540553561224
 21
2252.791232241393
 31
0.0
  0
LINE
  5
156F
330
135F
100
AcDbEntity
  8
上書線
100
AcDbLine
 10
1167.540850575149
 20
2252.791068716895
 30
0.0
 11
1172.30335057515
 21
2252.791068716895
 31
0.0
  0
LINE
  5
1570
330
135F
100
AcDbEntity
  8
上書線
100
AcDbLine
 10
1161.301228131419
 20
2250.232956543016
 30
0.0
 11
1162.778348868173
 21
2252.791404707987
 31
0.0
  0
LINE
  5
1571
330
135F
100
AcDbEntity
  8
上書線
100
AcDbLine
 10
1161.301228131419
 20
2252.791068716895
 30
0.0
 11
1162.778350575149
 21
2252.791068716895
 31
0.0
  0
LINE
  5
1572
330
135F
100
AcDbEntity
  8
上書線
100
AcDbLine
 10
1165.159305268201
 20
2240.417895270347
 30
0.0
 11
1162.778055268202
 21
2244.54234125587
 31
0.0
  0
LINE
  5
1573
330
135F
100
AcDbEntity
  8
上書線
100
AcDbLine
 10
1165.159597161196
 20
2240.41806773694
 30
0.0
 11
1167.540847161196
 21
2244.542513722464
 31
0.0
  0
LINE
  5
1574
330
135F
100
AcDbEntity
  8
上書線
100
AcDbLine
 10
1162.778350575149
 20
2244.542178716895
 30
0.0
 11
1167.540850575149
 21
2244.542178716895
 31
0.0
  0
LINE
  5
1575
330
135F
100
AcDbEntity
  8
上書線
100
AcDbLine
 10
1167.540850575149
 20
2236.293288716895
 30
0.0
 11
1172.30335057515
 21
2236.293288716895
 31
0.0
  0
LINE
  5
1576
330
135F
100
AcDbEntity
  8
上書線
100
AcDbLine
 10
1161.301228131419
 20
2236.293288716895
 30
0.0
 11
1162.778350575149
 21
2236.293288716895
 31
0.0
  0
LINE
  5
1577
330
135F
100
AcDbEntity
  8
上書線
100
AcDbLine
 10
1169.922098868172
 20
2265.164742664557
 30
0.0
 11
1172.303348868173
 21
2269.289188650081
 31
0.0
  0
LINE
  5
1578
330
135F
100
AcDbEntity
  8
上書線
100
AcDbLine
 10
1169.921801854248
 20
2265.16456921244
 30
0.0
 11
1167.540551854248
 21
2269.289015197963
 31
0.0
  0
LINE
  5
1579
330
135F
100
AcDbEntity
  8
上書線
100
AcDbLine
 10
1161.301228131419
 20
2266.730736543016
 30
0.0
 11
1162.77835057515
 21
2269.289187664558
 31
0.0
  0
LINE
  5
157A
330
135F
100
AcDbEntity
  8
上線
 48
10.0
100
AcDbLine
 10
1140.316999098555
 20
2240.218426848239
 30
0.0
 11
1140.245570527126
 21
2240.218426848239
 31
0.0
  0
LINE
  5
157B
330
135F
100
AcDbEntity
  8
上線
100
AcDbLine
 10
1140.316999098555
 20
2245.218426848239
 30
0.0
 11
1140.316999098555
 21
2245.218426848239
 31
0.0
  0
LWPOLYLINE
  5
157C
330
135F
100
AcDbEntity
  8
点線
100
AcDbPolyline
 90
        4
 70
     1
 43
0.0
 10
1233.817028131419
 20
2245.218379799077
 10
1246.817028131419
 20
2245.218379799077
 10
1246.817028131419
 20
2340.218379799077
 10
1233.817028131419
 20
2340.218379799077
  0
LINE
  5
157D
330
135F
100
AcDbEntity
  8
上書線
100
AcDbLine
 10
1246.817028131419
 20
2294.583620392378
 30
0.0
 11
1244.818855268201
 21
2298.044557313777
 31
0.0
  0
LINE
  5
157E
330
135F
100
AcDbEntity
  8
上書線
100
AcDbLine
 10
1237.675106975178
 20
2293.920112313776
 30
0.0
 11
1235.293856975178
 21
2298.0445582993
 31
0.0
  0
LINE
  5
157F
330
135F
100
AcDbEntity
  8
上書線
100
AcDbLine
 10
1237.67539545422
 20
2293.920284780371
 30
0.0
 11
1240.056645454219
 21
2298.044730765894
 31
0.0
  0
LINE
  5
1580
330
135F
100
AcDbEntity
  8
上線
 48
10.0
100
AcDbLine
 10
1195.316999098555
 20
2340.218426848239
 30
0.0
 11
1195.316999098555
 21
2270.218426848239
 31
0.0
  0
LINE
  5
1581
330
135F
100
AcDbEntity
  8
上線
 48
10.0
100
AcDbLine
 10
1190.316999098555
 20
2345.218426848239
 30
0.0
 11
1190.316999098555
 21
2275.21842684824
 31
0.0
  0
LINE
  5
1582
330
135F
100
AcDbEntity
  8
上書線
100
AcDbLine
 10
1244.819150575149
 20
2248.551058716895
 30
0.0
 11
1246.817028131419
 21
2248.551058716895
 31
0.0
  0
LINE
  5
1583
330
135F
100
AcDbEntity
  8
上書線
100
AcDbLine
 10
1235.294150575149
 20
2248.551058716895
 30
0.0
 11
1240.056650575149
 21
2248.551058716895
 31
0.0
  0
LINE
  5
1584
330
135F
100
AcDbEntity
  8
上書線
100
AcDbLine
 10
1240.05665057515
 20
2256.799948716895
 30
0.0
 11
1244.81915057515
 21
2256.799948716895
 31
0.0
  0
LINE
  5
1585
330
135F
100
AcDbEntity
  8
上書線
100
AcDbLine
 10
1233.817028131419
 20
2256.799948716895
 30
0.0
 11
1235.294150575149
 21
2256.799948716895
 31
0.0
  0
LINE
  5
1586
330
135F
100
AcDbEntity
  8
上書線
100
AcDbLine
 10
1244.819150575149
 20
2265.048838716895
 30
0.0
 11
1246.817028131419
 21
2265.048838716895
 31
0.0
  0
LINE
  5
1587
330
135F
100
AcDbEntity
  8
上書線
100
AcDbLine
 10
1235.294150575149
 20
2265.048838716895
 30
0.0
 11
1240.056650575149
 21
2265.048838716895
 31
0.0
  0
LINE
  5
1588
330
135F
100
AcDbEntity
  8
上書線
100
AcDbLine
 10
1240.056650575149
 20
2273.297728716895
 30
0.0
 11
1244.819150575149
 21
2273.297728716895
 31
0.0
  0
LINE
  5
1589
330
135F
100
AcDbEntity
  8
上書線
100
AcDbLine
 10
1233.817028131419
 20
2273.297728716895
 30
0.0
 11
1235.294150575149
 21
2273.297728716895
 31
0.0
  0
LINE
  5
158A
330
135F
100
AcDbEntity
  8
上書線
100
AcDbLine
 10
1244.819150575149
 20
2281.546618716895
 30
0.0
 11
1246.817028131419
 21
2281.546618716895
 31
0.0
  0
LINE
  5
158B
330
135F
100
AcDbEntity
  8
上書線
100
AcDbLine
 10
1235.294150575149
 20
2281.546618716895
 30
0.0
 11
1240.056650575149
 21
2281.546618716895
 31
0.0
  0
LINE
  5
158C
330
135F
100
AcDbEntity
  8
上書線
100
AcDbLine
 10
1240.056650575149
 20
2289.795508716895
 30
0.0
 11
1244.819150575149
 21
2289.795508716895
 31
0.0
  0
LINE
  5
158D
330
135F
100
AcDbEntity
  8
上書線
100
AcDbLine
 10
1233.817028131419
 20
2289.795508716895
 30
0.0
 11
1235.294150575149
 21
2289.795508716895
 31
0.0
  0
LINE
  5
158E
330
135F
100
AcDbEntity
  8
上書線
100
AcDbLine
 10
1242.437606975178
 20
2285.67122034273
 30
0.0
 11
1240.056356975178
 21
2289.795666328253
 31
0.0
  0
LINE
  5
158F
330
135F
100
AcDbEntity
  8
上書線
100
AcDbLine
 10
1246.817028131419
 20
2278.085840392377
 30
0.0
 11
1244.818856975177
 21
2281.546774357206
 31
0.0
  0
LINE
  5
1590
330
135F
100
AcDbEntity
  8
上書線
100
AcDbLine
 10
1237.675108682154
 20
2277.422329357207
 30
0.0
 11
1235.293858682154
 21
2281.54677534273
 31
0.0
  0
LINE
  5
1591
330
135F
100
AcDbEntity
  8
上書線
100
AcDbLine
 10
1242.437608682154
 20
2269.17343738616
 30
0.0
 11
1240.056358682154
 21
2273.297883371684
 31
0.0
  0
LINE
  5
1592
330
135F
100
AcDbEntity
  8
上書線
100
AcDbLine
 10
1246.817028131419
 20
2261.588060392378
 30
0.0
 11
1244.818858682154
 21
2265.048991400637
 31
0.0
  0
LINE
  5
1593
330
135F
100
AcDbEntity
  8
上書線
100
AcDbLine
 10
1237.675110389131
 20
2260.924546400637
 30
0.0
 11
1235.293860389131
 21
2265.04899238616
 31
0.0
  0
LINE
  5
1594
330
135F
100
AcDbEntity
  8
上書線
100
AcDbLine
 10
1242.437610389131
 20
2252.67565442959
 30
0.0
 11
1240.056360389131
 21
2256.800100415114
 31
0.0
  0
LINE
  5
1595
330
135F
100
AcDbEntity
  8
上書線
100
AcDbLine
 10
1246.743069904478
 20
2245.218379799077
 30
0.0
 11
1244.818860389131
 21
2248.551208444067
 31
0.0
  0
LINE
  5
1596
330
135F
100
AcDbEntity
  8
上書線
100
AcDbLine
 10
1237.218072180447
 20
2245.218379799078
 30
0.0
 11
1235.293862096107
 21
2248.55120942959
 31
0.0
  0
LINE
  5
1597
330
135F
100
AcDbEntity
  8
上書線
100
AcDbLine
 10
1242.437890333289
 20
2252.675827881707
 30
0.0
 11
1244.81914033329
 21
2256.80027386723
 31
0.0
  0
LINE
  5
1598
330
135F
100
AcDbEntity
  8
上書線
100
AcDbLine
 10
1238.132330675316
 20
2245.218379799077
 30
0.0
 11
1240.05664033329
 21
2248.551381896183
 31
0.0
  0
LINE
  5
1599
330
135F
100
AcDbEntity
  8
上書線
100
AcDbLine
 10
1242.437892040267
 20
2269.173610838277
 30
0.0
 11
1244.819142040267
 21
2273.2980568238
 31
0.0
  0
LINE
  5
159A
330
135F
100
AcDbEntity
  8
上書線
100
AcDbLine
 10
1237.675392040267
 20
2260.92471886723
 30
0.0
 11
1240.056642040266
 21
2265.049164852754
 31
0.0
  0
LINE
  5
159B
330
135F
100
AcDbEntity
  8
上書線
100
AcDbLine
 10
1233.817028131419
 20
2254.241836543016
 30
0.0
 11
1235.294142040266
 21
2256.800272881707
 31
0.0
  0
LINE
  5
159C
330
135F
100
AcDbEntity
  8
上書線
100
AcDbLine
 10
1242.437893747243
 20
2285.671393794847
 30
0.0
 11
1244.819143747243
 21
2289.79583978037
 31
0.0
  0
LINE
  5
159D
330
135F
100
AcDbEntity
  8
上書線
100
AcDbLine
 10
1237.675393747243
 20
2277.422501823801
 30
0.0
 11
1240.056643747243
 21
2281.546947809324
 31
0.0
  0
LINE
  5
159E
330
135F
100
AcDbEntity
  8
上書線
100
AcDbLine
 10
1233.817028131419
 20
2270.739616543016
 30
0.0
 11
1235.294143747243
 21
2273.298055838277
 31
0.0
  0
LINE
  5
159F
330
135F
100
AcDbEntity
  8
上書線
100
AcDbLine
 10
1233.817028131418
 20
2287.237396543015
 30
0.0
 11
1235.294145454219
 21
2289.795838794847
 31
0.0
  0
LINE
  5
15A0
330
135F
100
AcDbEntity
  8
上線
100
AcDbLine
 10
1195.316999098555
 20
2340.218426848239
 30
0.0
 11
1285.316999098555
 21
2340.218426848239
 31
0.0
  0
LINE
  5
15A1
330
135F
100
AcDbEntity
  8
上線
100
AcDbLine
 10
1190.316999098555
 20
2345.218426848239
 30
0.0
 11
1290.316999098555
 21
2345.218426848239
 31
0.0
  0
LINE
  5
15A2
330
135F
100
AcDbEntity
  8
上書線
100
AcDbLine
 10
1246.817028131419
 20
2340.218379799077
 30
0.0
 11
1233.817028131419
 21
2340.218379799077
 31
0.0
  0
LINE
  5
15A3
330
135F
100
AcDbEntity
  8
上書線
100
AcDbLine
 10
1244.81915057515
 20
2298.044398716895
 30
0.0
 11
1246.817028131419
 21
2298.044398716895
 31
0.0
  0
LINE
  5
15A4
330
135F
100
AcDbEntity
  8
上書線
100
AcDbLine
 10
1235.294150575149
 20
2298.044398716895
 30
0.0
 11
1240.05665057515
 21
2298.044398716895
 31
0.0
  0
LINE
  5
15A5
330
135F
100
AcDbEntity
  8
上書線
100
AcDbLine
 10
1240.056650575149
 20
2306.293288716895
 30
0.0
 11
1244.819150575149
 21
2306.293288716895
 31
0.0
  0
LINE
  5
15A6
330
135F
100
AcDbEntity
  8
上書線
100
AcDbLine
 10
1233.817028131419
 20
2306.293288716895
 30
0.0
 11
1235.294150575149
 21
2306.293288716895
 31
0.0
  0
LINE
  5
15A7
330
135F
100
AcDbEntity
  8
上書線
100
AcDbLine
 10
1244.819150575149
 20
2314.542178716895
 30
0.0
 11
1246.817028131419
 21
2314.542178716895
 31
0.0
  0
LINE
  5
15A8
330
135F
100
AcDbEntity
  8
上書線
100
AcDbLine
 10
1235.294150575149
 20
2314.542178716895
 30
0.0
 11
1240.056650575149
 21
2314.542178716895
 31
0.0
  0
LINE
  5
15A9
330
135F
100
AcDbEntity
  8
上書線
100
AcDbLine
 10
1240.056650575149
 20
2322.791068716895
 30
0.0
 11
1244.819150575149
 21
2322.791068716895
 31
0.0
  0
LINE
  5
15AA
330
135F
100
AcDbEntity
  8
上書線
100
AcDbLine
 10
1233.817028131419
 20
2322.791068716895
 30
0.0
 11
1235.294150575149
 21
2322.791068716895
 31
0.0
  0
LINE
  5
15AB
330
135F
100
AcDbEntity
  8
上書線
100
AcDbLine
 10
1244.819150575149
 20
2331.039958716894
 30
0.0
 11
1246.817028131419
 21
2331.039958716894
 31
0.0
  0
LINE
  5
15AC
330
135F
100
AcDbEntity
  8
上書線
100
AcDbLine
 10
1235.294150575149
 20
2331.039958716894
 30
0.0
 11
1240.056650575149
 21
2331.039958716894
 31
0.0
  0
LINE
  5
15AD
330
135F
100
AcDbEntity
  8
上書線
100
AcDbLine
 10
1240.05665057515
 20
2339.288848716895
 30
0.0
 11
1244.81915057515
 21
2339.288848716895
 31
0.0
  0
LINE
  5
15AE
330
135F
100
AcDbEntity
  8
上書線
100
AcDbLine
 10
1233.817028131419
 20
2339.288848716895
 30
0.0
 11
1235.294150575149
 21
2339.288848716895
 31
0.0
  0
LINE
  5
15AF
330
135F
100
AcDbEntity
  8
上書線
100
AcDbLine
 10
1242.437601854248
 20
2335.16456921244
 30
0.0
 11
1240.056351854248
 21
2339.289015197964
 31
0.0
  0
LINE
  5
15B0
330
135F
100
AcDbEntity
  8
上書線
100
AcDbLine
 10
1246.817028131419
 20
2327.579180392377
 30
0.0
 11
1244.818851854248
 21
2331.040123226917
 31
0.0
  0
LINE
  5
15B1
330
135F
100
AcDbEntity
  8
上書線
100
AcDbLine
 10
1237.675103561225
 20
2326.915678226917
 30
0.0
 11
1235.293853561224
 21
2331.040124212441
 31
0.0
  0
LINE
  5
15B2
330
135F
100
AcDbEntity
  8
上書線
100
AcDbLine
 10
1242.437603561225
 20
2318.66678625587
 30
0.0
 11
1240.056353561224
 21
2322.791232241394
 31
0.0
  0
LINE
  5
15B3
330
135F
100
AcDbEntity
  8
上書線
100
AcDbLine
 10
1246.817028131419
 20
2311.081400392378
 30
0.0
 11
1244.818853561224
 21
2314.542340270347
 31
0.0
  0
LINE
  5
15B4
330
135F
100
AcDbEntity
  8
上書線
100
AcDbLine
 10
1237.675105268202
 20
2310.417895270347
 30
0.0
 11
1235.293855268201
 21
2314.54234125587
 31
0.0
  0
LINE
  5
15B5
330
135F
100
AcDbEntity
  8
上書線
100
AcDbLine
 10
1242.437605268202
 20
2302.1690032993
 30
0.0
 11
1240.056355268201
 21
2306.293449284824
 31
0.0
  0
LINE
  5
15B6
330
135F
100
AcDbEntity
  8
上書線
100
AcDbLine
 10
1242.437895454219
 20
2302.169176751417
 30
0.0
 11
1244.819145454219
 21
2306.29362273694
 31
0.0
  0
LINE
  5
15B7
330
135F
100
AcDbEntity
  8
上書線
100
AcDbLine
 10
1242.437897161196
 20
2318.666959707987
 30
0.0
 11
1244.819147161196
 21
2322.79140569351
 31
0.0
  0
LINE
  5
15B8
330
135F
100
AcDbEntity
  8
上書線
100
AcDbLine
 10
1237.675397161196
 20
2310.418067736941
 30
0.0
 11
1240.056647161196
 21
2314.542513722464
 31
0.0
  0
LINE
  5
15B9
330
135F
100
AcDbEntity
  8
上書線
100
AcDbLine
 10
1233.817028131419
 20
2303.735176543016
 30
0.0
 11
1235.294147161196
 21
2306.293621751417
 31
0.0
  0
LINE
  5
15BA
330
135F
100
AcDbEntity
  8
上書線
100
AcDbLine
 10
1242.437898868173
 20
2335.164742664557
 30
0.0
 11
1244.819148868172
 21
2339.289188650081
 31
0.0
  0
LINE
  5
15BB
330
135F
100
AcDbEntity
  8
上書線
100
AcDbLine
 10
1237.675398868173
 20
2326.915850693511
 30
0.0
 11
1240.056648868173
 21
2331.040296679034
 31
0.0
  0
LINE
  5
15BC
330
135F
100
AcDbEntity
  8
上書線
100
AcDbLine
 10
1233.817028131419
 20
2320.232956543016
 30
0.0
 11
1235.294148868173
 21
2322.791404707987
 31
0.0
  0
LINE
  5
15BD
330
135F
100
AcDbEntity
  8
上書線
100
AcDbLine
 10
1233.817028131419
 20
2336.730736543016
 30
0.0
 11
1235.294150575149
 21
2339.289187664558
 31
0.0
  0
POINT
  5
15BE
330
135F
100
AcDbEntity
  8
DEFPOINTS
  6
ByBlock
 62
     0
 48
10.0
100
AcDbPoint
 10
1190.316999098555
 20
2342.974312893125
 30
0.0
  0
POINT
  5
15BF
330
135F
100
AcDbEntity
  8
DEFPOINTS
  6
ByBlock
 62
     0
 48
10.0
100
AcDbPoint
 10
1190.316999098555
 20
2342.974312893125
 30
0.0
  0
LINE
  5
15C0
330
135F
100
AcDbEntity
  8
上線
100
AcDbLine
 10
1285.316999098555
 20
2310.218426848239
 30
0.0
 11
1290.316999098555
 21
2310.218426848239
 31
0.0
  0
LINE
  5
15C1
330
135F
100
AcDbEntity
  8
上線
100
AcDbLine
 10
1285.316999098555
 20
2340.218426848239
 30
0.0
 11
1285.316999098555
 21
2310.218426848239
 31
0.0
  0
POINT
  5
15C2
330
135F
100
AcDbEntity
  8
DEFPOINTS
  6
ByBlock
 62
     0
 48
10.0
100
AcDbPoint
 10
1294.239301222733
 20
2315.218426848239
 30
0.0
  0
LWPOLYLINE
  5
15C3
330
135F
100
AcDbEntity
  8
上線
 48
10.0
100
AcDbPolyline
 90
        2
 70
     1
 43
5.0
 10
1257.759260015264
 20
2315.48629465312
 42
1.0
 10
1262.759260015263
 20
2315.48629465312
 42
1.0
  0
POINT
  5
15C4
330
135F
100
AcDbEntity
  8
DEFPOINTS
  6
ByBlock
 62
     0
 48
10.0
100
AcDbPoint
 10
1260.316999098555
 20
2342.974312893125
 30
0.0
  0
POINT
  5
15C5
330
135F
100
AcDbEntity
  8
DEFPOINTS
  6
ByBlock
 62
     0
 48
10.0
100
AcDbPoint
 10
1260.316999098555
 20
2342.974312893125
 30
0.0
  0
POINT
  5
15C6
330
135F
100
AcDbEntity
  8
DEFPOINTS
  6
ByBlock
 62
     0
100
AcDbPoint
 10
114.2644917572206
 20
2459.707977060257
 30
0.0
  0
POINT
  5
15C7
330
135F
100
AcDbEntity
  8
DEFPOINTS
  6
ByBlock
 62
     0
100
AcDbPoint
 10
114.2644917572206
 20
2459.707977060257
 30
0.0
  0
LWPOLYLINE
  5
15C8
330
135F
100
AcDbEntity
  8
上線
100
AcDbPolyline
 90
        4
 70
     1
 43
0.0
 10
186.6114164087048
 20
2700.424807713472
 10
395.8883525777291
 20
2700.424807713472
 10
395.8883525777291
 20
2800.129190459477
 10
186.6114164087048
 20
2800.129190459477
  0
LWPOLYLINE
  5
15C9
330
135F
100
AcDbEntity
  8
上線
100
AcDbPolyline
 90
        4
 70
     1
 43
0.0
 10
189.6114164087048
 20
2703.424807713471
 10
392.8883525777291
 20
2703.424807713471
 10
392.8883525777291
 20
2797.129190459477
 10
189.6114164087048
 20
2797.129190459477
  0
MTEXT
  5
15CA
330
135F
100
AcDbEntity
  8
上線
 48
10.0
100
AcDbMText
 10
210.6662858337822
 20
2771.107090710512
 30
0.0
 40
40.0
 41
558.2059
 71
     1
 72
     5
  1
\fＭＳ Ｐ明朝|b0|i0|c128|p18;正面図
 73
     1
 44
1.0
  0
LINE
  5
15CB
330
135F
100
AcDbEntity
  8
0
  6
ByBlock
 62
     0
 48
10.0
100
AcDbLine
 10
690.3169990985552
 20
2701.241324403204
 30
0.0
 11
1290.316999098555
 21
2701.241324403205
 31
0.0
  0
LINE
  5
15CC
330
135F
100
AcDbEntity
  8
0
  6
ByBlock
 62
     0
 48
10.0
100
AcDbLine
 10
865.3169990985553
 20
2613.448977079002
 30
0.0
 11
1115.316999098555
 21
2613.448977079002
 31
0.0
  0
LINE
  5
15CD
330
135F
100
AcDbEntity
  8
0
  6
ByBlock
 62
     0
 48
10.0
100
AcDbLine
 10
790.3169990985552
 20
2541.712430790633
 30
0.0
 11
790.3169990985552
 21
2625.948977079002
 31
0.0
  0
LINE
  5
15CE
330
135F
100
AcDbEntity
  8
0
  6
ByBlock
 62
     0
 48
10.0
100
AcDbLine
 10
690.3169990985552
 20
2494.559915188061
 30
0.0
 11
690.3169990985552
 21
2713.741324403205
 31
0.0
  0
LINE
  5
15CF
330
135F
100
AcDbEntity
  8
0
  6
ByBlock
 62
     0
 48
10.0
100
AcDbLine
 10
840.3169990985553
 20
2541.712430790633
 30
0.0
 11
840.3169990985553
 21
2625.948977079002
 31
0.0
  0
LINE
  5
15D0
330
135F
100
AcDbEntity
  8
0
  6
ByBlock
 62
     0
 48
10.0
100
AcDbLine
 10
840.3169990985553
 20
2421.987245808088
 30
0.0
 11
840.3169990985553
 21
2625.948977079002
 31
0.0
  0
LINE
  5
15D1
330
135F
100
AcDbEntity
  8
0
  6
ByBlock
 62
     0
 48
10.0
100
AcDbLine
 10
790.3169990985552
 20
2421.987245808088
 30
0.0
 11
790.3169990985552
 21
2625.948977079002
 31
0.0
  0
SOLID
  5
15D2
330
135F
100
AcDbEntity
  8
0
  6
ByBlock
 62
     0
 48
10.0
100
AcDbTrace
 10
715.3169990985552
 20
2617.615643745669
 30
0.0
 11
715.3169990985552
 21
2609.282310412336
 31
0.0
 12
690.3169990985552
 22
2613.448977079002
 32
0.0
 13
690.3169990985552
 23
2613.448977079002
 33
0.0
  0
LINE
  5
15D3
330
135F
100
AcDbEntity
  8
0
  6
ByBlock
 62
     0
 48
10.0
100
AcDbLine
 10
765.3169990985552
 20
2613.448977079002
 30
0.0
 11
690.3169990985552
 21
2613.448977079003
 31
0.0
  0
SOLID
  5
15D4
330
135F
100
AcDbEntity
  8
0
  6
ByBlock
 62
     0
 48
10.0
100
AcDbTrace
 10
715.3169990985552
 20
2705.407991069871
 30
0.0
 11
715.3169990985552
 21
2697.074657736538
 31
0.0
 12
690.3169990985552
 22
2701.241324403205
 32
0.0
 13
690.3169990985552
 23
2701.241324403205
 33
0.0
  0
TEXT
  5
15D5
330
135F
100
AcDbEntity
  8
点線
 62
     0
100
AcDbText
 10
797.809373214819
 20
2619.698977079002
 30
0.0
 40
25.0
  1
50
100
AcDbText
  0
SOLID
  5
15D6
330
135F
100
AcDbEntity
  8
0
  6
ByBlock
 62
     0
 48
10.0
100
AcDbTrace
 10
815.3169990985553
 20
2617.615643745669
 30
0.0
 11
815.3169990985553
 21
2609.282310412336
 31
0.0
 12
840.3169990985553
 22
2613.448977079002
 32
0.0
 13
840.3169990985553
 23
2613.448977079002
 33
0.0
  0
TEXT
  5
15D7
330
135F
100
AcDbEntity
  8
点線
 62
     0
100
AcDbText
 10
721.5669990985552
 20
2619.698977079002
 30
0.0
 40
25.0
  1
100
100
AcDbText
  0
POINT
  5
15D8
330
135F
100
AcDbEntity
  8
DEFPOINTS
  6
ByBlock
 62
     0
 48
10.0
100
AcDbPoint
 10
720.3169990985552
 20
2613.448977079002
 30
0.0
  0
SOLID
  5
15D9
330
135F
100
AcDbEntity
  8
0
  6
ByBlock
 62
     0
 48
10.0
100
AcDbTrace
 10
765.3169990985552
 20
2617.615643745669
 30
0.0
 11
765.3169990985552
 21
2609.282310412336
 31
0.0
 12
790.3169990985552
 22
2613.448977079002
 32
0.0
 13
790.3169990985552
 23
2613.448977079002
 33
0.0
  0
SOLID
  5
15DA
330
135F
100
AcDbEntity
  8
0
  6
ByBlock
 62
     0
 48
10.0
100
AcDbTrace
 10
815.3169990985553
 20
2617.615643745669
 30
0.0
 11
815.3169990985553
 21
2609.282310412336
 31
0.0
 12
790.3169990985552
 22
2613.448977079002
 32
0.0
 13
790.3169990985552
 23
2613.448977079002
 33
0.0
  0
LINE
  5
15DB
330
135F
100
AcDbEntity
  8
0
  6
ByBlock
 62
     0
 48
10.0
100
AcDbLine
 10
840.3169990985553
 20
2613.448977079002
 30
0.0
 11
915.3169990985553
 21
2613.448977079002
 31
0.0
  0
SOLID
  5
15DC
330
135F
100
AcDbEntity
  8
0
  6
ByBlock
 62
     0
 48
10.0
100
AcDbTrace
 10
865.3169990985553
 20
2617.615643745669
 30
0.0
 11
865.3169990985553
 21
2609.282310412336
 31
0.0
 12
840.3169990985553
 22
2613.448977079002
 32
0.0
 13
840.3169990985553
 23
2613.448977079002
 33
0.0
  0
POINT
  5
15DD
330
135F
100
AcDbEntity
  8
DEFPOINTS
  6
ByBlock
 62
     0
 48
10.0
100
AcDbPoint
 10
840.3169990985553
 20
2613.448977079002
 30
0.0
  0
LINE
  5
15DE
330
135F
100
AcDbEntity
  8
0
  6
ByBlock
 62
     0
 48
10.0
100
AcDbLine
 10
1190.316999098555
 20
2541.712430790633
 30
0.0
 11
1190.316999098555
 21
2627.59572655215
 31
0.0
  0
LINE
  5
15DF
330
135F
100
AcDbEntity
  8
0
  6
ByBlock
 62
     0
 48
10.0
100
AcDbLine
 10
1190.316999098555
 20
2421.987245808088
 30
0.0
 11
1190.316999098555
 21
2625.948977079002
 31
0.0
  0
LINE
  5
15E0
330
135F
100
AcDbEntity
  8
0
  6
ByBlock
 62
     0
 48
10.0
100
AcDbLine
 10
1140.316999098555
 20
2541.712430790633
 30
0.0
 11
1140.316999098555
 21
2625.948977079002
 31
0.0
  0
LINE
  5
15E1
330
135F
100
AcDbEntity
  8
0
  6
ByBlock
 62
     0
 48
10.0
100
AcDbLine
 10
1290.316999098555
 20
2421.987245808088
 30
0.0
 11
1290.316999098555
 21
2713.741324403205
 31
0.0
  0
LINE
  5
15E2
330
135F
100
AcDbEntity
  8
0
  6
ByBlock
 62
     0
 48
10.0
100
AcDbLine
 10
1140.316999098555
 20
2421.987245808088
 30
0.0
 11
1140.316999098555
 21
2625.948977079002
 31
0.0
  0
SOLID
  5
15E3
330
135F
100
AcDbEntity
  8
0
  6
ByBlock
 62
     0
 48
10.0
100
AcDbTrace
 10
1165.316999098555
 20
2617.615643745669
 30
0.0
 11
1165.316999098555
 21
2609.282310412336
 31
0.0
 12
1190.316999098555
 22
2613.448977079002
 32
0.0
 13
1190.316999098555
 23
2613.448977079002
 33
0.0
  0
MTEXT
  5
15E4
330
135F
100
AcDbEntity
  8
0
  6
ByBlock
 62
     0
 48
10.0
100
AcDbMText
 10
990.3169990985553
 20
2719.991324403205
 30
0.0
 40
25.0
 41
0.0
 71
     5
 72
     1
  1
\A1;600
 73
     1
 44
1.0
  0
MTEXT
  5
15E5
330
135F
100
AcDbEntity
  8
0
  6
ByBlock
 62
     0
 48
10.0
100
AcDbMText
 10
990.3169990985553
 20
2632.198977079002
 30
0.0
 40
25.0
 41
0.0
 71
     5
 72
     1
  1
\A1;300
 73
     1
 44
1.0
  0
SOLID
  5
15E6
330
135F
100
AcDbEntity
  8
0
  6
ByBlock
 62
     0
 48
10.0
100
AcDbTrace
 10
1115.316999098555
 20
2617.615643745669
 30
0.0
 11
1115.316999098555
 21
2609.282310412336
 31
0.0
 12
1140.316999098555
 22
2613.448977079002
 32
0.0
 13
1140.316999098555
 23
2613.448977079002
 33
0.0
  0
MTEXT
  5
15E7
330
135F
100
AcDbEntity
  8
0
  6
ByBlock
 62
     0
 48
10.0
100
AcDbMText
 10
1166.325648105537
 20
2632.198977079002
 30
0.0
 40
25.0
 41
0.0
 71
     5
 72
     1
  1
\A1;50
 73
     1
 44
1.0
  0
SOLID
  5
15E8
330
135F
100
AcDbEntity
  8
0
  6
ByBlock
 62
     0
 48
10.0
100
AcDbTrace
 10
1165.316999098555
 20
2617.615643745669
 30
0.0
 11
1165.316999098555
 21
2609.282310412336
 31
0.0
 12
1140.316999098555
 22
2613.448977079002
 32
0.0
 13
1140.316999098555
 23
2613.448977079002
 33
0.0
  0
POINT
  5
15E9
330
135F
100
AcDbEntity
  8
DEFPOINTS
  6
ByBlock
 62
     0
 48
10.0
100
AcDbPoint
 10
1140.316999098555
 20
2613.448977079002
 30
0.0
  0
MTEXT
  5
15EA
330
135F
100
AcDbEntity
  8
0
  6
ByBlock
 62
     0
 48
10.0
100
AcDbMText
 10
1240.316999098555
 20
2632.348261100311
 30
0.0
 40
25.0
 41
0.0
 71
     5
 72
     1
  1
\A1;100
 73
     1
 44
1.0
  0
LINE
  5
15EB
330
135F
100
AcDbEntity
  8
0
  6
ByBlock
 62
     0
 48
10.0
100
AcDbLine
 10
1190.316999098555
 20
2613.448977079002
 30
0.0
 11
1290.316999098555
 21
2613.448977079002
 31
0.0
  0
SOLID
  5
15EC
330
135F
100
AcDbEntity
  8
0
  6
ByBlock
 62
     0
 48
10.0
100
AcDbTrace
 10
1215.316999098555
 20
2617.764927766978
 30
0.0
 11
1215.316999098555
 21
2609.431594433645
 31
0.0
 12
1190.316999098555
 22
2613.598261100312
 32
0.0
 13
1190.316999098555
 23
2613.598261100312
 33
0.0
  0
POINT
  5
15ED
330
135F
100
AcDbEntity
  8
DEFPOINTS
  6
ByBlock
 62
     0
 48
10.0
100
AcDbPoint
 10
1190.316999098555
 20
2613.448977079002
 30
0.0
  0
POINT
  5
15EE
330
135F
100
AcDbEntity
  8
DEFPOINTS
  6
ByBlock
 62
     0
 48
10.0
100
AcDbPoint
 10
1260.316999098555
 20
2615.09572655215
 30
0.0
  0
SOLID
  5
15EF
330
135F
100
AcDbEntity
  8
0
  6
ByBlock
 62
     0
 48
10.0
100
AcDbTrace
 10
1265.316999098555
 20
2617.764927766978
 30
0.0
 11
1265.316999098555
 21
2609.431594433645
 31
0.0
 12
1290.316999098555
 22
2613.598261100312
 32
0.0
 13
1290.316999098555
 23
2613.598261100312
 33
0.0
  0
POINT
  5
15F0
330
135F
100
AcDbEntity
  8
DEFPOINTS
  6
ByBlock
 62
     0
 48
10.0
100
AcDbPoint
 10
1260.316999098555
 20
2701.241324403205
 30
0.0
  0
SOLID
  5
15F1
330
135F
100
AcDbEntity
  8
0
  6
ByBlock
 62
     0
 48
10.0
100
AcDbTrace
 10
1265.316999098555
 20
2705.407991069871
 30
0.0
 11
1265.316999098555
 21
2697.074657736538
 31
0.0
 12
1290.316999098555
 22
2701.241324403205
 32
0.0
 13
1290.316999098555
 23
2701.241324403205
 33
0.0
  0
LINE
  5
15F2
330
135F
100
AcDbEntity
  8
0
  6
ByBlock
 62
     0
100
AcDbLine
 10
2503.299559828719
 20
2290.218426848239
 30
0.0
 11
2503.299559828719
 21
1228.010404511531
 31
0.0
  0
LINE
  5
15F3
330
135F
100
AcDbEntity
  8
上線
100
AcDbLine
 10
4196.832919401553
 20
0.0000027338701329
 30
0.0
 11
4196.832919401553
 21
2947.341088765569
 31
0.0
  0
LINE
  5
15F4
330
135F
100
AcDbEntity
  8
中心線
100
AcDbLine
 10
3051.871009828719
 20
1258.730972206802
 30
0.0
 11
3051.871009828719
 21
2640.85523585989
 31
0.0
  0
LINE
  5
15F5
330
135F
100
AcDbEntity
  8
上線
100
AcDbLine
 10
4122.862412857903
 20
51.27467632734715
 30
0.0
 11
3208.387670758213
 21
51.27467632734715
 31
0.0
  0
MTEXT
  5
15F6
330
135F
100
AcDbEntity
  8
上線
 48
10.0
100
AcDbMText
 10
3247.13914134383
 20
197.9069028661297
 30
0.0
 40
30.0
 41
241.0562
 71
     1
 72
     5
  1
\fＭＳ Ｐ明朝|b0|i0|c128|p18;ｓ；1/10
 73
     1
 44
1.0
  0
LINE
  5
15F7
330
135F
100
AcDbEntity
  8
上線
100
AcDbLine
 10
4122.862412857903
 20
134.5368358716896
 30
0.0
 11
3208.387670758213
 21
134.5368358716896
 31
0.0
  0
LINE
  5
15F8
330
135F
100
AcDbEntity
  8
上線
100
AcDbLine
 10
4122.862412857903
 20
217.5571145099311
 30
0.0
 11
3208.387670758213
 21
217.5571145099311
 31
0.0
  0
LINE
  5
15F9
330
135F
100
AcDbEntity
  8
上線
100
AcDbLine
 10
4122.862412857903
 20
300.5773865688852
 30
0.0
 11
3208.387670758213
 21
300.5773865688852
 31
0.0
  0
LINE
  5
15FA
330
135F
100
AcDbEntity
  8
上線
100
AcDbLine
 10
4122.862412857903
 20
391.899685833735
 30
0.0
 11
3208.387670758213
 21
391.899685833735
 31
0.0
  0
LINE
  5
15FB
330
135F
100
AcDbEntity
  8
上書線
100
AcDbLine
 10
1465.717373129823
 20
378.2601980130684
 30
0.0
 11
1465.717373129823
 21
353.0601980130684
 31
0.0
  0
LINE
  5
15FC
330
135F
100
AcDbEntity
  8
上書線
100
AcDbLine
 10
1457.762709129823
 20
442.0601980130684
 30
0.0
 11
1457.762709129823
 21
353.0601980130684
 31
0.0
  0
LINE
  5
15FD
330
135F
100
AcDbEntity
  8
上書線
100
AcDbLine
 10
1498.717373129823
 20
376.9601980130683
 30
0.0
 11
1498.717373129823
 21
353.0601980130684
 31
0.0
  0
LINE
  5
15FE
330
135F
100
AcDbEntity
  8
上書線
100
AcDbLine
 10
1547.623401129823
 20
378.2601980130684
 30
0.0
 11
1547.623401129823
 21
353.0601980130684
 31
0.0
  0
LINE
  5
15FF
330
135F
100
AcDbEntity
  8
上書線
100
AcDbLine
 10
1506.668737129823
 20
442.0601980130684
 30
0.0
 11
1506.668737129823
 21
353.0601980130684
 31
0.0
  0
LINE
  5
1600
330
135F
100
AcDbEntity
  8
上書線
100
AcDbLine
 10
1539.668737129823
 20
442.0601980130684
 30
0.0
 11
1539.668737129823
 21
353.0601980130684
 31
0.0
  0
LINE
  5
1601
330
135F
100
AcDbEntity
  8
上書線
100
AcDbLine
 10
1580.623401129823
 20
376.9601980130683
 30
0.0
 11
1580.623401129823
 21
353.0601980130684
 31
0.0
  0
LINE
  5
1602
330
135F
100
AcDbEntity
  8
上書線
100
AcDbLine
 10
1621.574764769823
 20
442.0601980130684
 30
0.0
 11
1621.574764769823
 21
353.0601980130684
 31
0.0
  0
LINE
  5
1603
330
135F
100
AcDbEntity
  8
上書線
100
AcDbLine
 10
1588.574764769823
 20
442.0601980130684
 30
0.0
 11
1588.574764769823
 21
353.0601980130684
 31
0.0
  0
LINE
  5
1604
330
135F
100
AcDbEntity
  8
上書線
100
AcDbLine
 10
1785.890220469823
 20
442.0601980130684
 30
0.0
 11
1785.890220469823
 21
353.0601980130684
 31
0.0
  0
LINE
  5
1605
330
135F
100
AcDbEntity
  8
上書線
100
AcDbLine
 10
1752.890220469823
 20
442.0601980130684
 30
0.0
 11
1752.890220469823
 21
353.0601980130684
 31
0.0
  0
LINE
  5
1606
330
135F
100
AcDbEntity
  8
上線
100
AcDbLine
 10
1794.190220469823
 20
728.2601980130687
 30
0.0
 11
1794.190220469823
 21
328.2601980130687
 31
0.0
  0
SOLID
  5
1607
330
135F
100
AcDbEntity
  8
0
  6
ByBlock
 62
     0
100
AcDbTrace
 10
2988.151422939337
 20
378.2601980130684
 30
0.0
 11
2996.48475627267
 21
378.2601980130684
 31
0.0
 12
2992.318089606003
 22
353.2601980130684
 32
0.0
 13
2992.318089606003
 23
353.2601980130684
 33
0.0
  0
LINE
  5
1608
330
135F
100
AcDbEntity
  8
0
  6
ByBlock
 62
     0
100
AcDbLine
 10
2992.318089606003
 20
703.2601980130685
 30
0.0
 11
2992.318089606003
 21
315.7601980130684
 31
0.0
  0
LINE
  5
1609
330
135F
100
AcDbEntity
  8
0
  6
ByBlock
 62
     0
100
AcDbLine
 10
3112.254031717882
 20
828.2601980130683
 30
0.0
 11
3112.254031717883
 21
253.2601980130684
 31
0.0
  0
LINE
  5
160A
330
135F
100
AcDbEntity
  8
中心線
100
AcDbLine
 10
1896.690220469823
 20
404.8773952799483
 30
0.0
 11
1896.690220469823
 21
311.3022572167354
 31
0.0
  0
LINE
  5
160B
330
135F
100
AcDbEntity
  8
中心線
100
AcDbLine
 10
2686.690220469823
 20
404.8773952799483
 30
0.0
 11
2686.690220469823
 21
311.3022572167356
 31
0.0
  0
LINE
  5
160C
330
135F
100
AcDbEntity
  8
中心線
100
AcDbLine
 10
1796.690220469823
 20
1098.86343275486
 30
0.0
 11
1796.690220469823
 21
104.668260969478
 31
0.0
  0
LINE
  5
160D
330
135F
100
AcDbEntity
  8
上線
100
AcDbLine
 10
2796.690220469823
 20
228.2601980130684
 30
0.0
 11
2796.690220469823
 21
828.2601980130685
 31
0.0
  0
LINE
  5
160E
330
135F
100
AcDbEntity
  8
上線
100
AcDbLine
 10
3208.387670758213
 20
391.899685833735
 30
0.0
 11
3208.387670758213
 21
51.27467632734718
 31
0.0
  0
LINE
  5
160F
330
135F
100
AcDbEntity
  8
上書線
100
AcDbLine
 10
1796.690220469823
 20
328.2601980130684
 30
0.0
 11
2796.690220469823
 21
328.2601980130684
 31
0.0
  0
MTEXT
  5
1610
102
{ACAD_REACTORS
330
1611
102
}
330
135F
100
AcDbEntity
  8
上線
 48
10.0
100
AcDbMText
 10
2498.819050734404
 20
145.3229294884267
 30
0.0
 40
25.0
 41
0.0
 71
     6
 72
     1
  1
埋込インサート
 73
     1
 44
1.0
  0
LEADER
  5
1611
330
135F
100
AcDbEntity
  8
上線
 48
10.0
100
AcDbLeader
  3
STANDARD
 73
     0
 75
     1
 40
29.91573033707865
 41
220.3651685393258
 76
     3
 10
2684.016171744764
 20
341.9060319419986
 30
0.0
 10
2530.069050734404
 20
124.1150643198874
 30
0.0
 10
2505.069050734404
 20
124.1150643198874
 30
0.0
340
1610
1001
ACAD
1000
DSTYLE
1002
{
1070
    78
1070
     8
1070
   270
1070
     8
1070
   140
1040
2.5
1070
    74
1070
     0
1070
   172
1070
     1
1070
    73
1070
     0
1070
    77
1070
     1
1070
    40
1040
10.0
1070
   147
1040
0.625
1070
    42
1040
0.625
1070
    44
1040
1.25
1070
    43
1040
3.75
1070
   141
1040
2.5
1070
    41
1040
2.5
1070
   273
1070
     8
1070
   274
1070
     4
1070
   143
1040
0.0394
1070
   171
1070
     4
1002
}
  0
LINE
  5
1612
330
135F
100
AcDbEntity
  8
中心線
100
AcDbLine
 10
1854.87319044093
 20
353.2601980130684
 30
0.0
 11
1943.782108443949
 21
353.2601980130684
 31
0.0
  0
MTEXT
  5
1613
330
135F
100
AcDbEntity
  8
上線
 48
10.0
100
AcDbMText
 10
1765.846932310103
 20
92.30455906362839
 30
0.0
 40
40.0
 41
1003.0154
 71
     1
 72
     5
  1
￡
 73
     1
 44
1.0
  0
LINE
  5
1614
330
135F
100
AcDbEntity
  8
上書線
100
AcDbLine
 10
1709.049140544772
 20
343.1772291037916
 30
0.0
 11
1664.331282383909
 21
343.1772291037915
 31
0.0
  0
LINE
  5
1615
330
135F
100
AcDbEntity
  8
上書線
100
AcDbLine
 10
1709.049140544772
 20
363.3431668230362
 30
0.0
 11
1664.331282383909
 21
363.3431668230362
 31
0.0
  0
LWPOLYLINE
  5
1616
330
135F
100
AcDbEntity
  8
上書線
100
AcDbPolyline
 90
        4
 70
     1
 43
0.0
 10
1728.090220469823
 20
373.3591801846475
 10
1644.860220469823
 20
373.3591801846475
 10
1644.860220469823
 20
333.1612157421802
 10
1728.090220469823
 20
333.1612157421802
  0
ARC
  5
1617
330
135F
100
AcDbEntity
  8
上書線
100
AcDbCircle
 10
1663.610015579852
 20
353.2601979634139
 30
0.0
 40
10.1087331959424
100
AcDbArc
 50
85.90842018539108
 51
274.0915798146088
  0
ARC
  5
1618
330
135F
100
AcDbEntity
  8
上書線
100
AcDbCircle
 10
1564.123401129823
 20
353.0601980130683
 30
0.0
 40
16.5
100
AcDbArc
 50
179.9999999999993
 51
0.0000000000005668
  0
ARC
  5
1619
330
135F
100
AcDbEntity
  8
上書線
100
AcDbCircle
 10
1482.217373129823
 20
353.0601980130683
 30
0.0
 40
16.5
100
AcDbArc
 50
179.9999999999993
 51
0.0000000000005668
  0
ARC
  5
161A
330
135F
100
AcDbEntity
  8
上書線
100
AcDbCircle
 10
1523.168737129823
 20
353.0601980130682
 30
0.0
 40
16.49999999999988
100
AcDbArc
 50
179.9999999999992
 51
0.0000000000007958
  0
ARC
  5
161B
330
135F
100
AcDbEntity
  8
上書線
100
AcDbCircle
 10
1605.074764769823
 20
353.0601980130682
 30
0.0
 40
16.49999999999988
100
AcDbArc
 50
179.9999999999992
 51
0.0000000000007958
  0
ARC
  5
161C
330
135F
100
AcDbEntity
  8
上書線
100
AcDbCircle
 10
1709.77040734883
 20
353.2601979634139
 30
0.0
 40
10.10873319594241
100
AcDbArc
 50
265.9084201853903
 51
94.0915798146095
  0
CIRCLE
  5
161D
330
135F
100
AcDbEntity
  8
上線
100
AcDbCircle
 10
1686.690211464341
 20
353.260198062723
 30
0.0
 40
8.0
  0
CIRCLE
  5
161E
330
135F
100
AcDbEntity
  8
上線
100
AcDbCircle
 10
1686.690211464341
 20
353.2601979634139
 30
0.0
 40
8.0
  0
CIRCLE
  5
161F
330
135F
100
AcDbEntity
  8
上線
100
AcDbCircle
 10
1686.690211464341
 20
353.260198062723
 30
0.0
 40
10.0
  0
CIRCLE
  5
1620
330
135F
100
AcDbEntity
  8
上線
100
AcDbCircle
 10
1686.690211464341
 20
353.2601979634139
 30
0.0
 40
10.0
  0
CIRCLE
  5
1621
330
135F
100
AcDbEntity
  8
上線
100
AcDbCircle
 10
1692.940229475305
 20
353.260198062723
 30
0.0
 40
8.0
  0
CIRCLE
  5
1622
330
135F
100
AcDbEntity
  8
上線
100
AcDbCircle
 10
1692.940229475305
 20
353.260198062723
 30
0.0
 40
10.0
  0
ARC
  5
1623
330
135F
100
AcDbEntity
  8
上書線
100
AcDbCircle
 10
1769.390220469823
 20
353.0601980130682
 30
0.0
 40
16.49999999999988
100
AcDbArc
 50
179.9999999999992
 51
0.0000000000007958
  0
CIRCLE
  5
1624
330
135F
100
AcDbEntity
  8
上線
100
AcDbCircle
 10
1896.690220469823
 20
353.2601980130684
 30
0.0
 40
8.0
  0
CIRCLE
  5
1625
330
135F
100
AcDbEntity
  8
上線
100
AcDbCircle
 10
1896.690220469823
 20
353.2601980130684
 30
0.0
 40
10.0
  0
LINE
  5
1626
330
135F
100
AcDbEntity
  8
0
  6
ByBlock
 62
     0
100
AcDbLine
 10
2827.576287844637
 20
353.2601980130684
 30
0.0
 11
3004.818089606004
 21
353.2601980130684
 31
0.0
  0
LINE
  5
1627
330
135F
100
AcDbEntity
  8
0
  6
ByBlock
 62
     0
100
AcDbLine
 10
2862.681244713188
 20
228.2601980130686
 30
0.0
 11
3004.818089606004
 21
228.2601980130686
 31
0.0
  0
LINE
  5
1628
330
135F
100
AcDbEntity
  8
0
  6
ByBlock
 62
     0
100
AcDbLine
 10
2868.931244713189
 20
353.2601980130684
 30
0.0
 11
3004.818089606004
 21
353.2601980130684
 31
0.0
  0
LINE
  5
1629
330
135F
100
AcDbEntity
  8
0
  6
ByBlock
 62
     0
100
AcDbLine
 10
2856.431244713188
 20
228.2601980130686
 30
0.0
 11
3004.818089606004
 21
228.2601980130684
 31
0.0
  0
LINE
  5
162A
330
135F
100
AcDbEntity
  8
0
  6
ByBlock
 62
     0
100
AcDbLine
 10
2827.576287844637
 20
228.2601980130684
 30
0.0
 11
3124.754031717882
 21
228.2601980130684
 31
0.0
  0
LINE
  5
162B
330
135F
100
AcDbEntity
  8
中心線
100
AcDbLine
 10
2622.231269193951
 20
353.2601980130684
 30
0.0
 11
2736.516806994742
 21
353.2601980130686
 31
0.0
  0
LINE
  5
162C
330
135F
100
AcDbEntity
  8
中心線
100
AcDbLine
 10
2622.231269193951
 20
353.2601980130684
 30
0.0
 11
2736.516806994742
 21
353.2601980130686
 31
0.0
  0
POINT
  5
162D
330
135F
100
AcDbEntity
  8
DEFPOINTS
  6
ByBlock
 62
     0
100
AcDbPoint
 10
2856.431244713188
 20
228.2601980130686
 30
0.0
  0
POINT
  5
162E
330
135F
100
AcDbEntity
  8
DEFPOINTS
  6
ByBlock
 62
     0
100
AcDbPoint
 10
2836.077667884117
 20
228.2601980130684
 30
0.0
  0
POINT
  5
162F
330
135F
100
AcDbEntity
  8
DEFPOINTS
  6
ByBlock
 62
     0
100
AcDbPoint
 10
2836.077667884117
 20
228.2601980130684
 30
0.0
  0
CIRCLE
  5
1630
330
135F
100
AcDbEntity
  8
上線
100
AcDbCircle
 10
2686.690220469823
 20
353.2601980130684
 30
0.0
 40
8.0
  0
CIRCLE
  5
1631
330
135F
100
AcDbEntity
  8
上線
100
AcDbCircle
 10
2686.690220469823
 20
353.2601980130684
 30
0.0
 40
10.0
  0
POINT
  5
1632
330
135F
100
AcDbEntity
  8
DEFPOINTS
  6
ByBlock
 62
     0
100
AcDbPoint
 10
2836.077667884117
 20
290.7601980130684
 30
0.0
  0
POINT
  5
1633
330
135F
100
AcDbEntity
  8
DEFPOINTS
  6
ByBlock
 62
     0
100
AcDbPoint
 10
2836.077667884117
 20
290.7601980130684
 30
0.0
  0
POINT
  5
1634
330
135F
100
AcDbEntity
  8
DEFPOINTS
  6
ByBlock
 62
     0
100
AcDbPoint
 10
2856.431244713188
 20
353.2601980130684
 30
0.0
  0
POINT
  5
1635
330
135F
100
AcDbEntity
  8
DEFPOINTS
  6
ByBlock
 62
     0
100
AcDbPoint
 10
2862.681244713188
 20
353.2601980130684
 30
0.0
  0
SOLID
  5
1636
330
135F
100
AcDbEntity
  8
0
  6
ByBlock
 62
     0
100
AcDbTrace
 10
2988.151422939337
 20
253.2601980130686
 30
0.0
 11
2996.48475627267
 21
253.2601980130686
 31
0.0
 12
2992.318089606003
 22
228.2601980130686
 32
0.0
 13
2992.318089606003
 23
228.2601980130686
 33
0.0
  0
LINE
  5
1637
330
135F
100
AcDbEntity
  8
0
  6
ByBlock
 62
     0
100
AcDbLine
 10
2992.318089606003
 20
290.7601980130684
 30
0.0
 11
2992.318089606003
 21
228.2601980130684
 31
0.0
  0
SOLID
  5
1638
330
135F
100
AcDbEntity
  8
0
  6
ByBlock
 62
     0
100
AcDbTrace
 10
3108.087365051216
 20
253.2601980130684
 30
0.0
 11
3116.420698384549
 21
253.2601980130684
 31
0.0
 12
3112.254031717883
 22
228.2601980130684
 32
0.0
 13
3112.254031717883
 23
228.2601980130684
 33
0.0
  0
POINT
  5
1639
330
135F
100
AcDbEntity
  8
DEFPOINTS
  6
ByBlock
 62
     0
100
AcDbPoint
 10
2992.318089606003
 20
228.2601980130684
 30
0.0
  0
POINT
  5
163A
330
135F
100
AcDbEntity
  8
DEFPOINTS
  6
ByBlock
 62
     0
100
AcDbPoint
 10
3112.254031717883
 20
228.2601980130684
 30
0.0
  0
MTEXT
  5
163B
330
135F
100
AcDbEntity
  8
0
  6
ByBlock
 62
     0
100
AcDbMText
 10
2973.568089606004
 20
290.7601980130685
 30
0.0
 40
25.0
 41
0.0
 71
     5
 72
     1
  1
\A1;125
 11
0.0000000000000001
 21
1.0
 31
0.0
 73
     1
 44
1.0
  0
LINE
  5
163C
330
135F
100
AcDbEntity
  8
0
  6
ByBlock
 62
     0
100
AcDbLine
 10
2992.318089606003
 20
253.2601980130686
 30
0.0
 11
2992.318089606003
 21
328.2601980130684
 31
0.0
  0
POINT
  5
163D
330
135F
100
AcDbEntity
  8
DEFPOINTS
  6
ByBlock
 62
     0
100
AcDbPoint
 10
2992.318089606003
 20
290.7601980130684
 30
0.0
  0
POINT
  5
163E
330
135F
100
AcDbEntity
  8
DEFPOINTS
  6
ByBlock
 62
     0
100
AcDbPoint
 10
2992.318089606003
 20
353.2601980130684
 30
0.0
  0
SOLID
  5
163F
330
135F
100
AcDbEntity
  8
0
  6
ByBlock
 62
     0
100
AcDbTrace
 10
2988.151422939337
 20
328.2601980130684
 30
0.0
 11
2996.48475627267
 21
328.2601980130684
 31
0.0
 12
2992.318089606003
 22
353.2601980130684
 32
0.0
 13
2992.318089606003
 23
353.2601980130684
 33
0.0
  0
POINT
  5
1640
330
135F
100
AcDbEntity
  8
DEFPOINTS
  6
ByBlock
 62
     0
100
AcDbPoint
 10
2992.318089606003
 20
353.2601980130684
 30
0.0
  0
LINE
  5
1641
330
135F
100
AcDbEntity
  8
0
  6
ByBlock
 62
     0
100
AcDbLine
 10
2992.318089606003
 20
315.7601980130684
 30
0.0
 11
2992.318089606003
 21
340.7601980130684
 31
0.0
  0
MTEXT
  5
1642
330
135F
100
AcDbEntity
  8
上線
 48
10.0
100
AcDbMText
 10
3229.293768418305
 20
275.3924945073458
 30
0.0
 40
30.0
 41
241.0562
 71
     1
 72
     5
  1
\fＭＳ Ｐ明朝|b0|i0|c128|p18;寸　法
 73
     1
 44
1.0
  0
MTEXT
  5
1643
330
135F
100
AcDbEntity
  8
上線
 48
10.0
100
AcDbMText
 10
3229.293768418305
 20
363.9474535633262
 30
0.0
 40
30.0
 41
241.0562
 71
     1
 72
     5
  1
\fＭＳ Ｐ明朝|b0|i0|c128|p18;呼び名
 73
     1
 44
1.0
  0
LINE
  5
1644
330
135F
100
AcDbEntity
  8
0
  6
ByBlock
 62
     0
100
AcDbLine
 10
1921.690220469823
 20
989.967119529806
 30
0.0
 11
2661.690220469823
 21
989.967119529806
 31
0.0
  0
LINE
  5
1645
330
135F
100
AcDbEntity
  8
上書線
100
AcDbLine
 10
1796.690220469823
 20
378.2601980130684
 30
0.0
 11
2796.690220469823
 21
378.2601980130684
 31
0.0
  0
LINE
  5
1646
330
135F
100
AcDbEntity
  8
上書線
100
AcDbLine
 10
2796.690220469823
 20
678.2601980130684
 30
0.0
 11
1796.690220469823
 21
678.2601980130684
 31
0.0
  0
LINE
  5
1647
330
135F
100
AcDbEntity
  8
上書線
100
AcDbLine
 10
1796.690220469823
 20
728.2601980130684
 30
0.0
 11
2796.690220469823
 21
728.2601980130684
 31
0.0
  0
LINE
  5
1648
330
135F
100
AcDbEntity
  8
0
  6
ByBlock
 62
     0
100
AcDbLine
 10
1794.190220469823
 20
858.2618742526939
 30
0.0
 11
1794.190220469823
 21
1002.258784695559
 31
0.0
  0
LINE
  5
1649
330
135F
100
AcDbEntity
  8
0
  6
ByBlock
 62
     0
100
AcDbLine
 10
1896.690220469824
 20
858.2618742526937
 30
0.0
 11
1896.690220469824
 21
1002.467119529806
 31
0.0
  0
LINE
  5
164A
330
135F
100
AcDbEntity
  8
0
  6
ByBlock
 62
     0
100
AcDbLine
 10
1896.690220469824
 20
858.2618742526937
 30
0.0
 11
1896.690220469824
 21
1002.467119529806
 31
0.0
  0
LINE
  5
164B
330
135F
100
AcDbEntity
  8
中心線
100
AcDbLine
 10
1943.782108443949
 20
703.2601980130684
 30
0.0
 11
1854.87319044093
 21
703.2601980130684
 31
0.0
  0
LINE
  5
164C
330
135F
100
AcDbEntity
  8
上書線
100
AcDbLine
 10
1465.717373129823
 20
638.3601980130684
 30
0.0
 11
1465.717373129823
 21
548.8601980130685
 31
0.0
  0
LINE
  5
164D
330
135F
100
AcDbEntity
  8
上線
100
AcDbLine
 10
1457.762709129823
 20
703.4601980130685
 30
0.0
 11
1457.762709129823
 21
614.4601980130685
 31
0.0
  0
LINE
  5
164E
330
135F
100
AcDbEntity
  8
上書線
100
AcDbLine
 10
1547.623401129823
 20
638.3601980130684
 30
0.0
 11
1547.623401129823
 21
548.8601980130685
 31
0.0
  0
LINE
  5
164F
330
135F
100
AcDbEntity
  8
上線
100
AcDbLine
 10
1506.668737129823
 20
703.4601980130685
 30
0.0
 11
1506.668737129823
 21
614.4601980130685
 31
0.0
  0
LINE
  5
1650
330
135F
100
AcDbEntity
  8
上線
100
AcDbLine
 10
1539.668737129823
 20
703.4601980130685
 30
0.0
 11
1539.668737129823
 21
614.4601980130685
 31
0.0
  0
LINE
  5
1651
330
135F
100
AcDbEntity
  8
上書線
100
AcDbLine
 10
1498.717373129823
 20
638.3601980130684
 30
0.0
 11
1498.717373129823
 21
548.8601980130685
 31
0.0
  0
LINE
  5
1652
330
135F
100
AcDbEntity
  8
上線
100
AcDbLine
 10
1621.574764769823
 20
703.4601980130685
 30
0.0
 11
1621.574764769823
 21
614.4601980130685
 31
0.0
  0
LINE
  5
1653
330
135F
100
AcDbEntity
  8
上線
100
AcDbLine
 10
1588.574764769823
 20
703.4601980130685
 30
0.0
 11
1588.574764769823
 21
614.4601980130685
 31
0.0
  0
LINE
  5
1654
330
135F
100
AcDbEntity
  8
上書線
100
AcDbLine
 10
1580.623401129823
 20
638.3601980130684
 30
0.0
 11
1580.623401129823
 21
548.8601980130685
 31
0.0
  0
LWPOLYLINE
  5
1655
330
135F
100
AcDbEntity
  8
上書線
100
AcDbPolyline
 90
        2
 70
     0
 43
0.0
 10
1628.738856469823
 20
548.9601980130754
 10
1628.738856469823
 20
642.4601980130685
  0
LWPOLYLINE
  5
1656
330
135F
100
AcDbEntity
  8
上書線
100
AcDbPolyline
 90
        2
 70
     0
 43
0.0
 10
1711.968856469823
 20
548.9601980130754
 10
1711.968856469823
 20
642.4601980130685
  0
LINE
  5
1657
330
135F
100
AcDbEntity
  8
上書線
100
AcDbLine
 10
1704.068847464341
 20
642.4601980130692
 30
0.0
 11
1704.068847464341
 21
614.466619746483
 31
0.0
  0
LINE
  5
1658
330
135F
100
AcDbEntity
  8
上書線
100
AcDbLine
 10
1670.068847464341
 20
642.4601980130614
 30
0.0
 11
1670.068847464341
 21
614.466619746483
 31
0.0
  0
LWPOLYLINE
  5
1659
330
135F
100
AcDbEntity
  8
上書線
100
AcDbPolyline
 90
        2
 70
     0
 43
0.0
 10
1661.738856469823
 20
642.4601980130685
 10
1661.738856469823
 20
548.9601980130652
  0
LINE
  5
165A
330
135F
100
AcDbEntity
  8
上線
100
AcDbLine
 10
1785.890220469823
 20
703.4601980130685
 30
0.0
 11
1785.890220469823
 21
614.4601980130685
 31
0.0
  0
LINE
  5
165B
330
135F
100
AcDbEntity
  8
上線
100
AcDbLine
 10
1752.890220469823
 20
703.4601980130685
 30
0.0
 11
1752.890220469823
 21
614.4601980130685
 31
0.0
  0
LWPOLYLINE
  5
165C
330
135F
100
AcDbEntity
  8
上書線
100
AcDbPolyline
 90
        2
 70
     0
 43
0.0
 10
1744.968856469823
 20
642.4601980130685
 10
1744.968856469823
 20
548.9601980130652
  0
ARC
  5
165D
330
135F
100
AcDbEntity
  8
上書線
100
AcDbCircle
 10
1687.568856469823
 20
483.3601980130686
 30
0.0
 40
16.50000000000022
100
AcDbArc
 50
180.0000000000006
 51
359.9999999999994
  0
ARC
  5
165E
330
135F
100
AcDbEntity
  8
上書線
100
AcDbCircle
 10
1687.068847464341
 20
441.5442612285968
 30
0.0
 40
17.00835901392084
100
AcDbArc
 50
1.796394578123305
 51
178.2036054218766
  0
ARC
  5
165F
330
135F
100
AcDbEntity
  8
上書線
100
AcDbCircle
 10
1687.068847464341
 20
414.5677737706442
 30
0.0
 40
17.00757575757564
100
AcDbArc
 50
181.7101947925336
 51
358.2898052074663
  0
ARC
  5
1660
330
135F
100
AcDbEntity
  8
上書線
100
AcDbCircle
 10
1687.568856469823
 20
573.1601980130683
 30
0.0
 40
16.5
100
AcDbArc
 50
0.0000000000004141
 51
179.9999999999996
  0
ARC
  5
1661
330
135F
100
AcDbEntity
  8
上書線
100
AcDbCircle
 10
1687.068847464341
 20
614.9741955040556
 30
0.0
 40
17.00757575757564
100
AcDbArc
 50
181.7101947925571
 51
358.2898052074903
  0
LINE
  5
1662
330
135F
100
AcDbEntity
  8
上書線
100
AcDbLine
 10
1465.717373129823
 20
507.6601980130684
 30
0.0
 11
1465.717373129823
 21
418.1601980130684
 31
0.0
  0
LINE
  5
1663
330
135F
100
AcDbEntity
  8
上線
100
AcDbLine
 10
1457.762709129823
 20
573.1601980130684
 30
0.0
 11
1457.762709129823
 21
483.3601980130686
 31
0.0
  0
LINE
  5
1664
330
135F
100
AcDbEntity
  8
上書線
100
AcDbLine
 10
1498.717373129823
 20
507.6601980130684
 30
0.0
 11
1498.717373129823
 21
418.1601980130684
 31
0.0
  0
LINE
  5
1665
330
135F
100
AcDbEntity
  8
上書線
100
AcDbLine
 10
1547.623401129823
 20
507.6601980130684
 30
0.0
 11
1547.623401129823
 21
418.1601980130684
 31
0.0
  0
LINE
  5
1666
330
135F
100
AcDbEntity
  8
上書線
100
AcDbLine
 10
1580.623401129823
 20
507.6601980130684
 30
0.0
 11
1580.623401129823
 21
418.1601980130684
 31
0.0
  0
LINE
  5
1667
330
135F
100
AcDbEntity
  8
上線
100
AcDbLine
 10
1621.574764769823
 20
573.1601980130684
 30
0.0
 11
1621.574764769823
 21
483.3601980130686
 31
0.0
  0
LINE
  5
1668
330
135F
100
AcDbEntity
  8
上書線
100
AcDbLine
 10
1588.574764769823
 20
573.1601980130684
 30
0.0
 11
1588.574764769822
 21
483.3601980130684
 31
0.0
  0
LINE
  5
1669
330
135F
100
AcDbEntity
  8
上書線
100
AcDbLine
 10
1506.668737129823
 20
573.1601980130684
 30
0.0
 11
1506.668737129823
 21
483.3601980130684
 31
0.0
  0
LINE
  5
166A
330
135F
100
AcDbEntity
  8
上線
100
AcDbLine
 10
1539.668737129823
 20
573.1601980130684
 30
0.0
 11
1539.668737129823
 21
483.3601980130686
 31
0.0
  0
LWPOLYLINE
  5
166B
330
135F
100
AcDbEntity
  8
上書線
100
AcDbPolyline
 90
        2
 70
     0
 43
0.0
 10
1628.738856469823
 20
414.0601980130752
 10
1628.738856469823
 20
507.5601980130752
  0
LWPOLYLINE
  5
166C
330
135F
100
AcDbEntity
  8
上書線
100
AcDbPolyline
 90
        2
 70
     0
 43
0.0
 10
1661.738856469823
 20
507.560198013065
 10
1661.738856469823
 20
414.060198013065
  0
LINE
  5
166D
330
135F
100
AcDbEntity
  8
上書線
100
AcDbLine
 10
1661.738856469823
 20
507.560198013065
 30
0.0
 11
1661.738856469823
 21
414.0601980130684
 31
0.0
  0
LINE
  5
166E
330
135F
100
AcDbEntity
  8
上書線
100
AcDbLine
 10
1671.068856469823
 20
573.1601980130684
 30
0.0
 11
1671.068856469823
 21
483.3601980130684
 31
0.0
  0
ARC
  5
166F
330
135F
100
AcDbEntity
  8
上書線
100
AcDbCircle
 10
1563.744764829823
 20
418.1601980130683
 30
0.0
 40
16.5
100
AcDbArc
 50
179.9999999999996
 51
0.0000000000004141
  0
ARC
  5
1670
330
135F
100
AcDbEntity
  8
上書線
100
AcDbCircle
 10
1564.123401129823
 20
376.9601980130683
 30
0.0
 40
16.5
100
AcDbArc
 50
0.000000000000007
 51
180.0
  0
ARC
  5
1671
330
135F
100
AcDbEntity
  8
上書線
100
AcDbCircle
 10
1481.838736829823
 20
418.1601980130683
 30
0.0
 40
16.5
100
AcDbArc
 50
179.9999999999996
 51
0.0000000000004141
  0
ARC
  5
1672
330
135F
100
AcDbEntity
  8
上書線
100
AcDbCircle
 10
1482.217373129823
 20
376.9601980130683
 30
0.0
 40
16.5
100
AcDbArc
 50
0.000000000000007
 51
180.0
  0
ARC
  5
1673
330
135F
100
AcDbEntity
  8
上書線
100
AcDbCircle
 10
1523.168737129823
 20
442.0601980130682
 30
0.0
 40
16.50000000000011
100
AcDbArc
 50
0.0000000000004141
 51
179.9999999999996
  0
ARC
  5
1674
330
135F
100
AcDbEntity
  8
上書線
100
AcDbCircle
 10
1523.168737129823
 20
483.3601980130686
 30
0.0
 40
16.50000000000022
100
AcDbArc
 50
180.0000000000006
 51
359.9999999999994
  0
LINE
  5
1675
330
135F
100
AcDbEntity
  8
上書線
100
AcDbLine
 10
1670.068847464341
 20
442.0774369467415
 30
0.0
 11
1670.068847464341
 21
414.0601980130756
 31
0.0
  0
ARC
  5
1676
330
135F
100
AcDbEntity
  8
上書線
100
AcDbCircle
 10
1645.238856469823
 20
414.0601980130684
 30
0.0
 40
16.5
100
AcDbArc
 50
180.0
 51
0.000000000000007
  0
ARC
  5
1677
330
135F
100
AcDbEntity
  8
上書線
100
AcDbCircle
 10
1605.074764769823
 20
442.0601980130682
 30
0.0
 40
16.50000000000011
100
AcDbArc
 50
0.0000000000004141
 51
179.9999999999996
  0
ARC
  5
1678
330
135F
100
AcDbEntity
  8
上書線
100
AcDbCircle
 10
1605.074764769823
 20
483.3601980130686
 30
0.0
 40
16.50000000000022
100
AcDbArc
 50
180.0000000000006
 51
359.9999999999994
  0
ARC
  5
1679
330
135F
100
AcDbEntity
  8
上書線
100
AcDbCircle
 10
1564.123401129823
 20
548.8601980130685
 30
0.0
 40
16.50000000000011
100
AcDbArc
 50
180.0
 51
0.000000000000007
  0
ARC
  5
167A
330
135F
100
AcDbEntity
  8
上書線
100
AcDbCircle
 10
1564.123401129823
 20
507.6601980130684
 30
0.0
 40
16.5
100
AcDbArc
 50
0.000000000000007
 51
180.0
  0
ARC
  5
167B
330
135F
100
AcDbEntity
  8
上書線
100
AcDbCircle
 10
1482.217373129823
 20
548.8601980130685
 30
0.0
 40
16.50000000000011
100
AcDbArc
 50
180.0
 51
0.000000000000007
  0
ARC
  5
167C
330
135F
100
AcDbEntity
  8
上書線
100
AcDbCircle
 10
1482.217373129823
 20
507.6601980130684
 30
0.0
 40
16.5
100
AcDbArc
 50
0.000000000000007
 51
180.0
  0
ARC
  5
167D
330
135F
100
AcDbEntity
  8
上書線
100
AcDbCircle
 10
1523.168737129823
 20
614.4601980130685
 30
0.0
 40
16.50000000000011
100
AcDbArc
 50
180.0
 51
0.000000000000007
  0
ARC
  5
167E
330
135F
100
AcDbEntity
  8
上書線
100
AcDbCircle
 10
1523.168737129823
 20
573.1601980130683
 30
0.0
 40
16.5
100
AcDbArc
 50
0.0000000000004141
 51
179.9999999999996
  0
ARC
  5
167F
330
135F
100
AcDbEntity
  8
上書線
100
AcDbCircle
 10
1645.238856469823
 20
507.5601980130683
 30
0.0
 40
16.5
100
AcDbArc
 50
0.000000000000007
 51
180.0
  0
ARC
  5
1680
330
135F
100
AcDbEntity
  8
上書線
100
AcDbCircle
 10
1645.238856469823
 20
548.9601980130686
 30
0.0
 40
16.49999999999988
100
AcDbArc
 50
180.0000000000004
 51
359.9999999999996
  0
ARC
  5
1681
330
135F
100
AcDbEntity
  8
上書線
100
AcDbCircle
 10
1605.074764769823
 20
573.1601980130683
 30
0.0
 40
16.5
100
AcDbArc
 50
0.0000000000004141
 51
179.9999999999996
  0
ARC
  5
1682
330
135F
100
AcDbEntity
  8
上書線
100
AcDbCircle
 10
1605.074764769823
 20
614.4601980130685
 30
0.0
 40
16.50000000000011
100
AcDbArc
 50
180.0
 51
0.000000000000007
  0
LINE
  5
1683
330
135F
100
AcDbEntity
  8
上書線
100
AcDbLine
 10
1711.968856469823
 20
507.5601980130752
 30
0.0
 11
1711.968856469823
 21
414.0601980130752
 31
0.0
  0
LWPOLYLINE
  5
1684
330
135F
100
AcDbEntity
  8
上書線
100
AcDbPolyline
 90
        2
 70
     0
 43
0.0
 10
1711.968856469823
 20
414.0601980130752
 10
1711.968856469823
 20
507.5601980130752
  0
LINE
  5
1685
330
135F
100
AcDbEntity
  8
上書線
100
AcDbLine
 10
1744.968856469823
 20
507.560198013065
 30
0.0
 11
1744.968856469823
 21
414.0601980130684
 31
0.0
  0
LWPOLYLINE
  5
1686
330
135F
100
AcDbEntity
  8
上書線
100
AcDbPolyline
 90
        2
 70
     0
 43
0.0
 10
1744.590220469823
 20
507.560198013065
 10
1744.590220469823
 20
414.060198013065
  0
LINE
  5
1687
330
135F
100
AcDbEntity
  8
上線
100
AcDbLine
 10
1785.890220469823
 20
573.1601980130684
 30
0.0
 11
1785.890220469823
 21
483.3601980130686
 31
0.0
  0
LINE
  5
1688
330
135F
100
AcDbEntity
  8
上書線
100
AcDbLine
 10
1752.890220469823
 20
573.1601980130684
 30
0.0
 11
1752.890220469823
 21
483.3601980130684
 31
0.0
  0
LINE
  5
1689
330
135F
100
AcDbEntity
  8
上線
100
AcDbLine
 10
1704.068856469823
 20
573.1601980130684
 30
0.0
 11
1704.068856469823
 21
483.3601980130686
 31
0.0
  0
LINE
  5
168A
330
135F
100
AcDbEntity
  8
上書線
100
AcDbLine
 10
1704.068847464341
 20
442.0774369467483
 30
0.0
 11
1704.068847464341
 21
414.0601980130685
 31
0.0
  0
ARC
  5
168B
330
135F
100
AcDbEntity
  8
上書線
100
AcDbCircle
 10
1728.468856469823
 20
414.0601980130684
 30
0.0
 40
16.5
100
AcDbArc
 50
180.0
 51
0.000000000000007
  0
ARC
  5
168C
330
135F
100
AcDbEntity
  8
上書線
100
AcDbCircle
 10
1769.390220469823
 20
483.3601980130686
 30
0.0
 40
16.50000000000022
100
AcDbArc
 50
180.0000000000006
 51
359.9999999999994
  0
ARC
  5
168D
330
135F
100
AcDbEntity
  8
上書線
100
AcDbCircle
 10
1769.390220469823
 20
442.0601980130682
 30
0.0
 40
16.50000000000011
100
AcDbArc
 50
0.0000000000004141
 51
179.9999999999996
  0
ARC
  5
168E
330
135F
100
AcDbEntity
  8
上書線
100
AcDbCircle
 10
1728.468856469823
 20
548.9601980130686
 30
0.0
 40
16.49999999999988
100
AcDbArc
 50
180.0000000000004
 51
359.9999999999996
  0
ARC
  5
168F
330
135F
100
AcDbEntity
  8
上書線
100
AcDbCircle
 10
1728.468856469823
 20
507.5601980130683
 30
0.0
 40
16.5
100
AcDbArc
 50
0.000000000000007
 51
180.0
  0
ARC
  5
1690
330
135F
100
AcDbEntity
  8
上書線
100
AcDbCircle
 10
1769.390220469823
 20
614.4601980130685
 30
0.0
 40
16.50000000000011
100
AcDbArc
 50
180.0
 51
0.000000000000007
  0
ARC
  5
1691
330
135F
100
AcDbEntity
  8
上書線
100
AcDbCircle
 10
1769.390220469824
 20
573.1601980130683
 30
0.0
 40
16.5
100
AcDbArc
 50
0.0000000000004141
 51
179.9999999999996
  0
POINT
  5
1692
330
135F
100
AcDbEntity
  8
DEFPOINTS
  6
ByBlock
 62
     0
100
AcDbPoint
 10
1795.440229475306
 20
563.1918676961141
 30
0.0
  0
ARC
  5
1693
330
135F
100
AcDbEntity
  8
上書線
100
AcDbCircle
 10
1687.068847464341
 20
641.9526222554927
 30
0.0
 40
17.00757575757564
100
AcDbArc
 50
1.710194792533395
 51
178.2898052074665
  0
LINE
  5
1694
330
135F
100
AcDbEntity
  8
上書線
100
AcDbLine
 10
1709.049140544772
 20
693.1772292031007
 30
0.0
 11
1664.331282383909
 21
693.1772292031007
 31
0.0
  0
LINE
  5
1695
330
135F
100
AcDbEntity
  8
上書線
100
AcDbLine
 10
1709.049140544772
 20
713.3431669223453
 30
0.0
 11
1664.331282383909
 21
713.3431669223454
 31
0.0
  0
ARC
  5
1696
330
135F
100
AcDbEntity
  8
上書線
100
AcDbCircle
 10
1663.610015579852
 20
703.260198062723
 30
0.0
 40
10.1087331959424
100
AcDbArc
 50
85.90842018539111
 51
274.0915798146088
  0
LWPOLYLINE
  5
1697
330
135F
100
AcDbEntity
  8
上書線
100
AcDbPolyline
 90
        4
 70
     1
 43
0.0
 10
1728.090220469823
 20
683.1612158414893
 10
1644.860220469823
 20
683.1612158414893
 10
1644.860220469823
 20
723.3591802839566
 10
1728.090220469823
 20
723.3591802839566
  0
ARC
  5
1698
330
135F
100
AcDbEntity
  8
上書線
100
AcDbCircle
 10
1564.123401129823
 20
638.3601980130684
 30
0.0
 40
16.50000000000011
100
AcDbArc
 50
0.000000000000007
 51
180.0
  0
ARC
  5
1699
330
135F
100
AcDbEntity
  8
上書線
100
AcDbCircle
 10
1564.123401129823
 20
679.5601980130685
 30
0.0
 40
16.50000000000011
100
AcDbArc
 50
180.0
 51
0.000000000000007
  0
ARC
  5
169A
330
135F
100
AcDbEntity
  8
上書線
100
AcDbCircle
 10
1564.125694120292
 20
703.4579050225995
 30
0.0
 40
16.50229314977445
100
AcDbArc
 50
358.649174639919
 51
179.9920387623971
  0
LINE
  5
169B
330
135F
100
AcDbEntity
  8
上書線
100
AcDbLine
 10
1465.717373129823
 20
703.4601980130685
 30
0.0
 11
1465.717373129823
 21
679.5601980130685
 31
0.0
  0
LINE
  5
169C
330
135F
100
AcDbEntity
  8
上書線
100
AcDbLine
 10
1498.717373129823
 20
703.0688772231184
 30
0.0
 11
1498.717373129823
 21
679.5601980130685
 31
0.0
  0
LINE
  5
169D
330
135F
100
AcDbEntity
  8
上書線
100
AcDbLine
 10
1547.623401129823
 20
703.4601980130685
 30
0.0
 11
1547.623401129823
 21
679.5601980130685
 31
0.0
  0
ARC
  5
169E
330
135F
100
AcDbEntity
  8
上書線
100
AcDbCircle
 10
1482.217373129823
 20
679.5601980130685
 30
0.0
 40
16.50000000000011
100
AcDbArc
 50
180.0
 51
0.000000000000007
  0
ARC
  5
169F
330
135F
100
AcDbEntity
  8
上書線
100
AcDbCircle
 10
1482.217373129823
 20
638.3601980130684
 30
0.0
 40
16.50000000000011
100
AcDbArc
 50
0.000000000000007
 51
180.0
  0
ARC
  5
16A0
330
135F
100
AcDbEntity
  8
上書線
100
AcDbCircle
 10
1482.219666120292
 20
703.4579050225995
 30
0.0
 40
16.50229314977445
100
AcDbArc
 50
358.649174639919
 51
179.9920387623971
  0
ARC
  5
16A1
330
135F
100
AcDbEntity
  8
上書線
100
AcDbCircle
 10
1523.168737129823
 20
703.4601980130685
 30
0.0
 40
16.5
100
AcDbArc
 50
0.000000000000007
 51
180.0
  0
LINE
  5
16A2
330
135F
100
AcDbEntity
  8
上書線
100
AcDbLine
 10
1580.623401129823
 20
703.0688772231184
 30
0.0
 11
1580.623401129823
 21
679.5601980130685
 31
0.0
  0
ARC
  5
16A3
330
135F
100
AcDbEntity
  8
上書線
100
AcDbCircle
 10
1645.238856469823
 20
642.4601980130686
 30
0.0
 40
16.49999999999988
100
AcDbArc
 50
359.9999999999996
 51
180.0000000000004
  0
ARC
  5
16A4
330
135F
100
AcDbEntity
  8
上書線
100
AcDbCircle
 10
1605.074764769823
 20
703.4601980130685
 30
0.0
 40
16.5
100
AcDbArc
 50
0.000000000000007
 51
180.0
  0
ARC
  5
16A5
330
135F
100
AcDbEntity
  8
上書線
100
AcDbCircle
 10
1728.468856469823
 20
642.4601980130686
 30
0.0
 40
16.49999999999988
100
AcDbArc
 50
359.9999999999996
 51
180.0000000000004
  0
CIRCLE
  5
16A6
330
135F
100
AcDbEntity
  8
上線
100
AcDbCircle
 10
1686.690211464341
 20
703.260198062723
 30
0.0
 40
8.0
  0
ARC
  5
16A7
330
135F
100
AcDbEntity
  8
上書線
100
AcDbCircle
 10
1709.77040734883
 20
703.260198062723
 30
0.0
 40
10.10873319594241
100
AcDbArc
 50
265.9084201853904
 51
94.09157981460962
  0
CIRCLE
  5
16A8
330
135F
100
AcDbEntity
  8
上線
100
AcDbCircle
 10
1686.690211464341
 20
703.260198062723
 30
0.0
 40
10.0
  0
CIRCLE
  5
16A9
330
135F
100
AcDbEntity
  8
上線
100
AcDbCircle
 10
1692.940229475305
 20
703.260198062723
 30
0.0
 40
8.0
  0
CIRCLE
  5
16AA
330
135F
100
AcDbEntity
  8
上線
100
AcDbCircle
 10
1692.940229475305
 20
703.260198062723
 30
0.0
 40
10.0
  0
ARC
  5
16AB
330
135F
100
AcDbEntity
  8
上書線
100
AcDbCircle
 10
1769.390220469823
 20
703.4601980130685
 30
0.0
 40
16.5
100
AcDbArc
 50
0.000000000000007
 51
180.0
  0
LINE
  5
16AC
330
135F
100
AcDbEntity
  8
中心線
100
AcDbLine
 10
1896.690220469824
 20
745.3225827558845
 30
0.0
 11
1896.690220469823
 21
645.203435195991
 31
0.0
  0
CIRCLE
  5
16AD
330
135F
100
AcDbEntity
  8
上線
100
AcDbCircle
 10
1896.690220469823
 20
703.2601980130684
 30
0.0
 40
8.0
  0
CIRCLE
  5
16AE
330
135F
100
AcDbEntity
  8
上線
100
AcDbCircle
 10
1896.690220469823
 20
703.2601980130684
 30
0.0
 40
10.0
  0
POINT
  5
16AF
330
135F
100
AcDbEntity
  8
DEFPOINTS
  6
ByBlock
 62
     0
100
AcDbPoint
 10
1794.190220469823
 20
828.2601980130685
 30
0.0
  0
POINT
  5
16B0
330
135F
100
AcDbEntity
  8
DEFPOINTS
  6
ByBlock
 62
     0
100
AcDbPoint
 10
1796.690220469822
 20
852.0118742526937
 30
0.0
  0
POINT
  5
16B1
330
135F
100
AcDbEntity
  8
DEFPOINTS
  6
ByBlock
 62
     0
100
AcDbPoint
 10
1896.690220469824
 20
852.0118742526937
 30
0.0
  0
POINT
  5
16B2
330
135F
100
AcDbEntity
  8
DEFPOINTS
  6
ByBlock
 62
     0
100
AcDbPoint
 10
1896.690220469824
 20
852.0118742526937
 30
0.0
  0
POINT
  5
16B3
330
135F
100
AcDbEntity
  8
DEFPOINTS
  6
ByBlock
 62
     0
100
AcDbPoint
 10
2333.690220469823
 20
557.8225827558845
 30
0.0
  0
SOLID
  5
16B4
330
135F
100
AcDbEntity
  8
0
  6
ByBlock
 62
     0
100
AcDbTrace
 10
1921.690220469823
 20
994.1337861964726
 30
0.0
 11
1921.690220469823
 21
985.8004528631393
 31
0.0
 12
1896.690220469824
 22
989.967119529806
 32
0.0
 13
1896.690220469824
 23
989.967119529806
 33
0.0
  0
MTEXT
  5
16B5
330
135F
100
AcDbEntity
  8
0
  6
ByBlock
 62
     0
100
AcDbMText
 10
1846.690220469823
 20
1008.717119529806
 30
0.0
 40
25.0
 41
0.0
 71
     5
 72
     1
  1
\A1;100
 73
     1
 44
1.0
  0
SOLID
  5
16B6
330
135F
100
AcDbEntity
  8
0
  6
ByBlock
 62
     0
100
AcDbTrace
 10
1769.190220469823
 20
993.9254513622257
 30
0.0
 11
1769.190220469823
 21
985.5921180288923
 31
0.0
 12
1794.190220469823
 22
989.7587846955589
 32
0.0
 13
1794.190220469823
 23
989.7587846955589
 33
0.0
  0
LINE
  5
16B7
330
135F
100
AcDbEntity
  8
0
  6
ByBlock
 62
     0
100
AcDbLine
 10
1821.690220469823
 20
989.967119529806
 30
0.0
 11
1871.690220469823
 21
989.967119529806
 31
0.0
  0
POINT
  5
16B8
330
135F
100
AcDbEntity
  8
DEFPOINTS
  6
ByBlock
 62
     0
100
AcDbPoint
 10
1794.190220469823
 20
989.7587846955589
 30
0.0
  0
SOLID
  5
16B9
330
135F
100
AcDbEntity
  8
0
  6
ByBlock
 62
     0
100
AcDbTrace
 10
1821.690220469823
 20
994.1337861964726
 30
0.0
 11
1821.690220469823
 21
985.8004528631393
 31
0.0
 12
1796.690220469822
 22
989.967119529806
 32
0.0
 13
1796.690220469822
 23
989.967119529806
 33
0.0
  0
POINT
  5
16BA
330
135F
100
AcDbEntity
  8
DEFPOINTS
  6
ByBlock
 62
     0
100
AcDbPoint
 10
1795.440229475306
 20
989.967119529806
 30
0.0
  0
POINT
  5
16BB
330
135F
100
AcDbEntity
  8
DEFPOINTS
  6
ByBlock
 62
     0
100
AcDbPoint
 10
1896.690220469824
 20
989.967119529806
 30
0.0
  0
SOLID
  5
16BC
330
135F
100
AcDbEntity
  8
0
  6
ByBlock
 62
     0
100
AcDbTrace
 10
1871.690220469823
 20
994.1337861964726
 30
0.0
 11
1871.690220469823
 21
985.8004528631393
 31
0.0
 12
1896.690220469824
 22
989.967119529806
 32
0.0
 13
1896.690220469824
 23
989.967119529806
 33
0.0
  0
MTEXT
  5
16BD
330
135F
100
AcDbEntity
  8
0
  6
ByBlock
 62
     0
100
AcDbMText
 10
2291.690220469823
 20
1008.717119529806
 30
0.0
 40
25.0
 41
0.0
 71
     5
 72
     1
  1
\A1;790
 73
     1
 44
1.0
  0
LINE
  5
16BE
330
135F
100
AcDbEntity
  8
0
  6
ByBlock
 62
     0
100
AcDbLine
 10
2686.690220469823
 20
858.2618742526937
 30
0.0
 11
2686.690220469823
 21
1002.467119529806
 31
0.0
  0
DIMENSION
  5
16BF
330
135F
100
AcDbEntity
  8
上書線
100
AcDbDimension
  2
*D4
 10
2796.690220469823
 20
989.967119529806
 30
0.0
 11
2741.690220469823
 21
1008.717119529806
 31
0.0
 12
-0.4650016582199897
 22
-15.17912158980289
 32
0.0
 71
     5
 42
-1.0
  3
STANDARD
100
AcDbAlignedDimension
 13
2686.690220469823
 23
852.0118742526937
 33
0.0
 14
2796.690220469823
 24
852.0118742526937
 34
0.0
100
AcDbRotatedDimension
1001
ACAD
1000
DSTYLE
1002
{
1070
    40
1040
10.0
1070
    41
1040
2.5
1070
    42
1040
0.625
1070
    43
1040
3.75
1070
    44
1040
1.25
1070
    73
1070
     0
1070
    74
1070
     0
1070
    77
1070
     1
1070
    78
1070
     8
1070
   140
1040
2.5
1070
   141
1040
2.5
1070
   143
1040
0.0394
1070
   147
1040
0.625
1070
   171
1070
     4
1070
   172
1070
     1
1070
   273
1070
     8
1070
   274
1070
     4
1070
   277
1070
     6
1002
}
  0
LINE
  5
16C0
330
135F
100
AcDbEntity
  8
0
  6
ByBlock
 62
     0
100
AcDbLine
 10
2827.576287844637
 20
703.2601980130684
 30
0.0
 11
3004.818089606004
 21
703.2601980130684
 31
0.0
  0
LINE
  5
16C1
330
135F
100
AcDbEntity
  8
0
  6
ByBlock
 62
     0
100
AcDbLine
 10
2862.681244713188
 20
703.2601980130684
 30
0.0
 11
3004.818089606004
 21
703.2601980130684
 31
0.0
  0
LINE
  5
16C2
330
135F
100
AcDbEntity
  8
0
  6
ByBlock
 62
     0
100
AcDbLine
 10
2862.681244713188
 20
828.2601980130685
 30
0.0
 11
3004.818089606004
 21
828.2601980130685
 31
0.0
  0
LINE
  5
16C3
330
135F
100
AcDbEntity
  8
0
  6
ByBlock
 62
     0
100
AcDbLine
 10
2856.431244713188
 20
828.2601980130685
 30
0.0
 11
3004.818089606004
 21
828.2601980130685
 31
0.0
  0
LINE
  5
16C4
330
135F
100
AcDbEntity
  8
0
  6
ByBlock
 62
     0
100
AcDbLine
 10
2827.576287844637
 20
828.2601980130683
 30
0.0
 11
3124.754031717882
 21
828.2601980130685
 31
0.0
  0
POINT
  5
16C5
330
135F
100
AcDbEntity
  8
DEFPOINTS
  6
ByBlock
 62
     0
100
AcDbPoint
 10
2836.077667884117
 20
465.7601980130684
 30
0.0
  0
POINT
  5
16C6
330
135F
100
AcDbEntity
  8
DEFPOINTS
  6
ByBlock
 62
     0
100
AcDbPoint
 10
2836.077667884117
 20
465.7601980130684
 30
0.0
  0
POINT
  5
16C7
330
135F
100
AcDbEntity
  8
DEFPOINTS
  6
ByBlock
 62
     0
100
AcDbPoint
 10
2836.077667884117
 20
528.2601980130684
 30
0.0
  0
POINT
  5
16C8
330
135F
100
AcDbEntity
  8
DEFPOINTS
  6
ByBlock
 62
     0
100
AcDbPoint
 10
2836.077667884117
 20
528.2601980130684
 30
0.0
  0
POINT
  5
16C9
330
135F
100
AcDbEntity
  8
DEFPOINTS
  6
ByBlock
 62
     0
100
AcDbPoint
 10
2796.690220469823
 20
563.1918676961141
 30
0.0
  0
POINT
  5
16CA
330
135F
100
AcDbEntity
  8
DEFPOINTS
  6
ByBlock
 62
     0
 48
10.0
100
AcDbPoint
 10
2796.690220469823
 20
578.8545189485658
 30
0.0
  0
LINE
  5
16CB
330
135F
100
AcDbEntity
  8
中心線
100
AcDbLine
 10
2686.690220469824
 20
745.3225827558845
 30
0.0
 11
2686.690220469823
 21
645.203435195991
 31
0.0
  0
CIRCLE
  5
16CC
330
135F
100
AcDbEntity
  8
上線
100
AcDbCircle
 10
2686.690220469823
 20
703.2601980130684
 30
0.0
 40
8.0
  0
CIRCLE
  5
16CD
330
135F
100
AcDbEntity
  8
上線
100
AcDbCircle
 10
2686.690220469823
 20
703.2601980130684
 30
0.0
 40
10.0
  0
POINT
  5
16CE
330
135F
100
AcDbEntity
  8
DEFPOINTS
  6
ByBlock
 62
     0
100
AcDbPoint
 10
2757.190220469824
 20
745.3225827558845
 30
0.0
  0
POINT
  5
16CF
330
135F
100
AcDbEntity
  8
DEFPOINTS
  6
ByBlock
 62
     0
100
AcDbPoint
 10
2862.681244713188
 20
703.2601980130684
 30
0.0
  0
POINT
  5
16D0
330
135F
100
AcDbEntity
  8
DEFPOINTS
  6
ByBlock
 62
     0
100
AcDbPoint
 10
2856.431244713188
 20
703.2601980130684
 30
0.0
  0
POINT
  5
16D1
330
135F
100
AcDbEntity
  8
DEFPOINTS
  6
ByBlock
 62
     0
100
AcDbPoint
 10
2757.190220469824
 20
750.6918676961141
 30
0.0
  0
POINT
  5
16D2
330
135F
100
AcDbEntity
  8
DEFPOINTS
  6
ByBlock
 62
     0
100
AcDbPoint
 10
2686.690220469823
 20
852.0118742526937
 30
0.0
  0
POINT
  5
16D3
330
135F
100
AcDbEntity
  8
DEFPOINTS
  6
ByBlock
 62
     0
100
AcDbPoint
 10
2856.431244713188
 20
828.2601980130685
 30
0.0
  0
LINE
  5
16D4
330
135F
100
AcDbEntity
  8
0
  6
ByBlock
 62
     0
100
AcDbLine
 10
2992.318089606003
 20
678.2601980130684
 30
0.0
 11
2992.318089606003
 21
378.2601980130684
 31
0.0
  0
LINE
  5
16D5
330
135F
100
AcDbEntity
  8
0
  6
ByBlock
 62
     0
100
AcDbLine
 10
2992.318089606003
 20
440.7601980130684
 30
0.0
 11
2992.318089606003
 21
415.7601980130684
 31
0.0
  0
MTEXT
  5
16D6
330
135F
100
AcDbEntity
  8
0
  6
ByBlock
 62
     0
100
AcDbMText
 10
2973.568089606004
 20
528.2601980130684
 30
0.0
 40
25.0
 41
0.0
 71
     5
 72
     1
  1
\A1;350
 11
0.0000000000000001
 21
1.0
 31
0.0
 73
     1
 44
1.0
  0
POINT
  5
16D7
330
135F
100
AcDbEntity
  8
DEFPOINTS
  6
ByBlock
 62
     0
100
AcDbPoint
 10
2992.318089606003
 20
528.2601980130684
 30
0.0
  0
MTEXT
  5
16D8
330
135F
100
AcDbEntity
  8
0
  6
ByBlock
 62
     0
100
AcDbMText
 10
3093.504031717882
 20
528.2601980130684
 30
0.0
 40
25.0
 41
0.0
 71
     5
 72
     1
  1
\A1;600
 11
0.0000000000000001
 21
1.0
 31
0.0
 73
     1
 44
1.0
  0
MTEXT
  5
16D9
330
135F
100
AcDbEntity
  8
0
  6
ByBlock
 62
     0
100
AcDbMText
 10
2973.568089606004
 20
765.7601980130684
 30
0.0
 40
25.0
 41
0.0
 71
     5
 72
     1
  1
\A1;125
 11
0.0000000000000001
 21
1.0
 31
0.0
 73
     1
 44
1.0
  0
LINE
  5
16DA
330
135F
100
AcDbEntity
  8
0
  6
ByBlock
 62
     0
100
AcDbLine
 10
2992.318089606003
 20
803.2601980130685
 30
0.0
 11
2992.318089606003
 21
728.2601980130684
 31
0.0
  0
SOLID
  5
16DB
330
135F
100
AcDbEntity
  8
0
  6
ByBlock
 62
     0
100
AcDbTrace
 10
2988.151422939337
 20
678.2601980130684
 30
0.0
 11
2996.48475627267
 21
678.2601980130684
 31
0.0
 12
2992.318089606003
 22
703.2601980130684
 32
0.0
 13
2992.318089606003
 23
703.2601980130684
 33
0.0
  0
POINT
  5
16DC
330
135F
100
AcDbEntity
  8
DEFPOINTS
  6
ByBlock
 62
     0
100
AcDbPoint
 10
2992.318089606003
 20
703.2601980130684
 30
0.0
  0
SOLID
  5
16DD
330
135F
100
AcDbEntity
  8
0
  6
ByBlock
 62
     0
100
AcDbTrace
 10
2988.151422939337
 20
728.2601980130684
 30
0.0
 11
2996.48475627267
 21
728.2601980130684
 31
0.0
 12
2992.318089606003
 22
703.2601980130684
 32
0.0
 13
2992.318089606003
 23
703.2601980130684
 33
0.0
  0
SOLID
  5
16DE
330
135F
100
AcDbEntity
  8
0
  6
ByBlock
 62
     0
100
AcDbTrace
 10
2988.151422939337
 20
803.2601980130685
 30
0.0
 11
2996.48475627267
 21
803.2601980130685
 31
0.0
 12
2992.318089606003
 22
828.2601980130685
 32
0.0
 13
2992.318089606003
 23
828.2601980130685
 33
0.0
  0
LINE
  5
16DF
330
135F
100
AcDbEntity
  8
0
  6
ByBlock
 62
     0
100
AcDbLine
 10
2992.318089606003
 20
765.7601980130684
 30
0.0
 11
2992.318089606003
 21
828.2601980130685
 31
0.0
  0
SOLID
  5
16E0
330
135F
100
AcDbEntity
  8
0
  6
ByBlock
 62
     0
100
AcDbTrace
 10
3108.087365051216
 20
803.2601980130685
 30
0.0
 11
3116.420698384549
 21
803.2601980130685
 31
0.0
 12
3112.254031717883
 22
828.2601980130685
 32
0.0
 13
3112.254031717883
 23
828.2601980130685
 33
0.0
  0
POINT
  5
16E1
330
135F
100
AcDbEntity
  8
DEFPOINTS
  6
ByBlock
 62
     0
100
AcDbPoint
 10
2686.690220469823
 20
989.967119529806
 30
0.0
  0
SOLID
  5
16E2
330
135F
100
AcDbEntity
  8
0
  6
ByBlock
 62
     0
100
AcDbTrace
 10
2661.690220469823
 20
994.1337861964726
 30
0.0
 11
2661.690220469823
 21
985.8004528631393
 31
0.0
 12
2686.690220469823
 22
989.967119529806
 32
0.0
 13
2686.690220469823
 23
989.967119529806
 33
0.0
  0
MTEXT
  5
16E3
330
135F
100
AcDbEntity
  8
上線
 48
10.0
100
AcDbMText
 10
2482.720818221736
 20
1249.038180573309
 30
0.0
 40
25.0
 41
0.0
 71
     6
 72
     1
  1
D13
 73
     1
 44
1.0
  0
LINE
  5
16E4
330
135F
100
AcDbEntity
  8
上書線
100
AcDbLine
 10
2503.299559828719
 20
1228.010404511531
 30
0.0
 11
2420.544792343131
 21
1228.010404511531
 31
0.0
  0
MTEXT
  5
16E5
330
135F
100
AcDbEntity
  8
上線
 48
10.0
100
AcDbMText
 10
3023.209481214006
 20
1234.746464930737
 30
0.0
 40
40.0
 41
1003.0154
 71
     1
 72
     5
  1
￡
 73
     1
 44
1.0
  0
LINE
  5
16E6
330
135F
100
AcDbEntity
  8
上線
100
AcDbLine
 10
3382.945606655232
 20
391.899685833735
 30
0.0
 11
3382.945606655232
 21
217.5571145099311
 31
0.0
  0
LINE
  5
16E7
330
135F
100
AcDbEntity
  8
上線
100
AcDbLine
 10
4122.862412857903
 20
51.27467632734718
 30
0.0
 11
4122.862412857903
 21
391.899685833735
 31
0.0
  0
MTEXT
  5
16E8
330
135F
100
AcDbEntity
  8
上線
 48
10.0
100
AcDbMText
 10
3781.660612388097
 20
367.8505258679979
 30
0.0
 40
35.0
 41
1003.0154
 71
     1
 72
     5
  1
長尺U
 73
     1
 44
1.0
  0
MTEXT
  5
16E9
330
135F
100
AcDbEntity
  8
上線
 48
10.0
100
AcDbMText
 10
3711.160732384518
 20
189.3255125562745
 30
0.0
 40
30.0
 41
241.0562
 71
     1
 72
     5
  1
W=1634㎏
 73
     1
 44
1.0
  0
MTEXT
  5
16EA
330
135F
100
AcDbEntity
  8
上線
 48
10.0
100
AcDbMText
 10
3420.476267176649
 20
283.6945151339532
 30
0.0
 40
40.0
 41
1003.0154
 71
     1
 72
     5
  1
300×700×150/150×2000
 73
     1
 44
1.0
  0
MTEXT
  5
16EB
330
135F
100
AcDbEntity
  8
上線
 48
10.0
100
AcDbMText
 10
3444.559493233109
 20
118.7463300313857
 30
0.0
 40
40.0
 41
1003.0154
 71
     1
 72
     5
  1
\fＭＳ Ｐ明朝|b0|i0|c128|p18;㈱　ウ　チ　コ　ン
 73
     1
 44
1.0
  0
MTEXT
  5
16EC
330
135F
100
AcDbEntity
  8
上線
 48
10.0
100
AcDbMText
 10
3582.255262057018
 20
365.0123391973147
 30
0.0
 40
30.0
 41
1003.0154
 71
     1
 72
     5
  1
ダクタイル
 73
     1
 44
1.0
  0
MTEXT
  5
16ED
330
135F
100
AcDbEntity
  8
上線
 48
10.0
100
AcDbMText
 10
3463.149888373858
 20
197.9069028661297
 30
0.0
 40
30.0
 41
241.0562
 71
     1
 72
     5
  1
\fＭＳ Ｐ明朝|b0|i0|c128|p18;単位；㎜
 73
     1
 44
1.0
  0
LINE
  5
16EE
330
135F
100
AcDbEntity
  8
上線
 48
10.0
100
AcDbLine
 10
3421.367049268663
 20
217.5571145099311
 30
0.0
 11
3421.367049268663
 21
134.5368358716896
 31
0.0
  0
MTEXT
  5
16EF
330
135F
100
AcDbEntity
  8
上線
 48
10.0
100
AcDbMText
 10
3413.911653529007
 20
367.8505258679979
 30
0.0
 40
35.0
 41
1003.0154
 71
     1
 72
     5
  1
重耐用
 73
     1
 44
1.0
  0
LINE
  5
16F0
330
135F
100
AcDbEntity
  8
上線
 48
10.0
100
AcDbLine
 10
3665.625041808058
 20
217.5571145099311
 30
0.0
 11
3665.625041808058
 21
134.5368358716896
 31
0.0
  0
MTEXT
  5
16F1
330
135F
100
AcDbEntity
  8
上線
 48
10.0
100
AcDbMText
 10
3946.866363485436
 20
367.8505258679979
 30
0.0
 40
35.0
 41
1003.0154
 71
     1
 72
     5
  1
（T-25）
 73
     1
 44
1.0
  0
MTEXT
  5
16F2
330
135F
100
AcDbEntity
  8
上線
 48
10.0
100
AcDbMText
 10
3948.771050089004
 20
188.5968210676574
 30
0.0
 40
30.0
 41
241.0562
 71
     1
 72
     5
  1
S=38.5㎏
 73
     1
 44
1.0
  0
LINE
  5
16F3
330
135F
100
AcDbEntity
  8
上線
 48
10.0
100
AcDbLine
 10
3931.976720815682
 20
217.5571145099311
 30
0.0
 11
3931.976720815682
 21
134.5368358716896
 31
0.0
  0
LINE
  5
16F4
330
135F
100
AcDbEntity
  8
上線
 48
10.0
100
AcDbLine
 10
3051.871009828718
 20
1405.218426848239
 30
0.0
 11
4051.869008227036
 21
1405.218426848239
 31
0.0
  0
LINE
  5
16F5
330
135F
100
AcDbEntity
  8
点線
100
AcDbLine
 10
3051.871009828718
 20
1595.21842684824
 30
0.0
 11
4051.871009828719
 21
1595.21842684824
 31
0.0
  0
LINE
  5
16F6
330
135F
100
AcDbEntity
  8
点線
100
AcDbLine
 10
3051.871009828718
 20
1545.21842684824
 30
0.0
 11
4051.871009828719
 21
1545.21842684824
 31
0.0
  0
LINE
  5
16F7
330
135F
100
AcDbEntity
  8
点線
100
AcDbLine
 10
3051.871009828718
 20
2270.218426848239
 30
0.0
 11
4051.871009828719
 21
2270.218426848239
 31
0.0
  0
LINE
  5
16F8
330
135F
100
AcDbEntity
  8
上書線
100
AcDbLine
 10
3051.871009828719
 20
2345.218426848239
 30
0.0
 11
4051.869008227036
 21
2345.218426848239
 31
0.0
  0
LINE
  5
16F9
330
135F
100
AcDbEntity
  8
上書線
100
AcDbLine
 10
3051.871009828719
 20
2310.216117644899
 30
0.0
 11
4051.869008227036
 21
2310.21481046793
 31
0.0
  0
LINE
  5
16FA
330
135F
100
AcDbEntity
  8
上線
 48
10.0
100
AcDbLine
 10
2051.871009828719
 20
1395.218426848239
 30
0.0
 11
4051.869008227036
 21
1395.218426848239
 31
0.0
  0
LINE
  5
16FB
330
135F
100
AcDbEntity
  8
上線
 48
10.0
100
AcDbLine
 10
3207.348421894214
 20
2345.218426848239
 30
0.0
 11
4051.869008227036
 21
2345.218426848239
 31
0.0
  0
LINE
  5
16FC
330
135F
100
AcDbEntity
  8
0
  6
ByBlock
 62
     0
 48
10.0
100
AcDbLine
 10
2075.924551505692
 20
2701.109337298328
 30
0.0
 11
4051.139545842202
 21
2701.109337298328
 31
0.0
  0
LINE
  5
16FD
330
135F
100
AcDbEntity
  8
上線
 48
10.0
100
AcDbLine
 10
3224.203409654961
 20
2345.21842684824
 30
0.0
 11
4051.869008227036
 21
2345.21842684824
 31
0.0
  0
LINE
  5
16FE
330
135F
100
AcDbEntity
  8
上線
 48
10.0
100
AcDbLine
 10
2051.871009828719
 20
2345.218426848239
 30
0.0
 11
4051.869008227036
 21
2345.218426848239
 31
0.0
  0
LINE
  5
16FF
330
135F
100
AcDbEntity
  8
0
  6
ByBlock
 62
     0
100
AcDbLine
 10
2630.442409828706
 20
1632.646237183178
 30
0.0
 11
2391.156709828719
 21
1632.646237183178
 31
0.0
  0
LINE
  5
1700
330
135F
100
AcDbEntity
  8
0
  6
ByBlock
 62
     0
100
AcDbLine
 10
2655.442409828705
 20
1632.646237183178
 30
0.0
 11
1866.261814769794
 21
1632.646237183178
 31
0.0
  0
LINE
  5
1701
330
135F
100
AcDbEntity
  8
0
  6
ByBlock
 62
     0
100
AcDbLine
 10
2889.728109828718
 20
2182.718426848239
 30
0.0
 11
1866.261814769794
 21
2182.718426848239
 31
0.0
  0
LINE
  5
1702
330
135F
100
AcDbEntity
  8
上線
 48
10.0
100
AcDbLine
 10
2091.871009828719
 20
1520.218426848239
 30
0.0
 11
3051.871009828719
 21
1520.218426848239
 31
0.0
  0
LINE
  5
1703
330
135F
100
AcDbEntity
  8
上線
 48
10.0
100
AcDbLine
 10
2091.871009828719
 20
1785.218426848239
 30
0.0
 11
3051.871009828719
 21
1785.218426848239
 31
0.0
  0
LINE
  5
1704
330
135F
100
AcDbEntity
  8
上線
 48
10.0
100
AcDbLine
 10
2091.871009828718
 20
2050.218426848239
 30
0.0
 11
3051.871009828719
 21
2050.218426848239
 31
0.0
  0
LINE
  5
1705
330
135F
100
AcDbEntity
  8
上線
 48
10.0
100
AcDbLine
 10
2091.871009828719
 20
1420.218426848239
 30
0.0
 11
3051.871009828718
 21
1420.218426848239
 31
0.0
  0
LINE
  5
1706
330
135F
100
AcDbEntity
  8
上線
 48
10.0
100
AcDbLine
 10
2251.871009828719
 20
2315.218426848239
 30
0.0
 11
3051.871009828719
 21
2315.218426848239
 31
0.0
  0
LINE
  5
1707
330
135F
100
AcDbEntity
  8
上線
 48
10.0
100
AcDbLine
 10
2366.156709828718
 20
2315.218426848239
 30
0.0
 11
2366.156709828719
 21
1845.21842684824
 31
0.0
  0
LINE
  5
1708
330
135F
100
AcDbEntity
  8
上線
 48
10.0
100
AcDbLine
 10
2091.871009828718
 20
2315.218426848239
 30
0.0
 11
2091.871009828719
 21
1845.218426848239
 31
0.0
  0
LINE
  5
1709
330
135F
100
AcDbEntity
  8
上線
 48
10.0
100
AcDbLine
 10
2051.871009828719
 20
2345.218426848239
 30
0.0
 11
2051.871009828719
 21
1845.218426848239
 31
0.0
  0
LINE
  5
170A
330
135F
100
AcDbEntity
  8
上線
 48
10.0
100
AcDbLine
 10
2051.871009828719
 20
2345.218426848239
 30
0.0
 11
2051.871009828719
 21
1845.218426848239
 31
0.0
  0
MTEXT
  5
170B
330
135F
100
AcDbEntity
  8
上線
 48
10.0
100
AcDbMText
 10
1929.523263715472
 20
1653.421026620361
 30
0.0
 40
25.0
 41
0.0
 71
     6
 72
     1
  1
D13
 73
     1
 44
1.0
  0
POINT
  5
170C
330
135F
100
AcDbEntity
  8
DEFPOINTS
  6
ByBlock
 62
     0
100
AcDbPoint
 10
1781.87029543324
 20
1649.74790086898
 30
0.0
  0
POINT
  5
170D
330
135F
100
AcDbEntity
  8
DEFPOINTS
  6
ByBlock
 62
     0
100
AcDbPoint
 10
1781.87029543324
 20
1649.74790086898
 30
0.0
  0
LINE
  5
170E
330
135F
100
AcDbEntity
  8
点線
100
AcDbLine
 10
2106.871009828706
 20
1807.284177116892
 30
0.0
 11
2106.871009828706
 21
1420.218426848239
 31
0.0
  0
LINE
  5
170F
330
135F
100
AcDbEntity
  8
上線
100
AcDbLine
 10
2366.156709828719
 20
1845.218426848239
 30
0.0
 11
2366.156709828719
 21
1420.218426848239
 31
0.0
  0
LINE
  5
1710
330
135F
100
AcDbEntity
  8
上線
100
AcDbLine
 10
2091.871009828719
 20
1845.218426848239
 30
0.0
 11
2091.871009828719
 21
1420.218426848239
 31
0.0
  0
LINE
  5
1711
330
135F
100
AcDbEntity
  8
上線
100
AcDbLine
 10
2051.871009828719
 20
1845.218426848239
 30
0.0
 11
2051.871009828719
 21
1395.21842684824
 31
0.0
  0
LWPOLYLINE
  5
1712
330
135F
100
AcDbEntity
  8
上線
100
AcDbPolyline
 90
        2
 70
     1
 43
7.5
 10
2095.744527981214
 20
1512.185852704054
 42
1.0
 10
2103.244527981213
 20
1512.185852704054
 42
1.0
  0
SOLID
  5
1713
330
135F
100
AcDbEntity
  8
0
  6
ByBlock
 62
     0
100
AcDbTrace
 10
2082.063177726581
 20
1636.812903849845
 30
0.0
 11
2082.063177726581
 21
1628.479570516511
 31
0.0
 12
2107.063177726581
 22
1632.646237183178
 32
0.0
 13
2107.063177726581
 23
1632.646237183178
 33
0.0
  0
POINT
  5
1714
330
135F
100
AcDbEntity
  8
DEFPOINTS
  6
ByBlock
 62
     0
 48
10.0
100
AcDbPoint
 10
2061.844692557084
 20
1771.850843816895
 30
0.0
  0
SOLID
  5
1715
330
135F
100
AcDbEntity
  8
0
  6
ByBlock
 62
     0
100
AcDbTrace
 10
2341.585725139183
 20
1636.812903849845
 30
0.0
 11
2341.585725139183
 21
1628.479570516511
 31
0.0
 12
2366.585725139183
 22
1632.646237183178
 32
0.0
 13
2366.585725139183
 23
1632.646237183178
 33
0.0
  0
POINT
  5
1716
330
135F
100
AcDbEntity
  8
DEFPOINTS
  6
ByBlock
 62
     0
100
AcDbPoint
 10
2366.156709828719
 20
1632.646237183178
 30
0.0
  0
POINT
  5
1717
330
135F
100
AcDbEntity
  8
DEFPOINTS
  6
ByBlock
 62
     0
100
AcDbPoint
 10
2366.156709828719
 20
1632.646237183178
 30
0.0
  0
LINE
  5
1718
330
135F
100
AcDbEntity
  8
0
  6
ByBlock
 62
     0
100
AcDbLine
 10
2366.156709828719
 20
1638.896237183178
 30
0.0
 11
2366.156709828719
 21
1645.146237183178
 31
0.0
  0
POINT
  5
1719
330
135F
100
AcDbEntity
  8
DEFPOINTS
  6
ByBlock
 62
     0
 48
10.0
100
AcDbPoint
 10
2325.844692557084
 20
1771.850843816895
 30
0.0
  0
MTEXT
  5
171A
330
135F
100
AcDbEntity
  8
上線
 48
10.0
100
AcDbMText
 10
1929.523263715472
 20
2203.493216285422
 30
0.0
 40
25.0
 41
0.0
 71
     6
 72
     1
  1
D13
 73
     1
 44
1.0
  0
POINT
  5
171B
330
135F
100
AcDbEntity
  8
DEFPOINTS
  6
ByBlock
 62
     0
100
AcDbPoint
 10
1781.87029543324
 20
2182.718426848239
 30
0.0
  0
POINT
  5
171C
330
135F
100
AcDbEntity
  8
DEFPOINTS
  6
ByBlock
 62
     0
100
AcDbPoint
 10
1781.87029543324
 20
2182.718426848239
 30
0.0
  0
LINE
  5
171D
330
135F
100
AcDbEntity
  8
上線
 48
10.0
100
AcDbLine
 10
2091.871009828719
 20
2315.218426848239
 30
0.0
 11
2251.871009828719
 21
2315.218426848239
 31
0.0
  0
SOLID
  5
171E
330
135F
100
AcDbEntity
  8
0
  6
ByBlock
 62
     0
100
AcDbTrace
 10
2066.819420935646
 20
2186.885093514906
 30
0.0
 11
2066.819420935646
 21
2178.551760181573
 31
0.0
 12
2091.819420935645
 22
2182.718426848239
 32
0.0
 13
2091.819420935645
 23
2182.718426848239
 33
0.0
  0
SOLID
  5
171F
330
135F
100
AcDbEntity
  8
0
  6
ByBlock
 62
     0
100
AcDbTrace
 10
2340.993961039423
 20
2186.885093514906
 30
0.0
 11
2340.993961039423
 21
2178.551760181573
 31
0.0
 12
2365.993961039423
 22
2182.718426848239
 32
0.0
 13
2365.993961039423
 23
2182.718426848239
 33
0.0
  0
LINE
  5
1720
330
135F
100
AcDbEntity
  8
上線
 48
10.0
100
AcDbLine
 10
2914.728109828718
 20
2315.21842684824
 30
0.0
 11
2914.728109828719
 21
1845.21842684824
 31
0.0
  0
LINE
  5
1721
330
135F
100
AcDbEntity
  8
上線
 48
10.0
100
AcDbLine
 10
2640.442409828718
 20
2315.21842684824
 30
0.0
 11
2640.442409828719
 21
1845.21842684824
 31
0.0
  0
LINE
  5
1722
330
135F
100
AcDbEntity
  8
点線
100
AcDbLine
 10
2655.442409828706
 20
1807.284177116892
 30
0.0
 11
2655.442409828706
 21
1420.218426848239
 31
0.0
  0
LINE
  5
1723
330
135F
100
AcDbEntity
  8
上線
100
AcDbLine
 10
2640.442409828719
 20
1845.218426848239
 30
0.0
 11
2640.442409828719
 21
1420.218426848239
 31
0.0
  0
SOLID
  5
1724
330
135F
100
AcDbEntity
  8
0
  6
ByBlock
 62
     0
100
AcDbTrace
 10
2499.132893162052
 20
1495.218426848239
 30
0.0
 11
2507.466226495385
 21
1495.218426848239
 31
0.0
 12
2503.299559828719
 22
1520.218426848239
 32
0.0
 13
2503.299559828719
 23
1520.218426848239
 33
0.0
  0
LWPOLYLINE
  5
1725
330
135F
100
AcDbEntity
  8
上線
100
AcDbPolyline
 90
        2
 70
     1
 43
7.5
 10
2629.210751125139
 20
1512.66969777435
 42
1.0
 10
2636.710751125139
 20
1512.66969777435
 42
1.0
  0
SOLID
  5
1726
330
135F
100
AcDbEntity
  8
0
  6
ByBlock
 62
     0
100
AcDbTrace
 10
2630.442409828706
 20
1636.812903849845
 30
0.0
 11
2630.442409828706
 21
1628.479570516511
 31
0.0
 12
2655.442409828706
 22
1632.646237183178
 32
0.0
 13
2655.442409828706
 23
1632.646237183178
 33
0.0
  0
SOLID
  5
1727
330
135F
100
AcDbEntity
  8
0
  6
ByBlock
 62
     0
100
AcDbTrace
 10
2499.132893162052
 20
1760.218426848239
 30
0.0
 11
2507.466226495385
 21
1760.218426848239
 31
0.0
 12
2503.299559828719
 22
1785.218426848239
 32
0.0
 13
2503.299559828719
 23
1785.218426848239
 33
0.0
  0
POINT
  5
1728
330
135F
100
AcDbEntity
  8
DEFPOINTS
  6
ByBlock
 62
     0
100
AcDbPoint
 10
2655.442409828706
 20
1632.646237183178
 30
0.0
  0
LINE
  5
1729
330
135F
100
AcDbEntity
  8
0
  6
ByBlock
 62
     0
100
AcDbLine
 10
2655.442409828706
 20
1638.896237183178
 30
0.0
 11
2655.442409828706
 21
1645.146237183178
 31
0.0
  0
LINE
  5
172A
330
135F
100
AcDbEntity
  8
上線
100
AcDbLine
 10
2914.728109828719
 20
1845.218426848239
 30
0.0
 11
2914.728109828719
 21
1420.218426848239
 31
0.0
  0
LWPOLYLINE
  5
172B
330
135F
100
AcDbEntity
  8
上線
100
AcDbPolyline
 90
        2
 70
     1
 43
7.5
 10
3047.621709226756
 20
1512.735065377023
 42
1.0
 10
3055.121709226757
 20
1512.735065377023
 42
1.0
  0
SOLID
  5
172C
330
135F
100
AcDbEntity
  8
0
  6
ByBlock
 62
     0
100
AcDbTrace
 10
2499.132893162052
 20
2025.21842684824
 30
0.0
 11
2507.466226495385
 21
2025.21842684824
 31
0.0
 12
2503.299559828719
 22
2050.218426848239
 32
0.0
 13
2503.299559828719
 23
2050.218426848239
 33
0.0
  0
SOLID
  5
172D
330
135F
100
AcDbEntity
  8
0
  6
ByBlock
 62
     0
100
AcDbTrace
 10
2616.92019983272
 20
2186.885093514906
 30
0.0
 11
2616.92019983272
 21
2178.551760181573
 31
0.0
 12
2641.92019983272
 22
2182.718426848239
 32
0.0
 13
2641.92019983272
 23
2182.718426848239
 33
0.0
  0
SOLID
  5
172E
330
135F
100
AcDbEntity
  8
0
  6
ByBlock
 62
     0
100
AcDbTrace
 10
2499.132893162052
 20
2290.218426848239
 30
0.0
 11
2507.466226495385
 21
2290.218426848239
 31
0.0
 12
2503.299559828719
 22
2315.218426848239
 32
0.0
 13
2503.299559828719
 23
2315.218426848239
 33
0.0
  0
POINT
  5
172F
330
135F
100
AcDbEntity
  8
DEFPOINTS
  6
ByBlock
 62
     0
100
AcDbPoint
 10
2509.013859828719
 20
2315.218426848239
 30
0.0
  0
LINE
  5
1730
330
135F
100
AcDbEntity
  8
0
  6
ByBlock
 62
     0
100
AcDbLine
 10
2502.763859828719
 20
2315.218426848239
 30
0.0
 11
2490.799559828719
 21
2315.218426848239
 31
0.0
  0
POINT
  5
1731
330
135F
100
AcDbEntity
  8
DEFPOINTS
  6
ByBlock
 62
     0
100
AcDbPoint
 10
2914.728109828718
 20
2182.718426848239
 30
0.0
  0
SOLID
  5
1732
330
135F
100
AcDbEntity
  8
0
  6
ByBlock
 62
     0
100
AcDbTrace
 10
2889.728109828718
 20
2186.885093514906
 30
0.0
 11
2889.728109828718
 21
2178.551760181573
 31
0.0
 12
2914.728109828718
 22
2182.718426848239
 32
0.0
 13
2914.728109828718
 23
2182.718426848239
 33
0.0
  0
LINE
  5
1733
330
135F
100
AcDbEntity
  8
0
  6
ByBlock
 62
     0
100
AcDbLine
 10
2914.728109828718
 20
2188.968426848239
 30
0.0
 11
2914.728109828718
 21
2195.218426848239
 31
0.0
  0
LINE
  5
1734
330
135F
100
AcDbEntity
  8
0
  6
ByBlock
 62
     0
100
AcDbLine
 10
2116.871009828718
 20
2613.446674411232
 30
0.0
 11
3051.871009828718
 21
2613.446674411232
 31
0.0
  0
LWPOLYLINE
  5
1735
330
135F
100
AcDbEntity
  8
上線
100
AcDbPolyline
 90
        4
 70
     1
 43
0.0
 10
1621.575540684943
 20
2703.680937600548
 10
1824.852476853968
 20
2703.680937600548
 10
1824.852476853968
 20
2797.385320346553
 10
1621.575540684943
 20
2797.385320346553
  0
LWPOLYLINE
  5
1736
330
135F
100
AcDbEntity
  8
上線
100
AcDbPolyline
 90
        4
 70
     1
 43
0.0
 10
1618.575540684943
 20
2700.680937600548
 10
1827.852476853968
 20
2700.680937600548
 10
1827.852476853968
 20
2800.385320346554
 10
1618.575540684943
 20
2800.385320346554
  0
MTEXT
  5
1737
330
135F
100
AcDbEntity
  8
上線
 48
10.0
100
AcDbMText
 10
1642.630410110021
 20
2771.363220597589
 30
0.0
 40
40.0
 41
558.2059
 71
     1
 72
     5
  1
\fＭＳ Ｐ明朝|b0|i0|c128|p18;側面図
 73
     1
 44
1.0
  0
LINE
  5
1738
330
135F
100
AcDbEntity
  8
0
  6
ByBlock
 62
     0
100
AcDbLine
 10
2091.871009828718
 20
2428.237245808088
 30
0.0
 11
2091.871009828718
 21
2625.946674411232
 31
0.0
  0
DIMENSION
  5
1739
330
135F
100
AcDbEntity
  8
上書線
100
AcDbDimension
  2
*D9
 10
2051.871009828719
 20
2613.447981591145
 30
0.0
 11
1979.188425559056
 21
2632.197981591145
 31
0.0
 12
-0.4650016582199897
 22
-90.05311885098308
 32
0.0
 71
     5
 42
-1.0
  3
STANDARD
100
AcDbAlignedDimension
 13
2091.871009828718
 23
2421.987245808088
 33
0.0
 14
2051.871009828719
 24
2421.987245808088
 34
0.0
100
AcDbRotatedDimension
1001
ACAD
1000
DSTYLE
1002
{
1070
    40
1040
10.0
1070
    41
1040
2.5
1070
    42
1040
0.625
1070
    43
1040
3.75
1070
    44
1040
1.25
1070
    73
1070
     0
1070
    74
1070
     0
1070
    77
1070
     1
1070
    78
1070
     8
1070
   140
1040
2.5
1070
   141
1040
2.5
1070
   143
1040
0.0394
1070
   147
1040
0.625
1070
   171
1070
     4
1070
   172
1070
     1
1070
   273
1070
     8
1070
   274
1070
     4
1070
   277
1070
     6
1002
}
  0
LINE
  5
173A
330
135F
100
AcDbEntity
  8
0
  6
ByBlock
 62
     0
 48
10.0
100
AcDbLine
 10
2051.871009828719
 20
2534.978116083536
 30
0.0
 11
2051.871009828719
 21
2626.479807110175
 31
0.0
  0
LINE
  5
173B
330
135F
100
AcDbEntity
  8
0
  6
ByBlock
 62
     0
 48
10.0
100
AcDbLine
 10
2051.871009828719
 20
2421.987245808088
 30
0.0
 11
2051.871009828719
 21
2714.555794074867
 31
0.0
  0
POINT
  5
173C
330
135F
100
AcDbEntity
  8
DEFPOINTS
  6
ByBlock
 62
     0
 48
10.0
100
AcDbPoint
 10
2051.871009828719
 20
2389.947202696887
 30
0.0
  0
POINT
  5
173D
330
135F
100
AcDbEntity
  8
DEFPOINTS
  6
ByBlock
 62
     0
100
AcDbPoint
 10
2091.871009828718
 20
2421.987245808088
 30
0.0
  0
POINT
  5
173E
330
135F
100
AcDbEntity
  8
DEFPOINTS
  6
ByBlock
 62
     0
 48
10.0
100
AcDbPoint
 10
2051.871009828719
 20
2528.728116083536
 30
0.0
  0
SOLID
  5
173F
330
135F
100
AcDbEntity
  8
0
  6
ByBlock
 62
     0
100
AcDbTrace
 10
2116.871009828718
 20
2617.613341077898
 30
0.0
 11
2116.871009828718
 21
2609.280007744565
 31
0.0
 12
2091.871009828718
 22
2613.446674411232
 32
0.0
 13
2091.871009828718
 23
2613.446674411232
 33
0.0
  0
SOLID
  5
1740
330
135F
100
AcDbEntity
  8
0
  6
ByBlock
 62
     0
 48
10.0
100
AcDbTrace
 10
2075.924551505692
 20
2705.276003964994
 30
0.0
 11
2075.924551505692
 21
2696.942670631661
 31
0.0
 12
2050.924551505692
 22
2701.109337298328
 32
0.0
 13
2050.924551505692
 23
2701.109337298328
 33
0.0
  0
MTEXT
  5
1741
330
135F
100
AcDbEntity
  8
0
  6
ByBlock
 62
     0
100
AcDbMText
 10
2571.871009828719
 20
2632.196674411232
 30
0.0
 40
25.0
 41
0.0
 71
     5
 72
     1
  1
7@274\U+22521920
 73
     1
 44
1.0
  0
POINT
  5
1742
330
135F
100
AcDbEntity
  8
DEFPOINTS
  6
ByBlock
 62
     0
100
AcDbPoint
 10
3051.871009828719
 20
2421.987245808088
 30
0.0
  0
MTEXT
  5
1743
330
135F
100
AcDbEntity
  8
0
  6
ByBlock
 62
     0
 48
10.0
100
AcDbMText
 10
3047.447523142309
 20
2720.805794074866
 30
0.0
 40
25.0
 41
0.0
 71
     5
 72
     1
  1
\A1;2000
 73
     1
 44
1.0
  0
POINT
  5
1744
330
135F
100
AcDbEntity
  8
DEFPOINTS
  6
ByBlock
 62
     0
100
AcDbPoint
 10
3051.871009828719
 20
2613.446674411232
 30
0.0
  0
LINE
  5
1745
330
135F
100
AcDbEntity
  8
上線
 48
10.0
100
AcDbLine
 10
4051.871009828719
 20
2345.218426848239
 30
0.0
 11
4051.871009828719
 21
1845.218426848239
 31
0.0
  0
LINE
  5
1746
330
135F
100
AcDbEntity
  8
上線
 48
10.0
100
AcDbLine
 10
4051.869008227036
 20
2345.218426848239
 30
0.0
 11
4051.869008227036
 21
1845.218426848239
 31
0.0
  0
LINE
  5
1747
330
135F
100
AcDbEntity
  8
上線
 48
10.0
100
AcDbLine
 10
4051.869008227036
 20
2345.218426848239
 30
0.0
 11
4051.869008227036
 21
1845.218426848239
 31
0.0
  0
POINT
  5
1748
330
135F
100
AcDbEntity
  8
DEFPOINTS
  6
ByBlock
 62
     0
 48
10.0
100
AcDbPoint
 10
3653.512008227036
 20
1845.218426848239
 30
0.0
  0
LINE
  5
1749
330
135F
100
AcDbEntity
  8
上線
100
AcDbLine
 10
4051.871009828719
 20
1845.218426848239
 30
0.0
 11
4051.871009828719
 21
1395.21842684824
 31
0.0
  0
POINT
  5
174A
330
135F
100
AcDbEntity
  8
DEFPOINTS
  6
ByBlock
 62
     0
 48
10.0
100
AcDbPoint
 10
3993.485708227036
 20
1845.218440109213
 30
0.0
  0
LINE
  5
174B
330
135F
100
AcDbEntity
  8
0
  6
ByBlock
 62
     0
 48
10.0
100
AcDbLine
 10
4052.086004165228
 20
2421.987245808088
 30
0.0
 11
4052.086004165228
 21
2714.152891699503
 31
0.0
  0
POINT
  5
174C
330
135F
100
AcDbEntity
  8
DEFPOINTS
  6
ByBlock
 62
     0
 48
10.0
100
AcDbPoint
 10
4046.318207105524
 20
2389.947202696887
 30
0.0
  0
SOLID
  5
174D
330
135F
100
AcDbEntity
  8
0
  6
ByBlock
 62
     0
 48
10.0
100
AcDbTrace
 10
4027.086004165228
 20
2705.302191395801
 30
0.0
 11
4027.086004165228
 21
2696.968858062468
 31
0.0
 12
4052.086004165228
 22
2701.135524729135
 32
0.0
 13
4052.086004165228
 23
2701.135524729135
 33
0.0
  0
POINT
  5
174E
330
135F
100
AcDbEntity
  8
DEFPOINTS
  6
ByBlock
 62
     0
 48
10.0
100
AcDbPoint
 10
4036.508903043715
 20
2701.652891699504
 30
0.0
  0
ENDBLK
  5
1750
330
135F
100
AcDbEntity
  8
0
100
AcDbBlockEnd
  0
BLOCK
  5
2D44
330
2D41
100
AcDbEntity
  8
0
100
AcDbBlockBegin
  2
A$C169F75C1
 70
     0
 10
0.0
 20
0.0
 30
0.0
  3
A$C169F75C1
  1

  0
LEADER
  5
2D42
330
2D41
100
AcDbEntity
  8
上線
100
AcDbLeader
  3
STANDARD
 73
     0
 74
     0
 75
     1
 40
45.29494382022472
 41
236.5870786516854
 76
     3
 10
0.0000148365797941
 20
145.3633427067238
 30
0.0
 10
136.1933925296616
 20
0.0000054973349961
 30
0.0
 10
173.6933925296616
 20
0.0000054973349961
 30
0.0
340
2D43
213
34.81390449438208
223
0.0
233
0.0
1001
ACAD
1000
DSTYLE
1002
{
1070
    78
1070
     8
1070
   270
1070
     8
1070
   140
1040
2.5
1070
    74
1070
     0
1070
   172
1070
     1
1070
    73
1070
     0
1070
    77
1070
     1
1070
    40
1040
15.0
1070
   147
1040
0.625
1070
    42
1040
0.625
1070
    44
1040
1.25
1070
    43
1040
3.75
1070
   141
1040
2.5
1070
    41
1040
2.5
1070
   273
1070
     8
1070
   274
1070
     4
1070
   143
1040
0.0394
1070
   171
1070
     4
1002
}
  0
MTEXT
  5
2D43
102
{ACAD_REACTORS
330
2D42
102
}
330
2D41
100
AcDbEntity
  8
上線
100
AcDbMText
 10
148.2544880352797
 20
32.02247740744724
 30
0.0
 40
37.5
 41
0.0
 71
     4
 72
     1
  1
Ｚアングル 
 73
     1
 44
1.0
  0
ENDBLK
  5
2D45
330
2D41
100
AcDbEntity
  8
0
100
AcDbBlockEnd
  0
ENDSEC
  0
SECTION
  2
ENTITIES
  0
LWPOLYLINE
  5
ED
330
18
100
AcDbEntity
  8
基準線
100
AcDbPolyline
 90
        4
 70
     1
 43
0.0
 10
91.09669124359426
 20
15.17912432367302
 10
4197.297921059774
 20
15.17912432367302
 10
4197.297921059774
 20
2840.961357661346
 10
91.09669124359426
 20
2840.961357661346
  0
MTEXT
  5
479
330
18
100
AcDbEntity
  8
上線
 48
10.0
100
AcDbMText
 10
2253.72144281457
 20
1430.035937614872
 30
0.0
 40
25.0
 41
0.0
 71
     4
 72
     1
  1
\A1;
 73
     1
 44
1.0
  0
MTEXT
  5
482
330
18
100
AcDbEntity
  8
上線
 48
10.0
100
AcDbMText
 10
2528.397580071227
 20
1457.117940756564
 30
0.0
 40
25.0
 41
0.0
 71
     4
 72
     1
  1
\A1;
 73
     1
 44
1.0
  0
LINE
  5
12CC
330
18
100
AcDbEntity
  8
基準線
100
AcDbLine
 10
714.3537244631861
 20
2075.914176170602
 30
0.0
 11
714.3537244631861
 21
1740.914176170601
 31
0.0
  0
LINE
  5
12CF
330
18
100
AcDbEntity
  8
基準線
100
AcDbLine
 10
954.3402083576529
 20
2075.914176170602
 30
0.0
 11
1016.538943352661
 21
2075.914176170602
 31
0.0
  0
LINE
  5
1CCB
330
18
100
AcDbEntity
  8
基準線
100
AcDbLine
 10
1442.707131760271
 20
2140.914176170601
 30
0.0
 11
1442.707131760271
 21
1305.056340627688
 31
0.0
  0
LINE
  5
1CCC
330
18
100
AcDbEntity
  8
基準線
100
AcDbLine
 10
1303.117661917484
 20
2140.914212095256
 30
0.0
 11
2193.079573856564
 21
2140.914212095256
 31
0.0
  0
LINE
  5
1CDB
330
18
100
AcDbEntity
  8
基準線
100
AcDbLine
 10
803.1176752448773
 20
2140.914176170602
 30
0.0
 11
803.1176752448773
 21
1599.12242112997
 31
0.0
  0
LINE
  5
1CE0
330
18
100
AcDbEntity
  8
基準線
100
AcDbLine
 10
853.1176752448773
 20
2140.914176170602
 30
0.0
 11
853.1176752448773
 21
1599.12242112997
 31
0.0
  0
LINE
  5
1CE6
330
18
100
AcDbEntity
  8
基準線
100
AcDbLine
 10
823.1176752448773
 20
1903.178245605719
 30
0.0
 11
823.1176752448774
 21
1853.178245605718
 31
0.0
  0
LINE
  5
1CE7
330
18
100
AcDbEntity
  8
基準線
100
AcDbLine
 10
828.1176752448773
 20
1878.178245605718
 30
0.0
 11
842.7164217027275
 21
1878.178245605718
 31
0.0
  0
LINE
  5
1D02
330
18
100
AcDbEntity
  8
基準線
100
AcDbLine
 10
2109.648248636538
 20
1880.914176170601
 30
0.0
 11
1961.913332064669
 21
1880.914176170601
 31
0.0
  0
LINE
  5
1DA3
330
18
100
AcDbEntity
  8
基準線
100
AcDbLine
 10
1402.701297860047
 20
1590.554538260094
 30
0.0
 11
3153.200250464589
 21
1590.554538260094
 31
0.0
  0
LINE
  5
1DA4
330
18
100
AcDbEntity
  8
基準線
100
AcDbLine
 10
1502.701297860046
 20
1470.562670527688
 30
0.0
 11
2979.648248636539
 21
1470.562670527688
 31
0.0
  0
LINE
  5
1E10
330
18
100
AcDbEntity
  8
基準線
100
AcDbLine
 10
2109.648248636538
 20
1650.914176170601
 30
0.0
 11
2358.219648636538
 21
1650.914176170601
 31
0.0
  0
LINE
  5
1E2D
330
18
100
AcDbEntity
  8
基準線
100
AcDbLine
 10
719.6354539687417
 20
554.7868908134037
 30
0.0
 11
352.8820727488528
 21
554.7868908134037
 31
0.0
  0
LINE
  5
1E2E
330
18
100
AcDbEntity
  8
基準線
100
AcDbLine
 10
719.6354221280435
 20
554.7868853178195
 30
0.0
 11
264.9192248460876
 21
554.7868853178195
 31
0.0
  0
LINE
  5
1E6A
330
18
100
AcDbEntity
  8
基準線
100
AcDbLine
 10
769.4854311335257
 20
691.086885367474
 30
0.0
 11
1213.485431133525
 21
691.086885367474
 31
0.0
  0
LINE
  5
1EF2
330
18
100
AcDbEntity
  8
基準線
100
AcDbLine
 10
769.4854311335259
 20
418.4868852681651
 30
0.0
 11
1213.485431133526
 21
418.4868852681661
 31
0.0
  0
LINE
  5
1FB2
330
18
100
AcDbEntity
  8
基準線
100
AcDbLine
 10
1669.285431133526
 20
691.0868853674751
 30
0.0
 11
1225.285431133526
 21
691.086885367474
 31
0.0
  0
LINE
  5
1FB6
330
18
100
AcDbEntity
  8
基準線
100
AcDbLine
 10
1672.285431133526
 20
418.4868852681661
 30
0.0
 11
1228.285431133526
 21
418.4868852681661
 31
0.0
  0
LINE
  5
201E
330
18
100
AcDbEntity
  8
基準線
100
AcDbLine
 10
1979.648248636538
 20
1620.914176170601
 30
0.0
 11
1979.648248636538
 21
2177.221020221435
 31
0.0
  0
LINE
  5
201F
330
18
100
AcDbEntity
  8
基準線
100
AcDbLine
 10
2029.648248636538
 20
1620.914176170601
 30
0.0
 11
2029.648248636538
 21
2177.221020221435
 31
0.0
  0
LINE
  5
2020
330
18
100
AcDbEntity
  8
基準線
100
AcDbLine
 10
3979.648248636538
 20
2140.914176170601
 30
0.0
 11
3979.648248636538
 21
1431.386819036697
 31
0.0
  0
LINE
  5
2021
330
18
100
AcDbEntity
  8
基準線
100
AcDbLine
 10
3929.648248636538
 20
2140.914176170601
 30
0.0
 11
3929.648248636538
 21
1431.386819036697
 31
0.0
  0
LINE
  5
2022
330
18
100
AcDbEntity
  8
基準線
100
AcDbLine
 10
842.7164217027275
 20
1878.178245605718
 30
0.0
 11
4141.561784353442
 21
1878.178245605718
 31
0.0
  0
LINE
  5
43F5
330
18
100
AcDbEntity
  8
OBJECT
 48
20.0
100
AcDbLine
 10
14896.96490945726
 20
1152.404587055401
 30
0.0
 11
14926.96490945726
 21
1122.4045870554
 31
0.0
  0
LINE
  5
43F6
330
18
100
AcDbEntity
  8
OBJECT
 48
20.0
100
AcDbLine
 10
14926.96490945726
 20
1122.4045870554
 30
0.0
 11
14856.96490945726
 21
1122.4045870554
 31
0.0
  0
LINE
  5
43F7
330
18
100
AcDbEntity
  8
OBJECT
 48
20.0
100
AcDbLine
 10
14856.96490945726
 20
1222.4045870554
 30
0.0
 11
14926.96490945726
 21
1222.4045870554
 31
0.0
  0
LINE
  5
43F8
330
18
100
AcDbEntity
  8
OBJECT
 48
20.0
100
AcDbLine
 10
14926.96490945726
 20
1222.4045870554
 30
0.0
 11
14896.96490945726
 21
1192.4045870554
 31
0.0
  0
LINE
  5
43FD
330
18
100
AcDbEntity
  8
OBJECT
 48
20.0
100
AcDbLine
 10
14926.96490945726
 20
1222.4045870554
 30
0.0
 11
14926.96490945726
 21
1122.4045870554
 31
0.0
  0
LINE
  5
4406
330
18
100
AcDbEntity
  8
OBJECT
 48
20.0
100
AcDbLine
 10
14896.96490945726
 20
1192.4045870554
 30
0.0
 11
14896.96490945726
 21
1152.404587055401
 31
0.0
  0
LINE
  5
4407
330
18
100
AcDbEntity
  8
OBJECT
 48
20.0
100
AcDbLine
 10
14856.96490945726
 20
1232.4045870554
 30
0.0
 11
14856.96490945726
 21
1112.404587055401
 31
0.0
  0
LINE
  5
4408
330
18
100
AcDbEntity
  8
OBJECT
 48
20.0
100
AcDbLine
 10
14896.96490945726
 20
1152.404587055401
 30
0.0
 11
14856.96490945726
 21
1152.404587055401
 31
0.0
  0
LINE
  5
4409
330
18
100
AcDbEntity
  8
OBJECT
 48
20.0
100
AcDbLine
 10
14856.96490945726
 20
1112.404587055401
 30
0.0
 11
14851.96490945726
 21
1112.4045870554
 31
0.0
  0
LINE
  5
440A
330
18
100
AcDbEntity
  8
OBJECT
 48
20.0
100
AcDbLine
 10
14856.96490945726
 20
1192.4045870554
 30
0.0
 11
14896.96490945726
 21
1192.4045870554
 31
0.0
  0
LINE
  5
440B
330
18
100
AcDbEntity
  8
OBJECT
 48
20.0
100
AcDbLine
 10
14851.96490945726
 20
1232.4045870554
 30
0.0
 11
14856.96490945726
 21
1232.4045870554
 31
0.0
  0
LINE
  5
4729
330
18
100
AcDbEntity
  8
点線
100
AcDbLine
 10
14851.96490945726
 20
971.4324678558176
 30
0.0
 11
15851.96490945726
 21
971.4324678558176
 31
0.0
  0
LINE
  5
472A
330
18
100
AcDbEntity
  8
OBJECT
100
AcDbLine
 10
14851.96490945726
 20
871.4324678558178
 30
0.0
 11
14851.96490945726
 21
1441.432467855817
 31
0.0
  0
LINE
  5
472B
330
18
100
AcDbEntity
  8
OBJECT
100
AcDbLine
 10
14851.96490945726
 20
1441.432467855817
 30
0.0
 11
15851.96490945726
 21
1441.432467855817
 31
0.0
  0
LINE
  5
472C
330
18
100
AcDbEntity
  8
OBJECT
100
AcDbLine
 10
15851.96490945726
 20
1441.432467855817
 30
0.0
 11
15851.96490945726
 21
871.4324678558178
 31
0.0
  0
LINE
  5
472D
330
18
100
AcDbEntity
  8
OBJECT
100
AcDbLine
 10
15851.96490945726
 20
871.4324678558178
 30
0.0
 11
14851.96490945726
 21
871.4324678558178
 31
0.0
  0
LINE
  5
4735
330
18
100
AcDbEntity
  8
OBJECT
100
AcDbLine
 10
15851.96491846518
 20
1431.432467855817
 30
0.0
 11
14851.96491846518
 21
1431.432467855817
 31
0.0
  0
LINE
  5
473C
330
18
100
AcDbEntity
  8
OBJECT
100
AcDbLine
 10
15851.96491846518
 20
881.4324678558177
 30
0.0
 11
14851.96491846518
 21
881.4324678558177
 31
0.0
  0
LINE
  5
473D
330
18
100
AcDbEntity
  8
点線
100
AcDbLine
 10
14851.96490945726
 20
1371.432467855845
 30
0.0
 11
15851.96490945726
 21
1371.432467855817
 31
0.0
  0
LINE
  5
4771
330
18
100
AcDbEntity
  8
点線
100
AcDbLine
 10
14856.96490945726
 20
1411.432467855817
 30
0.0
 11
14896.96490945726
 21
1411.432467855817
 31
0.0
  0
LINE
  5
4772
330
18
100
AcDbEntity
  8
点線
100
AcDbLine
 10
14896.96490945726
 20
1411.432467855817
 30
0.0
 11
14926.96490945726
 21
1441.432467855817
 31
0.0
  0
LINE
  5
4776
330
18
100
AcDbEntity
  8
点線
100
AcDbLine
 10
14856.96490945726
 20
1406.432467855817
 30
0.0
 11
14856.96490945726
 21
1441.432467855817
 31
0.0
  0
LINE
  5
4777
330
18
100
AcDbEntity
  8
点線
100
AcDbLine
 10
14856.96490945726
 20
1406.432467855817
 30
0.0
 11
14851.96490945726
 21
1406.432467855817
 31
0.0
  0
LINE
  5
4787
330
18
100
AcDbEntity
  8
点線
100
AcDbLine
 10
15806.96490945726
 20
1411.432467855817
 30
0.0
 11
15776.96490945726
 21
1441.432467855817
 31
0.0
  0
LINE
  5
4788
330
18
100
AcDbEntity
  8
点線
100
AcDbLine
 10
15846.96490945726
 20
1406.432467855817
 30
0.0
 11
15846.96490945726
 21
1441.432467855817
 31
0.0
  0
LINE
  5
4789
330
18
100
AcDbEntity
  8
点線
100
AcDbLine
 10
15846.96490945726
 20
1406.432467855817
 30
0.0
 11
15851.96490945726
 21
1406.432467855817
 31
0.0
  0
LINE
  5
478A
330
18
100
AcDbEntity
  8
点線
100
AcDbLine
 10
15846.96490945726
 20
1411.432467855817
 30
0.0
 11
15806.96490945726
 21
1411.432467855817
 31
0.0
  0
LINE
  5
480E
330
18
100
AcDbEntity
  8
OBJECT
 48
20.0
100
AcDbLine
 10
15846.96490945726
 20
1232.4045870554
 30
0.0
 11
15846.96490945726
 21
1112.404587055401
 31
0.0
  0
LINE
  5
480F
330
18
100
AcDbEntity
  8
OBJECT
 48
20.0
100
AcDbLine
 10
15776.96490945726
 20
1222.4045870554
 30
0.0
 11
15806.96490945726
 21
1192.4045870554
 31
0.0
  0
LINE
  5
4810
330
18
100
AcDbEntity
  8
OBJECT
 48
20.0
100
AcDbLine
 10
15806.96490945726
 20
1152.404587055401
 30
0.0
 11
15776.96490945726
 21
1122.4045870554
 31
0.0
  0
LINE
  5
4811
330
18
100
AcDbEntity
  8
OBJECT
 48
20.0
100
AcDbLine
 10
15776.96490945726
 20
1122.4045870554
 30
0.0
 11
15846.96490945726
 21
1122.4045870554
 31
0.0
  0
LINE
  5
4812
330
18
100
AcDbEntity
  8
OBJECT
 48
20.0
100
AcDbLine
 10
15846.96490945726
 20
1222.4045870554
 30
0.0
 11
15776.96490945726
 21
1222.4045870554
 31
0.0
  0
LINE
  5
4813
330
18
100
AcDbEntity
  8
OBJECT
 48
20.0
100
AcDbLine
 10
15806.96490945726
 20
1192.4045870554
 30
0.0
 11
15806.96490945726
 21
1152.404587055401
 31
0.0
  0
LINE
  5
4814
330
18
100
AcDbEntity
  8
OBJECT
 48
20.0
100
AcDbLine
 10
15846.96490945726
 20
1192.4045870554
 30
0.0
 11
15806.96490945726
 21
1192.4045870554
 31
0.0
  0
LINE
  5
4815
330
18
100
AcDbEntity
  8
OBJECT
 48
20.0
100
AcDbLine
 10
15806.96490945726
 20
1152.404587055401
 30
0.0
 11
15846.96490945726
 21
1152.404587055401
 31
0.0
  0
LINE
  5
4816
330
18
100
AcDbEntity
  8
OBJECT
 48
20.0
100
AcDbLine
 10
15846.96490945726
 20
1112.404587055401
 30
0.0
 11
15851.96490945726
 21
1112.4045870554
 31
0.0
  0
LINE
  5
4817
330
18
100
AcDbEntity
  8
OBJECT
 48
20.0
100
AcDbLine
 10
15776.96490945726
 20
1222.4045870554
 30
0.0
 11
15776.96490945726
 21
1122.4045870554
 31
0.0
  0
LINE
  5
4818
330
18
100
AcDbEntity
  8
OBJECT
 48
20.0
100
AcDbLine
 10
15851.96490945726
 20
1232.4045870554
 30
0.0
 11
15846.96490945726
 21
1232.4045870554
 31
0.0
  0
LINE
  5
4BFA
330
18
100
AcDbEntity
  8
OBJECT
100
AcDbLine
 10
14088.14820874688
 20
1232.4045870554
 30
0.0
 11
14088.14820874688
 21
1112.404587055401
 31
0.0
  0
LINE
  5
4BFB
330
18
100
AcDbEntity
  8
OBJECT
100
AcDbLine
 10
14458.14820874688
 20
1232.4045870554
 30
0.0
 11
14458.14820874688
 21
1112.404587055401
 31
0.0
  0
LINE
  5
4BFC
330
18
100
AcDbEntity
  8
点線
100
AcDbLine
 10
14083.14820874688
 20
1151.432467855817
 30
0.0
 11
14083.14820874688
 21
1191.432467855817
 31
0.0
  0
LINE
  5
4BFD
330
18
100
AcDbEntity
  8
点線
100
AcDbLine
 10
14463.14820874689
 20
1151.432467855817
 30
0.0
 11
14463.14820874689
 21
1191.432467855817
 31
0.0
  0
LINE
  5
4BFE
330
18
100
AcDbEntity
  8
OBJECT
100
AcDbLine
 10
14053.14820874688
 20
1431.432467855817
 30
0.0
 11
14053.14820874688
 21
881.4324678558177
 31
0.0
  0
LINE
  5
4C00
330
18
100
AcDbEntity
  8
OBJECT
100
AcDbLine
 10
14453.14820874688
 20
1321.432467855818
 30
0.0
 11
14453.14820874688
 21
1021.432467855817
 31
0.0
  0
LINE
  5
4C01
330
18
100
AcDbEntity
  8
OBJECT
100
AcDbLine
 10
14438.14820874688
 20
1321.432467855817
 30
0.0
 11
14438.14820874688
 21
1021.432467855817
 31
0.0
  0
LINE
  5
4C02
330
18
100
AcDbEntity
  8
OBJECT
100
AcDbLine
 10
14093.14820874688
 20
1321.432467855817
 30
0.0
 11
14093.14820874688
 21
1021.432467855817
 31
0.0
  0
LINE
  5
4C03
330
18
100
AcDbEntity
  8
OBJECT
100
AcDbLine
 10
14108.14820874688
 20
1321.432467855818
 30
0.0
 11
14108.14820874688
 21
1021.432467855817
 31
0.0
  0
LINE
  5
4C04
330
18
100
AcDbEntity
  8
OBJECT
100
AcDbLine
 10
14423.14820874688
 20
1021.432467855817
 30
0.0
 11
14423.14820874688
 21
1321.432467855817
 31
0.0
  0
LINE
  5
4C05
330
18
100
AcDbEntity
  8
OBJECT
100
AcDbLine
 10
14123.14820874688
 20
1021.432467855817
 30
0.0
 11
14123.14820874688
 21
1321.432467855817
 31
0.0
  0
LINE
  5
4C06
330
18
100
AcDbEntity
  8
OBJECT
100
AcDbLine
 10
14493.14820874688
 20
1431.432467855817
 30
0.0
 11
14493.14820874688
 21
881.4324678558177
 31
0.0
  0
LINE
  5
4C07
330
18
100
AcDbEntity
  8
OBJECT
100
AcDbLine
 10
14373.14820874688
 20
956.4324678558177
 30
0.0
 11
14173.14820874688
 21
956.4324678558174
 31
0.0
  0
LINE
  5
4C08
330
18
100
AcDbEntity
  8
OBJECT
100
AcDbLine
 10
14373.14820874688
 20
941.4324678558173
 30
0.0
 11
14173.14820874688
 21
941.4324678558172
 31
0.0
  0
LINE
  5
4C09
330
18
100
AcDbEntity
  8
OBJECT
100
AcDbLine
 10
14173.14820874688
 20
971.4324678558176
 30
0.0
 11
14373.14820874688
 21
971.4324678558176
 31
0.0
  0
LINE
  5
4C0A
330
18
100
AcDbEntity
  8
OBJECT
100
AcDbLine
 10
14483.14820874688
 20
871.4324678558178
 30
0.0
 11
14063.14820874688
 21
871.4324678558178
 31
0.0
  0
ARC
  5
4C0C
330
18
100
AcDbEntity
  8
OBJECT
100
AcDbCircle
 10
14173.14820874688
 20
1021.432467855817
 30
0.0
 40
80.0
100
AcDbArc
 50
180.0
 51
270.0
  0
ARC
  5
4C0D
330
18
100
AcDbEntity
  8
OBJECT
100
AcDbCircle
 10
14173.14820874688
 20
1021.432467855817
 30
0.0
 40
65.0
100
AcDbArc
 50
180.0
 51
270.0
  0
ARC
  5
4C0E
330
18
100
AcDbEntity
  8
OBJECT
100
AcDbCircle
 10
14173.14820874688
 20
1021.432467855817
 30
0.0
 40
50.0
100
AcDbArc
 50
180.0
 51
270.0
  0
LINE
  5
4C13
330
18
100
AcDbEntity
  8
OBJECT
100
AcDbLine
 10
14063.14820874688
 20
871.4324678558178
 30
0.0
 11
14053.14820874688
 21
881.4324678558177
 31
0.0
  0
LINE
  5
4C16
330
18
100
AcDbEntity
  8
OBJECT
100
AcDbLine
 10
14053.14820874688
 20
1112.404587055401
 30
0.0
 11
14088.14820874688
 21
1112.404587055401
 31
0.0
  0
LINE
  5
4C17
330
18
100
AcDbEntity
  8
点線
100
AcDbLine
 10
14053.14820874688
 20
1121.432467855817
 30
0.0
 11
14083.14820874688
 21
1151.432467855817
 31
0.0
  0
ARC
  5
4C1A
330
18
100
AcDbEntity
  8
OBJECT
100
AcDbCircle
 10
14373.14820874688
 20
1021.432467855817
 30
0.0
 40
80.0
100
AcDbArc
 50
270.0
 51
0.0
  0
ARC
  5
4C1B
330
18
100
AcDbEntity
  8
OBJECT
100
AcDbCircle
 10
14373.14820874688
 20
1021.432467855817
 30
0.0
 40
65.0
100
AcDbArc
 50
270.0
 51
0.0
  0
ARC
  5
4C1C
330
18
100
AcDbEntity
  8
OBJECT
100
AcDbCircle
 10
14373.14820874688
 20
1021.432467855817
 30
0.0
 40
50.0
100
AcDbArc
 50
270.0
 51
0.0
  0
LINE
  5
4C1D
330
18
100
AcDbEntity
  8
OBJECT
100
AcDbLine
 10
14483.14820874688
 20
871.4324678558178
 30
0.0
 11
14493.14820874688
 21
881.4324678558177
 31
0.0
  0
LINE
  5
4C1E
330
18
100
AcDbEntity
  8
OBJECT
100
AcDbLine
 10
14493.14820874688
 20
1112.404587055401
 30
0.0
 11
14458.14820874688
 21
1112.404587055401
 31
0.0
  0
LINE
  5
4C1F
330
18
100
AcDbEntity
  8
点線
100
AcDbLine
 10
14493.14820874688
 20
1121.432467855817
 30
0.0
 11
14463.14820874689
 21
1151.432467855817
 31
0.0
  0
LINE
  5
4C20
330
18
100
AcDbEntity
  8
OBJECT
100
AcDbLine
 10
14213.14820874688
 20
1406.432467855817
 30
0.0
 11
14333.14820874688
 21
1406.432467855817
 31
0.0
  0
CIRCLE
  5
4C21
330
18
100
AcDbEntity
  8
OBJECT
100
AcDbCircle
 10
14273.14820874688
 20
1426.432467855818
 30
0.0
 40
5.0
  0
LINE
  5
4C22
330
18
100
AcDbEntity
  8
点線
100
AcDbLine
 10
14293.14820874688
 20
1411.432467855817
 30
0.0
 11
14253.14820874688
 21
1411.432467855817
 31
0.0
  0
LINE
  5
4C23
330
18
100
AcDbEntity
  8
OBJECT
100
AcDbLine
 10
14063.14820874688
 20
1441.432467855817
 30
0.0
 11
14483.14820874688
 21
1441.432467855817
 31
0.0
  0
LINE
  5
4C24
330
18
100
AcDbEntity
  8
OBJECT
100
AcDbLine
 10
14373.14820874688
 20
1401.432467855818
 30
0.0
 11
14173.14820874688
 21
1401.432467855817
 31
0.0
  0
LINE
  5
4C25
330
18
100
AcDbEntity
  8
OBJECT
100
AcDbLine
 10
14373.14820874688
 20
1386.432467855817
 30
0.0
 11
14173.14820874688
 21
1386.432467855817
 31
0.0
  0
LINE
  5
4C26
330
18
100
AcDbEntity
  8
OBJECT
100
AcDbLine
 10
14173.14820874688
 20
1371.432467855817
 30
0.0
 11
14373.14820874688
 21
1371.432467855817
 31
0.0
  0
ARC
  5
4C28
330
18
100
AcDbEntity
  8
OBJECT
100
AcDbCircle
 10
14173.14820874688
 20
1321.432467855817
 30
0.0
 40
80.0
100
AcDbArc
 50
90.0
 51
180.0
  0
ARC
  5
4C29
330
18
100
AcDbEntity
  8
OBJECT
100
AcDbCircle
 10
14173.14820874688
 20
1321.432467855817
 30
0.0
 40
65.0
100
AcDbArc
 50
90.0
 51
180.0
  0
ARC
  5
4C2A
330
18
100
AcDbEntity
  8
OBJECT
100
AcDbCircle
 10
14173.14820874688
 20
1321.432467855817
 30
0.0
 40
50.0
100
AcDbArc
 50
90.0
 51
180.0
  0
LINE
  5
4C2B
330
18
100
AcDbEntity
  8
点線
100
AcDbLine
 10
14083.14820874688
 20
1191.432467855817
 30
0.0
 11
14053.14820874688
 21
1221.432467855817
 31
0.0
  0
CIRCLE
  5
4C2C
330
18
100
AcDbEntity
  8
OBJECT
100
AcDbCircle
 10
14068.14820874688
 20
1171.432467855818
 30
0.0
 40
5.0
  0
LINE
  5
4C2D
330
18
100
AcDbEntity
  8
OBJECT
100
AcDbLine
 10
14053.14820874688
 20
1232.4045870554
 30
0.0
 11
14088.14820874688
 21
1232.4045870554
 31
0.0
  0
LINE
  5
4C34
330
18
100
AcDbEntity
  8
OBJECT
100
AcDbLine
 10
14213.14820874688
 20
1441.432467855817
 30
0.0
 11
14213.14820874688
 21
1406.432467855817
 31
0.0
  0
LINE
  5
4C35
330
18
100
AcDbEntity
  8
点線
100
AcDbLine
 10
14253.14820874688
 20
1411.432467855817
 30
0.0
 11
14223.14820874689
 21
1441.432467855817
 31
0.0
  0
LINE
  5
4C36
330
18
100
AcDbEntity
  8
OBJECT
100
AcDbLine
 10
14063.14820874688
 20
1441.432467855817
 30
0.0
 11
14053.14820874688
 21
1431.432467855817
 31
0.0
  0
ARC
  5
4C37
330
18
100
AcDbEntity
  8
OBJECT
100
AcDbCircle
 10
14373.14820874688
 20
1321.432467855818
 30
0.0
 40
80.0
100
AcDbArc
 50
0.0
 51
90.0
  0
ARC
  5
4C38
330
18
100
AcDbEntity
  8
OBJECT
100
AcDbCircle
 10
14373.14820874688
 20
1321.432467855817
 30
0.0
 40
65.0
100
AcDbArc
 50
0.0
 51
90.0
  0
ARC
  5
4C39
330
18
100
AcDbEntity
  8
OBJECT
100
AcDbCircle
 10
14373.14820874688
 20
1321.432467855817
 30
0.0
 40
50.0
100
AcDbArc
 50
0.0
 51
90.0
  0
LINE
  5
4C3A
330
18
100
AcDbEntity
  8
点線
100
AcDbLine
 10
14463.14820874689
 20
1191.432467855817
 30
0.0
 11
14493.14820874688
 21
1221.432467855817
 31
0.0
  0
CIRCLE
  5
4C3B
330
18
100
AcDbEntity
  8
OBJECT
100
AcDbCircle
 10
14478.14820874688
 20
1171.432467855818
 30
0.0
 40
5.0
  0
LINE
  5
4C3C
330
18
100
AcDbEntity
  8
OBJECT
100
AcDbLine
 10
14493.14820874688
 20
1232.4045870554
 30
0.0
 11
14458.14820874688
 21
1232.4045870554
 31
0.0
  0
LINE
  5
4C3D
330
18
100
AcDbEntity
  8
OBJECT
100
AcDbLine
 10
14333.14820874688
 20
1441.432467855817
 30
0.0
 11
14333.14820874688
 21
1406.432467855817
 31
0.0
  0
LINE
  5
4C3E
330
18
100
AcDbEntity
  8
点線
100
AcDbLine
 10
14323.14820874688
 20
1441.432467855817
 30
0.0
 11
14293.14820874688
 21
1411.432467855817
 31
0.0
  0
LINE
  5
4C3F
330
18
100
AcDbEntity
  8
OBJECT
100
AcDbLine
 10
14483.14820874688
 20
1441.432467855817
 30
0.0
 11
14493.14820874688
 21
1431.432467855817
 31
0.0
  0
HATCH
  5
4C86
330
18
100
AcDbEntity
  8
OBJECT
100
AcDbHatch
 10
0.0
 20
0.0
 30
0.0
210
0.0
220
0.0
230
1.0
  2
DOTS
 70
     0
 71
     0
 91
        1
 92
        1
 93
       20
 72
     2
 10
14373.14820874688
 20
1321.432467855817
 40
65.0
 50
0.0
 51
90.0
 73
     1
 72
     1
 10
14373.14820874688
 20
1386.432467855817
 11
14274.14820874688
 21
1386.432467855817
 72
     1
 10
14274.14820874688
 20
1386.432467855817
 11
14274.14820874688
 21
1401.432467855817
 72
     1
 10
14274.14820874688
 20
1401.432467855817
 11
14373.14820874688
 21
1401.432467855818
 72
     2
 10
14373.14820874688
 20
1321.432467855818
 40
80.0
 50
270.0
 51
360.0
 73
     0
 72
     1
 10
14453.14820874688
 20
1321.432467855818
 11
14453.14820874688
 21
1021.432467855817
 72
     2
 10
14373.14820874688
 20
1021.432467855817
 40
80.0
 50
360.0
 51
450.0
 73
     0
 72
     1
 10
14373.14820874688
 20
941.4324678558173
 11
14173.14820874688
 21
941.4324678558172
 72
     2
 10
14173.14820874688
 20
1021.432467855817
 40
80.0
 50
90.0
 51
180.0
 73
     0
 72
     1
 10
14093.14820874688
 20
1021.432467855817
 11
14093.14820874688
 21
1321.432467855817
 72
     2
 10
14173.14820874688
 20
1321.432467855817
 40
80.0
 50
180.0
 51
270.0
 73
     0
 72
     1
 10
14173.14820874688
 20
1401.432467855817
 11
14273.14820874688
 21
1401.432467855817
 72
     1
 10
14273.14820874688
 20
1401.432467855817
 11
14273.14820874688
 21
1386.432467855817
 72
     1
 10
14273.14820874688
 20
1386.432467855817
 11
14173.14820874688
 21
1386.432467855817
 72
     2
 10
14173.14820874688
 20
1321.432467855817
 40
65.0
 50
90.0
 51
180.0
 73
     1
 72
     1
 10
14108.14820874688
 20
1321.432467855818
 11
14108.14820874688
 21
1021.432467855817
 72
     2
 10
14173.14820874688
 20
1021.432467855817
 40
65.0
 50
180.0
 51
270.0
 73
     1
 72
     1
 10
14173.14820874688
 20
956.4324678558174
 11
14373.14820874688
 21
956.4324678558177
 72
     2
 10
14373.14820874688
 20
1021.432467855817
 40
65.0
 50
270.0
 51
360.0
 73
     1
 72
     1
 10
14438.14820874688
 20
1021.432467855817
 11
14438.14820874688
 21
1321.432467855817
 97
        0
 75
     0
 76
     1
 52
0.0
 41
5.0
 77
     0
 78
     1
 53
0.0
 43
3227.460849916231
 44
-15.40955814787321
 45
3.96875
 46
7.9375
 79
     2
 49
0.0
 49
-7.9375
 98
        1
 10
3227.460849916231
 20
-15.40955814787321
  0
LINE
  5
4D68
330
18
100
AcDbEntity
  8
WUWAGAKI
100
AcDbLine
 10
13387.34864034245
 20
2222.834965423075
 30
0.0
 11
13387.34864034245
 21
272.0683975589927
 31
0.0
  0
LINE
  5
4D69
330
18
100
AcDbEntity
  8
WUWAGAKI
100
AcDbLine
 10
16234.49458609373
 20
272.0683975589927
 30
0.0
 11
16234.49458609373
 21
2222.834965423075
 31
0.0
  0
LINE
  5
4D6A
330
18
100
AcDbEntity
  8
OBJECT
 48
10.0
100
AcDbLine
 10
13833.14821458917
 20
1441.432467855817
 30
0.0
 11
13833.14821458916
 21
871.4324678558176
 31
0.0
  0
LINE
  5
4D6B
330
18
100
AcDbEntity
  8
OBJECT
 48
10.0
100
AcDbLine
 10
13933.14821590685
 20
871.4324678558176
 30
0.0
 11
13933.14821590685
 21
1441.432467855817
 31
0.0
  0
TEXT
  5
4D77
330
18
100
AcDbEntity
  8
WUWAGAKI
100
AcDbText
 10
15620.76514942112
 20
338.8064650577853
 30
0.0
 40
40.0
  1
㈱　ウ　チ　コ　ン
100
AcDbText
  0
LINE
  5
4D78
330
18
100
AcDbEntity
  8
WUWAGAKI
100
AcDbLine
 10
16190.15924422176
 20
317.7347538535277
 30
0.0
 11
16190.15924422176
 21
597.7217089399073
 31
0.0
  0
LINE
  5
4D79
330
18
100
AcDbEntity
  8
WUWAGAKI
100
AcDbLine
 10
15461.62819415481
 20
597.7217089399073
 30
0.0
 11
15461.62819415481
 21
317.7347538535277
 31
0.0
  0
LINE
  5
4D7A
330
18
100
AcDbEntity
  8
WUWAGAKI
100
AcDbLine
 10
13387.34864034245
 20
272.0683975589927
 30
0.0
 11
16234.49458609373
 21
272.0683975589927
 31
0.0
  0
LINE
  5
4D7B
330
18
100
AcDbEntity
  8
WUWAGAKI
100
AcDbLine
 10
15461.62819415481
 20
317.7347538535277
 30
0.0
 11
16190.15924422176
 21
317.7347538535277
 31
0.0
  0
LINE
  5
4D7C
330
18
100
AcDbEntity
  8
WUWAGAKI
100
AcDbLine
 10
15461.62819415481
 20
597.7217089399073
 30
0.0
 11
16190.15924422176
 21
597.7217089399073
 31
0.0
  0
LINE
  5
4D7D
330
18
100
AcDbEntity
  8
WUWAGAKI
100
AcDbLine
 10
15461.62819415481
 20
534.7015169764826
 30
0.0
 11
16188.40469599791
 21
534.7015169764826
 31
0.0
  0
TEXT
  5
4D7E
330
18
100
AcDbEntity
  8
WUWAGAKI
100
AcDbText
 10
15665.45947493836
 20
550.5060016574534
 30
0.0
 40
30.0
  1
BOX暗渠
100
AcDbText
  0
LINE
  5
4D7F
330
18
100
AcDbEntity
  8
WUWAGAKI
100
AcDbLine
 10
15461.62819415481
 20
534.7015169764826
 30
0.0
 11
16188.40469599791
 21
534.7015169764826
 31
0.0
  0
LINE
  5
4D80
330
18
100
AcDbEntity
  8
WUWAGAKI
100
AcDbLine
 10
15461.62819415481
 20
470.7639270000727
 30
0.0
 11
16190.15924422175
 21
470.7639270000727
 31
0.0
  0
LINE
  5
4D81
330
18
100
AcDbEntity
  8
WUWAGAKI
100
AcDbLine
 10
15461.62819415481
 20
405.087217557002
 30
0.0
 11
16190.15924422175
 21
405.087217557002
 31
0.0
  0
TEXT
  5
4D82
330
18
100
AcDbEntity
  8
WUWAGAKI
100
AcDbText
 10
15673.50069036418
 20
421.3355233888223
 30
0.0
 40
30.0
  1
S＝　1：10
100
AcDbText
  0
TEXT
  5
4D83
330
18
100
AcDbEntity
  8
WUWAGAKI
100
AcDbText
 10
15667.11261579842
 20
484.7336317481076
 30
0.0
 40
35.0
  1
300 × 400 × 1000
100
AcDbText
  0
TEXT
  5
4D87
330
18
100
AcDbEntity
  8
WUWAGAKI
100
AcDbText
 10
15493.31729792061
 20
552.2254417881595
 30
0.0
 40
30.0
  1
種　別
100
AcDbText
  0
LINE
  5
4D88
330
18
100
AcDbEntity
  8
WUWAGAKI
100
AcDbLine
 10
15629.70584186714
 20
597.7217089399073
 30
0.0
 11
15629.70584186714
 21
405.087217557002
 31
0.0
  0
TEXT
  5
4D89
330
18
100
AcDbEntity
  8
WUWAGAKI
100
AcDbText
 10
15509.97899517038
 20
420.4675797691843
 30
0.0
 40
30.0
  1
縮尺
100
AcDbText
  0
TEXT
  5
4D8A
330
18
100
AcDbEntity
  8
WUWAGAKI
100
AcDbText
 10
15491.54715666299
 20
484.7995484301718
 30
0.0
 40
30.0
  1
寸　法
100
AcDbText
  0
SOLID
  5
4D91
330
18
100
AcDbEntity
  8
0
  6
ByBlock
 62
     0
 48
10.0
100
AcDbTrace
 10
13937.31487541355
 20
996.4324678558153
 30
0.0
 11
13928.98154208022
 21
996.4324678558153
 31
0.0
 12
13933.14820874688
 22
971.4324678558153
 32
0.0
 13
13933.14820874688
 23
971.4324678558153
 33
0.0
  0
LINE
  5
4D98
330
18
100
AcDbEntity
  8
0
 48
10.0
100
AcDbLine
 10
14033.14820874688
 20
871.4324678558178
 30
0.0
 11
13813.14820874688
 21
871.4324678558178
 31
0.0
  0
SOLID
  5
4D99
330
18
100
AcDbEntity
  8
0
  6
ByBlock
 62
     0
 48
10.0
100
AcDbTrace
 10
13837.31487541355
 20
896.4324678558316
 30
0.0
 11
13828.98154208022
 21
896.4324678558316
 31
0.0
 12
13833.14820874688
 22
871.4324678558316
 32
0.0
 13
13833.14820874688
 23
871.4324678558316
 33
0.0
  0
MTEXT
  5
4D9A
330
18
100
AcDbEntity
  8
0
  6
ByBlock
 62
     0
 48
10.0
100
AcDbMText
 10
13913.14821458916
 20
921.4324678558178
 30
0.0
 40
25.0
 41
0.0
 71
     5
 72
     1
  1
100
 11
0.0000000000000001
 21
1.0
 31
0.0
 73
     1
 44
1.0
  0
SOLID
  5
4D9B
330
18
100
AcDbEntity
  8
0
  6
ByBlock
 62
     0
 48
10.0
100
AcDbTrace
 10
13937.31488257352
 20
896.4324757619198
 30
0.0
 11
13928.98154924018
 21
896.4324757619198
 31
0.0
 12
13933.14821590685
 22
871.4324757619198
 32
0.0
 13
13933.14821590685
 23
871.4324757619198
 33
0.0
  0
LINE
  5
4D9D
330
18
100
AcDbEntity
  8
0
 48
10.0
100
AcDbLine
 10
14033.14820874688
 20
971.432467855816
 30
0.0
 11
13913.14820874688
 21
971.432467855816
 31
0.0
  0
SOLID
  5
4D9E
330
18
100
AcDbEntity
  8
0
  6
ByBlock
 62
     0
 48
10.0
100
AcDbTrace
 10
13937.31487541355
 20
946.4324678558153
 30
0.0
 11
13928.98154208022
 21
946.4324678558153
 31
0.0
 12
13933.14820874688
 22
971.4324678558153
 32
0.0
 13
13933.14820874688
 23
971.4324678558153
 33
0.0
  0
MTEXT
  5
4DA2
330
18
100
AcDbEntity
  8
0
  6
ByBlock
 62
     0
 48
10.0
100
AcDbMText
 10
13813.14820874688
 20
1156.432467855817
 30
0.0
 40
25.0
 41
0.0
 71
     5
 72
     1
  1
570
 11
0.0000000000000001
 21
1.0
 31
0.0
 73
     1
 44
1.0
  0
MTEXT
  5
4DA3
330
18
100
AcDbEntity
  8
0
  6
ByBlock
 62
     0
 48
10.0
100
AcDbMText
 10
13913.14820874688
 20
1171.432467855817
 30
0.0
 40
25.0
 41
0.0
 71
     5
 72
     1
  1
400
 11
0.0000000000000001
 21
1.0
 31
0.0
 73
     1
 44
1.0
  0
SOLID
  5
4DA7
330
18
100
AcDbEntity
  8
0
  6
ByBlock
 62
     0
 48
10.0
100
AcDbTrace
 10
14155.49019568207
 20
1004.220054794105
 30
0.0
 11
14160.41777568159
 21
997.499682796012
 31
0.0
 12
14137.79286968756
 22
986.0771287964903
 32
0.0
 13
14137.79286968756
 23
986.0771287964903
 33
0.0
  0
LINE
  5
4DA8
330
18
100
AcDbEntity
  8
WUWAGAKI
 48
10.0
100
AcDbLine
 10
14147.83602412393
 20
993.5192420022334
 30
0.0
 11
14198.60384731639
 21
1031.138885292632
 31
0.0
210
0.0
220
0.0
230
-1.0
1001
ACAD
1000
DSTYLE
1002
{
1070
    78
1070
     8
1070
   270
1070
     8
1070
   140
1040
2.5
1070
    74
1070
     0
1070
   172
1070
     1
1070
    73
1070
     0
1070
    77
1070
     1
1070
    40
1040
10.0
1070
   147
1040
0.625
1070
    42
1040
0.625
1070
    44
1040
1.25
1070
    43
1040
3.75
1070
   141
1040
2.5
1070
    41
1040
2.5
1070
   273
1070
     8
1070
   274
1070
     4
1070
   143
1040
0.0394
1070
   171
1070
     4
1002
}
  0
LINE
  5
4DAA
330
18
100
AcDbEntity
  8
OBJECT
 48
10.0
100
AcDbLine
 10
14198.60384731639
 20
1031.138885292632
 30
0.0
 11
14268.60384731639
 21
1031.138885292632
 31
0.0
  0
MTEXT
  5
4DAB
330
18
100
AcDbEntity
  8
0
  6
ByBlock
 62
     0
 48
10.0
100
AcDbMText
 10
14233.60384731638
 20
1051.138885292632
 30
0.0
 40
20.0
 41
0.0
 71
     5
 72
     1
  1
50R
 73
     1
 44
1.0
  0
MTEXT
  5
4DB1
330
18
100
AcDbEntity
  8
0
  6
ByBlock
 62
     0
 48
10.0
100
AcDbMText
 10
14598.20996524302
 20
835.6214902269879
 30
0.0
 40
20.0
 41
0.0
 71
     5
 72
     1
  1
面取り10C
 73
     1
 44
1.0
  0
LINE
  5
4DB2
330
18
100
AcDbEntity
  8
WUWAGAKI
 48
10.0
100
AcDbLine
 10
14495.59032195263
 20
866.3893134194415
 30
0.0
 11
14533.20996524302
 21
815.6214902269887
 31
0.0
210
0.0
220
0.0
230
-1.0
1001
ACAD
1000
DSTYLE
1002
{
1070
    78
1070
     8
1070
   270
1070
     8
1070
   140
1040
2.5
1070
    74
1070
     0
1070
   172
1070
     1
1070
    73
1070
     0
1070
    77
1070
     1
1070
    40
1040
10.0
1070
   147
1040
0.625
1070
    42
1040
0.625
1070
    44
1040
1.25
1070
    43
1040
3.75
1070
   141
1040
2.5
1070
    41
1040
2.5
1070
   273
1070
     8
1070
   274
1070
     4
1070
   143
1040
0.0394
1070
   171
1070
     4
1002
}
  0
LINE
  5
4DB3
330
18
100
AcDbEntity
  8
OBJECT
 48
10.0
100
AcDbLine
 10
14533.20996524302
 20
815.621490226988
 30
0.0
 11
14673.20996524303
 21
815.621490226988
 31
0.0
  0
SOLID
  5
4DB4
330
18
100
AcDbEntity
  8
0
  6
ByBlock
 62
     0
 48
10.0
100
AcDbTrace
 10
14506.2911347445
 20
858.7351418613007
 30
0.0
 11
14499.57076274641
 21
853.8075618617794
 31
0.0
 12
14488.14820874688
 22
876.4324678558178
 32
0.0
 13
14488.14820874688
 23
876.4324678558178
 33
0.0
  0
MTEXT
  5
4DB9
330
18
100
AcDbEntity
  8
0
  6
ByBlock
 62
     0
 48
10.0
100
AcDbMText
 10
14605.70996524302
 20
1071.593609426571
 30
0.0
 40
20.0
 41
0.0
 71
     5
 72
     1
  1
接続プレート
 73
     1
 44
1.0
  0
LINE
  5
4DBA
330
18
100
AcDbEntity
  8
WUWAGAKI
 48
10.0
100
AcDbLine
 10
14483.09032195263
 20
1102.361432619024
 30
0.0
 11
14520.70996524303
 21
1051.593609426571
 31
0.0
210
0.0
220
0.0
230
-1.0
1001
ACAD
1000
DSTYLE
1002
{
1070
    78
1070
     8
1070
   270
1070
     8
1070
   140
1040
2.5
1070
    74
1070
     0
1070
   172
1070
     1
1070
    73
1070
     0
1070
    77
1070
     1
1070
    40
1040
10.0
1070
   147
1040
0.625
1070
    42
1040
0.625
1070
    44
1040
1.25
1070
    43
1040
3.75
1070
   141
1040
2.5
1070
    41
1040
2.5
1070
   273
1070
     8
1070
   274
1070
     4
1070
   143
1040
0.0394
1070
   171
1070
     4
1002
}
  0
LINE
  5
4DBB
330
18
100
AcDbEntity
  8
OBJECT
 48
10.0
100
AcDbLine
 10
14520.70996524303
 20
1051.593609426571
 30
0.0
 11
14690.70996524302
 21
1051.593609426571
 31
0.0
  0
SOLID
  5
4DBC
330
18
100
AcDbEntity
  8
0
  6
ByBlock
 62
     0
 48
10.0
100
AcDbTrace
 10
14493.7911347445
 20
1094.707261060883
 30
0.0
 11
14487.07076274641
 21
1089.779681061362
 31
0.0
 12
14475.64820874688
 22
1112.404587055401
 32
0.0
 13
14475.64820874688
 23
1112.404587055401
 33
0.0
  0
TEXT
  5
4DC5
330
18
100
AcDbEntity
  8
WUWAGAKI
100
AcDbText
 10
16058.34037283482
 20
420.076224745474
 30
0.0
 40
30.0
  1
327㎏
100
AcDbText
  0
TEXT
  5
4DC6
330
18
100
AcDbEntity
  8
WUWAGAKI
100
AcDbText
 10
15910.43734982451
 20
421.3684817298498
 30
0.0
 40
30.0
  1
重量
100
AcDbText
  0
LINE
  5
4DC7
330
18
100
AcDbEntity
  8
WUWAGAKI
100
AcDbLine
 10
15892.48549932308
 20
470.7639270000727
 30
0.0
 11
15892.48549932308
 21
405.087217557002
 31
0.0
  0
LINE
  5
4DC8
330
18
100
AcDbEntity
  8
WUWAGAKI
100
AcDbLine
 10
16015.30445049796
 20
470.7639270000727
 30
0.0
 11
16015.30445049796
 21
405.087217557002
 31
0.0
  0
LINE
  5
4DD4
330
18
100
AcDbEntity
  8
WUWAGAKI
100
AcDbLine
 10
16234.49458609373
 20
2222.834965423075
 30
0.0
 11
13387.34864034245
 21
2222.834965423075
 31
0.0
  0
LINE
  5
4DD5
330
18
100
AcDbEntity
  8
OBJECT
 48
10.0
100
AcDbLine
 10
14851.96490945728
 20
1661.432467855821
 30
0.0
 11
15851.96490945729
 21
1661.432467855821
 31
0.0
  0
SOLID
  5
4DD9
330
18
100
AcDbEntity
  8
0
  6
ByBlock
 62
     0
 48
10.0
100
AcDbTrace
 10
14468.14820874687
 20
1657.265801189152
 30
0.0
 11
14468.14820874687
 21
1665.599134522486
 31
0.0
 12
14493.14820874687
 22
1661.43246785582
 32
0.0
 13
14493.14820874687
 23
1661.43246785582
 33
0.0
  0
SOLID
  5
4DDA
330
18
100
AcDbEntity
  8
0
  6
ByBlock
 62
     0
 48
10.0
100
AcDbTrace
 10
14468.14820084078
 20
1557.265794029186
 30
0.0
 11
14468.14820084078
 21
1565.59912736252
 31
0.0
 12
14493.14820084078
 22
1561.432460695853
 32
0.0
 13
14493.14820084078
 23
1561.432460695853
 33
0.0
  0
MTEXT
  5
4DDB
330
18
100
AcDbEntity
  8
0
  6
ByBlock
 62
     0
 48
10.0
100
AcDbMText
 10
14458.14820874689
 20
1581.432462013538
 30
0.0
 40
25.0
 41
0.0
 71
     5
 72
     1
  1
70
 73
     1
 44
1.0
  0
LINE
  5
4DDC
330
18
100
AcDbEntity
  8
OBJECT
 48
10.0
100
AcDbLine
 10
14053.14820874688
 20
1561.432460695851
 30
0.0
 11
14493.14820874688
 21
1561.432460695851
 31
0.0
  0
LINE
  5
4DDD
330
18
100
AcDbEntity
  8
OBJECT
 48
10.0
100
AcDbLine
 10
14493.14820874688
 20
1661.432462013537
 30
0.0
 11
14053.14820874688
 21
1661.432462013538
 31
0.0
  0
LINE
  5
4DDE
330
18
100
AcDbEntity
  8
WUWAGAKI
 48
10.0
100
AcDbLine
 10
14439.75989653137
 20
1385.443126271172
 30
0.0
 11
14515.31768351752
 21
1441.432467855817
 31
0.0
210
0.0
220
0.0
230
-1.0
1001
ACAD
1000
DSTYLE
1002
{
1070
    78
1070
     8
1070
   270
1070
     8
1070
   140
1040
2.5
1070
    74
1070
     0
1070
   172
1070
     1
1070
    73
1070
     0
1070
    77
1070
     1
1070
    40
1040
10.0
1070
   147
1040
0.625
1070
    42
1040
0.625
1070
    44
1040
1.25
1070
    43
1040
3.75
1070
   141
1040
2.5
1070
    41
1040
2.5
1070
   273
1070
     8
1070
   274
1070
     4
1070
   143
1040
0.0394
1070
   171
1070
     4
1002
}
  0
MTEXT
  5
4DE0
330
18
100
AcDbEntity
  8
0
  6
ByBlock
 62
     0
 48
10.0
100
AcDbMText
 10
14273.14820874688
 20
1581.432467855818
 30
0.0
 40
25.0
 41
0.0
 71
     5
 72
     1
  1
300
 73
     1
 44
1.0
  0
MTEXT
  5
4DE1
330
18
100
AcDbEntity
  8
0
  6
ByBlock
 62
     0
 48
10.0
100
AcDbMText
 10
14088.14820874688
 20
1581.432462013538
 30
0.0
 40
25.0
 41
0.0
 71
     5
 72
     1
  1
70
 73
     1
 44
1.0
  0
LINE
  5
4DE2
330
18
100
AcDbEntity
  8
0
 48
10.0
100
AcDbLine
 10
14423.14820874688
 20
1461.432467855817
 30
0.0
 11
14423.14820874688
 21
1581.432467855817
 31
0.0
  0
LINE
  5
4DE3
330
18
100
AcDbEntity
  8
0
 48
10.0
100
AcDbLine
 10
14123.14820874688
 20
1461.432467855817
 30
0.0
 11
14123.14820874688
 21
1581.432467855817
 31
0.0
  0
LINE
  5
4DE4
330
18
100
AcDbEntity
  8
0
 48
10.0
100
AcDbLine
 10
14053.14820874688
 20
1461.432467855817
 30
0.0
 11
14053.14820874688
 21
1681.432467855818
 31
0.0
  0
LINE
  5
4DE5
330
18
100
AcDbEntity
  8
0
 48
10.0
100
AcDbLine
 10
14033.14820874688
 20
1441.432467855817
 30
0.0
 11
13813.14820874688
 21
1441.432467855817
 31
0.0
  0
SOLID
  5
4DE6
330
18
100
AcDbEntity
  8
0
  6
ByBlock
 62
     0
 48
10.0
100
AcDbTrace
 10
13837.31487541355
 20
1416.432467855802
 30
0.0
 11
13828.98154208022
 21
1416.432467855802
 31
0.0
 12
13833.14820874688
 22
1441.432467855802
 32
0.0
 13
13833.14820874688
 23
1441.432467855802
 33
0.0
  0
SOLID
  5
4DEA
330
18
100
AcDbEntity
  8
0
  6
ByBlock
 62
     0
 48
10.0
100
AcDbTrace
 10
13937.31487541355
 20
1396.432467855818
 30
0.0
 11
13928.98154208022
 21
1396.432467855818
 31
0.0
 12
13933.14820874688
 22
1371.432467855818
 32
0.0
 13
13933.14820874688
 23
1371.432467855818
 33
0.0
  0
LINE
  5
4DEB
330
18
100
AcDbEntity
  8
0
 48
10.0
100
AcDbLine
 10
14033.14820874688
 20
1371.432467855817
 30
0.0
 11
13913.14820874688
 21
1371.432467855817
 31
0.0
  0
SOLID
  5
4DEC
330
18
100
AcDbEntity
  8
0
  6
ByBlock
 62
     0
 48
10.0
100
AcDbTrace
 10
13937.31487541355
 20
1346.432510815613
 30
0.0
 11
13928.98154208022
 21
1346.432510815613
 31
0.0
 12
13933.14820874688
 22
1371.432510815614
 32
0.0
 13
13933.14820874688
 23
1371.432510815614
 33
0.0
  0
SOLID
  5
4DED
330
18
100
AcDbEntity
  8
0
  6
ByBlock
 62
     0
 48
10.0
100
AcDbTrace
 10
13937.31488257352
 20
1416.432459949714
 30
0.0
 11
13928.98154924018
 21
1416.432459949714
 31
0.0
 12
13933.14821590685
 22
1441.432459949714
 32
0.0
 13
13933.14821590685
 23
1441.432459949714
 33
0.0
  0
MTEXT
  5
4DEE
330
18
100
AcDbEntity
  8
0
  6
ByBlock
 62
     0
 48
10.0
100
AcDbMText
 10
13913.14821458916
 20
1406.432467855819
 30
0.0
 40
25.0
 41
0.0
 71
     5
 72
     1
  1
70
 11
0.0000000000000001
 21
1.0
 31
0.0
 73
     1
 44
1.0
  0
SOLID
  5
4DF0
330
18
100
AcDbEntity
  8
0
  6
ByBlock
 62
     0
 48
10.0
100
AcDbTrace
 10
14447.41406808951
 20
1396.143939063044
 30
0.0
 11
14452.34164808903
 21
1389.423567064951
 31
0.0
 12
14429.71674209499
 22
1378.001013065429
 32
0.0
 13
14429.71674209499
 23
1378.001013065429
 33
0.0
  0
SOLID
  5
4DFE
330
18
100
AcDbEntity
  8
0
  6
ByBlock
 62
     0
 48
10.0
100
AcDbTrace
 10
14148.14820874688
 20
1557.265801189149
 30
0.0
 11
14148.14820874688
 21
1565.599134522484
 31
0.0
 12
14123.14820874688
 22
1561.432467855818
 32
0.0
 13
14123.14820874688
 23
1561.432467855818
 33
0.0
  0
SOLID
  5
4DFF
330
18
100
AcDbEntity
  8
0
  6
ByBlock
 62
     0
 48
10.0
100
AcDbTrace
 10
14098.14820874688
 20
1557.265801189149
 30
0.0
 11
14098.14820874688
 21
1565.599134522484
 31
0.0
 12
14123.14820874688
 22
1561.432467855818
 32
0.0
 13
14123.14820874688
 23
1561.432467855818
 33
0.0
  0
SOLID
  5
4E00
330
18
100
AcDbEntity
  8
0
  6
ByBlock
 62
     0
 48
10.0
100
AcDbTrace
 10
14078.14821665299
 20
1557.265794029186
 30
0.0
 11
14078.14821665299
 21
1565.59912736252
 31
0.0
 12
14053.14821665299
 22
1561.432460695853
 32
0.0
 13
14053.14821665299
 23
1561.432460695853
 33
0.0
  0
SOLID
  5
4E01
330
18
100
AcDbEntity
  8
0
  6
ByBlock
 62
     0
 48
10.0
100
AcDbTrace
 10
14398.14825170668
 20
1557.265801189149
 30
0.0
 11
14398.14825170668
 21
1565.599134522484
 31
0.0
 12
14423.14825170668
 22
1561.432467855818
 32
0.0
 13
14423.14825170668
 23
1561.432467855818
 33
0.0
  0
SOLID
  5
4E02
330
18
100
AcDbEntity
  8
0
  6
ByBlock
 62
     0
 48
10.0
100
AcDbTrace
 10
14448.14820874689
 20
1557.265801189149
 30
0.0
 11
14448.14820874689
 21
1565.599134522484
 31
0.0
 12
14423.14820874689
 22
1561.432467855818
 32
0.0
 13
14423.14820874689
 23
1561.432467855818
 33
0.0
  0
MTEXT
  5
4E03
330
18
100
AcDbEntity
  8
0
  6
ByBlock
 62
     0
 48
10.0
100
AcDbMText
 10
14273.14820874688
 20
1681.432467855818
 30
0.0
 40
25.0
 41
0.0
 71
     5
 72
     1
  1
440
 73
     1
 44
1.0
  0
SOLID
  5
4E04
330
18
100
AcDbEntity
  8
0
  6
ByBlock
 62
     0
 48
10.0
100
AcDbTrace
 10
14078.1482087469
 20
1657.265801189152
 30
0.0
 11
14078.1482087469
 21
1665.599134522486
 31
0.0
 12
14053.1482087469
 22
1661.43246785582
 32
0.0
 13
14053.1482087469
 23
1661.43246785582
 33
0.0
  0
MTEXT
  5
4E05
330
18
100
AcDbEntity
  8
0
  6
ByBlock
 62
     0
 48
10.0
100
AcDbMText
 10
14801.96490945726
 20
1581.43246201354
 30
0.0
 40
25.0
 41
0.0
 71
     5
 72
     1
  1
5
 73
     1
 44
1.0
  0
MTEXT
  5
4E06
330
18
100
AcDbEntity
  8
0
  6
ByBlock
 62
     0
 48
10.0
100
AcDbMText
 10
14891.96490945726
 20
1581.432467855819
 30
0.0
 40
25.0
 41
0.0
 71
     5
 72
     1
  1
70
 73
     1
 44
1.0
  0
LINE
  5
4E07
330
18
100
AcDbEntity
  8
0
 48
10.0
100
AcDbLine
 10
14926.96490945726
 20
1461.432467855817
 30
0.0
 11
14926.96490945726
 21
1581.432467855817
 31
0.0
  0
LINE
  5
4E08
330
18
100
AcDbEntity
  8
0
 48
10.0
100
AcDbLine
 10
14856.96490945726
 20
1461.432472046438
 30
0.0
 11
14856.96490945726
 21
1581.432472046438
 31
0.0
  0
LINE
  5
4E09
330
18
100
AcDbEntity
  8
0
 48
10.0
100
AcDbLine
 10
14493.14820874688
 20
1461.432467855817
 30
0.0
 11
14493.14820874688
 21
1681.432467855818
 31
0.0
  0
LINE
  5
4E0A
330
18
100
AcDbEntity
  8
0
 48
10.0
100
AcDbLine
 10
14851.96490945726
 20
1461.432467855817
 30
0.0
 11
14851.96490945726
 21
1681.432467855818
 31
0.0
  0
LINE
  5
4E0B
330
18
100
AcDbEntity
  8
OBJECT
 48
10.0
100
AcDbLine
 10
14515.31768351752
 20
1441.432467855817
 30
0.0
 11
14635.31768351752
 21
1441.432467855817
 31
0.0
  0
LINE
  5
4E11
330
18
100
AcDbEntity
  8
OBJECT
 48
10.0
100
AcDbLine
 10
14851.96491736338
 20
1561.432462013538
 30
0.0
 11
14776.96491736338
 21
1561.43246201354
 31
0.0
  0
MTEXT
  5
4E12
330
18
100
AcDbEntity
  8
0
  6
ByBlock
 62
     0
 48
10.0
100
AcDbMText
 10
14570.31768351752
 20
1461.432467855817
 30
0.0
 40
20.0
 41
0.0
 71
     5
 72
     1
  1
止水ゴム
 73
     1
 44
1.0
  0
LINE
  5
4E13
330
18
100
AcDbEntity
  8
OBJECT
 48
10.0
100
AcDbLine
 10
14851.96489224228
 20
1561.432462013538
 30
0.0
 11
14926.96490945726
 21
1561.432462013539
 31
0.0
  0
SOLID
  5
4E14
330
18
100
AcDbEntity
  8
0
  6
ByBlock
 62
     0
 48
10.0
100
AcDbTrace
 10
14826.96490945727
 20
1557.265795346872
 30
0.0
 11
14826.96490945727
 21
1565.599128680207
 31
0.0
 12
14851.96490945727
 22
1561.432462013539
 32
0.0
 13
14851.96490945727
 23
1561.432462013539
 33
0.0
  0
SOLID
  5
4E15
330
18
100
AcDbEntity
  8
0
  6
ByBlock
 62
     0
 48
10.0
100
AcDbTrace
 10
14881.96494451095
 20
1557.265801189152
 30
0.0
 11
14881.96494451095
 21
1565.599134522486
 31
0.0
 12
14856.96494451095
 22
1561.43246785582
 32
0.0
 13
14856.96494451095
 23
1561.43246785582
 33
0.0
  0
SOLID
  5
4E16
330
18
100
AcDbEntity
  8
0
  6
ByBlock
 62
     0
 48
10.0
100
AcDbTrace
 10
14901.96490945726
 20
1557.265795346871
 30
0.0
 11
14901.96490945726
 21
1565.599128680206
 31
0.0
 12
14926.96490945726
 22
1561.432462013539
 32
0.0
 13
14926.96490945726
 23
1561.432462013539
 33
0.0
  0
SOLID
  5
4E17
330
18
100
AcDbEntity
  8
0
  6
ByBlock
 62
     0
 48
10.0
100
AcDbTrace
 10
14876.96490945728
 20
1657.265801189153
 30
0.0
 11
14876.96490945728
 21
1665.599134522486
 31
0.0
 12
14851.96490945728
 22
1661.432467855821
 32
0.0
 13
14851.96490945728
 23
1661.432467855821
 33
0.0
  0
MTEXT
  5
4E18
330
18
100
AcDbEntity
  8
0
  6
ByBlock
 62
     0
 48
10.0
100
AcDbMText
 10
15351.96490945729
 20
1681.432467855819
 30
0.0
 40
25.0
 41
0.0
 71
     5
 72
     1
  1
1000
 73
     1
 44
1.0
  0
MTEXT
  5
4E19
330
18
100
AcDbEntity
  8
上線
 48
10.0
100
AcDbMText
 10
14202.18006754801
 20
1918.196488339008
 30
0.0
 40
33.333325
 41
372.13717363235
 71
     1
 72
     5
  1
\fＭＳ Ｐ明朝|b0|i0|c128|p18;側面図
 73
     1
 44
1.0
  0
LINE
  5
4E1A
330
18
100
AcDbEntity
  8
上線
100
AcDbLine
 10
14358.15292605333
 20
1865.432466855822
 30
0.0
 11
14358.15292605333
 21
1927.902039735762
 31
0.0
  0
LINE
  5
4E1B
330
18
100
AcDbEntity
  8
上線
100
AcDbLine
 10
14360.15292555333
 20
1863.432467355822
 30
0.0
 11
14360.15292555333
 21
1929.902039235762
 31
0.0
  0
LINE
  5
4E1C
330
18
100
AcDbEntity
  8
上線
100
AcDbLine
 10
14188.14349144044
 20
1927.902039735762
 30
0.0
 11
14188.14349144044
 21
1865.432466855822
 31
0.0
  0
LINE
  5
4E1D
330
18
100
AcDbEntity
  8
上線
100
AcDbLine
 10
14186.14349194044
 20
1929.902039235762
 30
0.0
 11
14186.14349194044
 21
1863.432467355822
 31
0.0
  0
LINE
  5
4E1E
330
18
100
AcDbEntity
  8
上線
100
AcDbLine
 10
14188.14349144044
 20
1865.432466855822
 30
0.0
 11
14358.15292605333
 21
1865.432466855822
 31
0.0
  0
LINE
  5
4E1F
330
18
100
AcDbEntity
  8
上線
100
AcDbLine
 10
14186.14349194044
 20
1863.432467355822
 30
0.0
 11
14360.15292555333
 21
1863.432467355822
 31
0.0
  0
LINE
  5
4E20
330
18
100
AcDbEntity
  8
上線
100
AcDbLine
 10
14360.15292555333
 20
1929.902039235762
 30
0.0
 11
14186.14349194044
 21
1929.902039235762
 31
0.0
  0
LINE
  5
4E21
330
18
100
AcDbEntity
  8
上線
100
AcDbLine
 10
14358.15292605333
 20
1927.902039735762
 30
0.0
 11
14188.14349144044
 21
1927.902039735762
 31
0.0
  0
MTEXT
  5
4E22
330
18
100
AcDbEntity
  8
上線
 48
10.0
100
AcDbMText
 10
15280.99674243594
 20
1916.196479307799
 30
0.0
 40
33.333325
 41
372.1372
 71
     1
 72
     5
  1
正面図
 73
     1
 44
1.0
  0
LINE
  5
4E23
330
18
100
AcDbEntity
  8
上線
100
AcDbLine
 10
15436.96960094126
 20
1925.902030704552
 30
0.0
 11
15266.96016632837
 21
1925.902030704552
 31
0.0
  0
LINE
  5
4E24
330
18
100
AcDbEntity
  8
上線
100
AcDbLine
 10
15438.96960044126
 20
1927.902030204552
 30
0.0
 11
15264.96016682837
 21
1927.902030204552
 31
0.0
  0
LINE
  5
4E25
330
18
100
AcDbEntity
  8
上線
100
AcDbLine
 10
15266.96016632837
 20
1863.432457824613
 30
0.0
 11
15436.96960094126
 21
1863.432457824613
 31
0.0
  0
LINE
  5
4E26
330
18
100
AcDbEntity
  8
上線
100
AcDbLine
 10
15264.96016682837
 20
1861.432458324611
 30
0.0
 11
15438.96960044126
 21
1861.432458324611
 31
0.0
  0
LINE
  5
4E27
330
18
100
AcDbEntity
  8
上線
100
AcDbLine
 10
15266.96016632837
 20
1925.902030704552
 30
0.0
 11
15266.96016632837
 21
1863.432457824613
 31
0.0
  0
LINE
  5
4E28
330
18
100
AcDbEntity
  8
上線
100
AcDbLine
 10
15264.96016682837
 20
1927.902030204552
 30
0.0
 11
15264.96016682837
 21
1861.432458324611
 31
0.0
  0
LINE
  5
4E29
330
18
100
AcDbEntity
  8
上線
100
AcDbLine
 10
15436.96960094126
 20
1863.432457824613
 30
0.0
 11
15436.96960094126
 21
1925.902030704552
 31
0.0
  0
LINE
  5
4E2A
330
18
100
AcDbEntity
  8
上線
100
AcDbLine
 10
15438.96960044126
 20
1861.432458324611
 30
0.0
 11
15438.96960044126
 21
1927.902030204552
 31
0.0
  0
LINE
  5
4E2B
330
18
100
AcDbEntity
  8
0
 48
10.0
100
AcDbLine
 10
15851.96490945729
 20
1461.432467855819
 30
0.0
 11
15851.96490945729
 21
1681.432467855819
 31
0.0
  0
SOLID
  5
4E30
330
18
100
AcDbEntity
  8
0
  6
ByBlock
 62
     0
 48
10.0
100
AcDbTrace
 10
15826.96490945728
 20
1657.265801189153
 30
0.0
 11
15826.96490945728
 21
1665.599134522486
 31
0.0
 12
15851.96490945728
 22
1661.432467855821
 32
0.0
 13
15851.96490945728
 23
1661.432467855821
 33
0.0
  0
ENDSEC
  0
SECTION
  2
OBJECTS
  0
DICTIONARY
  5
C
330
0
100
AcDbDictionary
281
     1
  3
ACAD_GROUP
350
D
  3
ACAD_LAYOUT
350
204D
  3
ACAD_MLINESTYLE
350
1B
  3
ACAD_PLOTSETTINGS
350
204E
  3
ACAD_PLOTSTYLENAME
350
204B
  3
ACDBVARIABLEDICTIONARY
350
1756
  0
DICTIONARY
  5
D
102
{ACAD_REACTORS
330
C
102
}
330
C
100
AcDbDictionary
281
     1
  0
DICTIONARY
  5
204D
102
{ACAD_REACTORS
330
C
102
}
330
C
100
AcDbDictionary
281
     1
  3
Model
350
204F
  3
ﾚｲｱｳﾄ1
350
2050
  0
DICTIONARY
  5
1B
102
{ACAD_REACTORS
330
C
102
}
330
C
100
AcDbDictionary
281
     1
  3
STANDARD
350
1C
  0
DICTIONARY
  5
204E
102
{ACAD_REACTORS
330
C
102
}
330
C
100
AcDbDictionary
281
     1
  0
ACDBDICTIONARYWDFLT
  5
204B
102
{ACAD_REACTORS
330
C
102
}
330
C
100
AcDbDictionary
281
     1
  3
Normal
350
204C
100
AcDbDictionaryWithDefault
340
204C
  0
DICTIONARY
  5
1756
102
{ACAD_REACTORS
330
C
102
}
330
C
100
AcDbDictionary
281
     1
  3
SORTENTS
350
1757
  0
LAYOUT
  5
204F
102
{ACAD_REACTORS
330
204D
102
}
330
204D
100
AcDbPlotSettings
  1

  2
Canon LBP3800 LIPSLX
  4
A4
  6

 40
5.873749732971191
 41
5.873747825622558
 42
5.873748779296875
 43
5.873748779296875
 44
209.9733276367187
 45
296.9259948730469
 46
0.0
 47
0.0
 48
0.0
 49
0.0
140
0.0
141
0.0
142
1.0
143
1.0
 70
 11952
 72
     1
 73
     1
 74
     0
  7

 75
     0
147
1.0
148
-5334.22296915709
149
1075.179318822065
100
AcDbLayout
  1
Model
 70
     1
 71
     0
 10
0.0
 20
0.0
 11
12.0
 21
9.0
 12
0.0
 22
0.0
 32
0.0
 14
0.0
 24
0.0
 34
0.0
 15
0.0
 25
0.0
 35
0.0
146
0.0
 13
0.0
 23
0.0
 33
0.0
 16
1.0
 26
0.0
 36
0.0
 17
0.0
 27
1.0
 37
0.0
 76
     0
330
18
  0
LAYOUT
  5
2050
102
{ACAD_REACTORS
330
204D
102
}
330
204D
100
AcDbPlotSettings
  1

  2
Canon LBP3800 LIPSLX
  4

  6

 40
0.0
 41
0.0
 42
0.0
 43
0.0
 44
0.0
 45
0.0
 46
0.0
 47
0.0
 48
0.0
 49
0.0
140
0.0
141
0.0
142
1.0
143
1.0
 70
   688
 72
     0
 73
     0
 74
     5
  7

 75
    16
147
1.0
148
0.0
149
0.0
100
AcDbLayout
  1
ﾚｲｱｳﾄ1
 70
     1
 71
     1
 10
0.0
 20
0.0
 11
420.0
 21
297.0
 12
0.0
 22
0.0
 32
0.0
 14
1.000000000000000E+20
 24
1.000000000000000E+20
 34
1.000000000000000E+20
 15
-1.000000000000000E+20
 25
-1.000000000000000E+20
 35
-1.000000000000000E+20
146
0.0
 13
0.0
 23
0.0
 33
0.0
 16
1.0
 26
0.0
 36
0.0
 17
0.0
 27
1.0
 37
0.0
 76
     0
330
15
  0
MLINESTYLE
  5
1C
102
{ACAD_REACTORS
330
1B
102
}
330
1B
100
AcDbMlineStyle
  2
STANDARD
 70
     0
  3

 62
   256
 51
90.0
 52
90.0
 71
     2
 49
0.5
 62
   256
  6
BYLAYER
 49
-0.5
 62
   256
  6
BYLAYER
  0
ACDBPLACEHOLDER
  5
204C
102
{ACAD_REACTORS
330
204B
102
}
330
204B
  0
DICTIONARYVAR
  5
1757
102
{ACAD_REACTORS
330
1756
102
}
330
1756
100
DictionaryVariables
280
     0
  1
96
  0
ENDSEC
  0
EOF
