  0
SECTION
  2
HEADER
  9
$ACADVER
  1
AC1015
  9
$ACADMAINTVER
 70
     6
  9
$DWGCODEPAGE
  3
ANSI_932
  9
$INSBASE
 10
0.0
 20
0.0
 30
0.0
  9
$EXTMIN
 10
3123.760583863437
 20
297.8171030724288
 30
-12.90029495130261
  9
$EXTMAX
 10
5970.906529614716
 20
2248.583670936511
 30
0.166012454715954
  9
$LIMMIN
 10
0.0
 20
0.0
  9
$LIMMAX
 10
2970.0
 20
2100.0
  9
$ORTHOMODE
 70
     0
  9
$REGENMODE
 70
     1
  9
$FILLMODE
 70
     1
  9
$QTEXTMODE
 70
     0
  9
$MIRRTEXT
 70
     1
  9
$LTSCALE
 40
1.0
  9
$ATTMODE
 70
     1
  9
$TEXTSIZE
 40
30.0
  9
$TRACEWID
 40
1.0
  9
$TEXTSTYLE
  7
STANDARD
  9
$CLAYER
  8
OBJECT
  9
$CELTYPE
  6
BYLAYER
  9
$CECOLOR
 62
   256
  9
$CELTSCALE
 40
1.0
  9
$DISPSILH
 70
     0
  9
$DIMSCALE
 40
10.0
  9
$DIMASZ
 40
2.5
  9
$DIMEXO
 40
0.625
  9
$DIMDLI
 40
3.75
  9
$DIMRND
 40
0.0
  9
$DIMDLE
 40
0.0
  9
$DIMEXE
 40
1.25
  9
$DIMTP
 40
0.0
  9
$DIMTM
 40
0.0
  9
$DIMTXT
 40
2.5
  9
$DIMCEN
 40
2.5
  9
$DIMTSZ
 40
0.0
  9
$DIMTOL
 70
     0
  9
$DIMLIM
 70
     0
  9
$DIMTIH
 70
     0
  9
$DIMTOH
 70
     0
  9
$DIMSE1
 70
     0
  9
$DIMSE2
 70
     0
  9
$DIMTAD
 70
     1
  9
$DIMZIN
 70
     8
  9
$DIMBLK
  1

  9
$DIMASO
 70
     1
  9
$DIMSHO
 70
     1
  9
$DIMPOST
  1

  9
$DIMAPOST
  1

  9
$DIMALT
 70
     0
  9
$DIMALTD
 70
     4
  9
$DIMALTF
 40
0.0394
  9
$DIMLFAC
 40
1.0
  9
$DIMTOFL
 70
     1
  9
$DIMTVP
 40
0.0
  9
$DIMTIX
 70
     0
  9
$DIMSOXD
 70
     0
  9
$DIMSAH
 70
     0
  9
$DIMBLK1
  1

  9
$DIMBLK2
  1

  9
$DIMSTYLE
  2
STANDARD
  9
$DIMCLRD
 70
     0
  9
$DIMCLRE
 70
     0
  9
$DIMCLRT
 70
     0
  9
$DIMTFAC
 40
1.0
  9
$DIMGAP
 40
0.625
  9
$DIMJUST
 70
     0
  9
$DIMSD1
 70
     0
  9
$DIMSD2
 70
     0
  9
$DIMTOLJ
 70
     1
  9
$DIMTZIN
 70
     0
  9
$DIMALTZ
 70
     0
  9
$DIMALTTZ
 70
     0
  9
$DIMUPT
 70
     0
  9
$DIMDEC
 70
     4
  9
$DIMTDEC
 70
     4
  9
$DIMALTU
 70
     8
  9
$DIMALTTD
 70
     4
  9
$DIMTXSTY
  7
STANDARD
  9
$DIMAUNIT
 70
     0
  9
$DIMADEC
 70
     0
  9
$DIMALTRND
 40
0.0
  9
$DIMAZIN
 70
     0
  9
$DIMDSEP
 70
    46
  9
$DIMATFIT
 70
     3
  9
$DIMFRAC
 70
     0
  9
$DIMLDRBLK
  1

  9
$DIMLUNIT
 70
     6
  9
$DIMLWD
 70
    -2
  9
$DIMLWE
 70
    -2
  9
$DIMTMOVE
 70
     0
  9
$LUNITS
 70
     2
  9
$LUPREC
 70
     4
  9
$SKETCHINC
 40
1.0
  9
$FILLETRAD
 40
10.0
  9
$AUNITS
 70
     0
  9
$AUPREC
 70
     0
  9
$MENU
  1
acad
  9
$ELEVATION
 40
0.0
  9
$PELEVATION
 40
0.0
  9
$THICKNESS
 40
0.0
  9
$LIMCHECK
 70
     0
  9
$CHAMFERA
 40
10.0
  9
$CHAMFERB
 40
10.0
  9
$CHAMFERC
 40
20.0
  9
$CHAMFERD
 40
0.0
  9
$SKPOLY
 70
     0
  9
$TDCREATE
 40
2452055.345122801
  9
$TDUCREATE
 40
2452054.970122801
  9
$TDUPDATE
 40
2454548.574437395
  9
$TDUUPDATE
 40
2454548.199437395
  9
$TDINDWG
 40
0.3985774190
  9
$TDUSRTIMER
 40
0.3985774190
  9
$USRTIMER
 70
     1
  9
$ANGBASE
 50
0.0
  9
$ANGDIR
 70
     0
  9
$PDMODE
 70
     0
  9
$PDSIZE
 40
0.0
  9
$PLINEWID
 40
0.0
  9
$SPLFRAME
 70
     0
  9
$SPLINETYPE
 70
     6
  9
$SPLINESEGS
 70
     8
  9
$HANDSEED
  5
1033
  9
$SURFTAB1
 70
     6
  9
$SURFTAB2
 70
     6
  9
$SURFTYPE
 70
     6
  9
$SURFU
 70
     6
  9
$SURFV
 70
     6
  9
$UCSBASE
  2

  9
$UCSNAME
  2

  9
$UCSORG
 10
0.0
 20
0.0
 30
0.0
  9
$UCSXDIR
 10
1.0
 20
0.0
 30
0.0
  9
$UCSYDIR
 10
0.0
 20
1.0
 30
0.0
  9
$UCSORTHOREF
  2

  9
$UCSORTHOVIEW
 70
     0
  9
$UCSORGTOP
 10
0.0
 20
0.0
 30
0.0
  9
$UCSORGBOTTOM
 10
0.0
 20
0.0
 30
0.0
  9
$UCSORGLEFT
 10
0.0
 20
0.0
 30
0.0
  9
$UCSORGRIGHT
 10
0.0
 20
0.0
 30
0.0
  9
$UCSORGFRONT
 10
0.0
 20
0.0
 30
0.0
  9
$UCSORGBACK
 10
0.0
 20
0.0
 30
0.0
  9
$PUCSBASE
  2

  9
$PUCSNAME
  2

  9
$PUCSORG
 10
0.0
 20
0.0
 30
0.0
  9
$PUCSXDIR
 10
1.0
 20
0.0
 30
0.0
  9
$PUCSYDIR
 10
0.0
 20
1.0
 30
0.0
  9
$PUCSORTHOREF
  2

  9
$PUCSORTHOVIEW
 70
     0
  9
$PUCSORGTOP
 10
0.0
 20
0.0
 30
0.0
  9
$PUCSORGBOTTOM
 10
0.0
 20
0.0
 30
0.0
  9
$PUCSORGLEFT
 10
0.0
 20
0.0
 30
0.0
  9
$PUCSORGRIGHT
 10
0.0
 20
0.0
 30
0.0
  9
$PUCSORGFRONT
 10
0.0
 20
0.0
 30
0.0
  9
$PUCSORGBACK
 10
0.0
 20
0.0
 30
0.0
  9
$USERI1
 70
     0
  9
$USERI2
 70
     0
  9
$USERI3
 70
     0
  9
$USERI4
 70
     0
  9
$USERI5
 70
     0
  9
$USERR1
 40
0.0
  9
$USERR2
 40
0.0
  9
$USERR3
 40
0.0
  9
$USERR4
 40
0.0
  9
$USERR5
 40
0.0
  9
$WORLDVIEW
 70
     1
  9
$SHADEDGE
 70
     3
  9
$SHADEDIF
 70
    70
  9
$TILEMODE
 70
     1
  9
$MAXACTVP
 70
    48
  9
$PINSBASE
 10
0.0
 20
0.0
 30
0.0
  9
$PLIMCHECK
 70
     0
  9
$PEXTMIN
 10
1.000000000000000E+20
 20
1.000000000000000E+20
 30
1.000000000000000E+20
  9
$PEXTMAX
 10
-1.000000000000000E+20
 20
-1.000000000000000E+20
 30
-1.000000000000000E+20
  9
$PLIMMIN
 10
0.0
 20
0.0
  9
$PLIMMAX
 10
420.0
 20
297.0
  9
$UNITMODE
 70
     0
  9
$VISRETAIN
 70
     1
  9
$PLINEGEN
 70
     0
  9
$PSLTSCALE
 70
     1
  9
$TREEDEPTH
 70
  3020
  9
$CMLSTYLE
  2
STANDARD
  9
$CMLJUST
 70
     0
  9
$CMLSCALE
 40
20.0
  9
$PROXYGRAPHICS
 70
     1
  9
$MEASUREMENT
 70
     1
  9
$CELWEIGHT
370
    -1
  9
$ENDCAPS
280
     0
  9
$JOINSTYLE
280
     0
  9
$LWDISPLAY
290
     0
  9
$INSUNITS
 70
     0
  9
$HYPERLINKBASE
  1

  9
$STYLESHEET
  1

  9
$XEDIT
290
     1
  9
$CEPSNTYPE
380
     0
  9
$PSTYLEMODE
290
     1
  9
$FINGERPRINTGUID
  2
{4E7D7703-2F76-4D09-9069-E0A3FF5641C1}
  9
$VERSIONGUID
  2
{63787E40-831D-45F6-B8A5-20CE54304BD6}
  9
$EXTNAMES
290
     1
  9
$PSVPSCALE
 40
0.0
  9
$OLESTARTUP
290
     0
  0
ENDSEC
  0
SECTION
  2
CLASSES
  0
CLASS
  1
LWPOLYLINE
  2
AcDbPolyline
  3
AutoCAD 2000
 90
    32768
280
     0
281
     1
  0
CLASS
  1
ACDBDICTIONARYWDFLT
  2
AcDbDictionaryWithDefault
  3
AutoCAD 2000
 90
        0
280
     0
281
     0
  0
CLASS
  1
ACDBPLACEHOLDER
  2
AcDbPlaceHolder
  3
AutoCAD 2000
 90
        0
280
     0
281
     0
  0
CLASS
  1
LAYOUT
  2
AcDbLayout
  3
AutoCAD 2000
 90
        0
280
     0
281
     0
  0
ENDSEC
  0
SECTION
  2
TABLES
  0
TABLE
  2
VPORT
  5
8
330
0
100
AcDbSymbolTable
 70
     3
  0
VPORT
  5
1032
330
8
100
AcDbSymbolTableRecord
100
AcDbViewportTableRecord
  2
*Active
 70
     0
 10
0.0
 20
0.0
 11
1.0
 21
1.0
 12
4627.872118799587
 22
1246.662713421669
 13
0.0
 23
0.0
 14
10.0
 24
10.0
 15
10.0
 25
10.0
 16
0.0
 26
0.0
 36
1.0
 17
0.0
 27
0.0
 37
0.0
 40
2068.608707350385
 41
1.731203007518796
 42
50.0
 43
0.0
 44
0.0
 50
0.0
 51
0.0
 71
     0
 72
   100
 73
     1
 74
     1
 75
     0
 76
     0
 77
     0
 78
     0
281
     0
 65
     1
110
0.0
120
0.0
130
0.0
111
1.0
121
0.0
131
0.0
112
0.0
122
1.0
132
0.0
 79
     0
146
0.0
  0
ENDTAB
  0
TABLE
  2
LTYPE
  5
5
330
0
100
AcDbSymbolTable
 70
    13
  0
LTYPE
  5
12
330
5
100
AcDbSymbolTableRecord
100
AcDbLinetypeTableRecord
  2
BYBLOCK
 70
     0
  3

 72
    65
 73
     0
 40
0.0
  0
LTYPE
  5
13
330
5
100
AcDbSymbolTableRecord
100
AcDbLinetypeTableRecord
  2
BYLAYER
 70
     0
  3

 72
    65
 73
     0
 40
0.0
  0
LTYPE
  5
14
330
5
100
AcDbSymbolTableRecord
100
AcDbLinetypeTableRecord
  2
CONTINUOUS
 70
     0
  3
Solid line
 72
    65
 73
     0
 40
0.0
  0
LTYPE
  5
AC
330
5
100
AcDbSymbolTableRecord
100
AcDbLinetypeTableRecord
  2
HIDDEN
 70
     0
  3
Hidden __ __ __ __ __ __ __ __ __ __ __ __ __ _
 72
    65
 73
     2
 40
9.524999999999998
 49
6.349999999999999
 74
     0
 49
-3.174999999999999
 74
     0
  0
LTYPE
  5
11D
330
5
100
AcDbSymbolTableRecord
100
AcDbLinetypeTableRecord
  2
BORDER
 70
     0
  3
BORDER
 72
    65
 73
     6
 40
1.75
 49
0.5
 74
     0
 49
-0.25
 74
     0
 49
0.5
 74
     0
 49
-0.25
 74
     0
 49
0.0
 74
     0
 49
-0.25
 74
     0
  0
LTYPE
  5
11E
330
5
100
AcDbSymbolTableRecord
100
AcDbLinetypeTableRecord
  2
CENTER
 70
     0
  3
CENTER
 72
    65
 73
     4
 40
2.0
 49
1.25
 74
     0
 49
-0.25
 74
     0
 49
0.25
 74
     0
 49
-0.25
 74
     0
  0
LTYPE
  5
11F
330
5
100
AcDbSymbolTableRecord
100
AcDbLinetypeTableRecord
  2
DASHDOT
 70
     0
  3
DASHDOT
 72
    65
 73
     4
 40
1.0
 49
0.5
 74
     0
 49
-0.25
 74
     0
 49
0.0
 74
     0
 49
-0.25
 74
     0
  0
LTYPE
  5
120
330
5
100
AcDbSymbolTableRecord
100
AcDbLinetypeTableRecord
  2
DASHED
 70
     0
  3
DASHED
 72
    65
 73
     2
 40
0.75
 49
0.5
 74
     0
 49
-0.25
 74
     0
  0
LTYPE
  5
121
330
5
100
AcDbSymbolTableRecord
100
AcDbLinetypeTableRecord
  2
DIVIDE
 70
     0
  3
DIVIDE
 72
    65
 73
     6
 40
1.25
 49
0.5
 74
     0
 49
-0.25
 74
     0
 49
0.0
 74
     0
 49
-0.25
 74
     0
 49
0.0
 74
     0
 49
-0.25
 74
     0
  0
LTYPE
  5
122
330
5
100
AcDbSymbolTableRecord
100
AcDbLinetypeTableRecord
  2
DOT
 70
     0
  3
DOT
 72
    65
 73
     2
 40
0.25
 49
0.0
 74
     0
 49
-0.25
 74
     0
  0
LTYPE
  5
123
330
5
100
AcDbSymbolTableRecord
100
AcDbLinetypeTableRecord
  2
PHANTOM
 70
     0
  3
PHANTOM
 72
    65
 73
     6
 40
2.5
 49
1.25
 74
     0
 49
-0.25
 74
     0
 49
0.25
 74
     0
 49
-0.25
 74
     0
 49
0.25
 74
     0
 49
-0.25
 74
     0
  0
LTYPE
  5
124
330
5
100
AcDbSymbolTableRecord
100
AcDbLinetypeTableRecord
  2
$INVISIBLE
 70
     0
  3
$INVISIBLE
 72
    65
 73
     2
 40
200.0
 49
-100.0
 74
     0
 49
-100.0
 74
     0
  0
LTYPE
  5
125
330
5
100
AcDbSymbolTableRecord
100
AcDbLinetypeTableRecord
  2
$MARGINS
 70
     0
  3
$MARGINS
 72
    65
 73
     2
 40
0.075
 49
0.05
 74
     0
 49
-0.025
 74
     0
  0
LTYPE
  5
126
330
5
100
AcDbSymbolTableRecord
100
AcDbLinetypeTableRecord
  2
$AUXILIARY
 70
     0
  3
$AUXILIARY
 72
    65
 73
     2
 40
0.1
 49
0.05
 74
     0
 49
-0.05
 74
     0
  0
LTYPE
  5
127
330
5
100
AcDbSymbolTableRecord
100
AcDbLinetypeTableRecord
  2
$CONSTRUCTION
 70
     0
  3
$CONSTRUCTION
 72
    65
 73
     4
 40
0.3
 49
0.2
 74
     0
 49
-0.05
 74
     0
 49
0.0
 74
     0
 49
-0.05
 74
     0
  0
ENDTAB
  0
TABLE
  2
LAYER
  5
2
330
0
100
AcDbSymbolTable
 70
     9
  0
LAYER
  5
E
330
2
100
AcDbSymbolTableRecord
100
AcDbLayerTableRecord
  2
0
 70
     0
 62
     7
  6
CONTINUOUS
370
    -3
390
8F4
  0
LAYER
  5
20
330
2
100
AcDbSymbolTableRecord
100
AcDbLayerTableRecord
  2
DEFPOINTS
 70
     0
 62
     7
  6
CONTINUOUS
290
     0
370
    -3
390
8F4
  0
LAYER
  5
21
330
2
100
AcDbSymbolTableRecord
100
AcDbLayerTableRecord
  2
OBJECT
 70
     0
 62
     7
  6
CONTINUOUS
370
    -3
390
8F4
  0
LAYER
  5
AD
330
2
100
AcDbSymbolTableRecord
100
AcDbLayerTableRecord
  2
KIZIXYUNN
 70
     0
 62
     1
  6
CONTINUOUS
370
    -3
390
8F4
  0
LAYER
  5
AE
330
2
100
AcDbSymbolTableRecord
100
AcDbLayerTableRecord
  2
HOZIXYO
 70
     0
 62
     7
  6
HIDDEN
370
    -3
390
8F4
  0
LAYER
  5
AF
330
2
100
AcDbSymbolTableRecord
100
AcDbLayerTableRecord
  2
WUWAGAKI
 70
     0
 62
     7
  6
CONTINUOUS
370
    -3
390
8F4
  0
LAYER
  5
128
330
2
100
AcDbSymbolTableRecord
100
AcDbLayerTableRecord
  2
$CONSTRUCTION
 70
     0
 62
   254
  6
$CONSTRUCTION
370
    -3
390
8F4
  0
LAYER
  5
7C2
330
2
100
AcDbSymbolTableRecord
100
AcDbLayerTableRecord
  2
上線
 70
     0
 62
     7
  6
CONTINUOUS
370
    -3
390
8F4
  0
LAYER
  5
7C3
330
2
100
AcDbSymbolTableRecord
100
AcDbLayerTableRecord
  2
点線
 70
     0
 62
     5
  6
HIDDEN
370
    -3
390
8F4
  0
ENDTAB
  0
TABLE
  2
STYLE
  5
3
330
0
100
AcDbSymbolTable
 70
     3
  0
STYLE
  5
F
330
3
100
AcDbSymbolTableRecord
100
AcDbTextStyleTableRecord
  2
STANDARD
 70
     0
 40
0.0
 41
1.0
 50
0.0
 71
     0
 42
30.0
  3
MS PMincho.ttf
  4

1001
ACAD
1000
MS PMincho
1071
    32786
  0
STYLE
  5
22
330
3
100
AcDbSymbolTableRecord
100
AcDbTextStyleTableRecord
  2
ADESK1
 70
     0
 40
0.0
 41
1.0
 50
0.0
 71
     0
 42
5.0
  3
romans
  4
bigfont
  0
STYLE
  5
AB
330
3
100
AcDbSymbolTableRecord
100
AcDbTextStyleTableRecord
  2

 70
     1
 40
0.0
 41
1.0
 50
0.0
 71
     0
 42
2.5
  3
ltypeshp.shx
  4

  0
ENDTAB
  0
TABLE
  2
VIEW
  5
6
330
0
100
AcDbSymbolTable
 70
     0
  0
ENDTAB
  0
TABLE
  2
UCS
  5
7
330
0
100
AcDbSymbolTable
 70
     0
  0
ENDTAB
  0
TABLE
  2
APPID
  5
9
330
0
100
AcDbSymbolTable
 70
     5
  0
APPID
  5
10
330
9
100
AcDbSymbolTableRecord
100
AcDbRegAppTableRecord
  2
ACAD
 70
     0
  0
APPID
  5
11B
330
9
100
AcDbSymbolTableRecord
100
AcDbRegAppTableRecord
  2
CONTENTTABDATA
 70
     0
  0
APPID
  5
11C
330
9
100
AcDbSymbolTableRecord
100
AcDbRegAppTableRecord
  2
CONTENTCURRENTTAB
 70
     0
  0
APPID
  5
155
330
9
100
AcDbSymbolTableRecord
100
AcDbRegAppTableRecord
  2
CONTENTBLOCKDESCRIPTION
 70
     0
  0
APPID
  5
156
330
9
100
AcDbSymbolTableRecord
100
AcDbRegAppTableRecord
  2
CONTENTBLOCKICON
 70
     0
  0
ENDTAB
  0
TABLE
  2
DIMSTYLE
  5
A
330
0
100
AcDbSymbolTable
 70
     2
100
AcDbDimStyleTable
 71
     1
340
1D
  0
DIMSTYLE
105
1D
102
{ACAD_REACTORS
330
7F3
330
7F4
102
}
330
A
100
AcDbSymbolTableRecord
100
AcDbDimStyleTableRecord
  2
STANDARD
 70
     0
340
F
  0
DIMSTYLE
105
23
330
A
100
AcDbSymbolTableRecord
100
AcDbDimStyleTableRecord
  2
JIS
 70
     0
 41
2.5
 42
1.0
 43
7.0
 44
1.0
 73
     0
 74
     0
 77
     1
 78
     8
140
2.5
141
0.0
143
0.0394
147
0.0
172
     1
174
     1
175
     1
340
F
  0
ENDTAB
  0
TABLE
  2
BLOCK_RECORD
  5
1
330
0
100
AcDbSymbolTable
 70
     5
  0
BLOCK_RECORD
  5
18
330
1
100
AcDbSymbolTableRecord
100
AcDbBlockTableRecord
  2
*MODEL_SPACE
340
8F7
  0
BLOCK_RECORD
  5
15
330
1
100
AcDbSymbolTableRecord
100
AcDbBlockTableRecord
  2
*PAPER_SPACE
340
8F8
  0
BLOCK_RECORD
  5
24
330
1
100
AcDbSymbolTableRecord
100
AcDbBlockTableRecord
  2
JIS_A4L
340
0
  0
BLOCK_RECORD
  5
129
330
1
100
AcDbSymbolTableRecord
100
AcDbBlockTableRecord
  2
銀杏セラ
340
0
310
2800000020000000200000000100040000000000000200000000000000000000000000000000000000000000000080000080000000808000800000008000800080800000C0C0C000808080000000FF0000FF000000FFFF00FF000000FF00FF00FFFF0000FFFFFF00FFFFFFFFFFFFFFFFFFFFFFFFFFFFFFFFFFFFFFFFFFFFFF
310
FFFFFFFFFFFFFFFFFFFFFFFFFFFFFFFFFFFFFFFFFFFFFFFFFFFFFFFFFFFFFFFFFFFFFFFFFFFFFFFFFFFFFFFFFFFFFFFFFFFFFFFFFFFFFFFFFFFFFFFFFFFFFFFFFFFFFFFFFFFFFFFFFFFFFFFFFFFFFFFFFFFFFFFFFFFFFFFFFFFFFFFFFFFFFFFFFFFFFFFFFFFFFFFFFFFFFFFFFFFFFFFFFFFFFFFFFFFFFFFFFFFFFFFFFFFFFF
310
FFFFFFFFFFFFFFFFFFFFFFFFFFFFFFFFFFFFFFFFFFFFFFFFFFFFFFFFFFFFFFFFFFFFFFFFFFFFFFFFFFFFFFFFFFFFFFFFFFFFFFFFFFFFFFFFFFFFFFFFFFFFFFFFFFFFFFFFFFFFFFFFFFFFFFFFFFFFFFFFFFFFFFFFFFFFFFFFFFFFFFFFFFFFF0FFFFFFFFFFFFFFFFFFFFFFFFFFF0F0FFFFF00F0FFFFFFFFFFFFFFFFFFFFFFFF0
310
FF0F00FFFFFFFFFFFFFFFFFFFFFF0FFFF00FFFFFFFFFFFFFFFFFFFFFFFFFFF0F0FFFFFFFFFFFFFFFFFFFFFFFFFFFFFFFFF0FFFFFFFFFFFFFFFFFFFFFFFFFFFFFFFFFFFFFFFFFFFFFFFFFFFFFFFFFFFFFFFFFFFFFFFFFFFFFFFFFFFFFFFFFFFFFFFFFFFFFFFFFFFFFFFFFFFFFFFFFFFFFFFFFFFFFFFFFFFFFFFFFFFFFFFFFFF
310
FFFFFFFFFFFFFFFFFFFFFFFFFFFFFFFFFFFFFFFFFFFFFFFFFFFFFFFFFFFFFFFFFFFFFFFFFFFFFFFFFFFFFFFFFFFFFFFFFFFFFFFFFFFFFFFFFFFFFFFFFFFFFFFFFFFFFFFFFFFFFFFFFFFFFFFFFFFFFFFFFFFFFFFFFFFFFFFFFFFFFFFFFFFFFFFFFFFFFFFFFFFFFFFFFFFFFFFFA801CE00
  0
BLOCK_RECORD
  5
7A8
330
1
100
AcDbSymbolTableRecord
100
AcDbBlockTableRecord
  2
*D2
340
0
  0
BLOCK_RECORD
  5
7B6
330
1
100
AcDbSymbolTableRecord
100
AcDbBlockTableRecord
  2
*D3
340
0
  0
BLOCK_RECORD
  5
7C4
330
1
100
AcDbSymbolTableRecord
100
AcDbBlockTableRecord
  2
A$C25B460CF
340
0
  0
ENDTAB
  0
ENDSEC
  0
SECTION
  2
BLOCKS
  0
BLOCK
  5
19
330
18
100
AcDbEntity
  8
0
100
AcDbBlockBegin
  2
*MODEL_SPACE
 70
     0
 10
0.0
 20
0.0
 30
0.0
  3
*MODEL_SPACE
  1

  0
ENDBLK
  5
1A
330
18
100
AcDbEntity
  8
0
100
AcDbBlockEnd
  0
BLOCK
  5
16
330
15
100
AcDbEntity
 67
     1
  8
0
100
AcDbBlockBegin
  2
*PAPER_SPACE
 70
     0
 10
0.0
 20
0.0
 30
0.0
  3
*PAPER_SPACE
  1

  0
ENDBLK
  5
17
330
15
100
AcDbEntity
 67
     1
  8
0
100
AcDbBlockEnd
  0
BLOCK
  5
A1
330
24
100
AcDbEntity
  8
0
100
AcDbBlockBegin
  2
JIS_A4L
 70
     2
 10
0.0
 20
0.0
 30
0.0
  3
JIS_A4L
  1

  0
LINE
  5
25
330
24
100
AcDbEntity
  8
0
100
AcDbLine
 10
0.0
 20
0.0
 30
0.0
 11
0.0
 21
10.0
 31
0.0
  0
LINE
  5
26
330
24
100
AcDbEntity
  8
0
100
AcDbLine
 10
0.0
 20
210.0
 30
0.0
 11
25.0
 21
210.0
 31
0.0
  0
LINE
  5
27
330
24
100
AcDbEntity
  8
0
100
AcDbLine
 10
297.0
 20
210.0
 30
0.0
 11
297.0
 21
200.0
 31
0.0
  0
LINE
  5
28
330
24
100
AcDbEntity
  8
0
100
AcDbLine
 10
297.0
 20
0.0
 30
0.0
 11
287.0
 21
0.0
 31
0.0
  0
LINE
  5
29
330
24
100
AcDbEntity
  8
0
100
AcDbLine
 10
25.0
 20
10.0
 30
0.0
 11
25.0
 21
200.0
 31
0.0
  0
LINE
  5
2A
330
24
100
AcDbEntity
  8
0
100
AcDbLine
 10
287.0
 20
10.0
 30
0.0
 11
25.0
 21
10.0
 31
0.0
  0
LINE
  5
2B
330
24
100
AcDbEntity
  8
0
100
AcDbLine
 10
287.0
 20
200.0
 30
0.0
 11
287.0
 21
10.0
 31
0.0
  0
LINE
  5
2C
330
24
100
AcDbEntity
  8
0
100
AcDbLine
 10
25.0
 20
200.0
 30
0.0
 11
287.0
 21
200.0
 31
0.0
  0
LINE
  5
2D
330
24
100
AcDbEntity
  8
0
100
AcDbLine
 10
0.0
 20
200.0
 30
0.0
 11
0.0
 21
210.0
 31
0.0
  0
LINE
  5
2E
330
24
100
AcDbEntity
  8
0
100
AcDbLine
 10
25.0
 20
0.0
 30
0.0
 11
0.0
 21
0.0
 31
0.0
  0
LINE
  5
2F
330
24
100
AcDbEntity
  8
0
100
AcDbLine
 10
297.0
 20
10.0
 30
0.0
 11
297.0
 21
0.0
 31
0.0
  0
LINE
  5
30
330
24
100
AcDbEntity
  8
0
100
AcDbLine
 10
287.0
 20
210.0
 30
0.0
 11
297.0
 21
210.0
 31
0.0
  0
ATTDEF
  5
31
330
24
100
AcDbEntity
  8
0
 62
     0
100
AcDbText
 10
19.0
 20
10.0
 30
0.0
 40
3.0
  1

 50
90.0
  7
ADESK1
100
AcDbAttributeDefinition
  3

  2
USER
 70
     8
  0
ATTDEF
  5
32
330
24
100
AcDbEntity
  8
0
 62
     0
100
AcDbText
 10
19.0
 20
70.0
 30
0.0
 40
3.0
  1

 50
90.0
  7
ADESK1
100
AcDbAttributeDefinition
  3

  2
REVDATE
 70
     8
  0
ATTDEF
  5
33
330
24
100
AcDbEntity
  8
0
 62
     0
100
AcDbText
 10
19.0
 20
118.0
 30
0.0
 40
3.0
  1

 50
90.0
  7
ADESK1
100
AcDbAttributeDefinition
  3

  2
FNAME
 70
     8
  0
LINE
  5
34
330
24
100
AcDbEntity
  8
OBJECT
100
AcDbLine
 10
130.0
 20
16.0
 30
0.0
 11
25.0
 21
16.0
 31
0.0
  0
LINE
  5
35
330
24
100
AcDbEntity
  8
OBJECT
100
AcDbLine
 10
130.0
 20
22.0
 30
0.0
 11
25.0
 21
22.0
 31
0.0
  0
LINE
  5
36
330
24
100
AcDbEntity
  8
OBJECT
100
AcDbLine
 10
130.0
 20
28.0
 30
0.0
 11
25.0
 21
28.0
 31
0.0
  0
LINE
  5
37
330
24
100
AcDbEntity
  8
OBJECT
100
AcDbLine
 10
130.0
 20
34.0
 30
0.0
 11
25.0
 21
34.0
 31
0.0
  0
LINE
  5
38
330
24
100
AcDbEntity
  8
OBJECT
100
AcDbLine
 10
130.0
 20
40.0
 30
0.0
 11
25.0
 21
40.0
 31
0.0
  0
LINE
  5
39
330
24
100
AcDbEntity
  8
OBJECT
100
AcDbLine
 10
28.0
 20
11.53589799999999
 30
0.0
 11
30.0
 21
15.0
 31
0.0
  0
LINE
  5
3A
330
24
100
AcDbEntity
  8
OBJECT
100
AcDbLine
 10
32.0
 20
11.53589799999999
 30
0.0
 11
30.0
 21
15.0
 31
0.0
  0
LINE
  5
3B
330
24
100
AcDbEntity
  8
OBJECT
100
AcDbLine
 10
35.0
 20
10.0
 30
0.0
 11
35.0
 21
40.0
 31
0.0
  0
LINE
  5
3C
330
24
100
AcDbEntity
  8
OBJECT
100
AcDbLine
 10
50.0
 20
10.0
 30
0.0
 11
50.0
 21
40.0
 31
0.0
  0
LINE
  5
3D
330
24
100
AcDbEntity
  8
OBJECT
100
AcDbLine
 10
80.0
 20
10.0
 30
0.0
 11
80.0
 21
40.0
 31
0.0
  0
LINE
  5
3E
330
24
100
AcDbEntity
  8
OBJECT
100
AcDbLine
 10
28.0
 20
11.53589799999999
 30
0.0
 11
32.0
 21
11.53589799999999
 31
0.0
  0
LINE
  5
3F
330
24
100
AcDbEntity
  8
OBJECT
100
AcDbLine
 10
39.5
 20
13.0
 30
0.0
 11
40.49999999999999
 21
13.0
 31
0.0
  0
LINE
  5
40
330
24
100
AcDbEntity
  8
OBJECT
100
AcDbLine
 10
44.5
 20
13.0
 30
0.0
 11
45.49999999999999
 21
13.0
 31
0.0
  0
LINE
  5
41
330
24
100
AcDbEntity
  8
OBJECT
100
AcDbLine
 10
32.0
 20
17.535898
 30
0.0
 11
30.0
 21
20.99999999999999
 31
0.0
  0
LINE
  5
42
330
24
100
AcDbEntity
  8
OBJECT
100
AcDbLine
 10
28.0
 20
17.535898
 30
0.0
 11
32.0
 21
17.535898
 31
0.0
  0
LINE
  5
43
330
24
100
AcDbEntity
  8
OBJECT
100
AcDbLine
 10
28.0
 20
17.535898
 30
0.0
 11
30.0
 21
20.99999999999999
 31
0.0
  0
LINE
  5
44
330
24
100
AcDbEntity
  8
OBJECT
100
AcDbLine
 10
32.0
 20
23.53589799999999
 30
0.0
 11
30.0
 21
26.99999999999999
 31
0.0
  0
LINE
  5
45
330
24
100
AcDbEntity
  8
OBJECT
100
AcDbLine
 10
28.0
 20
23.53589799999999
 30
0.0
 11
32.0
 21
23.53589799999999
 31
0.0
  0
LINE
  5
46
330
24
100
AcDbEntity
  8
OBJECT
100
AcDbLine
 10
28.0
 20
23.53589799999999
 30
0.0
 11
30.0
 21
26.99999999999999
 31
0.0
  0
LINE
  5
47
330
24
100
AcDbEntity
  8
OBJECT
100
AcDbLine
 10
28.0
 20
35.53589799999999
 30
0.0
 11
30.0
 21
39.0
 31
0.0
  0
LINE
  5
48
330
24
100
AcDbEntity
  8
OBJECT
100
AcDbLine
 10
32.0
 20
35.53589799999999
 30
0.0
 11
30.0
 21
39.0
 31
0.0
  0
LINE
  5
49
330
24
100
AcDbEntity
  8
OBJECT
100
AcDbLine
 10
28.0
 20
35.53589799999999
 30
0.0
 11
32.0
 21
35.53589799999999
 31
0.0
  0
LINE
  5
4A
330
24
100
AcDbEntity
  8
OBJECT
100
AcDbLine
 10
32.0
 20
29.53589799999999
 30
0.0
 11
30.0
 21
33.0
 31
0.0
  0
LINE
  5
4B
330
24
100
AcDbEntity
  8
OBJECT
100
AcDbLine
 10
28.0
 20
29.53589799999999
 30
0.0
 11
32.0
 21
29.53589799999999
 31
0.0
  0
LINE
  5
4C
330
24
100
AcDbEntity
  8
OBJECT
100
AcDbLine
 10
28.0
 20
29.53589799999999
 30
0.0
 11
30.0
 21
33.0
 31
0.0
  0
LINE
  5
4D
330
24
100
AcDbEntity
  8
OBJECT
100
AcDbLine
 10
39.5
 20
19.0
 30
0.0
 11
40.49999999999999
 21
19.0
 31
0.0
  0
LINE
  5
4E
330
24
100
AcDbEntity
  8
OBJECT
100
AcDbLine
 10
44.5
 20
19.0
 30
0.0
 11
45.49999999999999
 21
19.0
 31
0.0
  0
LINE
  5
4F
330
24
100
AcDbEntity
  8
OBJECT
100
AcDbLine
 10
39.5
 20
25.0
 30
0.0
 11
40.49999999999999
 21
25.0
 31
0.0
  0
LINE
  5
50
330
24
100
AcDbEntity
  8
OBJECT
100
AcDbLine
 10
44.5
 20
25.0
 30
0.0
 11
45.49999999999999
 21
25.0
 31
0.0
  0
LINE
  5
51
330
24
100
AcDbEntity
  8
OBJECT
100
AcDbLine
 10
39.5
 20
31.0
 30
0.0
 11
40.49999999999999
 21
31.0
 31
0.0
  0
LINE
  5
52
330
24
100
AcDbEntity
  8
OBJECT
100
AcDbLine
 10
39.5
 20
37.0
 30
0.0
 11
40.49999999999999
 21
37.0
 31
0.0
  0
LINE
  5
53
330
24
100
AcDbEntity
  8
OBJECT
100
AcDbLine
 10
44.5
 20
31.0
 30
0.0
 11
45.49999999999999
 21
31.0
 31
0.0
  0
LINE
  5
54
330
24
100
AcDbEntity
  8
OBJECT
100
AcDbLine
 10
44.5
 20
37.0
 30
0.0
 11
45.49999999999999
 21
37.0
 31
0.0
  0
LINE
  5
55
330
24
100
AcDbEntity
  8
OBJECT
100
AcDbLine
 10
120.0
 20
10.0
 30
0.0
 11
120.0
 21
40.0
 31
0.0
  0
LINE
  5
56
330
24
100
AcDbEntity
  8
OBJECT
100
AcDbLine
 10
130.0
 20
40.0
 30
0.0
 11
130.0
 21
10.0
 31
0.0
  0
LINE
  5
57
330
24
100
AcDbEntity
  8
0
100
AcDbLine
 10
156.0
 20
10.0
 30
0.0
 11
156.0
 21
0.0
 31
0.0
  0
LINE
  5
58
330
24
100
AcDbEntity
  8
0
100
AcDbLine
 10
156.0
 20
200.0
 30
0.0
 11
156.0
 21
210.0
 31
0.0
  0
LINE
  5
59
330
24
100
AcDbEntity
  8
0
100
AcDbLine
 10
287.0
 20
105.0
 30
0.0
 11
297.0
 21
105.0
 31
0.0
  0
LINE
  5
5A
330
24
100
AcDbEntity
  8
0
100
AcDbLine
 10
25.0
 20
105.0
 30
0.0
 11
0.0
 21
105.0
 31
0.0
  0
TEXT
  5
5B
330
24
100
AcDbEntity
  8
0
100
AcDbText
 10
1.0
 20
1.0
 30
0.0
 40
3.0
  1
この図枠はサンプルです。社内の規格やプロッタの出力範囲に合わせて適当に変更してご利用ください。
  7
ADESK1
100
AcDbText
  0
LINE
  5
5C
330
24
100
AcDbEntity
  8
0
100
AcDbLine
 10
25.0
 20
152.5
 30
0.0
 11
20.0
 21
152.5
 31
0.0
  0
LINE
  5
5D
330
24
100
AcDbEntity
  8
0
100
AcDbLine
 10
25.0
 20
105.0
 30
0.0
 11
20.0
 21
105.0
 31
0.0
  0
LINE
  5
5E
330
24
100
AcDbEntity
  8
0
100
AcDbLine
 10
25.0
 20
57.5
 30
0.0
 11
20.0
 21
57.5
 31
0.0
  0
LINE
  5
5F
330
24
100
AcDbEntity
  8
0
100
AcDbLine
 10
68.66666666666668
 20
10.0
 30
0.0
 11
68.66666666666668
 21
5.0
 31
0.0
  0
LINE
  5
60
330
24
100
AcDbEntity
  8
0
100
AcDbLine
 10
112.3333333333333
 20
10.0
 30
0.0
 11
112.3333333333333
 21
5.0
 31
0.0
  0
LINE
  5
61
330
24
100
AcDbEntity
  8
0
100
AcDbLine
 10
156.0
 20
10.0
 30
0.0
 11
156.0
 21
5.0
 31
0.0
  0
LINE
  5
62
330
24
100
AcDbEntity
  8
0
100
AcDbLine
 10
199.6666666666666
 20
10.0
 30
0.0
 11
199.6666666666666
 21
5.0
 31
0.0
  0
LINE
  5
63
330
24
100
AcDbEntity
  8
0
100
AcDbLine
 10
243.3333333333333
 20
10.0
 30
0.0
 11
243.3333333333333
 21
5.0
 31
0.0
  0
LINE
  5
64
330
24
100
AcDbEntity
  8
0
100
AcDbLine
 10
287.0
 20
57.5
 30
0.0
 11
292.0
 21
57.5
 31
0.0
  0
LINE
  5
65
330
24
100
AcDbEntity
  8
0
100
AcDbLine
 10
287.0
 20
105.0
 30
0.0
 11
292.0
 21
105.0
 31
0.0
  0
LINE
  5
66
330
24
100
AcDbEntity
  8
0
100
AcDbLine
 10
287.0
 20
152.5
 30
0.0
 11
292.0
 21
152.5
 31
0.0
  0
LINE
  5
67
330
24
100
AcDbEntity
  8
0
100
AcDbLine
 10
243.3333333333333
 20
200.0
 30
0.0
 11
243.3333333333333
 21
205.0
 31
0.0
  0
LINE
  5
68
330
24
100
AcDbEntity
  8
0
100
AcDbLine
 10
199.6666666666666
 20
200.0
 30
0.0
 11
199.6666666666666
 21
205.0
 31
0.0
  0
LINE
  5
69
330
24
100
AcDbEntity
  8
0
100
AcDbLine
 10
156.0
 20
200.0
 30
0.0
 11
156.0
 21
205.0
 31
0.0
  0
LINE
  5
6A
330
24
100
AcDbEntity
  8
0
100
AcDbLine
 10
112.3333333333333
 20
200.0
 30
0.0
 11
112.3333333333333
 21
205.0
 31
0.0
  0
LINE
  5
6B
330
24
100
AcDbEntity
  8
0
100
AcDbLine
 10
68.66666666666666
 20
200.0
 30
0.0
 11
68.66666666666666
 21
205.0
 31
0.0
  0
TEXT
  5
6C
330
24
100
AcDbEntity
  8
0
100
AcDbText
 10
45.61904761904761
 20
201.0
 30
0.0
 40
3.0
  1
1
  7
ADESK1
 72
     1
 11
46.83333333333332
 21
201.0
 31
0.0
100
AcDbText
  0
TEXT
  5
6D
330
24
100
AcDbEntity
  8
0
100
AcDbText
 10
21.66139736003921
 20
176.25
 30
0.0
 40
3.0
  1
A
  7
ADESK1
 72
     1
 11
22.94711164575349
 21
176.25
 31
0.0
100
AcDbText
  0
TEXT
  5
6E
330
24
100
AcDbEntity
  8
0
100
AcDbText
 10
89.07142857142856
 20
201.0
 30
0.0
 40
3.0
  1
2
  7
ADESK1
 72
     1
 11
90.5
 21
201.0
 31
0.0
100
AcDbText
  0
TEXT
  5
6F
330
24
100
AcDbEntity
  8
0
100
AcDbText
 10
132.7380952380952
 20
201.0
 30
0.0
 40
3.0
  1
3
  7
ADESK1
 72
     1
 11
134.1666666666666
 21
201.0
 31
0.0
100
AcDbText
  0
TEXT
  5
70
330
24
100
AcDbEntity
  8
0
100
AcDbText
 10
176.3333333333333
 20
201.0
 30
0.0
 40
3.0
  1
4
  7
ADESK1
 72
     1
 11
177.8333333333333
 21
201.0
 31
0.0
100
AcDbText
  0
TEXT
  5
71
330
24
100
AcDbEntity
  8
0
100
AcDbText
 10
220.0714285714286
 20
201.0
 30
0.0
 40
3.0
  1
5
  7
ADESK1
 72
     1
 11
221.4999999999999
 21
201.0
 31
0.0
100
AcDbText
  0
TEXT
  5
72
330
24
100
AcDbEntity
  8
0
100
AcDbText
 10
263.6666666666666
 20
201.0
 30
0.0
 40
3.0
  1
6
  7
ADESK1
 72
     1
 11
265.1666666666666
 21
201.0
 31
0.0
100
AcDbText
  0
TEXT
  5
73
330
24
100
AcDbEntity
  8
0
100
AcDbText
 10
21.37568307432492
 20
128.75
 30
0.0
 40
3.0
  1
B
  7
ADESK1
 72
     1
 11
22.94711164575349
 21
128.75
 31
0.0
100
AcDbText
  0
TEXT
  5
74
330
24
100
AcDbEntity
  8
0
100
AcDbText
 10
21.44711164575349
 20
81.25
 30
0.0
 40
3.0
  1
C
  7
ADESK1
 72
     1
 11
22.94711164575349
 21
81.25
 31
0.0
100
AcDbText
  0
TEXT
  5
75
330
24
100
AcDbEntity
  8
0
100
AcDbText
 10
21.37568307432492
 20
33.75
 30
0.0
 40
3.0
  1
D
  7
ADESK1
 72
     1
 11
22.94711164575349
 21
33.75
 31
0.0
100
AcDbText
  0
TEXT
  5
76
330
24
100
AcDbEntity
  8
0
100
AcDbText
 10
45.61904761904759
 20
6.230338100985607
 30
0.0
 40
3.0
  1
1
  7
ADESK1
 72
     1
 11
46.83333333333331
 21
6.230338100985607
 31
0.0
100
AcDbText
  0
TEXT
  5
77
330
24
100
AcDbEntity
  8
0
100
AcDbText
 10
89.07142857142856
 20
6.230338100985607
 30
0.0
 40
3.0
  1
2
  7
ADESK1
 72
     1
 11
90.5
 21
6.230338100985607
 31
0.0
100
AcDbText
  0
TEXT
  5
78
330
24
100
AcDbEntity
  8
0
100
AcDbText
 10
132.7380952380952
 20
6.230338100985607
 30
0.0
 40
3.0
  1
3
  7
ADESK1
 72
     1
 11
134.1666666666666
 21
6.230338100985607
 31
0.0
100
AcDbText
  0
TEXT
  5
79
330
24
100
AcDbEntity
  8
0
100
AcDbText
 10
176.3333333333333
 20
6.230338100985607
 30
0.0
 40
3.0
  1
4
  7
ADESK1
 72
     1
 11
177.8333333333333
 21
6.230338100985607
 31
0.0
100
AcDbText
  0
TEXT
  5
7A
330
24
100
AcDbEntity
  8
0
100
AcDbText
 10
220.0714285714286
 20
6.230338100985607
 30
0.0
 40
3.0
  1
5
  7
ADESK1
 72
     1
 11
221.4999999999999
 21
6.230338100985607
 31
0.0
100
AcDbText
  0
TEXT
  5
7B
330
24
100
AcDbEntity
  8
0
100
AcDbText
 10
263.6666666666666
 20
6.230338100985607
 30
0.0
 40
3.0
  1
6
  7
ADESK1
 72
     1
 11
265.1666666666666
 21
6.230338100985607
 31
0.0
100
AcDbText
  0
TEXT
  5
7C
330
24
100
AcDbEntity
  8
0
100
AcDbText
 10
287.9530581679809
 20
176.25
 30
0.0
 40
3.0
  1
A
  7
ADESK1
 72
     1
 11
289.2387724536952
 21
176.25
 31
0.0
100
AcDbText
  0
TEXT
  5
7D
330
24
100
AcDbEntity
  8
0
100
AcDbText
 10
287.6673438822666
 20
128.75
 30
0.0
 40
3.0
  1
B
  7
ADESK1
 72
     1
 11
289.2387724536952
 21
128.75
 31
0.0
100
AcDbText
  0
TEXT
  5
7E
330
24
100
AcDbEntity
  8
0
100
AcDbText
 10
287.7387724536952
 20
81.25
 30
0.0
 40
3.0
  1
C
  7
ADESK1
 72
     1
 11
289.2387724536952
 21
81.25
 31
0.0
100
AcDbText
  0
TEXT
  5
7F
330
24
100
AcDbEntity
  8
0
100
AcDbText
 10
287.6673438822666
 20
33.75
 30
0.0
 40
3.0
  1
D
  7
ADESK1
 72
     1
 11
289.2387724536952
 21
33.75
 31
0.0
100
AcDbText
  0
LINE
  5
80
330
24
100
AcDbEntity
  8
0
 62
     0
100
AcDbLine
 10
157.2978723404242
 20
49.00000000000036
 30
0.0
 11
287.0
 21
49.00000000000036
 31
0.0
  0
LINE
  5
81
330
24
100
AcDbEntity
  8
0
 62
     0
100
AcDbLine
 10
157.2978723404242
 20
13.00000000000004
 30
0.0
 11
287.0
 21
13.00000000000004
 31
0.0
  0
LINE
  5
82
330
24
100
AcDbEntity
  8
0
 62
     0
100
AcDbLine
 10
157.2978723404242
 20
37.00000000000024
 30
0.0
 11
287.0
 21
37.00000000000024
 31
0.0
  0
LINE
  5
83
330
24
100
AcDbEntity
  8
0
 62
     0
100
AcDbLine
 10
195.1276595744673
 20
22.00000000000012
 30
0.0
 11
287.0
 21
22.00000000000012
 31
0.0
  0
LINE
  5
84
330
24
100
AcDbEntity
  8
0
 62
     0
100
AcDbLine
 10
157.2978723404242
 20
10.0
 30
0.0
 11
287.0
 21
10.0
 31
0.0
  0
LINE
  5
85
330
24
100
AcDbEntity
  8
0
 62
     0
100
AcDbLine
 10
287.0
 20
49.00000000000036
 30
0.0
 11
157.2978723404242
 21
49.00000000000036
 31
0.0
  0
LINE
  5
86
330
24
100
AcDbEntity
  8
0
 62
     0
100
AcDbLine
 10
180.7163120567365
 20
37.00000000000024
 30
0.0
 11
180.7163120567365
 21
10.0
 31
0.0
  0
LINE
  5
87
330
24
100
AcDbEntity
  8
0
 62
     0
100
AcDbLine
 10
162.702127659573
 20
37.00000000000024
 30
0.0
 11
162.702127659573
 21
10.0
 31
0.0
  0
LINE
  5
88
330
24
100
AcDbEntity
  8
0
 62
     0
100
AcDbLine
 10
189.7234042553184
 20
37.00000000000024
 30
0.0
 11
189.7234042553184
 21
10.0
 31
0.0
  0
LINE
  5
89
330
24
100
AcDbEntity
  8
0
 62
     0
100
AcDbLine
 10
195.1276595744673
 20
25.00000000000012
 30
0.0
 11
195.1276595744673
 21
10.0
 31
0.0
  0
LINE
  5
8A
330
24
100
AcDbEntity
  8
0
 62
     0
100
AcDbLine
 10
157.2978723404242
 20
49.00000000000036
 30
0.0
 11
157.2978723404242
 21
10.0
 31
0.0
  0
LINE
  5
8B
330
24
100
AcDbEntity
  8
0
 62
     0
100
AcDbLine
 10
225.7517730496447
 20
49.00000000000036
 30
0.0
 11
225.7517730496447
 21
10.0
 31
0.0
  0
LINE
  5
8C
330
24
100
AcDbEntity
  8
0
 62
     0
100
AcDbLine
 10
205.7659574468077
 20
22.00000000000007
 30
0.0
 11
205.7659574468077
 21
10.0
 31
0.0
  0
LINE
  5
8D
330
24
100
AcDbEntity
  8
0
 62
     0
100
AcDbLine
 10
216.4042553191484
 20
22.00000000000007
 30
0.0
 11
216.4042553191484
 21
10.0
 31
0.0
  0
LINE
  5
8E
330
24
100
AcDbEntity
  8
0
 62
     0
100
AcDbLine
 10
157.2978723404242
 20
16.00000000000008
 30
0.0
 11
195.1276595744673
 21
16.00000000000008
 31
0.0
  0
LINE
  5
8F
330
24
100
AcDbEntity
  8
0
 62
     0
100
AcDbLine
 10
157.2978723404242
 20
10.0
 30
0.0
 11
157.2978723404242
 21
13.00000000000004
 31
0.0
  0
TEXT
  5
90
330
24
100
AcDbEntity
  8
0
 62
     0
100
AcDbText
 10
198.7174935280942
 20
10.48329012996929
 30
0.0
 40
1.791674070777747
  1
製図
  7
ADESK1
 72
     1
 11
200.5688900678978
 21
10.48329012996929
 31
0.0
100
AcDbText
  0
TEXT
  5
91
330
24
100
AcDbEntity
  8
0
 62
     0
100
AcDbText
 10
209.2960689314087
 20
10.48329012996929
 30
0.0
 40
1.791674070777747
  1
設計
  7
ADESK1
 72
     1
 11
211.2071879402383
 21
10.48329012996929
 31
0.0
100
AcDbText
  0
TEXT
  5
92
330
24
100
AcDbEntity
  8
0
 62
     0
100
AcDbText
 10
219.2447163844405
 20
10.55220101068186
 30
0.0
 40
1.791674070777747
  1
照査
  7
ADESK1
 72
     1
 11
221.1558353932701
 21
10.55220101068186
 31
0.0
100
AcDbText
  0
LINE
  5
93
330
24
100
AcDbEntity
  8
0
 62
     0
100
AcDbLine
 10
157.2978723404242
 20
25.00000000000012
 30
0.0
 11
195.1276595744673
 21
25.00000000000012
 31
0.0
  0
LINE
  5
94
330
24
100
AcDbEntity
  8
0
 62
     0
100
AcDbLine
 10
157.2978723404242
 20
22.00000000000007
 30
0.0
 11
195.1276595744673
 21
22.00000000000012
 31
0.0
  0
LINE
  5
95
330
24
100
AcDbEntity
  8
0
 62
     0
100
AcDbLine
 10
157.2978723404242
 20
19.00000000000007
 30
0.0
 11
195.1276595744673
 21
19.00000000000012
 31
0.0
  0
LINE
  5
96
330
24
100
AcDbEntity
  8
0
 62
     0
100
AcDbLine
 10
157.2978723404242
 20
34.00000000000024
 30
0.0
 11
225.7517730496447
 21
34.00000000000024
 31
0.0
  0
LINE
  5
97
330
24
100
AcDbEntity
  8
0
 62
     0
100
AcDbLine
 10
157.2978723404242
 20
31.0000000000002
 30
0.0
 11
225.7517730496447
 21
31.0000000000002
 31
0.0
  0
LINE
  5
98
330
24
100
AcDbEntity
  8
0
 62
     0
100
AcDbLine
 10
157.2978723404242
 20
28.00000000000015
 30
0.0
 11
225.7517730496447
 21
28.00000000000015
 31
0.0
  0
LINE
  5
99
330
24
100
AcDbEntity
  8
0
 62
     0
100
AcDbLine
 10
195.1276595744673
 20
25.00000000000012
 30
0.0
 11
225.7517730496447
 21
25.00000000000012
 31
0.0
  0
LINE
  5
9A
330
24
100
AcDbEntity
  8
0
 62
     0
100
AcDbLine
 10
195.1276595744673
 20
49.00000000000036
 30
0.0
 11
195.1276595744673
 21
25.00000000000012
 31
0.0
  0
LINE
  5
9B
330
24
100
AcDbEntity
  8
0
 62
     0
100
AcDbLine
 10
202.3333333333325
 20
37.00000000000024
 30
0.0
 11
202.3333333333325
 21
25.00000000000012
 31
0.0
  0
LINE
  5
9C
330
24
100
AcDbEntity
  8
0
 62
     0
100
AcDbLine
 10
213.1418439716305
 20
49.00000000000036
 30
0.0
 11
213.1418439716305
 21
22.00000000000012
 31
0.0
  0
LINE
  5
9D
330
24
100
AcDbEntity
  8
0
 62
     0
100
AcDbLine
 10
279.7943262411347
 20
22.00000000000012
 30
0.0
 11
279.7943262411347
 21
10.0
 31
0.0
  0
LINE
  5
9E
330
24
100
AcDbEntity
  8
0
 62
     0
100
AcDbLine
 10
287.0
 20
49.00000000000036
 30
0.0
 11
287.0
 21
10.0
 31
0.0
  0
LINE
  5
9F
330
24
100
AcDbEntity
  8
0
 62
     0
100
AcDbLine
 10
287.0
 20
10.0
 30
0.0
 11
287.0
 21
49.00000000000036
 31
0.0
  0
LINE
  5
A0
330
24
100
AcDbEntity
  8
0
 62
     0
100
AcDbLine
 10
279.7943262411347
 20
16.00000000000008
 30
0.0
 11
287.0
 21
16.00000000000008
 31
0.0
  0
ENDBLK
  5
A2
330
24
100
AcDbEntity
  8
0
100
AcDbBlockEnd
  0
BLOCK
  5
153
330
129
100
AcDbEntity
  8
0
100
AcDbBlockBegin
  2
銀杏セラ
 70
     0
 10
0.0
 20
0.0
 30
0.0
  3
銀杏セラ
  1

  0
ARC
  5
12A
330
129
100
AcDbEntity
  8
0
  6
Continuous
 62
     7
100
AcDbCircle
 10
1158.401559
 20
1079.828204
 30
0.0
 40
5.106866
100
AcDbArc
 50
180.0
 51
0.0
  0
ARC
  5
12B
330
129
100
AcDbEntity
  8
0
  6
Continuous
 62
     7
100
AcDbCircle
 10
1158.401618999999
 20
1097.198061
 30
0.0
 40
7.473444
100
AcDbArc
 50
0.0
 51
180.0
  0
LINE
  5
12C
330
129
100
AcDbEntity
  8
0
  6
Continuous
 62
     7
100
AcDbLine
 10
1150.896772
 20
1097.182931
 30
0.0
 11
1153.249713
 21
1079.815826
 31
0.0
  0
LINE
  5
12D
330
129
100
AcDbEntity
  8
0
  6
Continuous
 62
     7
100
AcDbLine
 10
1165.845742999999
 20
1097.546064
 30
0.0
 11
1163.544385
 21
1079.776535999999
 31
0.0
  0
LINE
  5
12E
330
129
100
AcDbEntity
  8
0
  6
Continuous
 62
     7
100
AcDbLine
 10
1186.622564
 20
1046.45362
 30
0.0
 11
1230.962544999999
 21
1058.381333999999
 31
0.0
  0
ARC
  5
12F
330
129
100
AcDbEntity
  8
0
  6
Continuous
 62
     7
100
AcDbCircle
 10
1158.385902999999
 20
1038.857792999999
 30
0.0
 40
76.5
100
AcDbArc
 50
16.459958
 51
41.820937
  0
ARC
  5
130
330
129
100
AcDbEntity
  8
0
  6
Continuous
 62
     7
100
AcDbCircle
 10
1158.385902999999
 20
1038.857792999999
 30
0.0
 40
76.5
100
AcDbArc
 50
45.412755
 51
69.085133
  0
ARC
  5
131
330
129
100
AcDbEntity
  8
0
  6
Continuous
 62
     7
100
AcDbCircle
 10
1158.385902999999
 20
1038.857792999999
 30
0.0
 40
76.5
100
AcDbArc
 50
74.815618
 51
101.934035
  0
ARC
  5
132
330
129
100
AcDbEntity
  8
0
  6
Continuous
 62
     7
100
AcDbCircle
 10
1158.385902999999
 20
1038.857792999999
 30
0.0
 40
76.5
100
AcDbArc
 50
108.6119669999999
 51
134.499505
  0
ARC
  5
133
330
129
100
AcDbEntity
  8
0
  6
Continuous
 62
     7
100
AcDbCircle
 10
1158.385902999999
 20
1038.857792999999
 30
0.0
 40
76.5
100
AcDbArc
 50
137.90777
 51
162.983205
  0
LINE
  5
134
330
129
100
AcDbEntity
  8
0
  6
Continuous
 62
     7
100
AcDbLine
 10
1146.296113
 20
1042.172168
 30
0.0
 11
1085.903493999999
 21
1058.7284
 31
0.0
  0
ARC
  5
135
330
129
100
AcDbEntity
  8
0
  6
Continuous
 62
     7
100
AcDbCircle
 10
1122.663037
 20
1058.946749
 30
0.0
 40
5.106866
100
AcDbArc
 50
240.294995
 51
60.294995
  0
ARC
  5
136
330
129
100
AcDbEntity
  8
0
  6
Continuous
 62
     7
100
AcDbCircle
 10
1107.575814
 20
1067.554166
 30
0.0
 40
7.473444
100
AcDbArc
 50
60.294995
 51
240.294995
  0
LINE
  5
137
330
129
100
AcDbEntity
  8
0
  6
Continuous
 62
     7
100
AcDbLine
 10
1103.870044999999
 20
1061.028046
 30
0.0
 11
1120.120871
 21
1054.465783
 31
0.0
  0
LINE
  5
138
330
129
100
AcDbEntity
  8
0
  6
Continuous
 62
     7
100
AcDbLine
 10
1110.962363
 20
1074.192491999999
 30
0.0
 11
1125.256364
 21
1063.388143999999
 31
0.0
  0
ARC
  5
139
330
129
100
AcDbEntity
  8
0
  6
Continuous
 62
     7
100
AcDbCircle
 10
1137.059283
 20
1073.992347999999
 30
0.0
 40
5.106866
100
AcDbArc
 50
210.7627199999999
 51
30.76271999999999
  0
ARC
  5
13A
330
129
100
AcDbEntity
  8
0
  6
Continuous
 62
     7
100
AcDbCircle
 10
1128.174933
 20
1088.918174
 30
0.0
 40
7.473444
100
AcDbArc
 50
30.76271999999999
 51
210.76272
  0
LINE
  5
13B
330
129
100
AcDbEntity
  8
0
  6
Continuous
 62
     7
100
AcDbLine
 10
1121.73381
 20
1085.066564
 30
0.0
 11
1132.638669999999
 21
1071.346626
 31
0.0
  0
LINE
  5
13C
330
129
100
AcDbEntity
  8
0
  6
Continuous
 62
     7
100
AcDbLine
 10
1134.393618999999
 20
1093.024758999999
 30
0.0
 11
1141.504904
 21
1076.578422
 31
0.0
  0
ARC
  5
13D
330
129
100
AcDbEntity
  8
0
  6
Continuous
 62
     7
100
AcDbCircle
 10
1193.862949
 20
1059.135399
 30
0.0
 40
5.106866
100
AcDbArc
 50
119.4758889999999
 51
299.4758889999999
  0
ARC
  5
13E
330
129
100
AcDbEntity
  8
0
  6
Continuous
 62
     7
100
AcDbCircle
 10
1208.984531
 20
1067.682311
 30
0.0
 40
7.473444
100
AcDbArc
 50
299.4758889999999
 51
119.4758889999999
  0
LINE
  5
13F
330
129
100
AcDbEntity
  8
0
  6
Continuous
 62
     7
100
AcDbLine
 10
1205.278544
 20
1074.208307
 30
0.0
 11
1191.31717
 21
1063.614315
 31
0.0
  0
LINE
  5
140
330
129
100
AcDbEntity
  8
0
  6
Continuous
 62
     7
100
AcDbLine
 10
1212.950424
 20
1061.372970999999
 30
0.0
 11
1196.348533
 21
1054.632822
 31
0.0
  0
ARC
  5
141
330
129
100
AcDbEntity
  8
0
  6
Continuous
 62
     7
100
AcDbCircle
 10
1179.351402999999
 20
1074.192464
 30
0.0
 40
5.106866
100
AcDbArc
 50
154.563579
 51
334.563579
  0
ARC
  5
142
330
129
100
AcDbEntity
  8
0
  6
Continuous
 62
     7
100
AcDbCircle
 10
1186.811973
 20
1089.878504
 30
0.0
 40
7.473444
100
AcDbArc
 50
334.563579
 51
154.563579
  0
LINE
  5
143
330
129
100
AcDbEntity
  8
0
  6
Continuous
 62
     7
100
AcDbLine
 10
1180.028128
 20
1093.088242
 30
0.0
 11
1174.693648
 21
1076.394051999999
 31
0.0
  0
LINE
  5
144
330
129
100
AcDbEntity
  8
0
  6
Continuous
 62
     7
100
AcDbLine
 10
1193.683951999999
 20
1086.995450999999
 30
0.0
 11
1183.973503999999
 21
1071.936913
 31
0.0
  0
ARC
  5
145
330
129
100
AcDbEntity
  8
0
  6
Continuous
 62
     7
100
AcDbCircle
 10
1198.911383
 20
1011.474788
 30
0.0
 40
37.068027
100
AcDbArc
 50
108.666463
 51
161.2355639999999
  0
ARC
  5
146
330
129
100
AcDbEntity
  8
0
  6
Continuous
 62
     7
100
AcDbCircle
 10
1030.879359999999
 20
-1082.414355999999
 30
359.528135
 40
12.695875
210
0.3152198879770185
220
0.0
230
0.9490186627373331
100
AcDbArc
 50
201.801335
 51
332.3558869999999
1001
ACAD
1000
TCW40_ELL_ARC
1002
{
1040
1140.56189
1040
1030.879395
1040
0.0
1040
0.0
1040
-12.695875
1040
0.0
1040
0.0
1040
0.0
1040
1.0
1040
0.949019
1040
0.3805050000000001
1040
2.659111999999999
1002
}
  0
ARC
  5
147
330
129
100
AcDbEntity
  8
0
  6
Continuous
 62
     7
100
AcDbCircle
 10
1033.145253
 20
-961.8559220000001
 30
621.4373649999999
 40
24.230002
210
0.5426730249453228
220
0.0
230
0.8399440386101284
100
AcDbArc
 50
198.521691
 51
247.069113
1001
ACAD
1000
TCW40_ELL_ARC
1002
{
1040
1145.142456
1040
1033.145264
1040
0.0
1040
0.0
1040
-24.230001
1040
0.0
1040
0.0
1040
0.0
1040
1.0
1040
0.839944
1040
0.323264
1040
1.170576999999999
1002
}
  0
ARC
  5
148
330
129
100
AcDbEntity
  8
0
  6
Continuous
 62
     7
100
AcDbCircle
 10
1159.019242
 20
1022.357663
 30
0.0
 40
14.271426
100
AcDbArc
 50
193.1781909999999
 51
238.465208
  0
LINE
  5
149
330
129
100
AcDbEntity
  8
0
  6
Continuous
 62
     7
100
AcDbLine
 10
1208.812702999999
 20
1089.927034
 30
0.0
 11
1212.119055
 21
1093.291392
 31
0.0
  0
ARC
  5
14A
330
129
100
AcDbEntity
  8
0
  6
Continuous
 62
     7
100
AcDbCircle
 10
1212.00961
 20
1086.726735
 30
0.0
 40
4.548432
100
AcDbArc
 50
41.689058
 51
133.939088
  0
ARC
  5
14B
330
129
100
AcDbEntity
  8
0
  6
Continuous
 62
     7
100
AcDbCircle
 10
1229.560240999999
 20
1060.131328999999
 30
0.0
 40
2.144911
100
AcDbArc
 50
304.562525
 51
16.85839899999999
  0
ARC
  5
14C
330
129
100
AcDbEntity
  8
0
  6
Continuous
 62
     7
100
AcDbCircle
 10
-1182.758275
 20
-1022.519108999999
 30
411.872746
 40
9.052058999999999
210
0.0
220
0.3736299396617587
230
0.9275778502036098
100
AcDbArc
 50
250.77542
 51
316.586247
1001
ACAD
1000
TCW40_ELL_ARC
1002
{
1040
1182.758301
1040
1102.354126
1040
0.0
1040
9.052058
1040
0.0
1040
0.0
1040
0.0
1040
0.0
1040
1.0
1040
0.9275780000000001
1040
1.235263999999999
1040
2.383879999999999
1002
}
  0
LINE
  5
14D
330
129
100
AcDbEntity
  8
0
  6
Continuous
 62
     7
100
AcDbLine
 10
1176.240103
 20
1108.208614
 30
0.0
 11
1178.418901
 21
1112.747775
 31
0.0
  0
ARC
  5
14E
330
129
100
AcDbEntity
  8
0
  6
Continuous
 62
     7
100
AcDbCircle
 10
-1391.932042
 20
-724.47862
 30
278.257383
 40
4.548432
210
-0.092758005319579
220
0.3463370198620824
230
0.9335130535360416
100
AcDbArc
 50
273.5975209999999
 51
5.847550999999961
1001
ACAD
1000
TCW40_ELL_ARC
1002
{
1040
1143.766967999999
1040
1109.760498
1040
0.0
1040
4.393583
1040
1.176716
1040
0.0
1040
0.0
1040
0.0
1040
1.0
1040
0.9335129999999999
1040
1.633585
1040
3.243651999999999
1002
}
  0
ARC
  5
14F
330
129
100
AcDbEntity
  8
0
  6
Continuous
 62
     7
100
AcDbCircle
 10
-1256.237924
 20
-834.3735030000001
 30
489.900632
 40
4.536729
210
-0.0590139977894537
220
0.5028719811634217
230
0.8623439676983203
100
AcDbArc
 50
182.4111379999999
 51
274.661168
1001
ACAD
1000
TCW40_ELL_ARC
1002
{
1040
1134.903076
1040
1107.389037999999
1040
0.0
1040
4.505808999999999
1040
0.528771
1040
0.0
1040
0.0
1040
0.0
1040
1.0
1040
0.862344
1040
0.042082
1040
1.652149
1002
}
  0
LINE
  5
150
330
129
100
AcDbEntity
  8
0
  6
Continuous
 62
     7
100
AcDbLine
 10
1108.120668
 20
1089.98558
 30
0.0
 11
1104.814315
 21
1093.349938
 31
0.0
  0
ARC
  5
151
330
129
100
AcDbEntity
  8
0
  6
Continuous
 62
     7
100
AcDbCircle
 10
1104.923761
 20
1086.785281
 30
0.0
 40
4.548432
100
AcDbArc
 50
46.06091199999999
 51
138.3109419999999
  0
ARC
  5
152
330
129
100
AcDbEntity
  8
0
  6
Continuous
 62
     7
100
AcDbCircle
 10
1087.319112
 20
1060.468957999999
 30
0.0
 40
2.144911
100
AcDbArc
 50
163.141601
 51
235.437475
  0
ENDBLK
  5
154
330
129
100
AcDbEntity
  8
0
100
AcDbBlockEnd
  0
BLOCK
  5
7B4
330
7A8
100
AcDbEntity
  8
0
100
AcDbBlockBegin
  2
*D2
 70
     1
 10
0.0
 20
0.0
 30
0.0
  3
*D2
  1

  0
LINE
  5
7A9
330
7A8
100
AcDbEntity
  8
0
  6
ByBlock
 62
     0
100
AcDbLine
 10
3041.418294255465
 20
5184.049567219095
 30
0.0
 11
3224.543294255465
 21
5184.049567219095
 31
0.0
  0
LINE
  5
7AA
330
7A8
100
AcDbEntity
  8
0
  6
ByBlock
 62
     0
100
AcDbLine
 10
3041.418294255465
 20
5234.049567219095
 30
0.0
 11
3224.543294255465
 21
5234.049567219095
 31
0.0
  0
LINE
  5
7AB
330
7A8
100
AcDbEntity
  8
0
  6
ByBlock
 62
     0
100
AcDbLine
 10
3205.793294255465
 20
5146.549567219095
 30
0.0
 11
3205.793294255465
 21
5109.049567219095
 31
0.0
  0
LINE
  5
7AC
330
7A8
100
AcDbEntity
  8
0
  6
ByBlock
 62
     0
100
AcDbLine
 10
3205.793294255465
 20
5271.549567219095
 30
0.0
 11
3205.793294255465
 21
5375.833275084264
 31
0.0
  0
LINE
  5
7AD
330
7A8
100
AcDbEntity
  8
0
  6
ByBlock
 62
     0
100
AcDbLine
 10
3205.793294255465
 20
5184.049567219095
 30
0.0
 11
3205.793294255465
 21
5234.049567219095
 31
0.0
  0
SOLID
  5
7AE
330
7A8
100
AcDbEntity
  8
0
  6
ByBlock
 62
     0
100
AcDbTrace
 10
3199.543294255465
 20
5146.549567219095
 30
0.0
 11
3212.043294255465
 21
5146.549567219095
 31
0.0
 12
3205.793294255465
 22
5184.049567219095
 32
0.0
 13
3205.793294255465
 23
5184.049567219095
 33
0.0
  0
SOLID
  5
7AF
330
7A8
100
AcDbEntity
  8
0
  6
ByBlock
 62
     0
100
AcDbTrace
 10
3199.543294255465
 20
5271.549567219095
 30
0.0
 11
3212.043294255465
 21
5271.549567219095
 31
0.0
 12
3205.793294255465
 22
5234.049567219095
 32
0.0
 13
3205.793294255465
 23
5234.049567219095
 33
0.0
  0
MTEXT
  5
7B0
330
7A8
100
AcDbEntity
  8
0
  6
ByBlock
 62
     0
100
AcDbMText
 10
3177.668294255465
 20
5342.441421151679
 30
0.0
 40
37.5
 41
0.0
 71
     5
 72
     1
  1
\A1;50
 11
0.0000000000000001
 21
1.0
 31
0.0
 73
     1
 44
1.0
  0
POINT
  5
7B1
330
7A8
100
AcDbEntity
  8
DEFPOINTS
  6
ByBlock
 62
     0
100
AcDbPoint
 10
3032.043294255465
 20
5184.049567219095
 30
0.0
  0
POINT
  5
7B2
330
7A8
100
AcDbEntity
  8
DEFPOINTS
  6
ByBlock
 62
     0
100
AcDbPoint
 10
3032.043294255465
 20
5234.049567219095
 30
0.0
  0
POINT
  5
7B3
330
7A8
100
AcDbEntity
  8
DEFPOINTS
  6
ByBlock
 62
     0
100
AcDbPoint
 10
3205.793294255465
 20
5234.049567219095
 30
0.0
  0
ENDBLK
  5
7B5
330
7A8
100
AcDbEntity
  8
0
100
AcDbBlockEnd
  0
BLOCK
  5
7C0
330
7B6
100
AcDbEntity
  8
0
100
AcDbBlockBegin
  2
*D3
 70
     1
 10
0.0
 20
0.0
 30
0.0
  3
*D3
  1

  0
LINE
  5
7B7
330
7B6
100
AcDbEntity
  8
0
  6
ByBlock
 62
     0
100
AcDbLine
 10
3041.418294255465
 20
5184.049567219095
 30
0.0
 11
3224.543294255465
 21
5184.049567219095
 31
0.0
  0
LINE
  5
7B8
330
7B6
100
AcDbEntity
  8
0
  6
ByBlock
 62
     0
100
AcDbLine
 10
3041.418294255465
 20
4954.049567219096
 30
0.0
 11
3224.543294255465
 21
4954.049567219096
 31
0.0
  0
LINE
  5
7B9
330
7B6
100
AcDbEntity
  8
0
  6
ByBlock
 62
     0
100
AcDbLine
 10
3205.793294255465
 20
5146.549567219095
 30
0.0
 11
3205.793294255465
 21
4991.549567219095
 31
0.0
  0
SOLID
  5
7BA
330
7B6
100
AcDbEntity
  8
0
  6
ByBlock
 62
     0
100
AcDbTrace
 10
3199.543294255465
 20
5146.549567219095
 30
0.0
 11
3212.043294255465
 21
5146.549567219095
 31
0.0
 12
3205.793294255465
 22
5184.049567219095
 32
0.0
 13
3205.793294255465
 23
5184.049567219095
 33
0.0
  0
SOLID
  5
7BB
330
7B6
100
AcDbEntity
  8
0
  6
ByBlock
 62
     0
100
AcDbTrace
 10
3199.543294255465
 20
4991.549567219095
 30
0.0
 11
3212.043294255465
 21
4991.549567219095
 31
0.0
 12
3205.793294255465
 22
4954.049567219096
 32
0.0
 13
3205.793294255465
 23
4954.049567219096
 33
0.0
  0
MTEXT
  5
7BC
330
7B6
100
AcDbEntity
  8
0
  6
ByBlock
 62
     0
100
AcDbMText
 10
3177.668294255465
 20
5069.049567219096
 30
0.0
 40
37.5
 41
0.0
 71
     5
 72
     1
  1
\A1;230
 11
0.0000000000000001
 21
1.0
 31
0.0
 73
     1
 44
1.0
  0
POINT
  5
7BD
330
7B6
100
AcDbEntity
  8
DEFPOINTS
  6
ByBlock
 62
     0
100
AcDbPoint
 10
3032.043294255465
 20
5184.049567219095
 30
0.0
  0
POINT
  5
7BE
330
7B6
100
AcDbEntity
  8
DEFPOINTS
  6
ByBlock
 62
     0
100
AcDbPoint
 10
3032.043294255465
 20
4954.049567219096
 30
0.0
  0
POINT
  5
7BF
330
7B6
100
AcDbEntity
  8
DEFPOINTS
  6
ByBlock
 62
     0
100
AcDbPoint
 10
3205.793294255465
 20
4954.049567219096
 30
0.0
  0
ENDBLK
  5
7C1
330
7B6
100
AcDbEntity
  8
0
100
AcDbBlockEnd
  0
BLOCK
  5
841
330
7C4
100
AcDbEntity
  8
0
100
AcDbBlockBegin
  2
A$C25B460CF
 70
     0
 10
0.0
 20
0.0
 30
0.0
  3
A$C25B460CF
  1

  0
LINE
  5
7C5
330
7C4
100
AcDbEntity
  8
0
  6
ByBlock
 62
     0
100
AcDbLine
 10
75.00002916253652
 20
336.2500015339101
 30
0.0
 11
75.00002916253652
 21
6.250001533910108
 31
0.0
  0
LINE
  5
7C6
330
7C4
100
AcDbEntity
  8
0
  6
ByBlock
 62
     0
100
AcDbLine
 10
175.0000291625365
 20
336.2500015339101
 30
0.0
 11
175.0000291625365
 21
6.250001533910108
 31
0.0
  0
LINE
  5
7C7
330
7C4
100
AcDbEntity
  8
0
  6
ByBlock
 62
     0
100
AcDbLine
 10
160.0000291625365
 20
336.2500015339101
 30
0.0
 11
160.0000291625365
 21
156.2500015339101
 31
0.0
  0
LINE
  5
7C8
330
7C4
100
AcDbEntity
  8
0
  6
ByBlock
 62
     0
100
AcDbLine
 10
75.00002916253652
 20
336.2500015339101
 30
0.0
 11
75.00002916253652
 21
156.2500015339101
 31
0.0
  0
LINE
  5
7C9
330
7C4
100
AcDbEntity
  8
0
  6
ByBlock
 62
     0
100
AcDbLine
 10
160.0000291625365
 20
336.2500015339101
 30
0.0
 11
160.0000291625365
 21
156.2500015339101
 31
0.0
  0
LINE
  5
7CA
330
7C4
100
AcDbEntity
  8
0
  6
ByBlock
 62
     0
100
AcDbLine
 10
175.0000291625365
 20
336.2500015339101
 30
0.0
 11
175.0000291625365
 21
156.2500015339101
 31
0.0
  0
LINE
  5
7CB
330
7C4
100
AcDbEntity
  8
0
  6
ByBlock
 62
     0
100
AcDbLine
 10
75.00002916253652
 20
326.8750015339101
 30
0.0
 11
75.00002916253652
 21
0.0000015339091988
 31
0.0
  0
LINE
  5
7CC
330
7C4
100
AcDbEntity
  8
0
  6
ByBlock
 62
     0
100
AcDbLine
 10
175.0000291625365
 20
326.8750015339101
 30
0.0
 11
175.0000291625365
 21
0.0000015339091988
 31
0.0
  0
LINE
  5
7CD
330
7C4
100
AcDbEntity
  8
0
  6
ByBlock
 62
     0
100
AcDbLine
 10
160.0000291625365
 20
326.8750015339101
 30
0.0
 11
160.0000291625365
 21
150.0000015339101
 31
0.0
  0
LINE
  5
7CE
330
7C4
100
AcDbEntity
  8
0
  6
ByBlock
 62
     0
100
AcDbLine
 10
75.00002916253652
 20
326.8750015339101
 30
0.0
 11
75.00002916253652
 21
150.0000015339101
 31
0.0
  0
MTEXT
  5
7CF
330
7C4
100
AcDbEntity
  8
0
  6
ByBlock
 62
     0
100
AcDbMText
 10
117.5000291625365
 20
196.8750015339101
 30
0.0
 40
37.5
 41
0.0
 71
     5
 72
     1
  1
\A1;85
 73
     1
 44
1.0
  0
LINE
  5
7D0
330
7C4
100
AcDbEntity
  8
0
  6
ByBlock
 62
     0
100
AcDbLine
 10
160.0000291625365
 20
326.8750015339101
 30
0.0
 11
160.0000291625365
 21
150.0000015339101
 31
0.0
  0
LINE
  5
7D1
330
7C4
100
AcDbEntity
  8
0
  6
ByBlock
 62
     0
100
AcDbLine
 10
175.0000291625365
 20
326.8750015339101
 30
0.0
 11
175.0000291625365
 21
150.0000015339101
 31
0.0
  0
MTEXT
  5
7D2
330
7C4
100
AcDbEntity
  8
0
  6
ByBlock
 62
     0
100
AcDbMText
 10
281.6011527580412
 20
196.8750015339101
 30
0.0
 40
37.5
 41
0.0
 71
     5
 72
     1
  1
\A1;15
 73
     1
 44
1.0
  0
LINE
  5
7D3
330
7C4
100
AcDbEntity
  8
0
  6
ByBlock
 62
     0
100
AcDbLine
 10
75.00002916253652
 20
330.0000015339101
 30
0.0
 11
75.00002916253652
 21
6.250001533909198
 31
0.0
  0
LINE
  5
7D4
330
7C4
100
AcDbEntity
  8
0
  6
ByBlock
 62
     0
100
AcDbLine
 10
175.0000291625365
 20
330.0000015339101
 30
0.0
 11
175.0000291625365
 21
6.250001533909198
 31
0.0
  0
LINE
  5
7D5
330
7C4
100
AcDbEntity
  8
0
  6
ByBlock
 62
     0
100
AcDbLine
 10
200.0000291625365
 20
168.7500015339101
 30
0.0
 11
267.1348606232113
 21
168.7500015339101
 31
0.0
  0
LINE
  5
7D6
330
7C4
100
AcDbEntity
  8
0
  6
ByBlock
 62
     0
100
AcDbLine
 10
212.5000291625365
 20
168.7500015339101
 30
0.0
 11
313.2022763535478
 21
168.7500015339101
 31
0.0
  0
LINE
  5
7D7
330
7C4
100
AcDbEntity
  8
0
  6
ByBlock
 62
     0
100
AcDbLine
 10
122.5000291625365
 20
168.7500015339101
 30
0.0
 11
85.00002916253652
 21
168.7500015339101
 31
0.0
  0
SOLID
  5
7D8
330
7C4
100
AcDbEntity
  8
0
  6
ByBlock
 62
     0
100
AcDbTrace
 10
112.5000291625365
 20
25.00000153390919
 30
0.0
 11
112.5000291625365
 21
12.50000153390919
 31
0.0
 12
75.00002916253652
 22
18.75000153390919
 32
0.0
 13
75.00002916253652
 23
18.75000153390919
 33
0.0
  0
SOLID
  5
7D9
330
7C4
100
AcDbEntity
  8
0
  6
ByBlock
 62
     0
100
AcDbTrace
 10
100.0000291625365
 20
22.91666820057617
 30
0.0
 11
100.0000291625365
 21
14.58333486724223
 31
0.0
 12
75.00002916253652
 22
18.75000153390919
 32
0.0
 13
75.00002916253652
 23
18.75000153390919
 33
0.0
  0
LINE
  5
7DA
330
7C4
100
AcDbEntity
  8
0
  6
ByBlock
 62
     0
100
AcDbLine
 10
75.00002916253561
 20
18.75000153391011
 30
0.0
 11
175.0000291625365
 21
18.75000153390919
 31
0.0
  0
MTEXT
  5
7DB
330
7C4
100
AcDbEntity
  8
0
  6
ByBlock
 62
     0
100
AcDbMText
 10
125.0000291625365
 20
46.8750015339092
 30
0.0
 40
37.5
 41
0.0
 71
     5
 72
     1
  1
\A1;100
 73
     1
 44
1.0
  0
LINE
  5
7DC
330
7C4
100
AcDbEntity
  8
0
  6
ByBlock
 62
     0
100
AcDbLine
 10
160.0000291625365
 20
168.7500015339101
 30
0.0
 11
75.00002916253652
 21
168.7500015339101
 31
0.0
  0
LINE
  5
7DD
330
7C4
100
AcDbEntity
  8
0
  6
ByBlock
 62
     0
100
AcDbLine
 10
37.50002916253652
 20
168.7500015339101
 30
0.0
 11
0.0000291625365207
 21
168.7500015339101
 31
0.0
  0
SOLID
  5
7DE
330
7C4
100
AcDbEntity
  8
0
  6
ByBlock
 62
     0
100
AcDbTrace
 10
37.50002916253652
 20
175.0000015339101
 30
0.0
 11
37.50002916253652
 21
162.5000015339101
 31
0.0
 12
75.00002916253652
 22
168.7500015339101
 32
0.0
 13
75.00002916253652
 23
168.7500015339101
 33
0.0
  0
POINT
  5
7DF
330
7C4
100
AcDbEntity
  8
DEFPOINTS
  6
ByBlock
 62
     0
100
AcDbPoint
 10
75.00002916253652
 20
168.7500015339101
 30
0.0
  0
SOLID
  5
7E0
330
7C4
100
AcDbEntity
  8
0
  6
ByBlock
 62
     0
100
AcDbTrace
 10
200.0000291625365
 20
172.916668200577
 30
0.0
 11
200.0000291625365
 21
164.5833348672431
 31
0.0
 12
175.0000291625365
 22
168.7500015339101
 32
0.0
 13
175.0000291625365
 23
168.7500015339101
 33
0.0
  0
SOLID
  5
7E1
330
7C4
100
AcDbEntity
  8
0
  6
ByBlock
 62
     0
100
AcDbTrace
 10
212.5000291625365
 20
175.0000015339101
 30
0.0
 11
212.5000291625365
 21
162.5000015339101
 31
0.0
 12
175.0000291625365
 22
168.7500015339101
 32
0.0
 13
175.0000291625365
 23
168.7500015339101
 33
0.0
  0
LINE
  5
7E2
330
7C4
100
AcDbEntity
  8
0
  6
ByBlock
 62
     0
100
AcDbLine
 10
112.5000291625365
 20
18.75000153390919
 30
0.0
 11
137.5000291625365
 21
18.75000153390919
 31
0.0
  0
LINE
  5
7E3
330
7C4
100
AcDbEntity
  8
0
  6
ByBlock
 62
     0
100
AcDbLine
 10
100.0000291625365
 20
18.75000153390919
 30
0.0
 11
150.0000291625365
 21
18.75000153390919
 31
0.0
  0
POINT
  5
7E4
330
7C4
100
AcDbEntity
  8
DEFPOINTS
  6
ByBlock
 62
     0
100
AcDbPoint
 10
160.0000291625365
 20
18.75000153391011
 30
0.0
  0
POINT
  5
7E5
330
7C4
100
AcDbEntity
  8
DEFPOINTS
  6
ByBlock
 62
     0
100
AcDbPoint
 10
175.0000291625365
 20
18.75000153390919
 30
0.0
  0
SOLID
  5
7E6
330
7C4
100
AcDbEntity
  8
0
  6
ByBlock
 62
     0
100
AcDbTrace
 10
150.0000291625365
 20
22.91666820057617
 30
0.0
 11
150.0000291625365
 21
14.58333486724223
 31
0.0
 12
175.0000291625365
 22
18.75000153390919
 32
0.0
 13
175.0000291625365
 23
18.75000153390919
 33
0.0
  0
POINT
  5
7E7
330
7C4
100
AcDbEntity
  8
DEFPOINTS
  6
ByBlock
 62
     0
100
AcDbPoint
 10
175.0000291625365
 20
18.75000153390919
 30
0.0
  0
SOLID
  5
7E8
330
7C4
100
AcDbEntity
  8
0
  6
ByBlock
 62
     0
100
AcDbTrace
 10
137.5000291625365
 20
25.00000153390919
 30
0.0
 11
137.5000291625365
 21
12.50000153390919
 31
0.0
 12
175.0000291625365
 22
18.75000153390919
 32
0.0
 13
175.0000291625365
 23
18.75000153390919
 33
0.0
  0
LINE
  5
7E9
330
7C4
100
AcDbEntity
  8
0
  6
ByBlock
 62
     0
100
AcDbLine
 10
145.0000291625365
 20
168.7500015339101
 30
0.0
 11
100.0000291625365
 21
168.7500015339101
 31
0.0
  0
POINT
  5
7EA
330
7C4
100
AcDbEntity
  8
DEFPOINTS
  6
ByBlock
 62
     0
100
AcDbPoint
 10
100.0000291625365
 20
168.7500015339101
 30
0.0
  0
LINE
  5
7EB
330
7C4
100
AcDbEntity
  8
0
  6
ByBlock
 62
     0
100
AcDbLine
 10
120.0000291625365
 20
168.7500015339101
 30
0.0
 11
100.0000291625365
 21
168.7500015339101
 31
0.0
  0
POINT
  5
7EC
330
7C4
100
AcDbEntity
  8
DEFPOINTS
  6
ByBlock
 62
     0
100
AcDbPoint
 10
160.0000291625365
 20
168.7500015339101
 30
0.0
  0
LINE
  5
7ED
330
7C4
100
AcDbEntity
  8
0
  6
ByBlock
 62
     0
100
AcDbLine
 10
160.0000291625365
 20
168.7500015339101
 30
0.0
 11
175.0000291625365
 21
168.7500015339101
 31
0.0
  0
POINT
  5
7EE
330
7C4
100
AcDbEntity
  8
DEFPOINTS
  6
ByBlock
 62
     0
100
AcDbPoint
 10
175.0000291625365
 20
168.7500015339101
 30
0.0
  0
LWPOLYLINE
  5
7EF
330
7C4
100
AcDbEntity
  8
上線
100
AcDbPolyline
 90
        2
 70
     1
 43
5.0
 10
157.5000291625365
 20
168.7500015339101
 42
1.0
 10
162.5000291625365
 20
168.7500015339101
 42
1.0
  0
LINE
  5
7F0
330
7C4
100
AcDbEntity
  8
0
  6
ByBlock
 62
     0
100
AcDbLine
 10
145.0000291625365
 20
168.7500015339101
 30
0.0
 11
175.0000291625365
 21
168.7500015339101
 31
0.0
  0
LINE
  5
7F1
330
7C4
100
AcDbEntity
  8
0
  6
ByBlock
 62
     0
100
AcDbLine
 10
197.5000291625365
 20
168.7500015339101
 30
0.0
 11
235.0000291625365
 21
168.7500015339101
 31
0.0
  0
LINE
  5
7F2
330
7C4
100
AcDbEntity
  8
0
  6
ByBlock
 62
     0
100
AcDbLine
 10
185.0000291625365
 20
168.7500015339101
 30
0.0
 11
210.0000291625365
 21
168.7500015339101
 31
0.0
  0
DIMENSION
  5
7F3
330
7C4
100
AcDbEntity
  8
上線
100
AcDbDimension
  2
*D3
 10
380.000029162536
 20
423.7500015339101
 30
0.0
 11
351.875029162536
 21
538.75000153391
 31
0.0
 12
-2825.793265092928
 22
-4530.299565685186
 32
0.0
 71
     5
 42
-1.0
  3
STANDARD
100
AcDbAlignedDimension
 13
206.2500291625365
 23
653.7500015339101
 33
0.0
 14
206.2500291625365
 24
423.7500015339101
 34
0.0
 50
90.0
100
AcDbRotatedDimension
1001
ACAD
1000
DSTYLE
1002
{
1070
    40
1040
15.0
1070
    41
1040
2.5
1070
    42
1040
0.625
1070
    43
1040
3.75
1070
    44
1040
1.25
1070
    73
1070
     0
1070
    74
1070
     0
1070
    77
1070
     1
1070
    78
1070
     8
1070
   140
1040
2.5
1070
   141
1040
2.5
1070
   143
1040
0.0394
1070
   147
1040
0.625
1070
   171
1070
     4
1070
   172
1070
     1
1070
   273
1070
     8
1070
   274
1070
     4
1070
   277
1070
     6
1002
}
  0
DIMENSION
  5
7F4
330
7C4
100
AcDbEntity
  8
上線
100
AcDbDimension
  2
*D2
 10
380.0000291625365
 20
703.7500015339101
 30
0.0
 11
351.8750291625365
 21
812.1418554664941
 31
0.0
 12
-2825.793265092928
 22
-4530.299565685186
 32
0.0
 71
     5
 42
-1.0
  3
STANDARD
100
AcDbAlignedDimension
 13
206.2500291625365
 23
653.7500015339101
 33
0.0
 14
206.2500291625365
 24
703.7500015339101
 34
0.0
 50
90.0
100
AcDbRotatedDimension
1001
ACAD
1000
DSTYLE
1002
{
1070
    40
1040
15.0
1070
    41
1040
2.5
1070
    42
1040
0.625
1070
    43
1040
3.75
1070
    44
1040
1.25
1070
    73
1070
     0
1070
    74
1070
     0
1070
    77
1070
     1
1070
    78
1070
     8
1070
   140
1040
2.5
1070
   141
1040
2.5
1070
   143
1040
0.0394
1070
   147
1040
0.625
1070
   171
1070
     4
1070
   172
1070
     1
1070
   273
1070
     8
1070
   274
1070
     4
1070
   277
1070
     6
1002
}
  0
LINE
  5
7F5
330
7C4
100
AcDbEntity
  8
0
  6
ByBlock
 62
     0
100
AcDbLine
 10
215.6250291625365
 20
373.7500015339101
 30
0.0
 11
398.7500291625365
 21
373.7500015339101
 31
0.0
  0
LINE
  5
7F6
330
7C4
100
AcDbEntity
  8
0
  6
ByBlock
 62
     0
100
AcDbLine
 10
215.6250291625365
 20
423.7500015339101
 30
0.0
 11
398.7500291625365
 21
423.7500015339101
 31
0.0
  0
LINE
  5
7F7
330
7C4
100
AcDbEntity
  8
0
  6
ByBlock
 62
     0
100
AcDbLine
 10
225.0000291625365
 20
423.7500015339101
 30
0.0
 11
398.7500291625365
 21
423.7500015339101
 31
0.0
  0
LINE
  5
7F8
330
7C4
100
AcDbEntity
  8
0
  6
ByBlock
 62
     0
100
AcDbLine
 10
225.0000291625365
 20
653.7500015339101
 30
0.0
 11
398.7500291625365
 21
653.7500015339101
 31
0.0
  0
LINE
  5
7F9
330
7C4
100
AcDbEntity
  8
0
  6
ByBlock
 62
     0
100
AcDbLine
 10
215.6250291625365
 20
703.7500015339101
 30
0.0
 11
398.7500291625365
 21
703.7500015339101
 31
0.0
  0
LINE
  5
7FA
330
7C4
100
AcDbEntity
  8
0
  6
ByBlock
 62
     0
100
AcDbLine
 10
215.6250291625365
 20
653.7500015339101
 30
0.0
 11
398.7500291625365
 21
653.7500015339101
 31
0.0
  0
LINE
  5
7FB
330
7C4
100
AcDbEntity
  8
0
  6
ByBlock
 62
     0
100
AcDbLine
 10
206.2500291625365
 20
653.7500015339101
 30
0.0
 11
392.5000291625365
 21
653.7500015339101
 31
0.0
  0
LINE
  5
7FC
330
7C4
100
AcDbEntity
  8
0
  6
ByBlock
 62
     0
100
AcDbLine
 10
206.2500291625365
 20
703.7500015339101
 30
0.0
 11
392.5000291625365
 21
703.7500015339101
 31
0.0
  0
LINE
  5
7FD
330
7C4
100
AcDbEntity
  8
0
  6
ByBlock
 62
     0
100
AcDbLine
 10
206.2500291625365
 20
423.7500015339101
 30
0.0
 11
392.5000291625365
 21
423.7500015339101
 31
0.0
  0
LINE
  5
7FE
330
7C4
100
AcDbEntity
  8
0
  6
ByBlock
 62
     0
100
AcDbLine
 10
206.2500291625365
 20
373.7500015339101
 30
0.0
 11
392.5000291625365
 21
373.7500015339101
 31
0.0
  0
LINE
  5
7FF
330
7C4
100
AcDbEntity
  8
上線
 48
10.0
100
AcDbLine
 10
160.0000291625365
 20
653.7500015339101
 30
0.0
 11
175.0000291625365
 21
646.2500015339101
 31
0.0
  0
LINE
  5
800
330
7C4
100
AcDbEntity
  8
上線
 48
10.0
100
AcDbLine
 10
75.00002916253652
 20
373.7500015339101
 30
0.0
 11
75.00002916253652
 21
703.7500015339092
 31
0.0
  0
LINE
  5
801
330
7C4
100
AcDbEntity
  8
上線
 48
10.0
100
AcDbLine
 10
145.0000291625365
 20
393.7500015339101
 30
0.0
 11
145.0000291625346
 21
683.7500015339101
 31
0.0
  0
LINE
  5
802
330
7C4
100
AcDbEntity
  8
点線
100
AcDbLine
 10
75.00002916253652
 20
508.7500015339101
 30
0.0
 11
175.0000291625369
 21
508.7500015339101
 31
0.0
  0
LINE
  5
803
330
7C4
100
AcDbEntity
  8
点線
100
AcDbLine
 10
75.00002916253698
 20
568.750001533911
 30
0.0
 11
175.000029162536
 21
568.7500015339101
 31
0.0
  0
LINE
  5
804
330
7C4
100
AcDbEntity
  8
点線
100
AcDbLine
 10
75.00002916253652
 20
493.7500015339101
 30
0.0
 11
175.0000291625369
 21
493.7500015339101
 31
0.0
  0
LINE
  5
805
330
7C4
100
AcDbEntity
  8
点線
100
AcDbLine
 10
75.00002916253698
 20
583.7500015339109
 30
0.0
 11
175.000029162536
 21
583.7500015339101
 31
0.0
  0
LINE
  5
806
330
7C4
100
AcDbEntity
  8
上線
 48
10.0
100
AcDbLine
 10
75.00002916253652
 20
373.7500015339101
 30
0.0
 11
160.0000291625365
 21
373.7500015339101
 31
0.0
  0
POINT
  5
807
330
7C4
100
AcDbEntity
  8
DEFPOINTS
  6
ByBlock
 62
     0
100
AcDbPoint
 10
75.00002916253652
 20
336.2500015339101
 30
0.0
  0
POINT
  5
808
330
7C4
100
AcDbEntity
  8
DEFPOINTS
  6
ByBlock
 62
     0
100
AcDbPoint
 10
75.00002916253652
 20
336.2500015339101
 30
0.0
  0
POINT
  5
809
330
7C4
100
AcDbEntity
  8
DEFPOINTS
  6
ByBlock
 62
     0
100
AcDbPoint
 10
75.00002916253652
 20
336.2500015339101
 30
0.0
  0
LINE
  5
80A
330
7C4
100
AcDbEntity
  8
上線
 48
10.0
100
AcDbLine
 10
160.0000291625365
 20
373.7500015339101
 30
0.0
 11
160.0000291625365
 21
423.7500015339092
 31
0.0
  0
POINT
  5
80B
330
7C4
100
AcDbEntity
  8
DEFPOINTS
  6
ByBlock
 62
     0
100
AcDbPoint
 10
100.0000291625365
 20
257.5000015339101
 30
0.0
  0
POINT
  5
80C
330
7C4
100
AcDbEntity
  8
DEFPOINTS
  6
ByBlock
 62
     0
100
AcDbPoint
 10
100.0000291625365
 20
257.5000015339101
 30
0.0
  0
POINT
  5
80D
330
7C4
100
AcDbEntity
  8
DEFPOINTS
  6
ByBlock
 62
     0
100
AcDbPoint
 10
175.0000291625365
 20
257.5000015339101
 30
0.0
  0
POINT
  5
80E
330
7C4
100
AcDbEntity
  8
DEFPOINTS
  6
ByBlock
 62
     0
100
AcDbPoint
 10
175.0000291625365
 20
257.5000015339101
 30
0.0
  0
POINT
  5
80F
330
7C4
100
AcDbEntity
  8
DEFPOINTS
  6
ByBlock
 62
     0
100
AcDbPoint
 10
145.0000291625365
 20
257.5000015339101
 30
0.0
  0
POINT
  5
810
330
7C4
100
AcDbEntity
  8
DEFPOINTS
  6
ByBlock
 62
     0
100
AcDbPoint
 10
145.0000291625365
 20
257.5000015339101
 30
0.0
  0
LWPOLYLINE
  5
811
330
7C4
100
AcDbEntity
  8
上線
100
AcDbPolyline
 90
        2
 70
     1
 43
5.0
 10
137.4961951557998
 20
408.7422377067887
 42
1.0
 10
142.4961951557998
 20
408.7422377067887
 42
1.0
  0
POINT
  5
812
330
7C4
100
AcDbEntity
  8
DEFPOINTS
  6
ByBlock
 62
     0
100
AcDbPoint
 10
175.0000291625365
 20
336.2500015339101
 30
0.0
  0
POINT
  5
813
330
7C4
100
AcDbEntity
  8
DEFPOINTS
  6
ByBlock
 62
     0
100
AcDbPoint
 10
160.0000291625365
 20
336.2500015339101
 30
0.0
  0
POINT
  5
814
330
7C4
100
AcDbEntity
  8
DEFPOINTS
  6
ByBlock
 62
     0
100
AcDbPoint
 10
160.0000291625365
 20
336.2500015339101
 30
0.0
  0
POINT
  5
815
330
7C4
100
AcDbEntity
  8
DEFPOINTS
  6
ByBlock
 62
     0
100
AcDbPoint
 10
175.0000291625365
 20
336.2500015339101
 30
0.0
  0
POINT
  5
816
330
7C4
100
AcDbEntity
  8
DEFPOINTS
  6
ByBlock
 62
     0
100
AcDbPoint
 10
175.0000291625365
 20
336.2500015339101
 30
0.0
  0
POINT
  5
817
330
7C4
100
AcDbEntity
  8
DEFPOINTS
  6
ByBlock
 62
     0
100
AcDbPoint
 10
206.2500291625365
 20
373.7500015339101
 30
0.0
  0
POINT
  5
818
330
7C4
100
AcDbEntity
  8
DEFPOINTS
  6
ByBlock
 62
     0
100
AcDbPoint
 10
200.0000291625365
 20
353.7500015339101
 30
0.0
  0
POINT
  5
819
330
7C4
100
AcDbEntity
  8
DEFPOINTS
  6
ByBlock
 62
     0
100
AcDbPoint
 10
200.0000291625365
 20
408.7500015339101
 30
0.0
  0
LINE
  5
81A
330
7C4
100
AcDbEntity
  8
上線
 48
10.0
100
AcDbLine
 10
175.0000291625369
 20
431.2500015339101
 30
0.0
 11
175.0000291625365
 21
646.2500015339092
 31
0.0
  0
LINE
  5
81B
330
7C4
100
AcDbEntity
  8
上線
 48
10.0
100
AcDbLine
 10
175.0000291625365
 20
431.2500015339101
 30
0.0
 11
160.0000291625365
 21
423.7500015339101
 31
0.0
  0
LWPOLYLINE
  5
81C
330
7C4
100
AcDbEntity
  8
上線
100
AcDbPolyline
 90
        2
 70
     1
 43
5.0
 10
137.4961951557998
 20
538.8104892661285
 42
1.0
 10
142.4961951557998
 20
538.8104892661285
 42
1.0
  0
POINT
  5
81D
330
7C4
100
AcDbEntity
  8
DEFPOINTS
  6
ByBlock
 62
     0
100
AcDbPoint
 10
206.2500291625365
 20
428.7500015339101
 30
0.0
  0
POINT
  5
81E
330
7C4
100
AcDbEntity
  8
DEFPOINTS
  6
ByBlock
 62
     0
100
AcDbPoint
 10
215.6250291625365
 20
428.7500015339101
 30
0.0
  0
POINT
  5
81F
330
7C4
100
AcDbEntity
  8
DEFPOINTS
  6
ByBlock
 62
     0
100
AcDbPoint
 10
200.0000291625365
 20
468.7500015339101
 30
0.0
  0
LINE
  5
820
330
7C4
100
AcDbEntity
  8
上線
 48
10.0
100
AcDbLine
 10
75.00002916253652
 20
703.7500015339092
 30
0.0
 11
160.0000291625365
 21
703.7500015339101
 31
0.0
  0
LWPOLYLINE
  5
821
330
7C4
100
AcDbEntity
  8
上線
100
AcDbPolyline
 90
        2
 70
     1
 43
5.0
 10
137.4961951557998
 20
669.4585458273286
 42
1.0
 10
142.4961951557998
 20
669.4585458273286
 42
1.0
  0
LINE
  5
822
330
7C4
100
AcDbEntity
  8
上線
 48
10.0
100
AcDbLine
 10
160.000029162536
 20
653.7500015339101
 30
0.0
 11
160.0000291625365
 21
703.7500015339101
 31
0.0
  0
POINT
  5
823
330
7C4
100
AcDbEntity
  8
DEFPOINTS
  6
ByBlock
 62
     0
100
AcDbPoint
 10
215.6250291625365
 20
718.7500015339101
 30
0.0
  0
POINT
  5
824
330
7C4
100
AcDbEntity
  8
DEFPOINTS
  6
ByBlock
 62
     0
100
AcDbPoint
 10
206.2500291625365
 20
718.7500015339101
 30
0.0
  0
POINT
  5
825
330
7C4
100
AcDbEntity
  8
DEFPOINTS
  6
ByBlock
 62
     0
100
AcDbPoint
 10
200.0000291625365
 20
678.7500015339101
 30
0.0
  0
POINT
  5
826
330
7C4
100
AcDbEntity
  8
DEFPOINTS
  6
ByBlock
 62
     0
100
AcDbPoint
 10
200.0000291625365
 20
738.75000153391
 30
0.0
  0
POINT
  5
827
330
7C4
100
AcDbEntity
  8
DEFPOINTS
  6
ByBlock
 62
     0
100
AcDbPoint
 10
206.2500291625365
 20
773.7500015339101
 30
0.0
  0
POINT
  5
828
330
7C4
100
AcDbEntity
  8
DEFPOINTS
  6
ByBlock
 62
     0
100
AcDbPoint
 10
200.0000291625365
 20
793.7500015339101
 30
0.0
  0
SOLID
  5
829
330
7C4
100
AcDbEntity
  8
0
  6
ByBlock
 62
     0
100
AcDbTrace
 10
373.7500291625365
 20
616.2500015339101
 30
0.0
 11
386.2500291625365
 21
616.2500015339101
 31
0.0
 12
380.0000291625365
 22
653.7500015339101
 32
0.0
 13
380.0000291625365
 23
653.7500015339101
 33
0.0
  0
LINE
  5
82A
330
7C4
100
AcDbEntity
  8
0
  6
ByBlock
 62
     0
100
AcDbLine
 10
380.0000291625365
 20
681.2500015339101
 30
0.0
 11
380.0000291625365
 21
466.2500015339101
 31
0.0
  0
LINE
  5
82B
330
7C4
100
AcDbEntity
  8
0
  6
ByBlock
 62
     0
100
AcDbLine
 10
380.0000291625365
 20
681.2500015339101
 30
0.0
 11
380.0000291625365
 21
643.7500015339101
 31
0.0
  0
LINE
  5
82C
330
7C4
100
AcDbEntity
  8
0
  6
ByBlock
 62
     0
100
AcDbLine
 10
380.0000291625365
 20
653.7500015339101
 30
0.0
 11
380.0000291625365
 21
628.7500015339101
 31
0.0
  0
LINE
  5
82D
330
7C4
100
AcDbEntity
  8
0
  6
ByBlock
 62
     0
100
AcDbLine
 10
380.0000291625365
 20
768.7500015339101
 30
0.0
 11
380.0000291625365
 21
378.7500015339101
 31
0.0
  0
LINE
  5
82E
330
7C4
100
AcDbEntity
  8
0
  6
ByBlock
 62
     0
100
AcDbLine
 10
380.0000291625365
 20
428.7500015339101
 30
0.0
 11
380.0000291625365
 21
373.7500015339101
 31
0.0
  0
LINE
  5
82F
330
7C4
100
AcDbEntity
  8
0
  6
ByBlock
 62
     0
100
AcDbLine
 10
380.0000291625365
 20
433.7500015339101
 30
0.0
 11
380.0000291625365
 21
373.7500015339101
 31
0.0
  0
MTEXT
  5
830
330
7C4
100
AcDbEntity
  8
0
  6
ByBlock
 62
     0
100
AcDbMText
 10
351.8750291625365
 20
265.6741588372806
 30
0.0
 40
37.5
 41
0.0
 71
     5
 72
     1
  1
\A1;50
 11
0.0000000000000001
 21
1.0
 31
0.0
 73
     1
 44
1.0
  0
LINE
  5
831
330
7C4
100
AcDbEntity
  8
0
  6
ByBlock
 62
     0
100
AcDbLine
 10
380.0000291625365
 20
336.2500015339101
 30
0.0
 11
380.0000291625365
 21
232.598316140652
 31
0.0
  0
SOLID
  5
832
330
7C4
100
AcDbEntity
  8
0
  6
ByBlock
 62
     0
100
AcDbTrace
 10
373.7500291625365
 20
336.2500015339101
 30
0.0
 11
386.2500291625365
 21
336.2500015339101
 31
0.0
 12
380.0000291625365
 22
373.7500015339101
 32
0.0
 13
380.0000291625365
 23
373.7500015339101
 33
0.0
  0
SOLID
  5
833
330
7C4
100
AcDbEntity
  8
0
  6
ByBlock
 62
     0
100
AcDbTrace
 10
375.8333624958704
 20
348.7500015339101
 30
0.0
 11
384.1666958292025
 21
348.7500015339101
 31
0.0
 12
380.0000291625365
 22
373.7500015339101
 32
0.0
 13
380.0000291625365
 23
373.7500015339101
 33
0.0
  0
POINT
  5
834
330
7C4
100
AcDbEntity
  8
DEFPOINTS
  6
ByBlock
 62
     0
100
AcDbPoint
 10
380.0000291625365
 20
373.7500015339101
 30
0.0
  0
LINE
  5
835
330
7C4
100
AcDbEntity
  8
0
  6
ByBlock
 62
     0
100
AcDbLine
 10
380.0000291625365
 20
348.7500015339101
 30
0.0
 11
380.0000291625365
 21
323.7500015339101
 31
0.0
  0
POINT
  5
836
330
7C4
100
AcDbEntity
  8
DEFPOINTS
  6
ByBlock
 62
     0
100
AcDbPoint
 10
380.0000291625365
 20
353.7500015339101
 30
0.0
  0
POINT
  5
837
330
7C4
100
AcDbEntity
  8
DEFPOINTS
  6
ByBlock
 62
     0
100
AcDbPoint
 10
380.0000291625365
 20
408.7500015339101
 30
0.0
  0
SOLID
  5
838
330
7C4
100
AcDbEntity
  8
0
  6
ByBlock
 62
     0
100
AcDbTrace
 10
373.7500291625365
 20
461.2500015339101
 30
0.0
 11
386.2500291625365
 21
461.2500015339101
 31
0.0
 12
380.0000291625365
 22
423.7500015339101
 32
0.0
 13
380.0000291625365
 23
423.7500015339101
 33
0.0
  0
SOLID
  5
839
330
7C4
100
AcDbEntity
  8
0
  6
ByBlock
 62
     0
100
AcDbTrace
 10
375.8333624958704
 20
453.7500015339101
 30
0.0
 11
384.1666958292025
 21
453.7500015339101
 31
0.0
 12
380.0000291625365
 22
428.7500015339101
 32
0.0
 13
380.0000291625365
 23
428.7500015339101
 33
0.0
  0
LINE
  5
83A
330
7C4
100
AcDbEntity
  8
0
  6
ByBlock
 62
     0
100
AcDbLine
 10
380.0000291625365
 20
466.2500015339101
 30
0.0
 11
380.0000291625365
 21
503.7500015339101
 31
0.0
  0
POINT
  5
83B
330
7C4
100
AcDbEntity
  8
DEFPOINTS
  6
ByBlock
 62
     0
100
AcDbPoint
 10
380.0000291625365
 20
428.7500015339101
 30
0.0
  0
LINE
  5
83C
330
7C4
100
AcDbEntity
  8
0
  6
ByBlock
 62
     0
100
AcDbLine
 10
380.0000291625365
 20
493.7500015339101
 30
0.0
 11
380.0000291625365
 21
518.7500015339101
 31
0.0
  0
LINE
  5
83D
330
7C4
100
AcDbEntity
  8
0
  6
ByBlock
 62
     0
100
AcDbLine
 10
380.0000291625365
 20
728.7500015339101
 30
0.0
 11
380.0000291625365
 21
753.7500015339101
 31
0.0
  0
LINE
  5
83E
330
7C4
100
AcDbEntity
  8
0
  6
ByBlock
 62
     0
100
AcDbLine
 10
380.0000291625365
 20
678.7500015339101
 30
0.0
 11
380.0000291625365
 21
738.75000153391
 31
0.0
  0
POINT
  5
83F
330
7C4
100
AcDbEntity
  8
DEFPOINTS
  6
ByBlock
 62
     0
100
AcDbPoint
 10
380.0000291625365
 20
738.75000153391
 30
0.0
  0
POINT
  5
840
330
7C4
100
AcDbEntity
  8
DEFPOINTS
  6
ByBlock
 62
     0
100
AcDbPoint
 10
380.0000291625365
 20
773.7500015339101
 30
0.0
  0
ENDBLK
  5
842
330
7C4
100
AcDbEntity
  8
0
100
AcDbBlockEnd
  0
ENDSEC
  0
SECTION
  2
ENTITIES
  0
MTEXT
  5
2A1
330
18
100
AcDbEntity
  8
WUWAGAKI
100
AcDbMText
 10
1018.005669278764
 20
1553.442351959825
 30
0.0
 40
25.0
 41
0.0
 71
     4
 72
     1
  1
\A1;
 73
     1
 44
1.0
  0
MTEXT
  5
2A3
330
18
100
AcDbEntity
  8
WUWAGAKI
100
AcDbMText
 10
951.6471190124358
 20
1460.340634108605
 30
0.0
 40
25.0
 41
0.0
 71
     6
 72
     1
  1
\A1;
 73
     1
 44
1.0
  0
MTEXT
  5
2A5
330
18
100
AcDbEntity
  8
WUWAGAKI
100
AcDbMText
 10
943.3611889411913
 20
1439.6513596721
 30
0.0
 40
25.0
 41
0.0
 71
     6
 72
     1
  1
\A1;
 73
     1
 44
1.0
  0
MTEXT
  5
2A7
330
18
100
AcDbEntity
  8
WUWAGAKI
100
AcDbMText
 10
1033.541789363156
 20
1560.683598257073
 30
0.0
 40
25.0
 41
0.0
 71
     4
 72
     1
  1
\A1;
 73
     1
 44
1.0
  0
LINE
  5
2F4
330
18
100
AcDbEntity
  8
WUWAGAKI
100
AcDbLine
 10
4514.318188616413
 20
1301.212770700056
 30
0.0
 11
4514.318188616413
 21
1271.212770700056
 31
0.0
  0
POINT
  5
4A6
330
18
100
AcDbEntity
  8
DEFPOINTS
  6
ByBlock
 62
     0
100
AcDbPoint
 10
5114.318188616413
 20
1446.845513224388
 30
0.0
  0
LINE
  5
4AC
330
18
100
AcDbEntity
  8
WUWAGAKI
100
AcDbLine
 10
5114.318188616413
 20
1591.212770700056
 30
0.0
 11
5114.318188616413
 21
1281.212770700056
 31
0.0
  0
MTEXT
  5
4D6
330
18
100
AcDbEntity
  8
WUWAGAKI
100
AcDbMText
 10
2387.712572267662
 20
1400.742121479525
 30
0.0
 40
18.75
 41
0.0
 71
     4
 72
     1
  1
\A1;
 73
     1
 44
1.0
  0
MTEXT
  5
4DA
330
18
100
AcDbEntity
  8
WUWAGAKI
100
AcDbMText
 10
370.986430000341
 20
463.0848684193534
 30
0.0
 40
18.75
 41
0.0
 71
     6
 72
     1
  1
\A1;
 73
     1
 44
1.0
  0
MTEXT
  5
507
330
18
100
AcDbEntity
  8
WUWAGAKI
100
AcDbMText
 10
2172.863012022839
 20
1634.144884918375
 30
0.0
 40
18.75
 41
0.0
 71
     4
 72
     1
  1
\A1;
 73
     1
 44
1.0
  0
LINE
  5
8C9
330
18
100
AcDbEntity
  8
WUWAGAKI
100
AcDbLine
 10
3914.318232274938
 20
571.2127707000563
 30
0.0
 11
4514.318232274938
 21
571.2127707000563
 31
0.0
  0
LINE
  5
9E8
330
18
100
AcDbEntity
  8
HOZIXYO
  6
ByBlock
 62
     0
 48
10.0
100
AcDbLine
 10
3914.318232274938
 20
661.2127707000563
 30
0.0
 11
4514.318232274938
 21
661.2127707000563
 31
0.0
  0
LINE
  5
9E9
330
18
100
AcDbEntity
  8
点線
 62
     5
 48
5.0
100
AcDbLine
 10
4159.318194348274
 20
671.2127744167109
 30
0.0
 11
4159.318194348274
 21
649.2127707000563
 31
0.0
  0
LINE
  5
9EA
330
18
100
AcDbEntity
  8
点線
 62
     5
 48
5.0
100
AcDbLine
 10
4014.318194348274
 20
671.2127744167109
 30
0.0
 11
4014.318194348274
 21
649.2127707000563
 31
0.0
  0
LINE
  5
9F1
330
18
100
AcDbEntity
  8
点線
  6
DASHED
 62
     5
 48
10.0
100
AcDbLine
 10
4019.318197056725
 20
649.2127707000563
 30
0.0
 11
4009.405915332868
 21
572.5344078366163
 31
0.0
  0
LINE
  5
9F2
330
18
100
AcDbEntity
  8
点線
  6
DASHED
 62
     5
 48
10.0
100
AcDbLine
 10
4154.318191639823
 20
649.2127707000563
 30
0.0
 11
4164.23047336368
 21
572.5344078366163
 31
0.0
  0
LINE
  5
9F3
330
18
100
AcDbEntity
  8
点線
 62
     5
 48
5.0
100
AcDbLine
 10
4014.318194348274
 20
649.2127707000563
 30
0.0
 11
4159.318194348274
 21
649.2127707000563
 31
0.0
  0
LINE
  5
A5E
330
18
100
AcDbEntity
  8
WUWAGAKI
100
AcDbLine
 10
4514.318188616413
 20
1271.212770700056
 30
0.0
 11
4514.318188616413
 21
1601.212770700056
 31
0.0
  0
LINE
  5
A8D
330
18
100
AcDbEntity
  8
WUWAGAKI
100
AcDbLine
 10
5214.318188616413
 20
1271.212770700056
 30
0.0
 11
5214.318188616413
 21
1601.212770700056
 31
0.0
  0
LINE
  5
A90
330
18
100
AcDbEntity
  8
WUWAGAKI
100
AcDbLine
 10
5114.318188616413
 20
1281.212770700056
 30
0.0
 11
5124.318188616413
 21
1271.212770700056
 31
0.0
  0
LINE
  5
A91
330
18
100
AcDbEntity
  8
WUWAGAKI
100
AcDbLine
 10
5124.318188616413
 20
1271.212770700056
 30
0.0
 11
5214.318188616413
 21
1271.212770700056
 31
0.0
  0
LINE
  5
AA0
330
18
100
AcDbEntity
  8
WUWAGAKI
100
AcDbLine
 10
5124.318188616413
 20
1601.212770700056
 30
0.0
 11
5114.318188616413
 21
1591.212770700056
 31
0.0
  0
ARC
  5
AC0
330
18
100
AcDbEntity
  8
0
  6
Continuous
 62
     7
100
AcDbCircle
 10
4088.362519691371
 20
1390.675889340052
 30
0.0
 40
5.106866
100
AcDbArc
 50
180.0
 51
0.0
  0
ARC
  5
AC1
330
18
100
AcDbEntity
  8
0
  6
Continuous
 62
     7
100
AcDbCircle
 10
4088.362579691371
 20
1408.045746340052
 30
0.0
 40
7.473444
100
AcDbArc
 50
0.0
 51
180.0
  0
LINE
  5
AC2
330
18
100
AcDbEntity
  8
0
  6
Continuous
 62
     7
100
AcDbLine
 10
4080.857732691371
 20
1408.030616340052
 30
0.0
 11
4083.210673691371
 21
1390.663511340052
 31
0.0
  0
LINE
  5
AC3
330
18
100
AcDbEntity
  8
0
  6
Continuous
 62
     7
100
AcDbLine
 10
4095.806703691371
 20
1408.393749340052
 30
0.0
 11
4093.505345691371
 21
1390.624221340052
 31
0.0
  0
LINE
  5
AC4
330
18
100
AcDbEntity
  8
0
  6
Continuous
 62
     7
100
AcDbLine
 10
4116.583524691371
 20
1357.301305340052
 30
0.0
 11
4160.92350569137
 21
1369.229019340052
 31
0.0
  0
ARC
  5
AC5
330
18
100
AcDbEntity
  8
0
  6
Continuous
 62
     7
100
AcDbCircle
 10
4088.346863691371
 20
1349.705478340052
 30
0.0
 40
76.5
100
AcDbArc
 50
16.45995799999984
 51
41.82093699999901
  0
ARC
  5
AC6
330
18
100
AcDbEntity
  8
0
  6
Continuous
 62
     7
100
AcDbCircle
 10
4088.346863691371
 20
1349.705478340052
 30
0.0
 40
76.5
100
AcDbArc
 50
45.41275500000039
 51
69.08513300000092
  0
ARC
  5
AC7
330
18
100
AcDbEntity
  8
0
  6
Continuous
 62
     7
100
AcDbCircle
 10
4088.346863691371
 20
1349.705478340052
 30
0.0
 40
76.5
100
AcDbArc
 50
74.81561800000076
 51
101.9340350000009
  0
ARC
  5
AC8
330
18
100
AcDbEntity
  8
0
  6
Continuous
 62
     7
100
AcDbCircle
 10
4088.346863691371
 20
1349.705478340052
 30
0.0
 40
76.5
100
AcDbArc
 50
108.611967000001
 51
134.4995050000009
  0
ARC
  5
AC9
330
18
100
AcDbEntity
  8
0
  6
Continuous
 62
     7
100
AcDbCircle
 10
4088.346863691371
 20
1349.705478340052
 30
0.0
 40
76.5
100
AcDbArc
 50
137.90777
 51
162.9832050000002
  0
LINE
  5
ACA
330
18
100
AcDbEntity
  8
0
  6
Continuous
 62
     7
100
AcDbLine
 10
4076.257073691372
 20
1353.019853340052
 30
0.0
 11
4015.864454691371
 21
1369.576085340052
 31
0.0
  0
ARC
  5
ACB
330
18
100
AcDbEntity
  8
0
  6
Continuous
 62
     7
100
AcDbCircle
 10
4052.623997691371
 20
1369.794434340052
 30
0.0
 40
5.106866
100
AcDbArc
 50
240.2949950000011
 51
60.2949950000011
  0
ARC
  5
ACC
330
18
100
AcDbEntity
  8
0
  6
Continuous
 62
     7
100
AcDbCircle
 10
4037.53677469137
 20
1378.401851340052
 30
0.0
 40
7.473444
100
AcDbArc
 50
60.2949950000011
 51
240.2949950000011
  0
LINE
  5
ACD
330
18
100
AcDbEntity
  8
0
  6
Continuous
 62
     7
100
AcDbLine
 10
4033.831005691371
 20
1371.875731340052
 30
0.0
 11
4050.081831691371
 21
1365.313468340052
 31
0.0
  0
LINE
  5
ACE
330
18
100
AcDbEntity
  8
0
  6
Continuous
 62
     7
100
AcDbLine
 10
4040.923323691371
 20
1385.040177340052
 30
0.0
 11
4055.217324691371
 21
1374.235829340052
 31
0.0
  0
ARC
  5
ACF
330
18
100
AcDbEntity
  8
0
  6
Continuous
 62
     7
100
AcDbCircle
 10
4067.020243691371
 20
1384.840033340052
 30
0.0
 40
5.106866
100
AcDbArc
 50
210.7627200000007
 51
30.7627200000007
  0
ARC
  5
AD0
330
18
100
AcDbEntity
  8
0
  6
Continuous
 62
     7
100
AcDbCircle
 10
4058.13589369137
 20
1399.765859340052
 30
0.0
 40
7.473444
100
AcDbArc
 50
30.7627200000007
 51
210.7627200000007
  0
LINE
  5
AD1
330
18
100
AcDbEntity
  8
0
  6
Continuous
 62
     7
100
AcDbLine
 10
4051.69477069137
 20
1395.914249340052
 30
0.0
 11
4062.59963069137
 21
1382.194311340052
 31
0.0
  0
LINE
  5
AD2
330
18
100
AcDbEntity
  8
0
  6
Continuous
 62
     7
100
AcDbLine
 10
4064.354579691371
 20
1403.872444340052
 30
0.0
 11
4071.465864691371
 21
1387.426107340052
 31
0.0
  0
ARC
  5
AD3
330
18
100
AcDbEntity
  8
0
  6
Continuous
 62
     7
100
AcDbCircle
 10
4123.823909691371
 20
1369.983084340052
 30
0.0
 40
5.106866
100
AcDbArc
 50
119.4758889999995
 51
299.4758889999995
  0
ARC
  5
AD4
330
18
100
AcDbEntity
  8
0
  6
Continuous
 62
     7
100
AcDbCircle
 10
4138.945491691371
 20
1378.529996340052
 30
0.0
 40
7.473444
100
AcDbArc
 50
299.4758889999995
 51
119.4758889999995
  0
LINE
  5
AD5
330
18
100
AcDbEntity
  8
0
  6
Continuous
 62
     7
100
AcDbLine
 10
4135.23950469137
 20
1385.055992340052
 30
0.0
 11
4121.278130691371
 21
1374.462000340052
 31
0.0
  0
LINE
  5
AD6
330
18
100
AcDbEntity
  8
0
  6
Continuous
 62
     7
100
AcDbLine
 10
4142.911384691371
 20
1372.220656340052
 30
0.0
 11
4126.309493691371
 21
1365.480507340052
 31
0.0
  0
ARC
  5
AD7
330
18
100
AcDbEntity
  8
0
  6
Continuous
 62
     7
100
AcDbCircle
 10
4109.312363691371
 20
1385.040149340052
 30
0.0
 40
5.106866
100
AcDbArc
 50
154.5635790000002
 51
334.5635790000002
  0
ARC
  5
AD8
330
18
100
AcDbEntity
  8
0
  6
Continuous
 62
     7
100
AcDbCircle
 10
4116.772933691371
 20
1400.726189340052
 30
0.0
 40
7.473444
100
AcDbArc
 50
334.5635790000002
 51
154.5635790000002
  0
LINE
  5
AD9
330
18
100
AcDbEntity
  8
0
  6
Continuous
 62
     7
100
AcDbLine
 10
4109.989088691371
 20
1403.935927340052
 30
0.0
 11
4104.654608691371
 21
1387.241737340052
 31
0.0
  0
LINE
  5
ADA
330
18
100
AcDbEntity
  8
0
  6
Continuous
 62
     7
100
AcDbLine
 10
4123.644912691371
 20
1397.843136340052
 30
0.0
 11
4113.934464691371
 21
1382.784598340052
 31
0.0
  0
ARC
  5
ADB
330
18
100
AcDbEntity
  8
0
  6
Continuous
 62
     7
100
AcDbCircle
 10
4128.872343691371
 20
1322.322473340052
 30
0.0
 40
37.068027
100
AcDbArc
 50
108.6664630000014
 51
161.2355640000006
  0
ARC
  5
ADC
330
18
100
AcDbEntity
  8
0
  6
Continuous
 62
     7
100
AcDbCircle
 10
1341.727045340052
 20
-3863.001988787917
 30
1283.110100806171
 40
12.695875
210
0.3152198879770185
220
0.0
230
0.9490186627373331
100
AcDbArc
 50
201.8013349999999
 51
332.3558869999994
1001
ACAD
1000
TCW40_ELL_ARC
1002
{
1040
1140.56189
1040
1030.879395
1040
0.0
1040
0.0
1040
-12.695875
1040
0.0
1040
0.0
1040
0.0
1040
1.0
1040
0.949019
1040
0.3805050000000001
1040
2.659111999999999
1002
}
  0
ARC
  5
ADD
330
18
100
AcDbEntity
  8
0
  6
Continuous
 62
     7
100
AcDbCircle
 10
1343.992938340052
 20
-3422.859164293122
 30
2211.44814251009
 40
24.230002
210
0.5426730249453229
220
0.0
230
0.8399440386101286
100
AcDbArc
 50
198.5216909999994
 51
247.0691130000004
1001
ACAD
1000
TCW40_ELL_ARC
1002
{
1040
1145.142456
1040
1033.145264
1040
0.0
1040
0.0
1040
-24.230001
1040
0.0
1040
0.0
1040
0.0
1040
1.0
1040
0.839944
1040
0.323264
1040
1.170576999999999
1002
}
  0
ARC
  5
ADE
330
18
100
AcDbEntity
  8
0
  6
Continuous
 62
     7
100
AcDbCircle
 10
4088.980202691371
 20
1333.205348340052
 30
0.0
 40
14.271426
100
AcDbArc
 50
193.1781909999996
 51
238.465208
  0
LINE
  5
ADF
330
18
100
AcDbEntity
  8
0
  6
Continuous
 62
     7
100
AcDbLine
 10
4138.77366369137
 20
1400.774719340052
 30
0.0
 11
4142.080015691371
 21
1404.139077340052
 31
0.0
  0
ARC
  5
AE0
330
18
100
AcDbEntity
  8
0
  6
Continuous
 62
     7
100
AcDbCircle
 10
4141.970570691371
 20
1397.574420340052
 30
0.0
 40
4.548432
100
AcDbArc
 50
41.68905800000068
 51
133.9390879999998
  0
ARC
  5
AE1
330
18
100
AcDbEntity
  8
0
  6
Continuous
 62
     7
100
AcDbCircle
 10
4159.521201691371
 20
1370.979014340052
 30
0.0
 40
2.144911
100
AcDbArc
 50
304.5625249999988
 51
16.85839900000048
  0
ARC
  5
AE2
330
18
100
AcDbEntity
  8
0
  6
Continuous
 62
     7
100
AcDbCircle
 10
-4112.719235691371
 20
-1310.854536708494
 30
528.0147479176012
 40
9.052058999999999
210
0.0
220
0.3736299396617587
230
0.9275778502036098
100
AcDbArc
 50
250.7754200000007
 51
316.5862469999999
1001
ACAD
1000
TCW40_ELL_ARC
1002
{
1040
1182.758301
1040
1102.354126
1040
0.0
1040
9.052058
1040
0.0
1040
0.0
1040
0.0
1040
0.0
1040
1.0
1040
0.9275780000000001
1040
1.235263999999999
1040
2.383879999999999
1002
}
  0
LINE
  5
AE3
330
18
100
AcDbEntity
  8
0
  6
Continuous
 62
     7
100
AcDbLine
 10
4106.201063691371
 20
1419.056299340052
 30
0.0
 11
4108.37986169137
 21
1423.595460340052
 31
0.0
  0
ARC
  5
AE4
330
18
100
AcDbEntity
  8
0
  6
Continuous
 62
     7
100
AcDbCircle
 10
-4302.563004302679
 20
-297.1733660674705
 30
114.138109593731
 40
4.548432
210
-0.092758005319579
220
0.3463370198620824
230
0.9335130535360416
100
AcDbArc
 50
273.5975210000007
 51
5.847550999999174
1001
ACAD
1000
TCW40_ELL_ARC
1002
{
1040
1143.766967999999
1040
1109.760498
1040
0.0
1040
4.393583
1040
1.176716
1040
0.0
1040
0.0
1040
0.0
1040
1.0
1040
0.9335129999999999
1040
1.633585
1040
3.243651999999999
1002
}
  0
ARC
  5
AE5
330
18
100
AcDbEntity
  8
0
  6
Continuous
 62
     7
100
AcDbCircle
 10
-4202.459852594084
 20
-806.1146329101584
 30
473.3085137095899
 40
4.536729
210
-0.0590139977894537
220
0.5028719811634217
230
0.8623439676983203
100
AcDbArc
 50
182.4111379999994
 51
274.6611679999991
1001
ACAD
1000
TCW40_ELL_ARC
1002
{
1040
1134.903076
1040
1107.389037999999
1040
0.0
1040
4.505808999999999
1040
0.528771
1040
0.0
1040
0.0
1040
0.0
1040
1.0
1040
0.862344
1040
0.042082
1040
1.652149
1002
}
  0
LINE
  5
AE6
330
18
100
AcDbEntity
  8
0
  6
Continuous
 62
     7
100
AcDbLine
 10
4038.081628691371
 20
1400.833265340052
 30
0.0
 11
4034.775275691371
 21
1404.197623340052
 31
0.0
  0
ARC
  5
AE7
330
18
100
AcDbEntity
  8
0
  6
Continuous
 62
     7
100
AcDbCircle
 10
4034.884721691371
 20
1397.632966340052
 30
0.0
 40
4.548432
100
AcDbArc
 50
46.06091200000018
 51
138.3109419999993
  0
ARC
  5
AE8
330
18
100
AcDbEntity
  8
0
  6
Continuous
 62
     7
100
AcDbCircle
 10
4017.280072691371
 20
1371.316643340052
 30
0.0
 40
2.144911
100
AcDbArc
 50
163.1416009999995
 51
235.4374750000011
  0
LINE
  5
AEC
330
18
100
AcDbEntity
  8
WUWAGAKI
100
AcDbLine
 10
3914.318188616412
 20
1601.212770700056
 30
0.0
 11
3914.318188616412
 21
1271.212770700056
 31
0.0
  0
ARC
  5
AFB
330
18
100
AcDbEntity
  8
0
  6
Continuous
 62
     7
100
AcDbCircle
 10
4338.872877207449
 20
1516.375800956515
 30
0.0
 40
5.106866
100
AcDbArc
 50
180.0
 51
0.0
  0
ARC
  5
AFC
330
18
100
AcDbEntity
  8
0
  6
Continuous
 62
     7
100
AcDbCircle
 10
4338.872937207448
 20
1533.745657956515
 30
0.0
 40
7.473444
100
AcDbArc
 50
0.0
 51
180.0
  0
LINE
  5
AFD
330
18
100
AcDbEntity
  8
0
  6
Continuous
 62
     7
100
AcDbLine
 10
4331.368090207448
 20
1533.730527956515
 30
0.0
 11
4333.721031207448
 21
1516.363422956515
 31
0.0
  0
LINE
  5
AFE
330
18
100
AcDbEntity
  8
0
  6
Continuous
 62
     7
100
AcDbLine
 10
4346.317061207448
 20
1534.093660956515
 30
0.0
 11
4344.015703207449
 21
1516.324132956515
 31
0.0
  0
LINE
  5
AFF
330
18
100
AcDbEntity
  8
0
  6
Continuous
 62
     7
100
AcDbLine
 10
4367.093882207448
 20
1483.001216956515
 30
0.0
 11
4411.433863207448
 21
1494.928930956515
 31
0.0
  0
ARC
  5
B00
330
18
100
AcDbEntity
  8
0
  6
Continuous
 62
     7
100
AcDbCircle
 10
4338.857221207448
 20
1475.405389956515
 30
0.0
 40
76.5
100
AcDbArc
 50
16.45995799999943
 51
41.82093699999982
  0
ARC
  5
B01
330
18
100
AcDbEntity
  8
0
  6
Continuous
 62
     7
100
AcDbCircle
 10
4338.857221207448
 20
1475.405389956515
 30
0.0
 40
76.5
100
AcDbArc
 50
45.41275499999939
 51
69.08513299999978
  0
ARC
  5
B02
330
18
100
AcDbEntity
  8
0
  6
Continuous
 62
     7
100
AcDbCircle
 10
4338.857221207448
 20
1475.405389956515
 30
0.0
 40
76.5
100
AcDbArc
 50
74.81561800000021
 51
101.9340349999998
  0
ARC
  5
B03
330
18
100
AcDbEntity
  8
0
  6
Continuous
 62
     7
100
AcDbCircle
 10
4338.857221207448
 20
1475.405389956515
 30
0.0
 40
76.5
100
AcDbArc
 50
108.6119669999998
 51
134.4995050000002
  0
ARC
  5
B04
330
18
100
AcDbEntity
  8
0
  6
Continuous
 62
     7
100
AcDbCircle
 10
4338.857221207448
 20
1475.405389956515
 30
0.0
 40
76.5
100
AcDbArc
 50
137.9077699999997
 51
162.9832050000002
  0
LINE
  5
B05
330
18
100
AcDbEntity
  8
0
  6
Continuous
 62
     7
100
AcDbLine
 10
4326.767431207449
 20
1478.719764956515
 30
0.0
 11
4266.374812207448
 21
1495.275996956515
 31
0.0
  0
ARC
  5
B06
330
18
100
AcDbEntity
  8
0
  6
Continuous
 62
     7
100
AcDbCircle
 10
4303.134355207449
 20
1495.494345956515
 30
0.0
 40
5.106866
100
AcDbArc
 50
240.2949950000002
 51
60.29499500000021
  0
ARC
  5
B07
330
18
100
AcDbEntity
  8
0
  6
Continuous
 62
     7
100
AcDbCircle
 10
4288.047132207448
 20
1504.101762956515
 30
0.0
 40
7.473444
100
AcDbArc
 50
60.29499500000021
 51
240.2949950000002
  0
LINE
  5
B08
330
18
100
AcDbEntity
  8
0
  6
Continuous
 62
     7
100
AcDbLine
 10
4284.341363207448
 20
1497.575642956515
 30
0.0
 11
4300.592189207448
 21
1491.013379956515
 31
0.0
  0
LINE
  5
B09
330
18
100
AcDbEntity
  8
0
  6
Continuous
 62
     7
100
AcDbLine
 10
4291.433681207449
 20
1510.740088956515
 30
0.0
 11
4305.727682207448
 21
1499.935740956515
 31
0.0
  0
ARC
  5
B0A
330
18
100
AcDbEntity
  8
0
  6
Continuous
 62
     7
100
AcDbCircle
 10
4317.530601207448
 20
1510.539944956515
 30
0.0
 40
5.106866
100
AcDbArc
 50
210.7627200000005
 51
30.76272000000049
  0
ARC
  5
B0B
330
18
100
AcDbEntity
  8
0
  6
Continuous
 62
     7
100
AcDbCircle
 10
4308.646251207448
 20
1525.465770956515
 30
0.0
 40
7.473444
100
AcDbArc
 50
30.76272000000049
 51
210.7627200000005
  0
LINE
  5
B0C
330
18
100
AcDbEntity
  8
0
  6
Continuous
 62
     7
100
AcDbLine
 10
4302.205128207448
 20
1521.614160956515
 30
0.0
 11
4313.109988207449
 21
1507.894222956515
 31
0.0
  0
LINE
  5
B0D
330
18
100
AcDbEntity
  8
0
  6
Continuous
 62
     7
100
AcDbLine
 10
4314.864937207448
 20
1529.572355956514
 30
0.0
 11
4321.976222207448
 21
1513.126018956515
 31
0.0
  0
ARC
  5
B0E
330
18
100
AcDbEntity
  8
0
  6
Continuous
 62
     7
100
AcDbCircle
 10
4374.334267207449
 20
1495.682995956514
 30
0.0
 40
5.106866
100
AcDbArc
 50
119.4758889999999
 51
299.4758889999999
  0
ARC
  5
B0F
330
18
100
AcDbEntity
  8
0
  6
Continuous
 62
     7
100
AcDbCircle
 10
4389.455849207449
 20
1504.229907956515
 30
0.0
 40
7.473444
100
AcDbArc
 50
299.4758889999999
 51
119.4758889999999
  0
LINE
  5
B10
330
18
100
AcDbEntity
  8
0
  6
Continuous
 62
     7
100
AcDbLine
 10
4385.749862207448
 20
1510.755903956515
 30
0.0
 11
4371.788488207449
 21
1500.161911956515
 31
0.0
  0
LINE
  5
B11
330
18
100
AcDbEntity
  8
0
  6
Continuous
 62
     7
100
AcDbLine
 10
4393.421742207449
 20
1497.920567956515
 30
0.0
 11
4376.819851207448
 21
1491.180418956515
 31
0.0
  0
ARC
  5
B12
330
18
100
AcDbEntity
  8
0
  6
Continuous
 62
     7
100
AcDbCircle
 10
4359.822721207448
 20
1510.740060956515
 30
0.0
 40
5.106866
100
AcDbArc
 50
154.5635789999991
 51
334.5635789999992
  0
ARC
  5
B13
330
18
100
AcDbEntity
  8
0
  6
Continuous
 62
     7
100
AcDbCircle
 10
4367.283291207448
 20
1526.426100956514
 30
0.0
 40
7.473444
100
AcDbArc
 50
334.5635789999992
 51
154.5635789999991
  0
LINE
  5
B14
330
18
100
AcDbEntity
  8
0
  6
Continuous
 62
     7
100
AcDbLine
 10
4360.499446207448
 20
1529.635838956515
 30
0.0
 11
4355.164966207449
 21
1512.941648956514
 31
0.0
  0
LINE
  5
B15
330
18
100
AcDbEntity
  8
0
  6
Continuous
 62
     7
100
AcDbLine
 10
4374.155270207448
 20
1523.543047956515
 30
0.0
 11
4364.444822207448
 21
1508.484509956515
 31
0.0
  0
ARC
  5
B16
330
18
100
AcDbEntity
  8
0
  6
Continuous
 62
     7
100
AcDbCircle
 10
4379.382701207449
 20
1448.022384956515
 30
0.0
 40
37.068027
100
AcDbArc
 50
108.6664630000004
 51
161.2355639999985
  0
ARC
  5
B17
330
18
100
AcDbEntity
  8
0
  6
Continuous
 62
     7
100
AcDbCircle
 10
1467.426956956515
 20
-4100.740993279676
 30
1362.075947639472
 40
12.695875
210
0.3152198879770185
220
0.0
230
0.9490186627373331
100
AcDbArc
 50
201.801335
 51
332.3558870000003
1001
ACAD
1000
TCW40_ELL_ARC
1002
{
1040
1140.56189
1040
1030.879395
1040
0.0
1040
0.0
1040
-12.695875
1040
0.0
1040
0.0
1040
0.0
1040
1.0
1040
0.949019
1040
0.3805050000000001
1040
2.659111999999999
1002
}
  0
ARC
  5
B18
330
18
100
AcDbEntity
  8
0
  6
Continuous
 62
     7
100
AcDbCircle
 10
1469.692849956515
 20
-3633.273845698844
 30
2347.393356003473
 40
24.230002
210
0.5426730249453229
220
0.0
230
0.8399440386101286
100
AcDbArc
 50
198.5216909999995
 51
247.0691130000004
1001
ACAD
1000
TCW40_ELL_ARC
1002
{
1040
1145.142456
1040
1033.145264
1040
0.0
1040
0.0
1040
-24.230001
1040
0.0
1040
0.0
1040
0.0
1040
1.0
1040
0.839944
1040
0.323264
1040
1.170576999999999
1002
}
  0
ARC
  5
B19
330
18
100
AcDbEntity
  8
0
  6
Continuous
 62
     7
100
AcDbCircle
 10
4339.490560207448
 20
1458.905259956515
 30
0.0
 40
14.271426
100
AcDbArc
 50
193.1781910000012
 51
238.465208
  0
LINE
  5
B1A
330
18
100
AcDbEntity
  8
0
  6
Continuous
 62
     7
100
AcDbLine
 10
4389.284021207448
 20
1526.474630956515
 30
0.0
 11
4392.590373207449
 21
1529.838988956515
 31
0.0
  0
ARC
  5
B1B
330
18
100
AcDbEntity
  8
0
  6
Continuous
 62
     7
100
AcDbCircle
 10
4392.480928207448
 20
1523.274331956515
 30
0.0
 40
4.548432
100
AcDbArc
 50
41.68905799999961
 51
133.9390880000002
  0
ARC
  5
B1C
330
18
100
AcDbEntity
  8
0
  6
Continuous
 62
     7
100
AcDbCircle
 10
4410.031559207449
 20
1496.678925956515
 30
0.0
 40
2.144911
100
AcDbArc
 50
304.5625249999996
 51
16.85839900000001
  0
ARC
  5
B1D
330
18
100
AcDbEntity
  8
0
  6
Continuous
 62
     7
100
AcDbCircle
 10
-4363.229593207448
 20
-1427.450990496476
 30
574.9799983103485
 40
9.052058999999999
210
0.0
220
0.3736299396617587
230
0.9275778502036098
100
AcDbArc
 50
250.7754200000003
 51
316.5862469999995
1001
ACAD
1000
TCW40_ELL_ARC
1002
{
1040
1182.758301
1040
1102.354126
1040
0.0
1040
9.052058
1040
0.0
1040
0.0
1040
0.0
1040
0.0
1040
1.0
1040
0.9275780000000001
1040
1.235263999999999
1040
2.383879999999999
1002
}
  0
LINE
  5
B1E
330
18
100
AcDbEntity
  8
0
  6
Continuous
 62
     7
100
AcDbLine
 10
4356.711421207449
 20
1544.756210956515
 30
0.0
 11
4358.890219207448
 21
1549.295371956515
 31
0.0
  0
ARC
  5
B1F
330
18
100
AcDbEntity
  8
0
  6
Continuous
 62
     7
100
AcDbCircle
 10
-4577.064446018034
 20
-350.0209697086336
 30
134.4358013048179
 40
4.548432
210
-0.092758005319579
220
0.3463370198620824
230
0.9335130535360416
100
AcDbArc
 50
273.5975210000005
 51
5.847551000000728
1001
ACAD
1000
TCW40_ELL_ARC
1002
{
1040
1143.766967999999
1040
1109.760498
1040
0.0
1040
4.393583
1040
1.176716
1040
0.0
1040
0.0
1040
0.0
1040
1.0
1040
0.9335129999999999
1040
1.633585
1040
3.243651999999999
1002
}
  0
ARC
  5
B20
330
18
100
AcDbEntity
  8
0
  6
Continuous
 62
     7
100
AcDbCircle
 10
-4465.913655476358
 20
-888.5936782427817
 30
521.7358596115383
 40
4.536729
210
-0.0590139977894537
220
0.5028719811634217
230
0.8623439676983203
100
AcDbArc
 50
182.4111380000008
 51
274.6611679999998
1001
ACAD
1000
TCW40_ELL_ARC
1002
{
1040
1134.903076
1040
1107.389037999999
1040
0.0
1040
4.505808999999999
1040
0.528771
1040
0.0
1040
0.0
1040
0.0
1040
1.0
1040
0.862344
1040
0.042082
1040
1.652149
1002
}
  0
LINE
  5
B21
330
18
100
AcDbEntity
  8
0
  6
Continuous
 62
     7
100
AcDbLine
 10
4288.591986207448
 20
1526.533176956515
 30
0.0
 11
4285.285633207448
 21
1529.897534956515
 31
0.0
  0
ARC
  5
B22
330
18
100
AcDbEntity
  8
0
  6
Continuous
 62
     7
100
AcDbCircle
 10
4285.395079207448
 20
1523.332877956515
 30
0.0
 40
4.548432
100
AcDbArc
 50
46.06091199999974
 51
138.3109420000002
  0
ARC
  5
B23
330
18
100
AcDbEntity
  8
0
  6
Continuous
 62
     7
100
AcDbCircle
 10
4267.790430207448
 20
1497.016554956515
 30
0.0
 40
2.144911
100
AcDbArc
 50
163.1416009999999
 51
235.4374750000003
  0
LINE
  5
B39
330
18
100
AcDbEntity
  8
点線
 62
     5
 48
5.0
100
AcDbLine
 10
5114.318158874175
 20
1446.212770700057
 30
0.0
 11
5136.318188616413
 21
1446.212770700057
 31
0.0
  0
LINE
  5
B3A
330
18
100
AcDbEntity
  8
点線
  6
BORDER
 62
     5
 48
10.0
100
AcDbLine
 10
5136.318188616413
 20
1466.212770700057
 30
0.0
 11
5214.349342433092
 21
1461.212770700057
 31
0.0
  0
LINE
  5
B3B
330
18
100
AcDbEntity
  8
点線
  6
BORDER
 62
     5
 48
10.0
100
AcDbLine
 10
5136.318188616413
 20
1531.212735305924
 30
0.0
 11
5214.318188616413
 21
1536.210511024176
 31
0.0
  0
LINE
  5
B3C
330
18
100
AcDbEntity
  8
点線
 62
     5
 48
5.0
100
AcDbLine
 10
5136.318188616413
 20
1446.212770700057
 30
0.0
 11
5136.318188616413
 21
1551.212735305924
 31
0.0
  0
LINE
  5
B3D
330
18
100
AcDbEntity
  8
点線
 62
     5
 48
5.0
100
AcDbLine
 10
5136.318188616413
 20
1551.212735305924
 30
0.0
 11
5114.318158874175
 21
1551.212735305924
 31
0.0
  0
POINT
  5
B3E
330
18
100
AcDbEntity
  8
DEFPOINTS
  6
ByBlock
 62
     0
100
AcDbPoint
 10
5114.318188616413
 20
1445.580056788871
 30
0.0
  0
LINE
  5
EE8
330
18
100
AcDbEntity
  8
WUWAGAKI
100
AcDbLine
 10
5970.906529614716
 20
2248.583670936511
 30
0.0
 11
3123.760583863437
 21
2248.583670936511
 31
0.0
  0
LINE
  5
EE9
330
18
100
AcDbEntity
  8
WUWAGAKI
100
AcDbLine
 10
3123.760583863437
 20
297.8171030724288
 30
0.0
 11
5970.906529614716
 21
297.8171030724288
 31
0.0
  0
MTEXT
  5
EEA
330
18
100
AcDbEntity
  8
0
  6
ByBlock
 62
     0
 48
10.0
100
AcDbMText
 10
4214.318188616412
 20
1841.212770700056
 30
0.0
 40
25.0
 41
0.0
 71
     5
 72
     1
  1
600
 73
     1
 44
1.0
  0
LINE
  5
EEB
330
18
100
AcDbEntity
  8
WUWAGAKI
100
AcDbLine
 10
3123.760583863437
 20
2248.583670936511
 30
0.0
 11
3123.760583863437
 21
297.8171030724288
 31
0.0
  0
LINE
  5
EEC
330
18
100
AcDbEntity
  8
上線
100
AcDbLine
 10
4301.32292325891
 20
1021.212755326567
 30
0.0
 11
4301.32292325891
 21
1087.682327206507
 31
0.0
  0
LINE
  5
EED
330
18
100
AcDbEntity
  8
上線
100
AcDbLine
 10
4299.322923758911
 20
1023.212754826568
 30
0.0
 11
4299.322923758911
 21
1085.682327706507
 31
0.0
  0
LINE
  5
EEE
330
18
100
AcDbEntity
  8
上線
100
AcDbLine
 10
4127.313489646021
 20
1087.682327206507
 30
0.0
 11
4127.313489646021
 21
1021.212755326567
 31
0.0
  0
LINE
  5
EEF
330
18
100
AcDbEntity
  8
上線
100
AcDbLine
 10
4129.313489146021
 20
1085.682327706507
 30
0.0
 11
4129.313489146021
 21
1023.212754826568
 31
0.0
  0
LINE
  5
EF1
330
18
100
AcDbEntity
  8
上線
100
AcDbLine
 10
4127.313489646021
 20
1021.212755326567
 30
0.0
 11
4301.32292325891
 21
1021.212755326567
 31
0.0
  0
LINE
  5
EF2
330
18
100
AcDbEntity
  8
上線
100
AcDbLine
 10
4129.313489146021
 20
1023.212754826568
 30
0.0
 11
4299.322923758911
 21
1023.212754826568
 31
0.0
  0
SOLID
  5
EF3
330
18
100
AcDbEntity
  8
0
  6
ByBlock
 62
     0
 48
10.0
100
AcDbTrace
 10
4131.818197056726
 20
787.0460968734225
 30
0.0
 11
4131.818197056726
 21
795.3794302067564
 31
0.0
 12
4156.818197056725
 22
791.2127635400905
 32
0.0
 13
4156.818197056725
 23
791.2127635400905
 33
0.0
  0
LINE
  5
EF4
330
18
100
AcDbEntity
  8
OBJECT
 48
10.0
100
AcDbLine
 10
4021.818197056726
 20
791.2127635400902
 30
0.0
 11
4156.818197056725
 21
791.2127635400906
 31
0.0
  0
LINE
  5
EF8
330
18
100
AcDbEntity
  8
OBJECT
 48
10.0
100
AcDbLine
 10
3794.318238117218
 20
571.2127879150659
 30
0.0
 11
3794.318238117216
 21
671.2127879150662
 31
0.0
  0
SOLID
  5
EF9
330
18
100
AcDbEntity
  8
0
  6
ByBlock
 62
     0
 48
10.0
100
AcDbTrace
 10
3698.484898941603
 20
646.2127879150516
 30
0.0
 11
3690.151565608269
 21
646.2127879150516
 31
0.0
 12
3694.318232274935
 22
671.2127879150516
 32
0.0
 13
3694.318232274935
 23
671.2127879150516
 33
0.0
  0
LINE
  5
EFA
330
18
100
AcDbEntity
  8
OBJECT
 48
10.0
100
AcDbLine
 10
3694.318232274935
 20
571.2127879150659
 30
0.0
 11
3694.318232274935
 21
671.2127879150516
 31
0.0
  0
LINE
  5
EFC
330
18
100
AcDbEntity
  8
0
 48
10.0
100
AcDbLine
 10
3894.318232274939
 20
649.2127879150659
 30
0.0
 11
3774.318232274938
 21
649.2127879150659
 31
0.0
  0
LINE
  5
EFD
330
18
100
AcDbEntity
  8
0
 48
10.0
100
AcDbLine
 10
3894.318232274938
 20
571.2127879150659
 30
0.0
 11
3674.318232274938
 21
571.2127879150659
 31
0.0
  0
SOLID
  5
EFF
330
18
100
AcDbEntity
  8
0
  6
ByBlock
 62
     0
 48
10.0
100
AcDbTrace
 10
3698.484898941604
 20
596.2127879150659
 30
0.0
 11
3690.15156560827
 21
596.2127879150659
 31
0.0
 12
3694.318232274935
 22
571.2127879150659
 32
0.0
 13
3694.318232274935
 23
571.2127879150659
 33
0.0
  0
SOLID
  5
F00
330
18
100
AcDbEntity
  8
0
  6
ByBlock
 62
     0
 48
10.0
100
AcDbTrace
 10
3798.484898941603
 20
624.212822968753
 30
0.0
 11
3790.151565608269
 21
624.212822968753
 31
0.0
 12
3794.318232274935
 22
649.212822968753
 32
0.0
 13
3794.318232274935
 23
649.212822968753
 33
0.0
  0
SOLID
  5
F01
330
18
100
AcDbEntity
  8
0
  6
ByBlock
 62
     0
 48
10.0
100
AcDbTrace
 10
3798.484904783885
 20
596.2127879150659
 30
0.0
 11
3790.151571450552
 21
596.2127879150659
 31
0.0
 12
3794.318238117218
 22
571.2127879150659
 32
0.0
 13
3794.318238117218
 23
571.2127879150659
 33
0.0
  0
LINE
  5
F04
330
18
100
AcDbEntity
  8
0
 48
10.0
100
AcDbLine
 10
3894.318232274938
 20
671.2127879150659
 30
0.0
 11
3674.318232274938
 21
671.2127879150664
 31
0.0
  0
SOLID
  5
F06
330
18
100
AcDbEntity
  8
0
  6
ByBlock
 62
     0
 48
10.0
100
AcDbTrace
 10
3798.597517532011
 20
696.212795821169
 30
0.0
 11
3790.264184198677
 21
696.212795821169
 31
0.0
 12
3794.430850865342
 22
671.212795821169
 32
0.0
 13
3794.430850865342
 23
671.212795821169
 33
0.0
  0
LINE
  5
F07
330
18
100
AcDbEntity
  8
OBJECT
 48
10.0
100
AcDbLine
 10
3794.430850865345
 20
671.2127879150662
 30
0.0
 11
3794.430850865345
 21
746.2127879150662
 31
0.0
  0
LINE
  5
F08
330
18
100
AcDbEntity
  8
0
 48
10.0
100
AcDbLine
 10
4021.818197056726
 20
691.2127707000561
 30
0.0
 11
4021.818197056726
 21
811.2127707000562
 31
0.0
  0
SOLID
  5
F0A
330
18
100
AcDbEntity
  8
0
  6
ByBlock
 62
     0
 48
10.0
100
AcDbTrace
 10
4046.818197056725
 20
787.0460968734225
 30
0.0
 11
4046.818197056725
 21
795.3794302067564
 31
0.0
 12
4021.818197056726
 22
791.2127635400905
 32
0.0
 13
4021.818197056726
 23
791.2127635400905
 33
0.0
  0
SOLID
  5
F12
330
18
100
AcDbEntity
  8
0
  6
ByBlock
 62
     0
 48
10.0
100
AcDbTrace
 10
4296.818267493151
 20
787.0460968734225
 30
0.0
 11
4296.818267493151
 21
795.3794302067564
 31
0.0
 12
4271.818267493152
 22
791.2127635400905
 32
0.0
 13
4271.818267493152
 23
791.2127635400905
 33
0.0
  0
LINE
  5
F13
330
18
100
AcDbEntity
  8
OBJECT
 48
10.0
100
AcDbLine
 10
4406.818267493151
 20
791.2127635400902
 30
0.0
 11
4271.818267493152
 21
791.2127635400906
 31
0.0
  0
LINE
  5
F14
330
18
100
AcDbEntity
  8
0
 48
10.0
100
AcDbLine
 10
4271.818267493152
 20
691.2127707000561
 30
0.0
 11
4271.818267493152
 21
811.2127707000562
 31
0.0
  0
LINE
  5
F15
330
18
100
AcDbEntity
  8
0
 48
10.0
100
AcDbLine
 10
4156.818197056725
 20
691.2127707000561
 30
0.0
 11
4156.818197056725
 21
811.2127707000562
 31
0.0
  0
LINE
  5
F16
330
18
100
AcDbEntity
  8
0
 48
10.0
100
AcDbLine
 10
4406.818267493151
 20
691.2127707000561
 30
0.0
 11
4406.818267493151
 21
811.2127707000562
 31
0.0
  0
SOLID
  5
F18
330
18
100
AcDbEntity
  8
0
  6
ByBlock
 62
     0
 48
10.0
100
AcDbTrace
 10
4381.818267493152
 20
787.0460968734225
 30
0.0
 11
4381.818267493152
 21
795.3794302067564
 31
0.0
 12
4406.818267493151
 22
791.2127635400905
 32
0.0
 13
4406.818267493151
 23
791.2127635400905
 33
0.0
  0
LINE
  5
F19
330
18
100
AcDbEntity
  8
上線
100
AcDbLine
 10
4301.32292325891
 20
1087.682327206507
 30
0.0
 11
4127.313489646021
 21
1087.682327206507
 31
0.0
  0
LINE
  5
F1A
330
18
100
AcDbEntity
  8
上線
100
AcDbLine
 10
4299.322923758911
 20
1085.682327706507
 30
0.0
 11
4129.313489146021
 21
1085.682327706507
 31
0.0
  0
LINE
  5
F1B
330
18
100
AcDbEntity
  8
OBJECT
 48
10.0
100
AcDbLine
 10
4514.318188616413
 20
1721.212764857776
 30
0.0
 11
3914.318188616413
 21
1721.212764857777
 31
0.0
  0
SOLID
  5
F1C
330
18
100
AcDbEntity
  8
0
  6
ByBlock
 62
     0
 48
10.0
100
AcDbTrace
 10
4134.318188616414
 20
1717.046096873422
 30
0.0
 11
4134.318188616414
 21
1725.379430206756
 31
0.0
 12
4159.318188616413
 22
1721.21276354009
 32
0.0
 13
4159.318188616413
 23
1721.21276354009
 33
0.0
  0
LINE
  5
F1F
330
18
100
AcDbEntity
  8
OBJECT
 48
10.0
100
AcDbLine
 10
4514.318188616413
 20
1821.212764857776
 30
0.0
 11
3914.318188616413
 21
1821.212764857777
 31
0.0
  0
LINE
  5
F20
330
18
100
AcDbEntity
  8
HOZIXYO
  6
ByBlock
 62
     0
 48
10.0
100
AcDbLine
 10
3914.318188616412
 20
1591.212770700056
 30
0.0
 11
4514.318188616413
 21
1591.212770700056
 31
0.0
  0
LINE
  5
F21
330
18
100
AcDbEntity
  8
HOZIXYO
  6
ByBlock
 62
     0
 48
10.0
100
AcDbLine
 10
3914.318188616412
 20
1281.212770700056
 30
0.0
 11
4514.318188616413
 21
1281.212770700056
 31
0.0
  0
LINE
  5
F22
330
18
100
AcDbEntity
  8
WUWAGAKI
100
AcDbLine
 10
4514.318188616413
 20
1601.212770700056
 30
0.0
 11
3914.318188616412
 21
1601.212770700056
 31
0.0
  0
LINE
  5
F23
330
18
100
AcDbEntity
  8
WUWAGAKI
100
AcDbLine
 10
3914.318188616412
 20
1271.212770700056
 30
0.0
 11
4514.318188616413
 21
1271.212770700056
 31
0.0
  0
MTEXT
  5
F25
330
18
100
AcDbEntity
  8
0
  6
ByBlock
 62
     0
 48
10.0
100
AcDbMText
 10
3674.318188616412
 20
1436.212787915037
 30
0.0
 40
25.0
 41
0.0
 71
     5
 72
     1
  1
330
 11
0.0000000000000001
 21
1.0
 31
0.0
 73
     1
 44
1.0
  0
LINE
  5
F26
330
18
100
AcDbEntity
  8
OBJECT
 48
10.0
100
AcDbLine
 10
3694.31818861641
 20
1271.212787915037
 30
0.0
 11
3694.31818861641
 21
1601.212787915051
 31
0.0
  0
LINE
  5
F27
330
18
100
AcDbEntity
  8
OBJECT
 48
10.0
100
AcDbLine
 10
3794.318194458692
 20
1271.212787915037
 30
0.0
 11
3794.318194458691
 21
1601.212787915066
 31
0.0
  0
LINE
  5
F28
330
18
100
AcDbEntity
  8
0
 48
10.0
100
AcDbLine
 10
3894.318188616413
 20
1271.212787915037
 30
0.0
 11
3674.318188616413
 21
1271.212787915037
 31
0.0
  0
SOLID
  5
F29
330
18
100
AcDbEntity
  8
0
  6
ByBlock
 62
     0
 48
10.0
100
AcDbTrace
 10
3698.484855283078
 20
1296.212787915052
 30
0.0
 11
3690.151521949744
 21
1296.212787915052
 31
0.0
 12
3694.31818861641
 22
1271.212787915051
 32
0.0
 13
3694.31818861641
 23
1271.212787915051
 33
0.0
  0
SOLID
  5
F2A
330
18
100
AcDbEntity
  8
0
  6
ByBlock
 62
     0
 48
10.0
100
AcDbTrace
 10
3798.597473873487
 20
1345.537111426257
 30
0.0
 11
3790.264140540154
 21
1345.537111426257
 31
0.0
 12
3794.430807206819
 22
1320.537111426258
 32
0.0
 13
3794.430807206819
 23
1320.537111426258
 33
0.0
  0
MTEXT
  5
F2B
330
18
100
AcDbEntity
  8
0
  6
ByBlock
 62
     0
 48
10.0
100
AcDbMText
 10
3774.318194458691
 20
1373.712787915037
 30
0.0
 40
25.0
 41
0.0
 71
     5
 72
     1
  1
105
 11
0.0000000000000001
 21
1.0
 31
0.0
 73
     1
 44
1.0
  0
LINE
  5
F2C
330
18
100
AcDbEntity
  8
0
 48
10.0
100
AcDbLine
 10
3894.318188616413
 20
1551.212787915066
 30
0.0
 11
3774.318188616414
 21
1551.212787915066
 31
0.0
  0
LINE
  5
F2D
330
18
100
AcDbEntity
  8
0
 48
10.0
100
AcDbLine
 10
3894.318188616413
 20
1446.212787915066
 30
0.0
 11
3774.318188616414
 21
1446.212787915066
 31
0.0
  0
LINE
  5
F2E
330
18
100
AcDbEntity
  8
0
 48
10.0
100
AcDbLine
 10
3894.318188616412
 20
1601.212787915066
 30
0.0
 11
3674.318188616412
 21
1601.212787915066
 31
0.0
  0
LINE
  5
F2F
330
18
100
AcDbEntity
  8
OBJECT
 48
10.0
100
AcDbLine
 10
3794.430807206819
 20
1601.212787915066
 30
0.0
 11
3794.430807206819
 21
1676.212787915066
 31
0.0
  0
SOLID
  5
F30
330
18
100
AcDbEntity
  8
0
  6
ByBlock
 62
     0
 48
10.0
100
AcDbTrace
 10
3698.484855283078
 20
1576.212787915052
 30
0.0
 11
3690.151521949744
 21
1576.212787915052
 31
0.0
 12
3694.31818861641
 22
1601.212787915051
 32
0.0
 13
3694.31818861641
 23
1601.212787915051
 33
0.0
  0
MTEXT
  5
F32
330
18
100
AcDbEntity
  8
0
  6
ByBlock
 62
     0
 48
10.0
100
AcDbMText
 10
3774.318194458692
 20
1498.712787915066
 30
0.0
 40
25.0
 41
0.0
 71
     5
 72
     1
  1
105
 11
0.0000000000000001
 21
1.0
 31
0.0
 73
     1
 44
1.0
  0
SOLID
  5
F33
330
18
100
AcDbEntity
  8
0
  6
ByBlock
 62
     0
 48
10.0
100
AcDbTrace
 10
3798.484855283079
 20
1401.212822968708
 30
0.0
 11
3790.151521949745
 21
1401.212822968708
 31
0.0
 12
3794.318188616411
 22
1426.212822968708
 32
0.0
 13
3794.318188616411
 23
1426.212822968708
 33
0.0
  0
SOLID
  5
F34
330
18
100
AcDbEntity
  8
0
  6
ByBlock
 62
     0
 48
10.0
100
AcDbTrace
 10
3798.597473873485
 20
1626.212795821169
 30
0.0
 11
3790.264140540152
 21
1626.212795821169
 31
0.0
 12
3794.430807206818
 22
1601.212795821169
 32
0.0
 13
3794.430807206818
 23
1601.212795821169
 33
0.0
  0
MTEXT
  5
F35
330
18
100
AcDbEntity
  8
0
  6
ByBlock
 62
     0
 48
10.0
100
AcDbMText
 10
3774.430805889132
 20
1576.212787915066
 30
0.0
 40
25.0
 41
0.0
 71
     5
 72
     1
  1
50
 11
0.0000000000000001
 21
1.0
 31
0.0
 73
     1
 44
1.0
  0
LINE
  5
F36
330
18
100
AcDbEntity
  8
0
 48
10.0
100
AcDbLine
 10
4014.318188616413
 20
1621.212770700056
 30
0.0
 11
4014.318188616413
 21
1741.212770700056
 31
0.0
  0
LINE
  5
F37
330
18
100
AcDbEntity
  8
0
 48
10.0
100
AcDbLine
 10
3914.318188616413
 20
1621.212770700056
 30
0.0
 11
3914.318188616413
 21
1841.212770700056
 31
0.0
  0
SOLID
  5
F44
330
18
100
AcDbEntity
  8
0
  6
ByBlock
 62
     0
 48
10.0
100
AcDbTrace
 10
3989.318188616413
 20
1717.046096873422
 30
0.0
 11
3989.318188616413
 21
1725.379430206756
 31
0.0
 12
4014.318188616413
 22
1721.21276354009
 32
0.0
 13
4014.318188616413
 23
1721.21276354009
 33
0.0
  0
MTEXT
  5
F45
330
18
100
AcDbEntity
  8
0
  6
ByBlock
 62
     0
 48
10.0
100
AcDbMText
 10
3964.318188616413
 20
1741.212764857777
 30
0.0
 40
25.0
 41
0.0
 71
     5
 72
     1
  1
100
 73
     1
 44
1.0
  0
SOLID
  5
F46
330
18
100
AcDbEntity
  8
0
  6
ByBlock
 62
     0
 48
10.0
100
AcDbTrace
 10
3939.318145656616
 20
1717.046104033388
 30
0.0
 11
3939.318145656616
 21
1725.379437366722
 31
0.0
 12
3914.318145656617
 22
1721.212770700056
 32
0.0
 13
3914.318145656617
 23
1721.212770700056
 33
0.0
  0
LINE
  5
F47
330
18
100
AcDbEntity
  8
OBJECT
 48
10.0
100
AcDbLine
 10
3914.318188616413
 20
1721.21276354009
 30
0.0
 11
3929.318188616413
 21
1721.21276354009
 31
0.0
  0
SOLID
  5
F48
330
18
100
AcDbEntity
  8
0
  6
ByBlock
 62
     0
 48
10.0
100
AcDbTrace
 10
3939.318188616427
 20
1817.04610403339
 30
0.0
 11
3939.318188616427
 21
1825.379437366724
 31
0.0
 12
3914.318188616427
 22
1821.212770700058
 32
0.0
 13
3914.318188616427
 23
1821.212770700058
 33
0.0
  0
MTEXT
  5
F49
330
18
100
AcDbEntity
  8
0
  6
ByBlock
 62
     0
 48
10.0
100
AcDbMText
 10
4086.818188616414
 20
1741.212764857777
 30
0.0
 40
25.0
 41
0.0
 71
     5
 72
     1
  1
145
 73
     1
 44
1.0
  0
SOLID
  5
F4A
330
18
100
AcDbEntity
  8
0
  6
ByBlock
 62
     0
 48
10.0
100
AcDbTrace
 10
4039.318188616412
 20
1717.046096873422
 30
0.0
 11
4039.318188616412
 21
1725.379430206756
 31
0.0
 12
4014.318188616413
 22
1721.21276354009
 32
0.0
 13
4014.318188616413
 23
1721.21276354009
 33
0.0
  0
SOLID
  5
F4C
330
18
100
AcDbEntity
  8
0
  6
ByBlock
 62
     0
 48
10.0
100
AcDbTrace
 10
4389.318188616413
 20
1717.046096873422
 30
0.0
 11
4389.318188616413
 21
1725.379430206756
 31
0.0
 12
4414.318188616412
 22
1721.21276354009
 32
0.0
 13
4414.318188616412
 23
1721.21276354009
 33
0.0
  0
LINE
  5
F4F
330
18
100
AcDbEntity
  8
0
 48
10.0
100
AcDbLine
 10
4269.318192975063
 20
1621.212771686184
 30
0.0
 11
4269.318192975063
 21
1741.212771686184
 31
0.0
  0
LINE
  5
F50
330
18
100
AcDbEntity
  8
0
 48
10.0
100
AcDbLine
 10
4159.318184257762
 20
1621.212771686184
 30
0.0
 11
4159.318184257762
 21
1741.212771686184
 31
0.0
  0
SOLID
  5
F64
330
18
100
AcDbEntity
  8
0
  6
ByBlock
 62
     0
 48
10.0
100
AcDbTrace
 10
4294.318188616413
 20
1717.046096873422
 30
0.0
 11
4294.318188616413
 21
1725.379430206756
 31
0.0
 12
4269.318188616413
 22
1721.21276354009
 32
0.0
 13
4269.318188616413
 23
1721.21276354009
 33
0.0
  0
MTEXT
  5
F65
330
18
100
AcDbEntity
  8
0
  6
ByBlock
 62
     0
 48
10.0
100
AcDbMText
 10
4214.318188616412
 20
1741.212764857777
 30
0.0
 40
25.0
 41
0.0
 71
     5
 72
     1
  1
100
 73
     1
 44
1.0
  0
MTEXT
  5
F66
330
18
100
AcDbEntity
  8
0
  6
ByBlock
 62
     0
 48
10.0
100
AcDbMText
 10
4341.818188616413
 20
1741.212764857777
 30
0.0
 40
25.0
 41
0.0
 71
     5
 72
     1
  1
145
 73
     1
 44
1.0
  0
LINE
  5
F67
330
18
100
AcDbEntity
  8
0
 48
10.0
100
AcDbLine
 10
4414.318188616412
 20
1621.212770700056
 30
0.0
 11
4414.318188616412
 21
1741.212770700056
 31
0.0
  0
LINE
  5
F68
330
18
100
AcDbEntity
  8
0
 48
10.0
100
AcDbLine
 10
4514.318188616413
 20
1621.212770700056
 30
0.0
 11
4514.318188616413
 21
1841.212770700056
 31
0.0
  0
MTEXT
  5
F6A
330
18
100
AcDbEntity
  8
0
  6
ByBlock
 62
     0
 48
10.0
100
AcDbMText
 10
4464.318188616412
 20
1741.212764857777
 30
0.0
 40
25.0
 41
0.0
 71
     5
 72
     1
  1
100
 73
     1
 44
1.0
  0
SOLID
  5
F6B
330
18
100
AcDbEntity
  8
0
  6
ByBlock
 62
     0
 48
10.0
100
AcDbTrace
 10
4439.318188616413
 20
1717.046096873422
 30
0.0
 11
4439.318188616413
 21
1725.379430206756
 31
0.0
 12
4414.318188616412
 22
1721.21276354009
 32
0.0
 13
4414.318188616412
 23
1721.21276354009
 33
0.0
  0
LINE
  5
F6C
330
18
100
AcDbEntity
  8
OBJECT
 48
10.0
100
AcDbLine
 10
4514.318188616413
 20
1721.21276354009
 30
0.0
 11
4499.318188616412
 21
1721.21276354009
 31
0.0
  0
SOLID
  5
F6D
330
18
100
AcDbEntity
  8
0
  6
ByBlock
 62
     0
 48
10.0
100
AcDbTrace
 10
4489.318231576209
 20
1717.046104033388
 30
0.0
 11
4489.318231576209
 21
1725.379437366722
 31
0.0
 12
4514.31823157621
 22
1721.212770700056
 32
0.0
 13
4514.31823157621
 23
1721.212770700056
 33
0.0
  0
SOLID
  5
F6E
330
18
100
AcDbEntity
  8
0
  6
ByBlock
 62
     0
 48
10.0
100
AcDbTrace
 10
4489.318223670105
 20
1817.04610403339
 30
0.0
 11
4489.318223670105
 21
1825.379437366724
 31
0.0
 12
4514.318223670104
 22
1821.212770700058
 32
0.0
 13
4514.318223670104
 23
1821.212770700058
 33
0.0
  0
LINE
  5
F6F
330
18
100
AcDbEntity
  8
上線
100
AcDbLine
 10
4301.322879600386
 20
2017.682327206507
 30
0.0
 11
4127.313445987496
 21
2017.682327206507
 31
0.0
  0
LINE
  5
F70
330
18
100
AcDbEntity
  8
上線
100
AcDbLine
 10
4299.322880100386
 20
2015.682327706508
 30
0.0
 11
4129.313445487496
 21
2015.682327706508
 31
0.0
  0
LINE
  5
F71
330
18
100
AcDbEntity
  8
上線
100
AcDbLine
 10
4127.313445987496
 20
1951.212755326567
 30
0.0
 11
4301.322879600386
 21
1951.212755326567
 31
0.0
  0
LINE
  5
F72
330
18
100
AcDbEntity
  8
上線
100
AcDbLine
 10
4129.313445487496
 20
1953.212754826568
 30
0.0
 11
4299.322880100386
 21
1953.212754826568
 31
0.0
  0
LINE
  5
F73
330
18
100
AcDbEntity
  8
上線
100
AcDbLine
 10
4127.313445987496
 20
2017.682327206507
 30
0.0
 11
4127.313445987496
 21
1951.212755326567
 31
0.0
  0
LINE
  5
F74
330
18
100
AcDbEntity
  8
上線
100
AcDbLine
 10
4129.313445487496
 20
2015.682327706508
 30
0.0
 11
4129.313445487496
 21
1953.212754826568
 31
0.0
  0
MTEXT
  5
F75
330
18
100
AcDbEntity
  8
上線
 48
10.0
100
AcDbMText
 10
4143.35002159507
 20
2005.976776309754
 30
0.0
 40
33.333325
 41
372.1372
 71
     1
 72
     5
  1
上面図
 73
     1
 44
1.0
  0
LINE
  5
F76
330
18
100
AcDbEntity
  8
上線
100
AcDbLine
 10
4301.322879600386
 20
1951.212755326567
 30
0.0
 11
4301.322879600386
 21
2017.682327206507
 31
0.0
  0
LINE
  5
F77
330
18
100
AcDbEntity
  8
上線
100
AcDbLine
 10
4299.322880100386
 20
1953.212754826568
 30
0.0
 11
4299.322880100386
 21
2015.682327706508
 31
0.0
  0
MTEXT
  5
F78
330
18
100
AcDbEntity
  8
0
  6
ByBlock
 62
     0
 48
10.0
100
AcDbMText
 10
5164.318171401419
 20
1841.212770700057
 30
0.0
 40
25.0
 41
0.0
 71
     5
 72
     1
  1
100
 73
     1
 44
1.0
  0
LINE
  5
F79
330
18
100
AcDbEntity
  8
WUWAGAKI
100
AcDbLine
 10
5970.906529614716
 20
297.8171030724288
 30
0.0
 11
5970.906529614716
 21
2248.583670936511
 31
0.0
  0
TEXT
  5
F7A
330
18
100
AcDbEntity
  8
WUWAGAKI
100
AcDbText
 10
5386.117785388134
 20
574.6742587027925
 30
0.0
 40
27.0
  1
甲蓋 車道用（銀杏セラミック付）
100
AcDbText
  0
LINE
  5
F7B
330
18
100
AcDbEntity
  8
WUWAGAKI
100
AcDbLine
 10
5198.040137675796
 20
343.4834593669638
 30
0.0
 11
5926.571187742745
 21
343.4834593669638
 31
0.0
  0
LINE
  5
F7C
330
18
100
AcDbEntity
  8
WUWAGAKI
100
AcDbLine
 10
5198.040137675796
 20
560.4502224899188
 30
0.0
 11
5924.816639518904
 21
560.4502224899188
 31
0.0
  0
LINE
  5
F7D
330
18
100
AcDbEntity
  8
WUWAGAKI
100
AcDbLine
 10
5198.040137675796
 20
430.8359230704382
 30
0.0
 11
5926.571187742744
 21
430.8359230704382
 31
0.0
  0
LINE
  5
F7E
330
18
100
AcDbEntity
  8
WUWAGAKI
100
AcDbLine
 10
5198.040137675796
 20
496.5126325135088
 30
0.0
 11
5926.571187742744
 21
496.5126325135088
 31
0.0
  0
LINE
  5
F7F
330
18
100
AcDbEntity
  8
WUWAGAKI
100
AcDbLine
 10
5198.040137675796
 20
560.4502224899188
 30
0.0
 11
5924.816639518904
 21
560.4502224899188
 31
0.0
  0
LINE
  5
F80
330
18
100
AcDbEntity
  8
WUWAGAKI
100
AcDbLine
 10
5198.040137675796
 20
623.4704144533434
 30
0.0
 11
5926.571187742745
 21
623.4704144533434
 31
0.0
  0
TEXT
  5
F81
330
18
100
AcDbEntity
  8
WUWAGAKI
100
AcDbText
 10
5229.729241441597
 20
577.9741473015956
 30
0.0
 40
30.0
  1
種　別
100
AcDbText
  0
TEXT
  5
F82
330
18
100
AcDbEntity
  8
WUWAGAKI
100
AcDbText
 10
5227.959100183984
 20
510.548253943608
 30
0.0
 40
30.0
  1
寸　法
100
AcDbText
  0
LINE
  5
F83
330
18
100
AcDbEntity
  8
WUWAGAKI
100
AcDbLine
 10
5198.040137675796
 20
623.4704144533434
 30
0.0
 11
5198.040137675796
 21
343.4834593669638
 31
0.0
  0
TEXT
  5
F84
330
18
100
AcDbEntity
  8
WUWAGAKI
100
AcDbText
 10
5386.117785388134
 20
510.4823372615437
 30
0.0
 40
35.0
  1
330 × 100 × 600
100
AcDbText
  0
TEXT
  5
F85
330
18
100
AcDbEntity
  8
WUWAGAKI
100
AcDbText
 10
5357.177092942112
 20
364.5551705712214
 30
0.0
 40
40.0
  1
㈱　ウ　チ　コ　ン
100
AcDbText
  0
TEXT
  5
F86
330
18
100
AcDbEntity
  8
WUWAGAKI
100
AcDbText
 10
5409.912633885167
 20
447.0842289022584
 30
0.0
 40
30.0
  1
S＝　1：10
100
AcDbText
  0
LINE
  5
F87
330
18
100
AcDbEntity
  8
WUWAGAKI
100
AcDbLine
 10
5366.117785388134
 20
623.4704144533434
 30
0.0
 11
5366.117785388134
 21
430.8359230704382
 31
0.0
  0
TEXT
  5
F88
330
18
100
AcDbEntity
  8
WUWAGAKI
100
AcDbText
 10
5246.390938691371
 20
446.2162852826204
 30
0.0
 40
30.0
  1
縮尺
100
AcDbText
  0
LINE
  5
F89
330
18
100
AcDbEntity
  8
WUWAGAKI
100
AcDbLine
 10
5751.716394018953
 20
496.5126325135088
 30
0.0
 11
5751.716394018953
 21
430.8359230704382
 31
0.0
  0
LINE
  5
F8A
330
18
100
AcDbEntity
  8
WUWAGAKI
100
AcDbLine
 10
5628.897442844074
 20
496.5126325135088
 30
0.0
 11
5628.897442844074
 21
430.8359230704382
 31
0.0
  0
TEXT
  5
F8B
330
18
100
AcDbEntity
  8
WUWAGAKI
100
AcDbText
 10
5646.849293345505
 20
447.117187243286
 30
0.0
 40
30.0
  1
重量
100
AcDbText
  0
MTEXT
  5
F8E
330
18
100
AcDbEntity
  8
0
  6
ByBlock
 62
     0
 48
10.0
100
AcDbMText
 10
4974.318188616413
 20
1373.712806094189
 30
0.0
 40
25.0
 41
0.0
 71
     5
 72
     1
  1
65
 11
0.0000000000000001
 21
1.0
 31
0.0
 73
     1
 44
1.0
  0
LINE
  5
F8F
330
18
100
AcDbEntity
  8
WUWAGAKI
 48
10.0
100
AcDbLine
 10
5119.318188616413
 20
1276.212770700056
 30
0.0
 11
4970.622217925729
 21
1130.228626421756
 31
0.0
210
0.0
220
0.0
230
-1.0
1001
ACAD
1000
DSTYLE
1002
{
1070
    78
1070
     8
1070
   270
1070
     8
1070
   140
1040
2.5
1070
    74
1070
     0
1070
   172
1070
     1
1070
    73
1070
     0
1070
    77
1070
     1
1070
    40
1040
10.0
1070
   147
1040
0.625
1070
    42
1040
0.625
1070
    44
1040
1.25
1070
    43
1040
3.75
1070
   141
1040
2.5
1070
    41
1040
2.5
1070
   273
1070
     8
1070
   274
1070
     4
1070
   143
1040
0.0394
1070
   171
1070
     4
1002
}
  0
MTEXT
  5
F90
330
18
100
AcDbEntity
  8
0
  6
ByBlock
 62
     0
 48
10.0
100
AcDbMText
 10
5075.622217925729
 20
1150.228626421756
 30
0.0
 40
20.0
 41
0.0
 71
     5
 72
     1
  1
面取り 10C
 73
     1
 44
1.0
  0
LINE
  5
F91
330
18
100
AcDbEntity
  8
OBJECT
 48
10.0
100
AcDbLine
 10
4970.622217925729
 20
1130.228626421756
 30
0.0
 11
5150.622217925729
 21
1130.228626421756
 31
0.0
  0
LINE
  5
F93
330
18
100
AcDbEntity
  8
0
 48
10.0
100
AcDbLine
 10
5094.318188616413
 20
1341.212806094189
 30
0.0
 11
4974.318188616413
 21
1341.212806094189
 31
0.0
  0
SOLID
  5
F94
330
18
100
AcDbEntity
  8
0
  6
ByBlock
 62
     0
 48
10.0
100
AcDbTrace
 10
4998.484862443046
 20
1381.212790282015
 30
0.0
 11
4990.151529109711
 21
1381.212790282015
 31
0.0
 12
4994.318195776378
 22
1406.212790282015
 32
0.0
 13
4994.318195776378
 23
1406.212790282015
 33
0.0
  0
LINE
  5
F95
330
18
100
AcDbEntity
  8
0
 48
10.0
100
AcDbLine
 10
5094.318188616413
 20
1406.212806094189
 30
0.0
 11
4974.318188616413
 21
1406.212806094189
 31
0.0
  0
SOLID
  5
F96
330
18
100
AcDbEntity
  8
0
  6
ByBlock
 62
     0
 48
10.0
100
AcDbTrace
 10
4998.484863760728
 20
1366.212806094178
 30
0.0
 11
4990.151530427393
 21
1366.212806094178
 31
0.0
 12
4994.318197094059
 22
1341.212806094178
 32
0.0
 13
4994.318197094059
 23
1341.212806094178
 33
0.0
  0
LINE
  5
F97
330
18
100
AcDbEntity
  8
OBJECT
 48
10.0
100
AcDbLine
 10
4994.318195776379
 20
1341.212806094189
 30
0.0
 11
4994.318195776379
 21
1406.212806094189
 31
0.0
  0
SOLID
  5
F9B
330
18
100
AcDbEntity
  8
0
  6
ByBlock
 62
     0
 48
10.0
100
AcDbTrace
 10
5104.294504248471
 20
1255.800763960736
 30
0.0
 11
5098.486485001561
 21
1261.776661957856
 31
0.0
 12
5119.318188616372
 22
1276.212770700027
 32
0.0
 13
5119.318188616372
 23
1276.212770700027
 33
0.0
  0
LINE
  5
FA0
330
18
100
AcDbEntity
  8
0
 48
10.0
100
AcDbLine
 10
5214.318171401403
 20
1621.212770700056
 30
0.0
 11
5214.318171401403
 21
1841.212770700057
 31
0.0
  0
LINE
  5
FA1
330
18
100
AcDbEntity
  8
0
 48
10.0
100
AcDbLine
 10
5136.318171401404
 20
1621.212770700056
 30
0.0
 11
5136.318171401404
 21
1741.212770700056
 31
0.0
  0
LINE
  5
FA2
330
18
100
AcDbEntity
  8
0
 48
10.0
100
AcDbLine
 10
5114.318171401404
 20
1621.212770700057
 30
0.0
 11
5114.318171401403
 21
1841.212770700057
 31
0.0
  0
LINE
  5
FA3
330
18
100
AcDbEntity
  8
WUWAGAKI
100
AcDbLine
 10
5214.318188616413
 20
1601.212770700056
 30
0.0
 11
5124.318188616413
 21
1601.212770700056
 31
0.0
  0
SOLID
  5
FA5
330
18
100
AcDbEntity
  8
0
  6
ByBlock
 62
     0
 48
10.0
100
AcDbTrace
 10
5089.3181634953
 20
1716.933485442984
 30
0.0
 11
5089.3181634953
 21
1725.266818776318
 31
0.0
 12
5114.3181634953
 22
1721.100152109652
 32
0.0
 13
5114.3181634953
 23
1721.100152109652
 33
0.0
  0
LINE
  5
FA6
330
18
100
AcDbEntity
  8
OBJECT
 48
10.0
100
AcDbLine
 10
5114.318171401404
 20
1721.10015210965
 30
0.0
 11
5039.318171401403
 21
1721.10015210965
 31
0.0
  0
MTEXT
  5
FA7
330
18
100
AcDbEntity
  8
0
  6
ByBlock
 62
     0
 48
10.0
100
AcDbMText
 10
5064.318171401403
 20
1741.100153427336
 30
0.0
 40
25.0
 41
0.0
 71
     5
 72
     1
  1
22
 73
     1
 44
1.0
  0
MTEXT
  5
FA8
330
18
100
AcDbEntity
  8
0
  6
ByBlock
 62
     0
 48
10.0
100
AcDbMText
 10
5175.318171401404
 20
1741.325378923586
 30
0.0
 40
25.0
 41
0.0
 71
     5
 72
     1
  1
78
 73
     1
 44
1.0
  0
LINE
  5
FA9
330
18
100
AcDbEntity
  8
OBJECT
 48
10.0
100
AcDbLine
 10
5214.318171401403
 20
1721.212764857777
 30
0.0
 11
5114.318171401404
 21
1721.212764857778
 31
0.0
  0
SOLID
  5
FAA
330
18
100
AcDbEntity
  8
0
  6
ByBlock
 62
     0
 48
10.0
100
AcDbTrace
 10
5161.318136347716
 20
1717.046104033392
 30
0.0
 11
5161.318136347716
 21
1725.379437366726
 31
0.0
 12
5136.318136347716
 22
1721.21277070006
 32
0.0
 13
5136.318136347716
 23
1721.21277070006
 33
0.0
  0
SOLID
  5
FAB
330
18
100
AcDbEntity
  8
0
  6
ByBlock
 62
     0
 48
10.0
100
AcDbTrace
 10
5189.318171401403
 20
1717.04609819111
 30
0.0
 11
5189.318171401403
 21
1725.379431524443
 31
0.0
 12
5214.318171401403
 22
1721.212764857777
 32
0.0
 13
5214.318171401403
 23
1721.212764857777
 33
0.0
  0
LINE
  5
FAC
330
18
100
AcDbEntity
  8
OBJECT
 48
10.0
100
AcDbLine
 10
5214.318171401403
 20
1821.212770700059
 30
0.0
 11
5114.318171401418
 21
1821.212770700059
 31
0.0
  0
SOLID
  5
FAD
330
18
100
AcDbEntity
  8
0
  6
ByBlock
 62
     0
 48
10.0
100
AcDbTrace
 10
5139.318171401417
 20
1817.046104033392
 30
0.0
 11
5139.318171401417
 21
1825.379437366726
 31
0.0
 12
5114.318171401418
 22
1821.21277070006
 32
0.0
 13
5114.318171401418
 23
1821.21277070006
 33
0.0
  0
SOLID
  5
FAE
330
18
100
AcDbEntity
  8
0
  6
ByBlock
 62
     0
 48
10.0
100
AcDbTrace
 10
5189.318171401403
 20
1817.046104033391
 30
0.0
 11
5189.318171401403
 21
1825.379437366725
 31
0.0
 12
5214.318171401403
 22
1821.21277070006
 32
0.0
 13
5214.318171401403
 23
1821.21277070006
 33
0.0
  0
TEXT
  5
FAF
330
18
100
AcDbEntity
  8
WUWAGAKI
100
AcDbText
 10
5794.752316355812
 20
445.8249302589101
 30
0.0
 40
30.0
  1
44㎏
100
AcDbText
  0
LINE
  5
FB0
330
18
100
AcDbEntity
  8
WUWAGAKI
100
AcDbLine
 10
5926.571187742745
 20
343.4834593669638
 30
0.0
 11
5926.571187742745
 21
623.4704144533434
 31
0.0
  0
LINE
  5
FB1
330
18
100
AcDbEntity
  8
上線
100
AcDbLine
 10
5251.322888207855
 20
2017.682327206507
 30
0.0
 11
5077.313454594966
 21
2017.682327206507
 31
0.0
  0
LINE
  5
FB2
330
18
100
AcDbEntity
  8
上線
100
AcDbLine
 10
5249.322888707856
 20
2015.682327706508
 30
0.0
 11
5079.313454094966
 21
2015.682327706508
 31
0.0
  0
MTEXT
  5
FB3
330
18
100
AcDbEntity
  8
上線
 48
10.0
100
AcDbMText
 10
5093.35003020254
 20
2005.976776309754
 30
0.0
 40
33.333325
 41
372.1372
 71
     1
 72
     5
  1
正面図
 73
     1
 44
1.0
  0
LINE
  5
FB4
330
18
100
AcDbEntity
  8
上線
100
AcDbLine
 10
5077.313454594966
 20
1951.212755326567
 30
0.0
 11
5251.322888207855
 21
1951.212755326567
 31
0.0
  0
LINE
  5
FB5
330
18
100
AcDbEntity
  8
上線
100
AcDbLine
 10
5079.313454094966
 20
1953.212754826568
 30
0.0
 11
5249.322888707856
 21
1953.212754826568
 31
0.0
  0
LINE
  5
FB6
330
18
100
AcDbEntity
  8
上線
100
AcDbLine
 10
5077.313454594966
 20
2017.682327206507
 30
0.0
 11
5077.313454594966
 21
1951.212755326567
 31
0.0
  0
LINE
  5
FB7
330
18
100
AcDbEntity
  8
上線
100
AcDbLine
 10
5079.313454094966
 20
2015.682327706508
 30
0.0
 11
5079.313454094966
 21
1953.212754826568
 31
0.0
  0
LINE
  5
FB8
330
18
100
AcDbEntity
  8
上線
100
AcDbLine
 10
5251.322888207855
 20
1951.212755326567
 30
0.0
 11
5251.322888207855
 21
2017.682327206507
 31
0.0
  0
LINE
  5
FB9
330
18
100
AcDbEntity
  8
上線
100
AcDbLine
 10
5249.322888707856
 20
1953.212754826568
 30
0.0
 11
5249.322888707856
 21
2015.682327706508
 31
0.0
  0
MTEXT
  5
FBB
330
18
100
AcDbEntity
  8
0
  6
ByBlock
 62
     0
 48
10.0
100
AcDbMText
 10
4974.318188616413
 20
1498.712770700057
 30
0.0
 40
25.0
 41
0.0
 71
     5
 72
     1
  1
65
 11
0.0000000000000001
 21
1.0
 31
0.0
 73
     1
 44
1.0
  0
LINE
  5
FBC
330
18
100
AcDbEntity
  8
OBJECT
 48
10.0
100
AcDbLine
 10
4994.318195776379
 20
1466.212770700057
 30
0.0
 11
4994.318195776379
 21
1531.212770700057
 31
0.0
  0
LINE
  5
FBD
330
18
100
AcDbEntity
  8
0
 48
10.0
100
AcDbLine
 10
5094.318188616413
 20
1466.212770700057
 30
0.0
 11
4974.318188616413
 21
1466.212770700057
 31
0.0
  0
SOLID
  5
FBE
330
18
100
AcDbEntity
  8
0
  6
ByBlock
 62
     0
 48
10.0
100
AcDbTrace
 10
4998.484863760728
 20
1491.212770700046
 30
0.0
 11
4990.151530427393
 21
1491.212770700046
 31
0.0
 12
4994.318197094059
 22
1466.212770700046
 32
0.0
 13
4994.318197094059
 23
1466.212770700046
 33
0.0
  0
LINE
  5
FBF
330
18
100
AcDbEntity
  8
0
 48
10.0
100
AcDbLine
 10
5094.318188616413
 20
1531.212770700057
 30
0.0
 11
4974.318188616413
 21
1531.212770700057
 31
0.0
  0
SOLID
  5
FC0
330
18
100
AcDbEntity
  8
0
  6
ByBlock
 62
     0
 48
10.0
100
AcDbTrace
 10
4998.484862443046
 20
1506.212754887883
 30
0.0
 11
4990.151529109711
 21
1506.212754887883
 31
0.0
 12
4994.318195776378
 22
1531.212754887883
 32
0.0
 13
4994.318195776378
 23
1531.212754887883
 33
0.0
  0
LINE
  5
FCF
330
18
100
AcDbEntity
  8
0
 48
10.0
100
AcDbLine
 10
3894.318188616413
 20
1426.212787915023
 30
0.0
 11
3774.318188616414
 21
1426.212787915023
 31
0.0
  0
LINE
  5
FD0
330
18
100
AcDbEntity
  8
0
 48
10.0
100
AcDbLine
 10
3894.318188616413
 20
1321.212787915023
 30
0.0
 11
3774.318188616414
 21
1321.212787915023
 31
0.0
  0
LINE
  5
FD1
330
18
100
AcDbEntity
  8
OBJECT
 48
10.0
100
AcDbLine
 10
3794.430807206819
 20
1271.212787915023
 30
0.0
 11
3794.430807206819
 21
1196.212787915022
 31
0.0
  0
SOLID
  5
FD2
330
18
100
AcDbEntity
  8
0
  6
ByBlock
 62
     0
 48
10.0
100
AcDbTrace
 10
3798.597473873485
 20
1246.212780008919
 30
0.0
 11
3790.264140540152
 21
1246.212780008919
 31
0.0
 12
3794.430807206818
 22
1271.212780008919
 32
0.0
 13
3794.430807206818
 23
1271.212780008919
 33
0.0
  0
SOLID
  5
FD3
330
18
100
AcDbEntity
  8
0
  6
ByBlock
 62
     0
 48
10.0
100
AcDbTrace
 10
3798.597473873487
 20
1526.888464403831
 30
0.0
 11
3790.264140540154
 21
1526.888464403831
 31
0.0
 12
3794.430807206819
 22
1551.888464403831
 32
0.0
 13
3794.430807206819
 23
1551.888464403831
 33
0.0
  0
SOLID
  5
FD4
330
18
100
AcDbEntity
  8
0
  6
ByBlock
 62
     0
 48
10.0
100
AcDbTrace
 10
3798.484855283079
 20
1471.21275286138
 30
0.0
 11
3790.151521949745
 21
1471.21275286138
 31
0.0
 12
3794.318188616411
 22
1446.21275286138
 32
0.0
 13
3794.318188616411
 23
1446.21275286138
 33
0.0
  0
MTEXT
  5
FD5
330
18
100
AcDbEntity
  8
0
  6
ByBlock
 62
     0
 48
10.0
100
AcDbMText
 10
3774.430805889132
 20
1296.212787915037
 30
0.0
 40
25.0
 41
0.0
 71
     5
 72
     1
  1
50
 11
0.0000000000000001
 21
1.0
 31
0.0
 73
     1
 44
1.0
  0
MTEXT
  5
FD7
330
18
100
AcDbEntity
  8
0
  6
ByBlock
 62
     0
 48
10.0
100
AcDbMText
 10
3754.430805889133
 20
1436.212787915037
 30
0.0
 40
25.0
 41
0.0
 71
     5
 72
     1
  1
20
 11
0.0000000000000001
 21
1.0
 31
0.0
 73
     1
 44
1.0
  0
LINE
  5
FD9
330
18
100
AcDbEntity
  8
WUWAGAKI
100
AcDbLine
 10
4514.318232274938
 20
571.2127707000563
 30
0.0
 11
4514.318232274938
 21
671.2127707000563
 31
0.0
  0
TEXT
  5
FDD
330
18
100
AcDbEntity
  8
OBJECT
100
AcDbText
 10
4143.350065253595
 20
1037.961804540091
 30
0.0
 40
33.333325
  1
側面図
100
AcDbText
  0
LINE
  5
FDE
330
18
100
AcDbEntity
  8
WUWAGAKI
100
AcDbLine
 10
3914.318232274938
 20
571.2127707000563
 30
0.0
 11
4514.318232274938
 21
571.2127707000563
 31
0.0
  0
LINE
  5
FE0
330
18
100
AcDbEntity
  8
WUWAGAKI
100
AcDbLine
 10
4514.318232274938
 20
671.2127707000563
 30
0.0
 11
3914.318232274938
 21
671.2127707000563
 31
0.0
  0
LINE
  5
FE1
330
18
100
AcDbEntity
  8
WUWAGAKI
100
AcDbLine
 10
3914.318232274938
 20
671.2127707000563
 30
0.0
 11
3914.318232274938
 21
571.2127707000563
 31
0.0
  0
TEXT
  5
FE4
330
18
100
AcDbEntity
  8
点線
 62
     0
100
AcDbText
 10
4061.438983573579
 20
798.7127648577771
 30
0.0
 40
25.0
  1
135
100
AcDbText
  0
TEXT
  5
FE5
330
18
100
AcDbEntity
  8
点線
 62
     0
100
AcDbText
 10
4311.439054010007
 20
798.7127648577771
 30
0.0
 40
25.0
  1
135
100
AcDbText
  0
SOLID
  5
FED
330
18
100
AcDbEntity
  8
0
  6
ByBlock
 62
     0
 48
10.0
100
AcDbTrace
 10
4184.31817989911
 20
1717.046096873422
 30
0.0
 11
4184.31817989911
 21
1725.379430206756
 31
0.0
 12
4159.318179899112
 22
1721.21276354009
 32
0.0
 13
4159.318179899112
 23
1721.21276354009
 33
0.0
  0
SOLID
  5
FEE
330
18
100
AcDbEntity
  8
0
  6
ByBlock
 62
     0
 48
10.0
100
AcDbTrace
 10
4244.318197333714
 20
1717.046096873422
 30
0.0
 11
4244.318197333714
 21
1725.379430206756
 31
0.0
 12
4269.318197333713
 22
1721.21276354009
 32
0.0
 13
4269.318197333713
 23
1721.21276354009
 33
0.0
  0
LINE
  5
FF6
330
18
100
AcDbEntity
  8
点線
 62
     5
 48
5.0
100
AcDbLine
 10
5136.318188616413
 20
1426.212770700056
 30
0.0
 11
5136.318188616413
 21
1321.212806094189
 31
0.0
  0
LINE
  5
FF7
330
18
100
AcDbEntity
  8
点線
  6
BORDER
 62
     5
 48
10.0
100
AcDbLine
 10
5136.318188616413
 20
1406.212770700056
 30
0.0
 11
5214.349342433092
 21
1411.212770700056
 31
0.0
  0
LINE
  5
FF8
330
18
100
AcDbEntity
  8
点線
 62
     5
 48
5.0
100
AcDbLine
 10
5114.318158874175
 20
1426.212770700056
 30
0.0
 11
5136.318188616413
 21
1426.212770700056
 31
0.0
  0
POINT
  5
FF9
330
18
100
AcDbEntity
  8
DEFPOINTS
  6
ByBlock
 62
     0
100
AcDbPoint
 10
5114.318188616413
 20
1426.845484611242
 30
0.0
  0
POINT
  5
FFA
330
18
100
AcDbEntity
  8
DEFPOINTS
  6
ByBlock
 62
     0
100
AcDbPoint
 10
5114.318188616413
 20
1425.580028175724
 30
0.0
  0
LINE
  5
FFB
330
18
100
AcDbEntity
  8
点線
  6
BORDER
 62
     5
 48
10.0
100
AcDbLine
 10
5136.318188616413
 20
1341.212806094189
 30
0.0
 11
5214.318188616413
 21
1336.215030375937
 31
0.0
  0
LINE
  5
FFC
330
18
100
AcDbEntity
  8
点線
 62
     5
 48
5.0
100
AcDbLine
 10
5136.318188616413
 20
1321.212806094189
 30
0.0
 11
5114.318158874175
 21
1321.212806094189
 31
0.0
  0
MTEXT
  5
1012
330
18
100
AcDbEntity
  8
0
  6
ByBlock
 62
     0
 48
10.0
100
AcDbMText
 10
3674.318232274938
 20
621.2127879150661
 30
0.0
 40
25.0
 41
0.0
 71
     5
 72
     1
  1
100
 11
0.0000000000000003
 21
1.0
 31
0.0
 73
     1
 44
1.0
  0
MTEXT
  5
1015
330
18
100
AcDbEntity
  8
0
  6
ByBlock
 62
     0
 48
10.0
100
AcDbMText
 10
3774.430849547659
 20
721.2127879150662
 30
0.0
 40
25.0
 41
0.0
 71
     5
 72
     1
  1
22
 11
0.0000000000000001
 21
1.0
 31
0.0
 73
     1
 44
1.0
  0
MTEXT
  5
1016
330
18
100
AcDbEntity
  8
0
  6
ByBlock
 62
     0
 48
10.0
100
AcDbMText
 10
3774.205624051409
 20
610.212787915066
 30
0.0
 40
25.0
 41
0.0
 71
     5
 72
     1
  1
78
 11
0.0000000000000001
 21
1.0
 31
0.0
 73
     1
 44
1.0
  0
LINE
  5
101E
330
18
100
AcDbEntity
  8
点線
  6
DASHED
 62
     5
 48
10.0
100
AcDbLine
 10
4274.318272910053
 20
649.2127707000563
 30
0.0
 11
4264.405991186196
 21
572.5344078366163
 31
0.0
  0
LINE
  5
101F
330
18
100
AcDbEntity
  8
点線
  6
DASHED
 62
     5
 48
10.0
100
AcDbLine
 10
4409.318267493151
 20
649.2127707000563
 30
0.0
 11
4419.230549217009
 21
572.5344078366163
 31
0.0
  0
LINE
  5
1020
330
18
100
AcDbEntity
  8
点線
 62
     5
 48
5.0
100
AcDbLine
 10
4414.318270201602
 20
649.2127707000563
 30
0.0
 11
4269.318270201602
 21
649.2127707000563
 31
0.0
  0
LINE
  5
1021
330
18
100
AcDbEntity
  8
点線
 62
     5
 48
5.0
100
AcDbLine
 10
4414.318270201602
 20
671.2127744167109
 30
0.0
 11
4414.318270201602
 21
649.2127707000563
 31
0.0
  0
LINE
  5
1022
330
18
100
AcDbEntity
  8
点線
 62
     5
 48
5.0
100
AcDbLine
 10
4269.318270201602
 20
671.2127744167109
 30
0.0
 11
4269.318270201602
 21
649.2127707000563
 31
0.0
  0
ENDSEC
  0
SECTION
  2
OBJECTS
  0
DICTIONARY
  5
C
330
0
100
AcDbDictionary
281
     1
  3
ACAD_GROUP
350
D
  3
ACAD_LAYOUT
350
8F5
  3
ACAD_MLINESTYLE
350
1B
  3
ACAD_PLOTSETTINGS
350
8F6
  3
ACAD_PLOTSTYLENAME
350
8F3
  3
CONTENTDICTIONARY
350
11A
  0
DICTIONARY
  5
D
102
{ACAD_REACTORS
330
C
102
}
330
C
100
AcDbDictionary
281
     1
  0
DICTIONARY
  5
8F5
102
{ACAD_REACTORS
330
C
102
}
330
C
100
AcDbDictionary
281
     1
  3
Model
350
8F7
  3
ﾚｲｱｳﾄ1
350
8F8
  0
DICTIONARY
  5
1B
102
{ACAD_REACTORS
330
C
102
}
330
C
100
AcDbDictionary
281
     1
  3
STANDARD
350
1C
  0
DICTIONARY
  5
8F6
102
{ACAD_REACTORS
330
C
102
}
330
C
100
AcDbDictionary
281
     1
  0
ACDBDICTIONARYWDFLT
  5
8F3
102
{ACAD_REACTORS
330
C
102
}
330
C
100
AcDbDictionary
281
     1
  3
Normal
350
8F4
100
AcDbDictionaryWithDefault
340
8F4
  0
DICTIONARY
  5
11A
102
{ACAD_REACTORS
330
C
102
}
330
C
100
AcDbDictionary
281
     1
  0
LAYOUT
  5
8F7
102
{ACAD_REACTORS
330
8F5
102
}
330
8F5
100
AcDbPlotSettings
  1

  2
Canon LBP3800 LIPSLX
  4
A4
  6

 40
5.873749732971191
 41
5.873747825622558
 42
5.873748779296875
 43
5.873748779296875
 44
209.9733276367187
 45
296.9259948730469
 46
0.0
 47
0.0
 48
0.0
 49
0.0
140
0.0
141
0.0
142
1.0
143
1.0
 70
 11952
 72
     1
 73
     1
 74
     0
  7

 75
     0
147
1.0
148
174.0793996246275
149
1226.059307112143
100
AcDbLayout
  1
Model
 70
     1
 71
     0
 10
0.0
 20
0.0
 11
12.0
 21
9.0
 12
0.0
 22
0.0
 32
0.0
 14
0.0
 24
0.0
 34
0.0
 15
0.0
 25
0.0
 35
0.0
146
0.0
 13
0.0
 23
0.0
 33
0.0
 16
1.0
 26
0.0
 36
0.0
 17
0.0
 27
1.0
 37
0.0
 76
     0
330
18
  0
LAYOUT
  5
8F8
102
{ACAD_REACTORS
330
8F5
102
}
330
8F5
100
AcDbPlotSettings
  1

  2
Canon LBP3800 LIPSLX
  4

  6

 40
0.0
 41
0.0
 42
0.0
 43
0.0
 44
0.0
 45
0.0
 46
0.0
 47
0.0
 48
0.0
 49
0.0
140
0.0
141
0.0
142
1.0
143
1.0
 70
   688
 72
     0
 73
     0
 74
     5
  7

 75
    16
147
1.0
148
0.0
149
0.0
100
AcDbLayout
  1
ﾚｲｱｳﾄ1
 70
     1
 71
     1
 10
0.0
 20
0.0
 11
420.0
 21
297.0
 12
0.0
 22
0.0
 32
0.0
 14
1.000000000000000E+20
 24
1.000000000000000E+20
 34
1.000000000000000E+20
 15
-1.000000000000000E+20
 25
-1.000000000000000E+20
 35
-1.000000000000000E+20
146
0.0
 13
0.0
 23
0.0
 33
0.0
 16
1.0
 26
0.0
 36
0.0
 17
0.0
 27
1.0
 37
0.0
 76
     0
330
15
  0
MLINESTYLE
  5
1C
102
{ACAD_REACTORS
330
1B
102
}
330
1B
100
AcDbMlineStyle
  2
STANDARD
 70
     0
  3

 62
   256
 51
90.0
 52
90.0
 71
     2
 49
0.5
 62
   256
  6
BYLAYER
 49
-0.5
 62
   256
  6
BYLAYER
  0
ACDBPLACEHOLDER
  5
8F4
102
{ACAD_REACTORS
330
8F3
102
}
330
8F3
  0
ENDSEC
  0
EOF
