  0
SECTION
  2
HEADER
  9
$ACADVER
  1
AC1015
  9
$ACADMAINTVER
 70
     6
  9
$DWGCODEPAGE
  3
ANSI_932
  9
$INSBASE
 10
0.0
 20
0.0
 30
0.0
  9
$EXTMIN
 10
-29.86892741738847
 20
-139.9418659482125
 30
0.0
  9
$EXTMAX
 10
8695.825763482773
 20
2979.341963201569
 30
0.0
  9
$LIMMIN
 10
0.0
 20
0.0
  9
$LIMMAX
 10
4200.0
 20
2970.0
  9
$ORTHOMODE
 70
     0
  9
$REGENMODE
 70
     1
  9
$FILLMODE
 70
     1
  9
$QTEXTMODE
 70
     0
  9
$MIRRTEXT
 70
     1
  9
$LTSCALE
 40
3.0
  9
$ATTMODE
 70
     1
  9
$TEXTSIZE
 40
2.5
  9
$TRACEWID
 40
1.0
  9
$TEXTSTYLE
  7
STANDARD
  9
$CLAYER
  8
OBJECT
  9
$CELTYPE
  6
BYLAYER
  9
$CECOLOR
 62
   256
  9
$CELTSCALE
 40
1.0
  9
$DISPSILH
 70
     0
  9
$DIMSCALE
 40
15.0
  9
$DIMASZ
 40
2.5
  9
$DIMEXO
 40
0.625
  9
$DIMDLI
 40
3.75
  9
$DIMRND
 40
0.0
  9
$DIMDLE
 40
0.0
  9
$DIMEXE
 40
1.25
  9
$DIMTP
 40
0.0
  9
$DIMTM
 40
0.0
  9
$DIMTXT
 40
2.5
  9
$DIMCEN
 40
2.5
  9
$DIMTSZ
 40
0.0
  9
$DIMTOL
 70
     0
  9
$DIMLIM
 70
     0
  9
$DIMTIH
 70
     0
  9
$DIMTOH
 70
     0
  9
$DIMSE1
 70
     0
  9
$DIMSE2
 70
     0
  9
$DIMTAD
 70
     1
  9
$DIMZIN
 70
     8
  9
$DIMBLK
  1

  9
$DIMASO
 70
     1
  9
$DIMSHO
 70
     1
  9
$DIMPOST
  1

  9
$DIMAPOST
  1

  9
$DIMALT
 70
     0
  9
$DIMALTD
 70
     4
  9
$DIMALTF
 40
0.0394
  9
$DIMLFAC
 40
1.0
  9
$DIMTOFL
 70
     1
  9
$DIMTVP
 40
0.0
  9
$DIMTIX
 70
     0
  9
$DIMSOXD
 70
     0
  9
$DIMSAH
 70
     0
  9
$DIMBLK1
  1

  9
$DIMBLK2
  1

  9
$DIMSTYLE
  2
STANDARD
  9
$DIMCLRD
 70
     0
  9
$DIMCLRE
 70
     0
  9
$DIMCLRT
 70
     0
  9
$DIMTFAC
 40
1.0
  9
$DIMGAP
 40
0.625
  9
$DIMJUST
 70
     0
  9
$DIMSD1
 70
     0
  9
$DIMSD2
 70
     0
  9
$DIMTOLJ
 70
     1
  9
$DIMTZIN
 70
     0
  9
$DIMALTZ
 70
     0
  9
$DIMALTTZ
 70
     0
  9
$DIMUPT
 70
     0
  9
$DIMDEC
 70
     4
  9
$DIMTDEC
 70
     4
  9
$DIMALTU
 70
     8
  9
$DIMALTTD
 70
     4
  9
$DIMTXSTY
  7
STANDARD
  9
$DIMAUNIT
 70
     0
  9
$DIMADEC
 70
     0
  9
$DIMALTRND
 40
0.0
  9
$DIMAZIN
 70
     0
  9
$DIMDSEP
 70
    46
  9
$DIMATFIT
 70
     3
  9
$DIMFRAC
 70
     0
  9
$DIMLDRBLK
  1

  9
$DIMLUNIT
 70
     6
  9
$DIMLWD
 70
    -2
  9
$DIMLWE
 70
    -2
  9
$DIMTMOVE
 70
     0
  9
$LUNITS
 70
     2
  9
$LUPREC
 70
     4
  9
$SKETCHINC
 40
1.0
  9
$FILLETRAD
 40
50.0
  9
$AUNITS
 70
     0
  9
$AUPREC
 70
     0
  9
$MENU
  1
acad
  9
$ELEVATION
 40
0.0
  9
$PELEVATION
 40
0.0
  9
$THICKNESS
 40
0.0
  9
$LIMCHECK
 70
     0
  9
$CHAMFERA
 40
10.0
  9
$CHAMFERB
 40
10.0
  9
$CHAMFERC
 40
20.0
  9
$CHAMFERD
 40
0.0
  9
$SKPOLY
 70
     0
  9
$TDCREATE
 40
2452179.387794213
  9
$TDUCREATE
 40
2452179.012794213
  9
$TDUPDATE
 40
2454548.617768252
  9
$TDUUPDATE
 40
2454548.242768252
  9
$TDINDWG
 40
0.8359110880
  9
$TDUSRTIMER
 40
0.8359110880
  9
$USRTIMER
 70
     1
  9
$ANGBASE
 50
0.0
  9
$ANGDIR
 70
     0
  9
$PDMODE
 70
     0
  9
$PDSIZE
 40
0.0
  9
$PLINEWID
 40
0.0
  9
$SPLFRAME
 70
     0
  9
$SPLINETYPE
 70
     6
  9
$SPLINESEGS
 70
     8
  9
$HANDSEED
  5
1AD9
  9
$SURFTAB1
 70
     6
  9
$SURFTAB2
 70
     6
  9
$SURFTYPE
 70
     6
  9
$SURFU
 70
     6
  9
$SURFV
 70
     6
  9
$UCSBASE
  2

  9
$UCSNAME
  2

  9
$UCSORG
 10
0.0
 20
0.0
 30
0.0
  9
$UCSXDIR
 10
1.0
 20
0.0
 30
0.0
  9
$UCSYDIR
 10
0.0
 20
1.0
 30
0.0
  9
$UCSORTHOREF
  2

  9
$UCSORTHOVIEW
 70
     0
  9
$UCSORGTOP
 10
0.0
 20
0.0
 30
0.0
  9
$UCSORGBOTTOM
 10
0.0
 20
0.0
 30
0.0
  9
$UCSORGLEFT
 10
0.0
 20
0.0
 30
0.0
  9
$UCSORGRIGHT
 10
0.0
 20
0.0
 30
0.0
  9
$UCSORGFRONT
 10
0.0
 20
0.0
 30
0.0
  9
$UCSORGBACK
 10
0.0
 20
0.0
 30
0.0
  9
$PUCSBASE
  2

  9
$PUCSNAME
  2

  9
$PUCSORG
 10
0.0
 20
0.0
 30
0.0
  9
$PUCSXDIR
 10
1.0
 20
0.0
 30
0.0
  9
$PUCSYDIR
 10
0.0
 20
1.0
 30
0.0
  9
$PUCSORTHOREF
  2

  9
$PUCSORTHOVIEW
 70
     0
  9
$PUCSORGTOP
 10
0.0
 20
0.0
 30
0.0
  9
$PUCSORGBOTTOM
 10
0.0
 20
0.0
 30
0.0
  9
$PUCSORGLEFT
 10
0.0
 20
0.0
 30
0.0
  9
$PUCSORGRIGHT
 10
0.0
 20
0.0
 30
0.0
  9
$PUCSORGFRONT
 10
0.0
 20
0.0
 30
0.0
  9
$PUCSORGBACK
 10
0.0
 20
0.0
 30
0.0
  9
$USERI1
 70
     0
  9
$USERI2
 70
     0
  9
$USERI3
 70
     0
  9
$USERI4
 70
     0
  9
$USERI5
 70
     0
  9
$USERR1
 40
0.0
  9
$USERR2
 40
0.0
  9
$USERR3
 40
0.0
  9
$USERR4
 40
0.0
  9
$USERR5
 40
0.0
  9
$WORLDVIEW
 70
     1
  9
$SHADEDGE
 70
     3
  9
$SHADEDIF
 70
    70
  9
$TILEMODE
 70
     1
  9
$MAXACTVP
 70
    48
  9
$PINSBASE
 10
0.0
 20
0.0
 30
0.0
  9
$PLIMCHECK
 70
     0
  9
$PEXTMIN
 10
1.000000000000000E+20
 20
1.000000000000000E+20
 30
1.000000000000000E+20
  9
$PEXTMAX
 10
-1.000000000000000E+20
 20
-1.000000000000000E+20
 30
-1.000000000000000E+20
  9
$PLIMMIN
 10
0.0
 20
0.0
  9
$PLIMMAX
 10
420.0
 20
297.0
  9
$UNITMODE
 70
     0
  9
$VISRETAIN
 70
     1
  9
$PLINEGEN
 70
     0
  9
$PSLTSCALE
 70
     1
  9
$TREEDEPTH
 70
  3020
  9
$CMLSTYLE
  2
STANDARD
  9
$CMLJUST
 70
     0
  9
$CMLSCALE
 40
20.0
  9
$PROXYGRAPHICS
 70
     1
  9
$MEASUREMENT
 70
     1
  9
$CELWEIGHT
370
    -1
  9
$ENDCAPS
280
     0
  9
$JOINSTYLE
280
     0
  9
$LWDISPLAY
290
     0
  9
$INSUNITS
 70
     0
  9
$HYPERLINKBASE
  1

  9
$STYLESHEET
  1

  9
$XEDIT
290
     1
  9
$CEPSNTYPE
380
     0
  9
$PSTYLEMODE
290
     1
  9
$FINGERPRINTGUID
  2
{F3547192-A92E-4546-905D-741DEAF26AF3}
  9
$VERSIONGUID
  2
{B6291C8E-288C-4623-838F-FCD5981021BC}
  9
$EXTNAMES
290
     1
  9
$PSVPSCALE
 40
0.0
  9
$OLESTARTUP
290
     0
  0
ENDSEC
  0
SECTION
  2
CLASSES
  0
CLASS
  1
LWPOLYLINE
  2
AcDbPolyline
  3
AutoCAD 2000
 90
    32768
280
     0
281
     1
  0
CLASS
  1
ACDBDICTIONARYWDFLT
  2
AcDbDictionaryWithDefault
  3
AutoCAD 2000
 90
        0
280
     0
281
     0
  0
CLASS
  1
ACDBPLACEHOLDER
  2
AcDbPlaceHolder
  3
AutoCAD 2000
 90
        0
280
     0
281
     0
  0
CLASS
  1
LAYOUT
  2
AcDbLayout
  3
AutoCAD 2000
 90
        0
280
     0
281
     0
  0
ENDSEC
  0
SECTION
  2
TABLES
  0
TABLE
  2
VPORT
  5
8
330
0
100
AcDbSymbolTable
 70
     3
  0
VPORT
  5
1AD8
330
8
100
AcDbSymbolTableRecord
100
AcDbViewportTableRecord
  2
*Active
 70
     0
 10
0.0
 20
0.0
 11
1.0
 21
1.0
 12
6850.381897092723
 22
1413.342537687217
 13
0.0
 23
0.0
 14
10.0
 24
10.0
 15
10.0
 25
10.0
 16
0.0
 26
0.0
 36
1.0
 17
0.0
 27
0.0
 37
0.0
 40
3370.114709469629
 41
1.731203007518796
 42
50.0
 43
0.0
 44
0.0
 50
0.0
 51
0.0
 71
     0
 72
   100
 73
     1
 74
     1
 75
     0
 76
     0
 77
     0
 78
     0
281
     0
 65
     1
110
0.0
120
0.0
130
0.0
111
1.0
121
0.0
131
0.0
112
0.0
122
1.0
132
0.0
 79
     0
146
0.0
  0
ENDTAB
  0
TABLE
  2
LTYPE
  5
5
330
0
100
AcDbSymbolTable
 70
    46
  0
LTYPE
  5
12
330
5
100
AcDbSymbolTableRecord
100
AcDbLinetypeTableRecord
  2
BYBLOCK
 70
     0
  3

 72
    65
 73
     0
 40
0.0
  0
LTYPE
  5
13
330
5
100
AcDbSymbolTableRecord
100
AcDbLinetypeTableRecord
  2
BYLAYER
 70
     0
  3

 72
    65
 73
     0
 40
0.0
  0
LTYPE
  5
14
330
5
100
AcDbSymbolTableRecord
100
AcDbLinetypeTableRecord
  2
CONTINUOUS
 70
     0
  3
Solid line
 72
    65
 73
     0
 40
0.0
  0
LTYPE
  5
BC
330
5
100
AcDbSymbolTableRecord
100
AcDbLinetypeTableRecord
  2
ACAD_ISO02W100
 70
     0
  3
ISO dash __ __ __ __ __ __ __ __ __ __ __ __ __
 72
    65
 73
     2
 40
15.0
 49
12.0
 74
     0
 49
-3.0
 74
     0
  0
LTYPE
  5
BD
330
5
100
AcDbSymbolTableRecord
100
AcDbLinetypeTableRecord
  2
ACAD_ISO03W100
 70
     0
  3
ISO dash space __    __    __    __    __    __
 72
    65
 73
     2
 40
30.0
 49
12.0
 74
     0
 49
-18.0
 74
     0
  0
LTYPE
  5
BE
330
5
100
AcDbSymbolTableRecord
100
AcDbLinetypeTableRecord
  2
ACAD_ISO04W100
 70
     0
  3
ISO long-dash dot ____ . ____ . ____ . ____ . _
 72
    65
 73
     4
 40
30.5
 49
24.0
 74
     0
 49
-3.0
 74
     0
 49
0.5
 74
     0
 49
-3.0
 74
     0
  0
LTYPE
  5
BF
330
5
100
AcDbSymbolTableRecord
100
AcDbLinetypeTableRecord
  2
ACAD_ISO05W100
 70
     0
  3
ISO long-dash double-dot ____ .. ____ .. ____ .
 72
    65
 73
     8
 40
37.5
 49
24.0
 74
     0
 49
-3.0
 74
     0
 49
0.5
 74
     0
 49
-3.0
 74
     0
 49
0.5
 74
     0
 49
-3.0
 74
     0
 49
0.5
 74
     0
 49
-3.0
 74
     0
  0
LTYPE
  5
C0
330
5
100
AcDbSymbolTableRecord
100
AcDbLinetypeTableRecord
  2
ACAD_ISO06W100
 70
     0
  3
ISO long-dash triple-dot ____ ... ____ ... ____
 72
    65
 73
     8
 40
37.5
 49
24.0
 74
     0
 49
-3.0
 74
     0
 49
0.5
 74
     0
 49
-3.0
 74
     0
 49
0.5
 74
     0
 49
-3.0
 74
     0
 49
0.5
 74
     0
 49
-3.0
 74
     0
  0
LTYPE
  5
C1
330
5
100
AcDbSymbolTableRecord
100
AcDbLinetypeTableRecord
  2
ACAD_ISO07W100
 70
     0
  3
ISO dot . . . . . . . . . . . . . . . . . . . .
 72
    65
 73
     2
 40
3.5
 49
0.5
 74
     0
 49
-3.0
 74
     0
  0
LTYPE
  5
C2
330
5
100
AcDbSymbolTableRecord
100
AcDbLinetypeTableRecord
  2
ACAD_ISO08W100
 70
     0
  3
ISO long-dash short-dash ____ __ ____ __ ____ _
 72
    65
 73
     4
 40
36.0
 49
24.0
 74
     0
 49
-3.0
 74
     0
 49
6.0
 74
     0
 49
-3.0
 74
     0
  0
LTYPE
  5
C3
330
5
100
AcDbSymbolTableRecord
100
AcDbLinetypeTableRecord
  2
ACAD_ISO09W100
 70
     0
  3
ISO long-dash double-short-dash ____ __ __ ____
 72
    65
 73
     6
 40
45.0
 49
24.0
 74
     0
 49
-3.0
 74
     0
 49
6.0
 74
     0
 49
-3.0
 74
     0
 49
6.0
 74
     0
 49
-3.0
 74
     0
  0
LTYPE
  5
C4
330
5
100
AcDbSymbolTableRecord
100
AcDbLinetypeTableRecord
  2
ACAD_ISO10W100
 70
     0
  3
ISO dash dot __ . __ . __ . __ . __ . __ . __ .
 72
    65
 73
     4
 40
18.5
 49
12.0
 74
     0
 49
-3.0
 74
     0
 49
0.5
 74
     0
 49
-3.0
 74
     0
  0
LTYPE
  5
C5
330
5
100
AcDbSymbolTableRecord
100
AcDbLinetypeTableRecord
  2
ACAD_ISO11W100
 70
     0
  3
ISO double-dash dot __ __ . __ __ . __ __ . __ 
 72
    65
 73
     6
 40
33.5
 49
12.0
 74
     0
 49
-3.0
 74
     0
 49
12.0
 74
     0
 49
-3.0
 74
     0
 49
0.5
 74
     0
 49
-3.0
 74
     0
  0
LTYPE
  5
C6
330
5
100
AcDbSymbolTableRecord
100
AcDbLinetypeTableRecord
  2
ACAD_ISO12W100
 70
     0
  3
ISO dash double-dot __ . . __ . . __ . . __ . .
 72
    65
 73
     6
 40
22.0
 49
12.0
 74
     0
 49
-3.0
 74
     0
 49
0.5
 74
     0
 49
-3.0
 74
     0
 49
0.5
 74
     0
 49
-3.0
 74
     0
  0
LTYPE
  5
C7
330
5
100
AcDbSymbolTableRecord
100
AcDbLinetypeTableRecord
  2
ACAD_ISO13W100
 70
     0
  3
ISO double-dash double-dot __ __ . . __ __ . . 
 72
    65
 73
     8
 40
37.0
 49
12.0
 74
     0
 49
-3.0
 74
     0
 49
12.0
 74
     0
 49
-3.0
 74
     0
 49
0.5
 74
     0
 49
-3.0
 74
     0
 49
0.5
 74
     0
 49
-3.0
 74
     0
  0
LTYPE
  5
C8
330
5
100
AcDbSymbolTableRecord
100
AcDbLinetypeTableRecord
  2
ACAD_ISO14W100
 70
     0
  3
ISO dash triple-dot __ . . . __ . . . __ . . . 
 72
    65
 73
     8
 40
25.5
 49
12.0
 74
     0
 49
-3.0
 74
     0
 49
0.5
 74
     0
 49
-3.0
 74
     0
 49
0.5
 74
     0
 49
-3.0
 74
     0
 49
0.5
 74
     0
 49
-3.0
 74
     0
  0
LTYPE
  5
C9
330
5
100
AcDbSymbolTableRecord
100
AcDbLinetypeTableRecord
  2
ACAD_ISO15W100
 70
     0
  3
ISO double-dash triple-dot __ __ . . . __ __ . 
 72
    65
 73
    10
 40
40.49999999999999
 49
12.0
 74
     0
 49
-3.0
 74
     0
 49
12.0
 74
     0
 49
-3.0
 74
     0
 49
0.5
 74
     0
 49
-3.0
 74
     0
 49
0.5
 74
     0
 49
-3.0
 74
     0
 49
0.5
 74
     0
 49
-3.0
 74
     0
  0
LTYPE
  5
CA
330
5
100
AcDbSymbolTableRecord
100
AcDbLinetypeTableRecord
  2
BATTING
 70
     0
  3
Batting SSSSSSSSSSSSSSSSSSSSSSSSSSSSSSSSSSSSSSS
 72
    65
 73
     4
 40
10.16253999999999
 49
0.00254
 74
     0
 49
-2.54
 74
     4
 75
   134
340
BB
 46
2.54
 50
0.0
 44
-2.54
 45
0.0
 49
-5.08
 74
     4
 75
   134
340
BB
 46
2.54
 50
180.0
 44
2.54
 45
0.0
 49
-2.54
 74
     0
  0
LTYPE
  5
CB
330
5
100
AcDbSymbolTableRecord
100
AcDbLinetypeTableRecord
  2
BORDER
 70
     0
  3
Border __ __ . __ __ . __ __ . __ __ . __ __ .
 72
    65
 73
     6
 40
44.45
 49
12.7
 74
     0
 49
-6.349999999999999
 74
     0
 49
12.7
 74
     0
 49
-6.349999999999999
 74
     0
 49
0.0
 74
     0
 49
-6.349999999999999
 74
     0
  0
LTYPE
  5
CC
330
5
100
AcDbSymbolTableRecord
100
AcDbLinetypeTableRecord
  2
BORDER2
 70
     0
  3
Border (.5x) __.__.__.__.__.__.__.__.__.__.__.
 72
    65
 73
     6
 40
22.225
 49
6.349999999999999
 74
     0
 49
-3.174999999999999
 74
     0
 49
6.349999999999999
 74
     0
 49
-3.174999999999999
 74
     0
 49
0.0
 74
     0
 49
-3.174999999999999
 74
     0
  0
LTYPE
  5
CD
330
5
100
AcDbSymbolTableRecord
100
AcDbLinetypeTableRecord
  2
BORDERX2
 70
     0
  3
Border (2x) ____  ____  .  ____  ____  .  ___
 72
    65
 73
     6
 40
88.9
 49
25.4
 74
     0
 49
-12.7
 74
     0
 49
25.4
 74
     0
 49
-12.7
 74
     0
 49
0.0
 74
     0
 49
-12.7
 74
     0
  0
LTYPE
  5
CE
330
5
100
AcDbSymbolTableRecord
100
AcDbLinetypeTableRecord
  2
CENTER
 70
     0
  3
Center ____ _ ____ _ ____ _ ____ _ ____ _ ____
 72
    65
 73
     4
 40
50.8
 49
31.75
 74
     0
 49
-6.349999999999999
 74
     0
 49
6.349999999999999
 74
     0
 49
-6.349999999999999
 74
     0
  0
LTYPE
  5
CF
330
5
100
AcDbSymbolTableRecord
100
AcDbLinetypeTableRecord
  2
CENTER2
 70
     0
  3
Center (.5x) ___ _ ___ _ ___ _ ___ _ ___ _ ___
 72
    65
 73
     4
 40
28.57499999999999
 49
19.05
 74
     0
 49
-3.174999999999999
 74
     0
 49
3.174999999999999
 74
     0
 49
-3.174999999999999
 74
     0
  0
LTYPE
  5
D0
330
5
100
AcDbSymbolTableRecord
100
AcDbLinetypeTableRecord
  2
CENTERX2
 70
     0
  3
Center (2x) ________  __  ________  __  _____
 72
    65
 73
     4
 40
101.6
 49
63.5
 74
     0
 49
-12.7
 74
     0
 49
12.7
 74
     0
 49
-12.7
 74
     0
  0
LTYPE
  5
D1
330
5
100
AcDbSymbolTableRecord
100
AcDbLinetypeTableRecord
  2
DASHDOT
 70
     0
  3
Dash dot __ . __ . __ . __ . __ . __ . __ . __
 72
    65
 73
     4
 40
25.4
 49
12.7
 74
     0
 49
-6.349999999999999
 74
     0
 49
0.0
 74
     0
 49
-6.349999999999999
 74
     0
  0
LTYPE
  5
D2
330
5
100
AcDbSymbolTableRecord
100
AcDbLinetypeTableRecord
  2
DASHDOT2
 70
     0
  3
Dash dot (.5x) _._._._._._._._._._._._._._._.
 72
    65
 73
     4
 40
12.7
 49
6.349999999999999
 74
     0
 49
-3.174999999999999
 74
     0
 49
0.0
 74
     0
 49
-3.174999999999999
 74
     0
  0
LTYPE
  5
D3
330
5
100
AcDbSymbolTableRecord
100
AcDbLinetypeTableRecord
  2
DASHDOTX2
 70
     0
  3
Dash dot (2x) ____  .  ____  .  ____  .  ___
 72
    65
 73
     4
 40
50.8
 49
25.4
 74
     0
 49
-12.7
 74
     0
 49
0.0
 74
     0
 49
-12.7
 74
     0
  0
LTYPE
  5
D4
330
5
100
AcDbSymbolTableRecord
100
AcDbLinetypeTableRecord
  2
DASHED
 70
     0
  3
Dashed __ __ __ __ __ __ __ __ __ __ __ __ __ _
 72
    65
 73
     2
 40
19.04999999999999
 49
12.7
 74
     0
 49
-6.349999999999999
 74
     0
  0
LTYPE
  5
D5
330
5
100
AcDbSymbolTableRecord
100
AcDbLinetypeTableRecord
  2
DASHED2
 70
     0
  3
Dashed (.5x) _ _ _ _ _ _ _ _ _ _ _ _ _ _ _ _ _
 72
    65
 73
     2
 40
9.524999999999998
 49
6.349999999999999
 74
     0
 49
-3.174999999999999
 74
     0
  0
LTYPE
  5
D6
330
5
100
AcDbSymbolTableRecord
100
AcDbLinetypeTableRecord
  2
DASHEDX2
 70
     0
  3
Dashed (2x) ____  ____  ____  ____  ____  ___
 72
    65
 73
     2
 40
38.09999999999999
 49
25.4
 74
     0
 49
-12.7
 74
     0
  0
LTYPE
  5
D7
330
5
100
AcDbSymbolTableRecord
100
AcDbLinetypeTableRecord
  2
DIVIDE
 70
     0
  3
Divide ____ . . ____ . . ____ . . ____ . . ____
 72
    65
 73
     6
 40
31.74999999999999
 49
12.7
 74
     0
 49
-6.349999999999999
 74
     0
 49
0.0
 74
     0
 49
-6.349999999999999
 74
     0
 49
0.0
 74
     0
 49
-6.349999999999999
 74
     0
  0
LTYPE
  5
D8
330
5
100
AcDbSymbolTableRecord
100
AcDbLinetypeTableRecord
  2
DIVIDE2
 70
     0
  3
Divide (.5x) __..__..__..__..__..__..__..__.._
 72
    65
 73
     6
 40
15.87499999999999
 49
6.349999999999999
 74
     0
 49
-3.174999999999999
 74
     0
 49
0.0
 74
     0
 49
-3.174999999999999
 74
     0
 49
0.0
 74
     0
 49
-3.174999999999999
 74
     0
  0
LTYPE
  5
D9
330
5
100
AcDbSymbolTableRecord
100
AcDbLinetypeTableRecord
  2
DIVIDEX2
 70
     0
  3
Divide (2x) ________  .  .  ________  .  .  _
 72
    65
 73
     6
 40
63.49999999999999
 49
25.4
 74
     0
 49
-12.7
 74
     0
 49
0.0
 74
     0
 49
-12.7
 74
     0
 49
0.0
 74
     0
 49
-12.7
 74
     0
  0
LTYPE
  5
DA
330
5
100
AcDbSymbolTableRecord
100
AcDbLinetypeTableRecord
  2
DOT
 70
     0
  3
Dot . . . . . . . . . . . . . . . . . . . . . .
 72
    65
 73
     2
 40
6.349999999999999
 49
0.0
 74
     0
 49
-6.349999999999999
 74
     0
  0
LTYPE
  5
DB
330
5
100
AcDbSymbolTableRecord
100
AcDbLinetypeTableRecord
  2
DOT2
 70
     0
  3
Dot (.5x) .....................................
 72
    65
 73
     2
 40
3.174999999999999
 49
0.0
 74
     0
 49
-3.174999999999999
 74
     0
  0
LTYPE
  5
DC
330
5
100
AcDbSymbolTableRecord
100
AcDbLinetypeTableRecord
  2
DOTX2
 70
     0
  3
Dot (2x) .  .  .  .  .  .  .  .  .  .  .  .  . 
 72
    65
 73
     2
 40
12.7
 49
0.0
 74
     0
 49
-12.7
 74
     0
  0
LTYPE
  5
DD
330
5
100
AcDbSymbolTableRecord
100
AcDbLinetypeTableRecord
  2
FENCELINE1
 70
     0
  3
Fenceline circle ----0-----0----0-----0----0---
 72
    65
 73
     4
 40
36.82999999999999
 49
6.349999999999999
 74
     0
 49
-2.54
 74
     4
 75
   133
340
BB
 46
2.54
 50
0.0
 44
-2.54
 45
0.0
 49
-2.54
 74
     0
 49
25.4
 74
     0
  0
LTYPE
  5
DE
330
5
100
AcDbSymbolTableRecord
100
AcDbLinetypeTableRecord
  2
FENCELINE2
 70
     0
  3
Fenceline square ----[]-----[]----[]-----[]----
 72
    65
 73
     4
 40
36.82999999999999
 49
6.349999999999999
 74
     0
 49
-2.54
 74
     4
 75
   132
340
BB
 46
2.54
 50
0.0
 44
-2.54
 45
0.0
 49
-2.54
 74
     0
 49
25.4
 74
     0
  0
LTYPE
  5
DF
330
5
100
AcDbSymbolTableRecord
100
AcDbLinetypeTableRecord
  2
GAS_LINE
 70
     0
  3
Gas line ----GAS----GAS----GAS----GAS----GAS---
 72
    65
 73
     3
 40
24.13
 49
12.7
 74
     0
 49
-5.08
 74
     2
 75
     0
340
F
 46
2.54
 50
0.0
 44
-2.54
 45
-1.27
  9
GAS
 49
-6.349999999999999
 74
     0
  0
LTYPE
  5
E0
330
5
100
AcDbSymbolTableRecord
100
AcDbLinetypeTableRecord
  2
HIDDEN
 70
     0
  3
Hidden __ __ __ __ __ __ __ __ __ __ __ __ __ _
 72
    65
 73
     2
 40
9.524999999999998
 49
6.349999999999999
 74
     0
 49
-3.174999999999999
 74
     0
  0
LTYPE
  5
E1
330
5
100
AcDbSymbolTableRecord
100
AcDbLinetypeTableRecord
  2
HIDDEN2
 70
     0
  3
Hidden (.5x) _ _ _ _ _ _ _ _ _ _ _ _ _ _ _ _ _
 72
    65
 73
     2
 40
4.762499999999999
 49
3.174999999999999
 74
     0
 49
-1.587499999999999
 74
     0
  0
LTYPE
  5
E2
330
5
100
AcDbSymbolTableRecord
100
AcDbLinetypeTableRecord
  2
HIDDENX2
 70
     0
  3
Hidden (2x) ____ ____ ____ ____ ____ ____ ____
 72
    65
 73
     2
 40
19.04999999999999
 49
12.7
 74
     0
 49
-6.349999999999999
 74
     0
  0
LTYPE
  5
E3
330
5
100
AcDbSymbolTableRecord
100
AcDbLinetypeTableRecord
  2
HOT_WATER_SUPPLY
 70
     0
  3
Hot water supply ---- HW ---- HW ---- HW ----
 72
    65
 73
     3
 40
22.86
 49
12.7
 74
     0
 49
-5.08
 74
     2
 75
     0
340
F
 46
2.54
 50
0.0
 44
-2.54
 45
-1.27
  9
HW
 49
-5.08
 74
     0
  0
LTYPE
  5
E4
330
5
100
AcDbSymbolTableRecord
100
AcDbLinetypeTableRecord
  2
PHANTOM
 70
     0
  3
Phantom ______  __  __  ______  __  __  ______
 72
    65
 73
     6
 40
63.5
 49
31.75
 74
     0
 49
-6.349999999999999
 74
     0
 49
6.349999999999999
 74
     0
 49
-6.349999999999999
 74
     0
 49
6.349999999999999
 74
     0
 49
-6.349999999999999
 74
     0
  0
LTYPE
  5
E5
330
5
100
AcDbSymbolTableRecord
100
AcDbLinetypeTableRecord
  2
PHANTOM2
 70
     0
  3
Phantom (.5x) ___ _ _ ___ _ _ ___ _ _ ___ _ _
 72
    65
 73
     6
 40
31.75
 49
15.875
 74
     0
 49
-3.174999999999999
 74
     0
 49
3.174999999999999
 74
     0
 49
-3.174999999999999
 74
     0
 49
3.174999999999999
 74
     0
 49
-3.174999999999999
 74
     0
  0
LTYPE
  5
E6
330
5
100
AcDbSymbolTableRecord
100
AcDbLinetypeTableRecord
  2
PHANTOMX2
 70
     0
  3
Phantom (2x) ____________    ____    ____   _
 72
    65
 73
     6
 40
127.0
 49
63.5
 74
     0
 49
-12.7
 74
     0
 49
12.7
 74
     0
 49
-12.7
 74
     0
 49
12.7
 74
     0
 49
-12.7
 74
     0
  0
LTYPE
  5
E7
330
5
100
AcDbSymbolTableRecord
100
AcDbLinetypeTableRecord
  2
TRACKS
 70
     0
  3
Tracks -|-|-|-|-|-|-|-|-|-|-|-|-|-|-|-|-|-|-|-|
 72
    65
 73
     2
 40
7.62
 49
3.81
 74
     4
 75
   130
340
BB
 46
6.349999999999999
 50
0.0
 44
0.0
 45
0.0
 49
3.81
 74
     0
  0
LTYPE
  5
E8
330
5
100
AcDbSymbolTableRecord
100
AcDbLinetypeTableRecord
  2
ZIGZAG
 70
     0
  3
Zig zag /\/\/\/\/\/\/\/\/\/\/\/\/\/\/\/\/\/\/\/
 72
    65
 73
     4
 40
20.32254
 49
0.00254
 74
     0
 49
-5.08
 74
     4
 75
   131
340
BB
 46
5.08
 50
0.0
 44
-5.08
 45
0.0
 49
-10.16
 74
     4
 75
   131
340
BB
 46
5.08
 50
180.0
 44
5.08
 45
0.0
 49
-5.08
 74
     0
  0
ENDTAB
  0
TABLE
  2
LAYER
  5
2
330
0
100
AcDbSymbolTable
 70
     9
  0
LAYER
  5
E
330
2
100
AcDbSymbolTableRecord
100
AcDbLayerTableRecord
  2
0
 70
     0
 62
     7
  6
CONTINUOUS
370
    -3
390
1317
  0
LAYER
  5
20
330
2
100
AcDbSymbolTableRecord
100
AcDbLayerTableRecord
  2
DEFPOINTS
 70
     0
 62
     7
  6
CONTINUOUS
290
     0
370
    -3
390
1317
  0
LAYER
  5
21
330
2
100
AcDbSymbolTableRecord
100
AcDbLayerTableRecord
  2
OBJECT
 70
     0
 62
     7
  6
CONTINUOUS
370
    -3
390
1317
  0
LAYER
  5
E9
330
2
100
AcDbSymbolTableRecord
100
AcDbLayerTableRecord
  2
基準線
 70
     0
 62
    -1
  6
CONTINUOUS
370
    -3
390
1317
  0
LAYER
  5
EA
330
2
100
AcDbSymbolTableRecord
100
AcDbLayerTableRecord
  2
上線
 70
     0
 62
     7
  6
CONTINUOUS
370
    -3
390
1317
  0
LAYER
  5
EB
330
2
100
AcDbSymbolTableRecord
100
AcDbLayerTableRecord
  2
点線
 70
     0
 62
     5
  6
HIDDEN
370
    -3
390
1317
  0
LAYER
  5
EC
330
2
100
AcDbSymbolTableRecord
100
AcDbLayerTableRecord
  2
中心線
 70
     0
 62
     6
  6
CENTER
370
    -3
390
1317
  0
LAYER
  5
15A5
330
2
100
AcDbSymbolTableRecord
100
AcDbLayerTableRecord
  2
上書線
 70
     0
 62
     7
  6
CONTINUOUS
370
    -3
390
1317
  0
LAYER
  5
18F7
330
2
100
AcDbSymbolTableRecord
100
AcDbLayerTableRecord
  2
WUWAGAKI
 70
     0
 62
     7
  6
CONTINUOUS
370
    -3
390
1317
  0
ENDTAB
  0
TABLE
  2
STYLE
  5
3
330
0
100
AcDbSymbolTable
 70
     3
  0
STYLE
  5
F
330
3
100
AcDbSymbolTableRecord
100
AcDbTextStyleTableRecord
  2
STANDARD
 70
     0
 40
0.0
 41
1.0
 50
0.0
 71
     0
 42
2.5
  3
MS PMincho.ttf
  4

1001
ACAD
1000
MS PMincho
1071
    32786
  0
STYLE
  5
22
330
3
100
AcDbSymbolTableRecord
100
AcDbTextStyleTableRecord
  2
ADESK1
 70
     0
 40
0.0
 41
1.0
 50
0.0
 71
     0
 42
5.0
  3
romans
  4
bigfont
  0
STYLE
  5
BB
330
3
100
AcDbSymbolTableRecord
100
AcDbTextStyleTableRecord
  2

 70
     1
 40
0.0
 41
1.0
 50
0.0
 71
     0
 42
2.5
  3
ltypeshp.shx
  4

  0
ENDTAB
  0
TABLE
  2
VIEW
  5
6
330
0
100
AcDbSymbolTable
 70
     0
  0
ENDTAB
  0
TABLE
  2
UCS
  5
7
330
0
100
AcDbSymbolTable
 70
     0
  0
ENDTAB
  0
TABLE
  2
APPID
  5
9
330
0
100
AcDbSymbolTable
 70
     2
  0
APPID
  5
10
330
9
100
AcDbSymbolTableRecord
100
AcDbRegAppTableRecord
  2
ACAD
 70
     0
  0
APPID
  5
1126
330
9
100
AcDbSymbolTableRecord
100
AcDbRegAppTableRecord
  2
DRAWINGVARIABLESXDATA
 70
     0
  0
ENDTAB
  0
TABLE
  2
DIMSTYLE
  5
A
330
0
100
AcDbSymbolTable
 70
     2
100
AcDbDimStyleTable
 71
     1
340
1D
  0
DIMSTYLE
105
1D
102
{ACAD_REACTORS
330
1251
330
1252
330
1253
330
1254
330
1257
330
1258
330
125D
330
125E
330
1264
330
1280
330
12A8
330
12AD
330
12C4
330
1926
102
}
330
A
100
AcDbSymbolTableRecord
100
AcDbDimStyleTableRecord
  2
STANDARD
 70
     0
340
F
  0
DIMSTYLE
105
23
330
A
100
AcDbSymbolTableRecord
100
AcDbDimStyleTableRecord
  2
JIS
 70
     0
 41
2.5
 42
1.0
 43
7.0
 44
1.0
 73
     0
 74
     0
 77
     1
 78
     8
140
2.5
141
0.0
143
0.0394
147
0.0
172
     1
174
     1
175
     1
340
F
  0
ENDTAB
  0
TABLE
  2
BLOCK_RECORD
  5
1
330
0
100
AcDbSymbolTable
 70
    16
  0
BLOCK_RECORD
  5
18
330
1
100
AcDbSymbolTableRecord
100
AcDbBlockTableRecord
  2
*MODEL_SPACE
340
131A
  0
BLOCK_RECORD
  5
15
330
1
100
AcDbSymbolTableRecord
100
AcDbBlockTableRecord
  2
*PAPER_SPACE
340
131B
  0
BLOCK_RECORD
  5
24
330
1
100
AcDbSymbolTableRecord
100
AcDbBlockTableRecord
  2
JIS_A3
340
0
  0
BLOCK_RECORD
  5
11AC
330
1
100
AcDbSymbolTableRecord
100
AcDbBlockTableRecord
  2
*D1
340
0
  0
BLOCK_RECORD
  5
11B8
330
1
100
AcDbSymbolTableRecord
100
AcDbBlockTableRecord
  2
*D2
340
0
  0
BLOCK_RECORD
  5
11C4
330
1
100
AcDbSymbolTableRecord
100
AcDbBlockTableRecord
  2
*D3
340
0
  0
BLOCK_RECORD
  5
11D0
330
1
100
AcDbSymbolTableRecord
100
AcDbBlockTableRecord
  2
*D4
340
0
  0
BLOCK_RECORD
  5
11DC
330
1
100
AcDbSymbolTableRecord
100
AcDbBlockTableRecord
  2
*D5
340
0
  0
BLOCK_RECORD
  5
11E8
330
1
100
AcDbSymbolTableRecord
100
AcDbBlockTableRecord
  2
*D6
340
0
  0
BLOCK_RECORD
  5
11F4
330
1
100
AcDbSymbolTableRecord
100
AcDbBlockTableRecord
  2
*D7
340
0
  0
BLOCK_RECORD
  5
1200
330
1
100
AcDbSymbolTableRecord
100
AcDbBlockTableRecord
  2
*D8
340
0
  0
BLOCK_RECORD
  5
120E
330
1
100
AcDbSymbolTableRecord
100
AcDbBlockTableRecord
  2
*D9
340
0
  0
BLOCK_RECORD
  5
121A
330
1
100
AcDbSymbolTableRecord
100
AcDbBlockTableRecord
  2
*D10
340
0
  0
BLOCK_RECORD
  5
1228
330
1
100
AcDbSymbolTableRecord
100
AcDbBlockTableRecord
  2
*D11
340
0
  0
BLOCK_RECORD
  5
1236
330
1
100
AcDbSymbolTableRecord
100
AcDbBlockTableRecord
  2
*D12
340
0
  0
BLOCK_RECORD
  5
1242
330
1
100
AcDbSymbolTableRecord
100
AcDbBlockTableRecord
  2
*D13
340
0
  0
BLOCK_RECORD
  5
1250
330
1
100
AcDbSymbolTableRecord
100
AcDbBlockTableRecord
  2
A$C5C396CD4
340
0
  0
BLOCK_RECORD
  5
1927
330
1
100
AcDbSymbolTableRecord
100
AcDbBlockTableRecord
  2
*D15
340
0
  0
ENDTAB
  0
ENDSEC
  0
SECTION
  2
BLOCKS
  0
BLOCK
  5
19
330
18
100
AcDbEntity
  8
0
100
AcDbBlockBegin
  2
*MODEL_SPACE
 70
     0
 10
0.0
 20
0.0
 30
0.0
  3
*MODEL_SPACE
  1

  0
ENDBLK
  5
1A
330
18
100
AcDbEntity
  8
0
100
AcDbBlockEnd
  0
BLOCK
  5
16
330
15
100
AcDbEntity
 67
     1
  8
0
100
AcDbBlockBegin
  2
*PAPER_SPACE
 70
     0
 10
0.0
 20
0.0
 30
0.0
  3
*PAPER_SPACE
  1

  0
ENDBLK
  5
17
330
15
100
AcDbEntity
 67
     1
  8
0
100
AcDbBlockEnd
  0
BLOCK
  5
B1
330
24
100
AcDbEntity
  8
0
100
AcDbBlockBegin
  2
JIS_A3
 70
     2
 10
0.0
 20
0.0
 30
0.0
  3
JIS_A3
  1

  0
LINE
  5
25
330
24
100
AcDbEntity
  8
0
100
AcDbLine
 10
0.0
 20
0.0
 30
0.0
 11
0.0
 21
10.0
 31
0.0
  0
LINE
  5
26
330
24
100
AcDbEntity
  8
0
100
AcDbLine
 10
0.0
 20
297.0
 30
0.0
 11
25.0
 21
297.0
 31
0.0
  0
LINE
  5
27
330
24
100
AcDbEntity
  8
0
100
AcDbLine
 10
420.0
 20
297.0
 30
0.0
 11
420.0
 21
287.0
 31
0.0
  0
LINE
  5
28
330
24
100
AcDbEntity
  8
0
100
AcDbLine
 10
420.0
 20
0.0
 30
0.0
 11
410.0
 21
0.0
 31
0.0
  0
LINE
  5
29
330
24
100
AcDbEntity
  8
0
100
AcDbLine
 10
25.0
 20
10.0
 30
0.0
 11
25.0
 21
287.0
 31
0.0
  0
LINE
  5
2A
330
24
100
AcDbEntity
  8
0
100
AcDbLine
 10
410.0
 20
10.0
 30
0.0
 11
25.0
 21
10.0
 31
0.0
  0
LINE
  5
2B
330
24
100
AcDbEntity
  8
0
100
AcDbLine
 10
410.0
 20
287.0
 30
0.0
 11
410.0
 21
10.0
 31
0.0
  0
LINE
  5
2C
330
24
100
AcDbEntity
  8
0
100
AcDbLine
 10
25.0
 20
287.0
 30
0.0
 11
410.0
 21
287.0
 31
0.0
  0
LINE
  5
2D
330
24
100
AcDbEntity
  8
0
100
AcDbLine
 10
0.0
 20
287.0
 30
0.0
 11
0.0
 21
297.0
 31
0.0
  0
LINE
  5
2E
330
24
100
AcDbEntity
  8
0
100
AcDbLine
 10
25.0
 20
0.0
 30
0.0
 11
0.0
 21
0.0
 31
0.0
  0
LINE
  5
2F
330
24
100
AcDbEntity
  8
0
100
AcDbLine
 10
420.0
 20
10.0
 30
0.0
 11
420.0
 21
0.0
 31
0.0
  0
LINE
  5
30
330
24
100
AcDbEntity
  8
0
100
AcDbLine
 10
410.0
 20
297.0
 30
0.0
 11
420.0
 21
297.0
 31
0.0
  0
ATTDEF
  5
31
330
24
100
AcDbEntity
  8
0
 62
     0
100
AcDbText
 10
19.0
 20
10.0
 30
0.0
 40
3.0
  1

 50
90.0
  7
ADESK1
100
AcDbAttributeDefinition
  3

  2
USER
 70
     8
  0
ATTDEF
  5
32
330
24
100
AcDbEntity
  8
0
 62
     0
100
AcDbText
 10
19.0
 20
70.0
 30
0.0
 40
3.0
  1

 50
90.0
  7
ADESK1
100
AcDbAttributeDefinition
  3

  2
REVDATE
 70
     8
  0
ATTDEF
  5
33
330
24
100
AcDbEntity
  8
0
 62
     0
100
AcDbText
 10
19.0
 20
118.0
 30
0.0
 40
3.0
  1

 50
90.0
  7
ADESK1
100
AcDbAttributeDefinition
  3

  2
FNAME
 70
     8
  0
LINE
  5
34
330
24
100
AcDbEntity
  8
OBJECT
100
AcDbLine
 10
130.0
 20
16.0
 30
0.0
 11
25.0
 21
16.0
 31
0.0
  0
LINE
  5
35
330
24
100
AcDbEntity
  8
OBJECT
100
AcDbLine
 10
130.0
 20
22.0
 30
0.0
 11
25.0
 21
22.0
 31
0.0
  0
LINE
  5
36
330
24
100
AcDbEntity
  8
OBJECT
100
AcDbLine
 10
130.0
 20
28.0
 30
0.0
 11
25.0
 21
28.0
 31
0.0
  0
LINE
  5
37
330
24
100
AcDbEntity
  8
OBJECT
100
AcDbLine
 10
130.0
 20
34.0
 30
0.0
 11
25.0
 21
34.0
 31
0.0
  0
LINE
  5
38
330
24
100
AcDbEntity
  8
OBJECT
100
AcDbLine
 10
130.0
 20
40.0
 30
0.0
 11
25.0
 21
40.0
 31
0.0
  0
LINE
  5
39
330
24
100
AcDbEntity
  8
OBJECT
100
AcDbLine
 10
28.0
 20
11.53589799999999
 30
0.0
 11
30.0
 21
15.0
 31
0.0
  0
LINE
  5
3A
330
24
100
AcDbEntity
  8
OBJECT
100
AcDbLine
 10
32.0
 20
11.53589799999999
 30
0.0
 11
30.0
 21
15.0
 31
0.0
  0
LINE
  5
3B
330
24
100
AcDbEntity
  8
OBJECT
100
AcDbLine
 10
35.0
 20
10.0
 30
0.0
 11
35.0
 21
40.0
 31
0.0
  0
LINE
  5
3C
330
24
100
AcDbEntity
  8
OBJECT
100
AcDbLine
 10
50.0
 20
10.0
 30
0.0
 11
50.0
 21
40.0
 31
0.0
  0
LINE
  5
3D
330
24
100
AcDbEntity
  8
OBJECT
100
AcDbLine
 10
80.0
 20
10.0
 30
0.0
 11
80.0
 21
40.0
 31
0.0
  0
LINE
  5
3E
330
24
100
AcDbEntity
  8
OBJECT
100
AcDbLine
 10
28.0
 20
11.53589799999999
 30
0.0
 11
32.0
 21
11.53589799999999
 31
0.0
  0
LINE
  5
3F
330
24
100
AcDbEntity
  8
OBJECT
100
AcDbLine
 10
39.5
 20
13.0
 30
0.0
 11
40.49999999999999
 21
13.0
 31
0.0
  0
LINE
  5
40
330
24
100
AcDbEntity
  8
OBJECT
100
AcDbLine
 10
44.5
 20
13.0
 30
0.0
 11
45.49999999999999
 21
13.0
 31
0.0
  0
LINE
  5
41
330
24
100
AcDbEntity
  8
OBJECT
100
AcDbLine
 10
32.0
 20
17.535898
 30
0.0
 11
30.0
 21
20.99999999999999
 31
0.0
  0
LINE
  5
42
330
24
100
AcDbEntity
  8
OBJECT
100
AcDbLine
 10
28.0
 20
17.535898
 30
0.0
 11
32.0
 21
17.535898
 31
0.0
  0
LINE
  5
43
330
24
100
AcDbEntity
  8
OBJECT
100
AcDbLine
 10
28.0
 20
17.535898
 30
0.0
 11
30.0
 21
20.99999999999999
 31
0.0
  0
LINE
  5
44
330
24
100
AcDbEntity
  8
OBJECT
100
AcDbLine
 10
32.0
 20
23.53589799999999
 30
0.0
 11
30.0
 21
26.99999999999999
 31
0.0
  0
LINE
  5
45
330
24
100
AcDbEntity
  8
OBJECT
100
AcDbLine
 10
28.0
 20
23.53589799999999
 30
0.0
 11
32.0
 21
23.53589799999999
 31
0.0
  0
LINE
  5
46
330
24
100
AcDbEntity
  8
OBJECT
100
AcDbLine
 10
28.0
 20
23.53589799999999
 30
0.0
 11
30.0
 21
26.99999999999999
 31
0.0
  0
LINE
  5
47
330
24
100
AcDbEntity
  8
OBJECT
100
AcDbLine
 10
28.0
 20
35.53589799999999
 30
0.0
 11
30.0
 21
39.0
 31
0.0
  0
LINE
  5
48
330
24
100
AcDbEntity
  8
OBJECT
100
AcDbLine
 10
32.0
 20
35.53589799999999
 30
0.0
 11
30.0
 21
39.0
 31
0.0
  0
LINE
  5
49
330
24
100
AcDbEntity
  8
OBJECT
100
AcDbLine
 10
28.0
 20
35.53589799999999
 30
0.0
 11
32.0
 21
35.53589799999999
 31
0.0
  0
LINE
  5
4A
330
24
100
AcDbEntity
  8
OBJECT
100
AcDbLine
 10
32.0
 20
29.535898
 30
0.0
 11
30.0
 21
33.0
 31
0.0
  0
LINE
  5
4B
330
24
100
AcDbEntity
  8
OBJECT
100
AcDbLine
 10
28.0
 20
29.535898
 30
0.0
 11
32.0
 21
29.535898
 31
0.0
  0
LINE
  5
4C
330
24
100
AcDbEntity
  8
OBJECT
100
AcDbLine
 10
28.0
 20
29.535898
 30
0.0
 11
30.0
 21
33.0
 31
0.0
  0
LINE
  5
4D
330
24
100
AcDbEntity
  8
OBJECT
100
AcDbLine
 10
39.5
 20
19.0
 30
0.0
 11
40.49999999999999
 21
19.0
 31
0.0
  0
LINE
  5
4E
330
24
100
AcDbEntity
  8
OBJECT
100
AcDbLine
 10
44.5
 20
19.0
 30
0.0
 11
45.49999999999999
 21
19.0
 31
0.0
  0
LINE
  5
4F
330
24
100
AcDbEntity
  8
OBJECT
100
AcDbLine
 10
39.5
 20
25.0
 30
0.0
 11
40.49999999999999
 21
25.0
 31
0.0
  0
LINE
  5
50
330
24
100
AcDbEntity
  8
OBJECT
100
AcDbLine
 10
44.5
 20
25.0
 30
0.0
 11
45.49999999999999
 21
25.0
 31
0.0
  0
LINE
  5
51
330
24
100
AcDbEntity
  8
OBJECT
100
AcDbLine
 10
39.5
 20
31.0
 30
0.0
 11
40.49999999999999
 21
31.0
 31
0.0
  0
LINE
  5
52
330
24
100
AcDbEntity
  8
OBJECT
100
AcDbLine
 10
39.5
 20
37.0
 30
0.0
 11
40.49999999999999
 21
37.0
 31
0.0
  0
LINE
  5
53
330
24
100
AcDbEntity
  8
OBJECT
100
AcDbLine
 10
44.5
 20
31.0
 30
0.0
 11
45.49999999999999
 21
31.0
 31
0.0
  0
LINE
  5
54
330
24
100
AcDbEntity
  8
OBJECT
100
AcDbLine
 10
44.5
 20
37.0
 30
0.0
 11
45.49999999999999
 21
37.0
 31
0.0
  0
LINE
  5
55
330
24
100
AcDbEntity
  8
OBJECT
100
AcDbLine
 10
120.0
 20
10.0
 30
0.0
 11
120.0
 21
40.0
 31
0.0
  0
LINE
  5
56
330
24
100
AcDbEntity
  8
OBJECT
100
AcDbLine
 10
130.0
 20
40.0
 30
0.0
 11
130.0
 21
10.0
 31
0.0
  0
LINE
  5
57
330
24
100
AcDbEntity
  8
0
100
AcDbLine
 10
217.5
 20
10.0
 30
0.0
 11
217.5
 21
0.0
 31
0.0
  0
LINE
  5
58
330
24
100
AcDbEntity
  8
0
100
AcDbLine
 10
217.5
 20
287.0
 30
0.0
 11
217.5
 21
297.0
 31
0.0
  0
LINE
  5
59
330
24
100
AcDbEntity
  8
0
100
AcDbLine
 10
410.0
 20
148.5
 30
0.0
 11
420.0
 21
148.5
 31
0.0
  0
LINE
  5
5A
330
24
100
AcDbEntity
  8
0
100
AcDbLine
 10
25.0
 20
148.5
 30
0.0
 11
0.0
 21
148.5
 31
0.0
  0
TEXT
  5
5B
330
24
100
AcDbEntity
  8
0
100
AcDbText
 10
1.0
 20
1.0
 30
0.0
 40
3.0
  1
この図枠はサンプルです。社内の規格やプロッタの出力範囲に合わせて適当に変更してご利用ください。
  7
ADESK1
100
AcDbText
  0
LINE
  5
5C
330
24
100
AcDbEntity
  8
0
100
AcDbLine
 10
25.0
 20
240.8333333333333
 30
0.0
 11
20.0
 21
240.8333333333333
 31
0.0
  0
LINE
  5
5D
330
24
100
AcDbEntity
  8
0
100
AcDbLine
 10
25.0
 20
194.6666666666666
 30
0.0
 11
20.0
 21
194.6666666666666
 31
0.0
  0
LINE
  5
5E
330
24
100
AcDbEntity
  8
0
100
AcDbLine
 10
25.0
 20
148.5
 30
0.0
 11
20.0
 21
148.5
 31
0.0
  0
LINE
  5
5F
330
24
100
AcDbEntity
  8
0
100
AcDbLine
 10
25.0
 20
102.3333333333333
 30
0.0
 11
20.0
 21
102.3333333333333
 31
0.0
  0
LINE
  5
60
330
24
100
AcDbEntity
  8
0
100
AcDbLine
 10
25.0
 20
56.16666666666667
 30
0.0
 11
20.0
 21
56.16666666666667
 31
0.0
  0
LINE
  5
61
330
24
100
AcDbEntity
  8
0
100
AcDbLine
 10
410.0
 20
56.16666666666668
 30
0.0
 11
415.0
 21
56.16666666666668
 31
0.0
  0
LINE
  5
62
330
24
100
AcDbEntity
  8
0
100
AcDbLine
 10
410.0
 20
102.3333333333333
 30
0.0
 11
415.0
 21
102.3333333333333
 31
0.0
  0
LINE
  5
63
330
24
100
AcDbEntity
  8
0
100
AcDbLine
 10
410.0
 20
148.5
 30
0.0
 11
415.0
 21
148.5
 31
0.0
  0
LINE
  5
64
330
24
100
AcDbEntity
  8
0
100
AcDbLine
 10
410.0
 20
194.6666666666667
 30
0.0
 11
415.0
 21
194.6666666666667
 31
0.0
  0
LINE
  5
65
330
24
100
AcDbEntity
  8
0
100
AcDbLine
 10
410.0
 20
240.8333333333333
 30
0.0
 11
415.0
 21
240.8333333333333
 31
0.0
  0
LINE
  5
66
330
24
100
AcDbEntity
  8
0
100
AcDbLine
 10
73.125
 20
10.0
 30
0.0
 11
73.125
 21
5.0
 31
0.0
  0
LINE
  5
67
330
24
100
AcDbEntity
  8
0
100
AcDbLine
 10
121.25
 20
10.0
 30
0.0
 11
121.25
 21
5.0
 31
0.0
  0
LINE
  5
68
330
24
100
AcDbEntity
  8
0
100
AcDbLine
 10
169.375
 20
10.0
 30
0.0
 11
169.375
 21
5.0
 31
0.0
  0
LINE
  5
69
330
24
100
AcDbEntity
  8
0
100
AcDbLine
 10
217.5
 20
10.0
 30
0.0
 11
217.5
 21
5.0
 31
0.0
  0
LINE
  5
6A
330
24
100
AcDbEntity
  8
0
100
AcDbLine
 10
265.625
 20
10.0
 30
0.0
 11
265.625
 21
5.0
 31
0.0
  0
LINE
  5
6B
330
24
100
AcDbEntity
  8
0
100
AcDbLine
 10
313.75
 20
10.0
 30
0.0
 11
313.75
 21
5.0
 31
0.0
  0
LINE
  5
6C
330
24
100
AcDbEntity
  8
0
100
AcDbLine
 10
361.8749999999999
 20
10.0
 30
0.0
 11
361.8749999999999
 21
5.0
 31
0.0
  0
LINE
  5
6D
330
24
100
AcDbEntity
  8
0
100
AcDbLine
 10
361.8749999999999
 20
287.0
 30
0.0
 11
361.8749999999999
 21
292.0
 31
0.0
  0
LINE
  5
6E
330
24
100
AcDbEntity
  8
0
100
AcDbLine
 10
313.75
 20
287.0
 30
0.0
 11
313.75
 21
292.0
 31
0.0
  0
LINE
  5
6F
330
24
100
AcDbEntity
  8
0
100
AcDbLine
 10
265.625
 20
287.0
 30
0.0
 11
265.625
 21
292.0
 31
0.0
  0
LINE
  5
70
330
24
100
AcDbEntity
  8
0
100
AcDbLine
 10
217.5
 20
287.0
 30
0.0
 11
217.5
 21
292.0
 31
0.0
  0
LINE
  5
71
330
24
100
AcDbEntity
  8
0
100
AcDbLine
 10
169.375
 20
287.0
 30
0.0
 11
169.375
 21
292.0
 31
0.0
  0
LINE
  5
72
330
24
100
AcDbEntity
  8
0
100
AcDbLine
 10
121.25
 20
287.0
 30
0.0
 11
121.25
 21
292.0
 31
0.0
  0
LINE
  5
73
330
24
100
AcDbEntity
  8
0
100
AcDbLine
 10
73.125
 20
287.0
 30
0.0
 11
73.125
 21
292.0
 31
0.0
  0
TEXT
  5
74
330
24
100
AcDbEntity
  8
0
100
AcDbText
 10
47.84821428571429
 20
288.0
 30
0.0
 40
3.0
  1
1
  7
ADESK1
 72
     1
 11
49.0625
 21
288.0
 31
0.0
100
AcDbText
  0
TEXT
  5
75
330
24
100
AcDbEntity
  8
0
100
AcDbText
 10
21.32144707381961
 20
263.9166666666666
 30
0.0
 40
3.0
  1
A
  7
ADESK1
 72
     1
 11
22.60716135953389
 21
263.9166666666666
 31
0.0
100
AcDbText
  0
TEXT
  5
76
330
24
100
AcDbEntity
  8
0
100
AcDbText
 10
95.75892857142857
 20
288.0
 30
0.0
 40
3.0
  1
2
  7
ADESK1
 72
     1
 11
97.1875
 21
288.0
 31
0.0
100
AcDbText
  0
TEXT
  5
77
330
24
100
AcDbEntity
  8
0
100
AcDbText
 10
143.8839285714285
 20
288.0
 30
0.0
 40
3.0
  1
3
  7
ADESK1
 72
     1
 11
145.3125
 21
288.0
 31
0.0
100
AcDbText
  0
TEXT
  5
78
330
24
100
AcDbEntity
  8
0
100
AcDbText
 10
191.9375
 20
288.0
 30
0.0
 40
3.0
  1
4
  7
ADESK1
 72
     1
 11
193.4375
 21
288.0
 31
0.0
100
AcDbText
  0
TEXT
  5
79
330
24
100
AcDbEntity
  8
0
100
AcDbText
 10
240.1339285714285
 20
288.0
 30
0.0
 40
3.0
  1
5
  7
ADESK1
 72
     1
 11
241.5624999999999
 21
288.0
 31
0.0
100
AcDbText
  0
TEXT
  5
7A
330
24
100
AcDbEntity
  8
0
100
AcDbText
 10
288.1874999999999
 20
288.0
 30
0.0
 40
3.0
  1
6
  7
ADESK1
 72
     1
 11
289.6875
 21
288.0
 31
0.0
100
AcDbText
  0
TEXT
  5
7B
330
24
100
AcDbEntity
  8
0
100
AcDbText
 10
336.3839285714285
 20
288.0
 30
0.0
 40
3.0
  1
7
  7
ADESK1
 72
     1
 11
337.8125
 21
288.0
 31
0.0
100
AcDbText
  0
TEXT
  5
7C
330
24
100
AcDbEntity
  8
0
100
AcDbText
 10
384.5089285714285
 20
288.0
 30
0.0
 40
3.0
  1
8
  7
ADESK1
 72
     1
 11
385.9375
 21
288.0
 31
0.0
100
AcDbText
  0
TEXT
  5
7D
330
24
100
AcDbEntity
  8
0
100
AcDbText
 10
21.03573278810532
 20
217.7499999999999
 30
0.0
 40
3.0
  1
B
  7
ADESK1
 72
     1
 11
22.60716135953389
 21
217.7499999999999
 31
0.0
100
AcDbText
  0
TEXT
  5
7E
330
24
100
AcDbEntity
  8
0
100
AcDbText
 10
21.10716135953389
 20
171.5833333333333
 30
0.0
 40
3.0
  1
C
  7
ADESK1
 72
     1
 11
22.60716135953389
 21
171.5833333333333
 31
0.0
100
AcDbText
  0
TEXT
  5
7F
330
24
100
AcDbEntity
  8
0
100
AcDbText
 10
21.03573278810532
 20
125.4166666666666
 30
0.0
 40
3.0
  1
D
  7
ADESK1
 72
     1
 11
22.60716135953389
 21
125.4166666666666
 31
0.0
100
AcDbText
  0
TEXT
  5
80
330
24
100
AcDbEntity
  8
0
100
AcDbText
 10
21.10716135953389
 20
79.25
 30
0.0
 40
3.0
  1
E
  7
ADESK1
 72
     1
 11
22.60716135953389
 21
79.25
 31
0.0
100
AcDbText
  0
TEXT
  5
81
330
24
100
AcDbEntity
  8
0
100
AcDbText
 10
21.10716135953389
 20
33.08333333333334
 30
0.0
 40
3.0
  1
F
  7
ADESK1
 72
     1
 11
22.60716135953389
 21
33.08333333333334
 31
0.0
100
AcDbText
  0
TEXT
  5
82
330
24
100
AcDbEntity
  8
0
100
AcDbText
 10
47.84821428571429
 20
6.019997240728748
 30
0.0
 40
3.0
  1
1
  7
ADESK1
 72
     1
 11
49.0625
 21
6.019997240728748
 31
0.0
100
AcDbText
  0
TEXT
  5
83
330
24
100
AcDbEntity
  8
0
100
AcDbText
 10
95.75892857142857
 20
6.019997240728748
 30
0.0
 40
3.0
  1
2
  7
ADESK1
 72
     1
 11
97.1875
 21
6.019997240728748
 31
0.0
100
AcDbText
  0
TEXT
  5
84
330
24
100
AcDbEntity
  8
0
100
AcDbText
 10
143.8839285714285
 20
6.019997240728748
 30
0.0
 40
3.0
  1
3
  7
ADESK1
 72
     1
 11
145.3125
 21
6.019997240728748
 31
0.0
100
AcDbText
  0
TEXT
  5
85
330
24
100
AcDbEntity
  8
0
100
AcDbText
 10
191.9375
 20
6.019997240728748
 30
0.0
 40
3.0
  1
4
  7
ADESK1
 72
     1
 11
193.4375
 21
6.019997240728748
 31
0.0
100
AcDbText
  0
TEXT
  5
86
330
24
100
AcDbEntity
  8
0
100
AcDbText
 10
240.1339285714285
 20
6.019997240728748
 30
0.0
 40
3.0
  1
5
  7
ADESK1
 72
     1
 11
241.5624999999999
 21
6.019997240728748
 31
0.0
100
AcDbText
  0
TEXT
  5
87
330
24
100
AcDbEntity
  8
0
100
AcDbText
 10
288.1874999999999
 20
6.019997240728748
 30
0.0
 40
3.0
  1
6
  7
ADESK1
 72
     1
 11
289.6875
 21
6.019997240728748
 31
0.0
100
AcDbText
  0
TEXT
  5
88
330
24
100
AcDbEntity
  8
0
100
AcDbText
 10
336.3839285714285
 20
6.019997240728748
 30
0.0
 40
3.0
  1
7
  7
ADESK1
 72
     1
 11
337.8125
 21
6.019997240728748
 31
0.0
100
AcDbText
  0
TEXT
  5
89
330
24
100
AcDbEntity
  8
0
100
AcDbText
 10
384.5089285714285
 20
6.019997240728748
 30
0.0
 40
3.0
  1
8
  7
ADESK1
 72
     1
 11
385.9375
 21
6.019997240728748
 31
0.0
100
AcDbText
  0
TEXT
  5
8A
330
24
100
AcDbEntity
  8
0
100
AcDbText
 10
411.5851108826324
 20
263.9166666666666
 30
0.0
 40
3.0
  1
A
  7
ADESK1
 72
     1
 11
412.8708251683468
 21
263.9166666666666
 31
0.0
100
AcDbText
  0
TEXT
  5
8B
330
24
100
AcDbEntity
  8
0
100
AcDbText
 10
411.2993965969182
 20
217.7499999999999
 30
0.0
 40
3.0
  1
B
  7
ADESK1
 72
     1
 11
412.8708251683468
 21
217.7499999999999
 31
0.0
100
AcDbText
  0
TEXT
  5
8C
330
24
100
AcDbEntity
  8
0
100
AcDbText
 10
411.3708251683467
 20
171.5833333333333
 30
0.0
 40
3.0
  1
C
  7
ADESK1
 72
     1
 11
412.8708251683468
 21
171.5833333333333
 31
0.0
100
AcDbText
  0
TEXT
  5
8D
330
24
100
AcDbEntity
  8
0
100
AcDbText
 10
411.2993965969182
 20
125.4166666666666
 30
0.0
 40
3.0
  1
D
  7
ADESK1
 72
     1
 11
412.8708251683468
 21
125.4166666666666
 31
0.0
100
AcDbText
  0
TEXT
  5
8E
330
24
100
AcDbEntity
  8
0
100
AcDbText
 10
411.3708251683467
 20
79.25
 30
0.0
 40
3.0
  1
E
  7
ADESK1
 72
     1
 11
412.8708251683468
 21
79.25
 31
0.0
100
AcDbText
  0
TEXT
  5
8F
330
24
100
AcDbEntity
  8
0
100
AcDbText
 10
411.3708251683467
 20
33.08333333333334
 30
0.0
 40
3.0
  1
F
  7
ADESK1
 72
     1
 11
412.8708251683468
 21
33.08333333333334
 31
0.0
100
AcDbText
  0
LINE
  5
90
330
24
100
AcDbEntity
  8
0
 62
     0
100
AcDbLine
 10
280.2978723404241
 20
49.00000000000036
 30
0.0
 11
410.0
 21
49.00000000000036
 31
0.0
  0
LINE
  5
91
330
24
100
AcDbEntity
  8
0
 62
     0
100
AcDbLine
 10
280.2978723404241
 20
13.00000000000004
 30
0.0
 11
410.0
 21
13.00000000000004
 31
0.0
  0
LINE
  5
92
330
24
100
AcDbEntity
  8
0
 62
     0
100
AcDbLine
 10
280.2978723404241
 20
37.00000000000024
 30
0.0
 11
410.0
 21
37.00000000000024
 31
0.0
  0
LINE
  5
93
330
24
100
AcDbEntity
  8
0
 62
     0
100
AcDbLine
 10
318.1276595744673
 20
22.00000000000012
 30
0.0
 11
410.0
 21
22.00000000000012
 31
0.0
  0
LINE
  5
94
330
24
100
AcDbEntity
  8
0
 62
     0
100
AcDbLine
 10
280.2978723404241
 20
10.0
 30
0.0
 11
410.0
 21
10.0
 31
0.0
  0
LINE
  5
95
330
24
100
AcDbEntity
  8
0
 62
     0
100
AcDbLine
 10
410.0
 20
49.00000000000036
 30
0.0
 11
280.2978723404241
 21
49.00000000000036
 31
0.0
  0
LINE
  5
96
330
24
100
AcDbEntity
  8
0
 62
     0
100
AcDbLine
 10
303.7163120567365
 20
37.00000000000024
 30
0.0
 11
303.7163120567365
 21
10.0
 31
0.0
  0
LINE
  5
97
330
24
100
AcDbEntity
  8
0
 62
     0
100
AcDbLine
 10
285.702127659573
 20
37.00000000000024
 30
0.0
 11
285.702127659573
 21
10.0
 31
0.0
  0
LINE
  5
98
330
24
100
AcDbEntity
  8
0
 62
     0
100
AcDbLine
 10
312.7234042553184
 20
37.00000000000024
 30
0.0
 11
312.7234042553184
 21
10.0
 31
0.0
  0
LINE
  5
99
330
24
100
AcDbEntity
  8
0
 62
     0
100
AcDbLine
 10
318.1276595744673
 20
25.00000000000012
 30
0.0
 11
318.1276595744673
 21
10.0
 31
0.0
  0
LINE
  5
9A
330
24
100
AcDbEntity
  8
0
 62
     0
100
AcDbLine
 10
280.2978723404241
 20
49.00000000000036
 30
0.0
 11
280.2978723404241
 21
10.0
 31
0.0
  0
LINE
  5
9B
330
24
100
AcDbEntity
  8
0
 62
     0
100
AcDbLine
 10
348.7517730496447
 20
49.00000000000036
 30
0.0
 11
348.7517730496447
 21
10.0
 31
0.0
  0
LINE
  5
9C
330
24
100
AcDbEntity
  8
0
 62
     0
100
AcDbLine
 10
328.7659574468077
 20
22.00000000000007
 30
0.0
 11
328.7659574468077
 21
10.0
 31
0.0
  0
LINE
  5
9D
330
24
100
AcDbEntity
  8
0
 62
     0
100
AcDbLine
 10
339.4042553191484
 20
22.00000000000007
 30
0.0
 11
339.4042553191484
 21
10.0
 31
0.0
  0
LINE
  5
9E
330
24
100
AcDbEntity
  8
0
 62
     0
100
AcDbLine
 10
280.2978723404241
 20
16.00000000000008
 30
0.0
 11
318.1276595744673
 21
16.00000000000008
 31
0.0
  0
LINE
  5
9F
330
24
100
AcDbEntity
  8
0
 62
     0
100
AcDbLine
 10
280.2978723404241
 20
10.0
 30
0.0
 11
280.2978723404241
 21
13.00000000000004
 31
0.0
  0
TEXT
  5
A0
330
24
100
AcDbEntity
  8
0
 62
     0
100
AcDbText
 10
321.7174935280942
 20
10.48329012996929
 30
0.0
 40
1.791674070777747
  1
製図
  7
ADESK1
 72
     1
 11
323.5688900678979
 21
10.48329012996929
 31
0.0
100
AcDbText
  0
TEXT
  5
A1
330
24
100
AcDbEntity
  8
0
 62
     0
100
AcDbText
 10
332.2960689314087
 20
10.48329012996929
 30
0.0
 40
1.791674070777747
  1
設計
  7
ADESK1
 72
     1
 11
334.2071879402383
 21
10.48329012996929
 31
0.0
100
AcDbText
  0
TEXT
  5
A2
330
24
100
AcDbEntity
  8
0
 62
     0
100
AcDbText
 10
342.2447163844405
 20
10.55220101068186
 30
0.0
 40
1.791674070777747
  1
照査
  7
ADESK1
 72
     1
 11
344.1558353932701
 21
10.55220101068186
 31
0.0
100
AcDbText
  0
LINE
  5
A3
330
24
100
AcDbEntity
  8
0
 62
     0
100
AcDbLine
 10
280.2978723404241
 20
25.00000000000012
 30
0.0
 11
318.1276595744673
 21
25.00000000000012
 31
0.0
  0
LINE
  5
A4
330
24
100
AcDbEntity
  8
0
 62
     0
100
AcDbLine
 10
280.2978723404241
 20
22.00000000000007
 30
0.0
 11
318.1276595744673
 21
22.00000000000012
 31
0.0
  0
LINE
  5
A5
330
24
100
AcDbEntity
  8
0
 62
     0
100
AcDbLine
 10
280.2978723404241
 20
19.00000000000007
 30
0.0
 11
318.1276595744673
 21
19.00000000000012
 31
0.0
  0
LINE
  5
A6
330
24
100
AcDbEntity
  8
0
 62
     0
100
AcDbLine
 10
280.2978723404241
 20
34.00000000000024
 30
0.0
 11
348.7517730496447
 21
34.00000000000024
 31
0.0
  0
LINE
  5
A7
330
24
100
AcDbEntity
  8
0
 62
     0
100
AcDbLine
 10
280.2978723404241
 20
31.0000000000002
 30
0.0
 11
348.7517730496447
 21
31.0000000000002
 31
0.0
  0
LINE
  5
A8
330
24
100
AcDbEntity
  8
0
 62
     0
100
AcDbLine
 10
280.2978723404241
 20
28.00000000000015
 30
0.0
 11
348.7517730496447
 21
28.00000000000015
 31
0.0
  0
LINE
  5
A9
330
24
100
AcDbEntity
  8
0
 62
     0
100
AcDbLine
 10
318.1276595744673
 20
25.00000000000012
 30
0.0
 11
348.7517730496447
 21
25.00000000000012
 31
0.0
  0
LINE
  5
AA
330
24
100
AcDbEntity
  8
0
 62
     0
100
AcDbLine
 10
318.1276595744673
 20
49.00000000000036
 30
0.0
 11
318.1276595744673
 21
25.00000000000012
 31
0.0
  0
LINE
  5
AB
330
24
100
AcDbEntity
  8
0
 62
     0
100
AcDbLine
 10
325.3333333333325
 20
37.00000000000024
 30
0.0
 11
325.3333333333325
 21
25.00000000000012
 31
0.0
  0
LINE
  5
AC
330
24
100
AcDbEntity
  8
0
 62
     0
100
AcDbLine
 10
336.1418439716306
 20
49.00000000000036
 30
0.0
 11
336.1418439716306
 21
22.00000000000012
 31
0.0
  0
LINE
  5
AD
330
24
100
AcDbEntity
  8
0
 62
     0
100
AcDbLine
 10
402.7943262411347
 20
22.00000000000012
 30
0.0
 11
402.7943262411347
 21
10.0
 31
0.0
  0
LINE
  5
AE
330
24
100
AcDbEntity
  8
0
 62
     0
100
AcDbLine
 10
410.0
 20
49.00000000000036
 30
0.0
 11
410.0
 21
10.0
 31
0.0
  0
LINE
  5
AF
330
24
100
AcDbEntity
  8
0
 62
     0
100
AcDbLine
 10
410.0
 20
10.0
 30
0.0
 11
410.0
 21
49.00000000000036
 31
0.0
  0
LINE
  5
B0
330
24
100
AcDbEntity
  8
0
 62
     0
100
AcDbLine
 10
402.7943262411347
 20
16.00000000000008
 30
0.0
 11
410.0
 21
16.00000000000008
 31
0.0
  0
ENDBLK
  5
B2
330
24
100
AcDbEntity
  8
0
100
AcDbBlockEnd
  0
BLOCK
  5
11B6
330
11AC
100
AcDbEntity
  8
0
100
AcDbBlockBegin
  2
*D1
 70
     1
 10
0.0
 20
0.0
 30
0.0
  3
*D1
  1

  0
LINE
  5
11AD
330
11AC
100
AcDbEntity
  8
0
  6
ByBlock
 62
     0
100
AcDbLine
 10
1102.013858477907
 20
2178.311500327179
 30
0.0
 11
1102.013858477907
 21
2457.686500327179
 31
0.0
  0
LINE
  5
11AE
330
11AC
100
AcDbEntity
  8
0
  6
ByBlock
 62
     0
100
AcDbLine
 10
532.0138584779069
 20
2178.311500327179
 30
0.0
 11
532.0138584779069
 21
2457.686500327179
 31
0.0
  0
LINE
  5
11AF
330
11AC
100
AcDbEntity
  8
0
  6
ByBlock
 62
     0
100
AcDbLine
 10
1064.513858477907
 20
2438.936500327179
 30
0.0
 11
569.5138584779069
 21
2438.936500327179
 31
0.0
  0
SOLID
  5
11B0
330
11AC
100
AcDbEntity
  8
0
  6
ByBlock
 62
     0
100
AcDbTrace
 10
1064.513858477907
 20
2445.186500327179
 30
0.0
 11
1064.513858477907
 21
2432.686500327179
 31
0.0
 12
1102.013858477907
 22
2438.936500327179
 32
0.0
 13
1102.013858477907
 23
2438.936500327179
 33
0.0
  0
SOLID
  5
11B1
330
11AC
100
AcDbEntity
  8
0
  6
ByBlock
 62
     0
100
AcDbTrace
 10
569.5138584779069
 20
2445.186500327179
 30
0.0
 11
569.5138584779069
 21
2432.686500327179
 31
0.0
 12
532.0138584779069
 22
2438.936500327179
 32
0.0
 13
532.0138584779069
 23
2438.936500327179
 33
0.0
  0
MTEXT
  5
11B2
330
11AC
100
AcDbEntity
  8
0
  6
ByBlock
 62
     0
100
AcDbMText
 10
817.0138584779069
 20
2467.061500327179
 30
0.0
 40
37.5
 41
0.0
 71
     5
 72
     1
  1
\A1;570
 73
     1
 44
1.0
  0
POINT
  5
11B3
330
11AC
100
AcDbEntity
  8
DEFPOINTS
  6
ByBlock
 62
     0
100
AcDbPoint
 10
1102.013858477907
 20
2168.936500327179
 30
0.0
  0
POINT
  5
11B4
330
11AC
100
AcDbEntity
  8
DEFPOINTS
  6
ByBlock
 62
     0
100
AcDbPoint
 10
532.0138584779069
 20
2168.936500327179
 30
0.0
  0
POINT
  5
11B5
330
11AC
100
AcDbEntity
  8
DEFPOINTS
  6
ByBlock
 62
     0
100
AcDbPoint
 10
532.0138584779069
 20
2438.936500327179
 30
0.0
  0
ENDBLK
  5
11B7
330
11AC
100
AcDbEntity
  8
0
100
AcDbBlockEnd
  0
BLOCK
  5
11C2
330
11B8
100
AcDbEntity
  8
0
100
AcDbBlockBegin
  2
*D2
 70
     1
 10
0.0
 20
0.0
 30
0.0
  3
*D2
  1

  0
LINE
  5
11B9
330
11B8
100
AcDbEntity
  8
0
  6
ByBlock
 62
     0
100
AcDbLine
 10
682.0138584779069
 20
2178.31150032718
 30
0.0
 11
682.0138584779069
 21
2337.686500327179
 31
0.0
  0
LINE
  5
11BA
330
11B8
100
AcDbEntity
  8
0
  6
ByBlock
 62
     0
100
AcDbLine
 10
982.0138584779069
 20
2178.311500327179
 30
0.0
 11
982.0138584779069
 21
2337.686500327179
 31
0.0
  0
LINE
  5
11BB
330
11B8
100
AcDbEntity
  8
0
  6
ByBlock
 62
     0
100
AcDbLine
 10
719.5138584779069
 20
2318.936500327179
 30
0.0
 11
944.5138584779069
 21
2318.936500327179
 31
0.0
  0
SOLID
  5
11BC
330
11B8
100
AcDbEntity
  8
0
  6
ByBlock
 62
     0
100
AcDbTrace
 10
719.5138584779069
 20
2325.186500327179
 30
0.0
 11
719.5138584779069
 21
2312.686500327179
 31
0.0
 12
682.0138584779069
 22
2318.936500327179
 32
0.0
 13
682.0138584779069
 23
2318.936500327179
 33
0.0
  0
SOLID
  5
11BD
330
11B8
100
AcDbEntity
  8
0
  6
ByBlock
 62
     0
100
AcDbTrace
 10
944.5138584779069
 20
2325.186500327179
 30
0.0
 11
944.5138584779069
 21
2312.686500327179
 31
0.0
 12
982.0138584779069
 22
2318.936500327179
 32
0.0
 13
982.0138584779069
 23
2318.936500327179
 33
0.0
  0
MTEXT
  5
11BE
330
11B8
100
AcDbEntity
  8
0
  6
ByBlock
 62
     0
100
AcDbMText
 10
832.0138584779069
 20
2347.061500327179
 30
0.0
 40
37.5
 41
0.0
 71
     5
 72
     1
  1
\A1;300
 73
     1
 44
1.0
  0
POINT
  5
11BF
330
11B8
100
AcDbEntity
  8
DEFPOINTS
  6
ByBlock
 62
     0
100
AcDbPoint
 10
682.0138584779069
 20
2168.93650032718
 30
0.0
  0
POINT
  5
11C0
330
11B8
100
AcDbEntity
  8
DEFPOINTS
  6
ByBlock
 62
     0
100
AcDbPoint
 10
982.0138584779069
 20
2168.936500327179
 30
0.0
  0
POINT
  5
11C1
330
11B8
100
AcDbEntity
  8
DEFPOINTS
  6
ByBlock
 62
     0
100
AcDbPoint
 10
982.0138584779069
 20
2318.936500327179
 30
0.0
  0
ENDBLK
  5
11C3
330
11B8
100
AcDbEntity
  8
0
100
AcDbBlockEnd
  0
BLOCK
  5
11CE
330
11C4
100
AcDbEntity
  8
0
100
AcDbBlockBegin
  2
*D3
 70
     1
 10
0.0
 20
0.0
 30
0.0
  3
*D3
  1

  0
LINE
  5
11C5
330
11C4
100
AcDbEntity
  8
0
  6
ByBlock
 62
     0
100
AcDbLine
 10
502.6388584779069
 20
2148.936500327179
 30
0.0
 11
223.263858477907
 21
2148.936500327179
 31
0.0
  0
LINE
  5
11C6
330
11C4
100
AcDbEntity
  8
0
  6
ByBlock
 62
     0
100
AcDbLine
 10
502.6388584779069
 20
1648.936500327179
 30
0.0
 11
223.2638584779069
 21
1648.936500327179
 31
0.0
  0
LINE
  5
11C7
330
11C4
100
AcDbEntity
  8
0
  6
ByBlock
 62
     0
100
AcDbLine
 10
242.013858477907
 20
2111.436500327179
 30
0.0
 11
242.0138584779069
 21
1686.436500327179
 31
0.0
  0
SOLID
  5
11C8
330
11C4
100
AcDbEntity
  8
0
  6
ByBlock
 62
     0
100
AcDbTrace
 10
235.763858477907
 20
2111.436500327179
 30
0.0
 11
248.263858477907
 21
2111.436500327179
 31
0.0
 12
242.013858477907
 22
2148.936500327179
 32
0.0
 13
242.013858477907
 23
2148.936500327179
 33
0.0
  0
SOLID
  5
11C9
330
11C4
100
AcDbEntity
  8
0
  6
ByBlock
 62
     0
100
AcDbTrace
 10
235.7638584779069
 20
1686.436500327179
 30
0.0
 11
248.2638584779069
 21
1686.436500327179
 31
0.0
 12
242.0138584779069
 22
1648.936500327179
 32
0.0
 13
242.0138584779069
 23
1648.936500327179
 33
0.0
  0
MTEXT
  5
11CA
330
11C4
100
AcDbEntity
  8
0
  6
ByBlock
 62
     0
100
AcDbMText
 10
213.8888584779069
 20
1898.936500327179
 30
0.0
 40
37.5
 41
0.0
 71
     5
 72
     1
  1
\A1;500
 11
0.0000000000000001
 21
1.0
 31
0.0
 73
     1
 44
1.0
  0
POINT
  5
11CB
330
11C4
100
AcDbEntity
  8
DEFPOINTS
  6
ByBlock
 62
     0
100
AcDbPoint
 10
512.0138584779069
 20
2148.936500327179
 30
0.0
  0
POINT
  5
11CC
330
11C4
100
AcDbEntity
  8
DEFPOINTS
  6
ByBlock
 62
     0
100
AcDbPoint
 10
512.0138584779069
 20
1648.936500327179
 30
0.0
  0
POINT
  5
11CD
330
11C4
100
AcDbEntity
  8
DEFPOINTS
  6
ByBlock
 62
     0
100
AcDbPoint
 10
242.0138584779069
 20
1648.936500327179
 30
0.0
  0
ENDBLK
  5
11CF
330
11C4
100
AcDbEntity
  8
0
100
AcDbBlockEnd
  0
BLOCK
  5
11DA
330
11D0
100
AcDbEntity
  8
0
100
AcDbBlockBegin
  2
*D4
 70
     1
 10
0.0
 20
0.0
 30
0.0
  3
*D4
  1

  0
LINE
  5
11D1
330
11D0
100
AcDbEntity
  8
0
  6
ByBlock
 62
     0
100
AcDbLine
 10
502.6388584779069
 20
2048.936500327179
 30
0.0
 11
343.2638584779069
 21
2048.936500327179
 31
0.0
  0
LINE
  5
11D2
330
11D0
100
AcDbEntity
  8
0
  6
ByBlock
 62
     0
100
AcDbLine
 10
502.6388584779069
 20
2148.936500327179
 30
0.0
 11
343.2638584779069
 21
2148.936500327179
 31
0.0
  0
LINE
  5
11D3
330
11D0
100
AcDbEntity
  8
0
  6
ByBlock
 62
     0
100
AcDbLine
 10
362.0138584779069
 20
2086.436500327179
 30
0.0
 11
362.0138584779069
 21
2111.436500327179
 31
0.0
  0
SOLID
  5
11D4
330
11D0
100
AcDbEntity
  8
0
  6
ByBlock
 62
     0
100
AcDbTrace
 10
355.7638584779069
 20
2086.436500327179
 30
0.0
 11
368.2638584779069
 21
2086.436500327179
 31
0.0
 12
362.0138584779069
 22
2048.936500327179
 32
0.0
 13
362.0138584779069
 23
2048.936500327179
 33
0.0
  0
SOLID
  5
11D5
330
11D0
100
AcDbEntity
  8
0
  6
ByBlock
 62
     0
100
AcDbTrace
 10
355.7638584779069
 20
2111.436500327179
 30
0.0
 11
368.2638584779069
 21
2111.436500327179
 31
0.0
 12
362.0138584779069
 22
2148.936500327179
 32
0.0
 13
362.0138584779069
 23
2148.936500327179
 33
0.0
  0
MTEXT
  5
11D6
330
11D0
100
AcDbEntity
  8
0
  6
ByBlock
 62
     0
100
AcDbMText
 10
333.8888584779069
 20
2098.936500327179
 30
0.0
 40
37.5
 41
0.0
 71
     5
 72
     1
  1
\A1;100
 11
0.0000000000000001
 21
1.0
 31
0.0
 73
     1
 44
1.0
  0
POINT
  5
11D7
330
11D0
100
AcDbEntity
  8
DEFPOINTS
  6
ByBlock
 62
     0
100
AcDbPoint
 10
512.0138584779069
 20
2048.936500327179
 30
0.0
  0
POINT
  5
11D8
330
11D0
100
AcDbEntity
  8
DEFPOINTS
  6
ByBlock
 62
     0
100
AcDbPoint
 10
512.0138584779069
 20
2148.936500327179
 30
0.0
  0
POINT
  5
11D9
330
11D0
100
AcDbEntity
  8
DEFPOINTS
  6
ByBlock
 62
     0
100
AcDbPoint
 10
362.0138584779069
 20
2148.936500327179
 30
0.0
  0
ENDBLK
  5
11DB
330
11D0
100
AcDbEntity
  8
0
100
AcDbBlockEnd
  0
BLOCK
  5
11E6
330
11DC
100
AcDbEntity
  8
0
100
AcDbBlockBegin
  2
*D5
 70
     1
 10
0.0
 20
0.0
 30
0.0
  3
*D5
  1

  0
LINE
  5
11DD
330
11DC
100
AcDbEntity
  8
0
  6
ByBlock
 62
     0
100
AcDbLine
 10
502.6388584779069
 20
2048.936500327179
 30
0.0
 11
343.2638584779069
 21
2048.936500327179
 31
0.0
  0
LINE
  5
11DE
330
11DC
100
AcDbEntity
  8
0
  6
ByBlock
 62
     0
100
AcDbLine
 10
502.6388584779069
 20
1748.936500327179
 30
0.0
 11
343.2638584779069
 21
1748.936500327179
 31
0.0
  0
LINE
  5
11DF
330
11DC
100
AcDbEntity
  8
0
  6
ByBlock
 62
     0
100
AcDbLine
 10
362.0138584779069
 20
2011.436500327179
 30
0.0
 11
362.0138584779069
 21
1786.436500327179
 31
0.0
  0
SOLID
  5
11E0
330
11DC
100
AcDbEntity
  8
0
  6
ByBlock
 62
     0
100
AcDbTrace
 10
355.7638584779069
 20
2011.436500327179
 30
0.0
 11
368.2638584779069
 21
2011.436500327179
 31
0.0
 12
362.0138584779069
 22
2048.936500327179
 32
0.0
 13
362.0138584779069
 23
2048.936500327179
 33
0.0
  0
SOLID
  5
11E1
330
11DC
100
AcDbEntity
  8
0
  6
ByBlock
 62
     0
100
AcDbTrace
 10
355.7638584779069
 20
1786.436500327179
 30
0.0
 11
368.2638584779069
 21
1786.436500327179
 31
0.0
 12
362.0138584779069
 22
1748.936500327179
 32
0.0
 13
362.0138584779069
 23
1748.936500327179
 33
0.0
  0
MTEXT
  5
11E2
330
11DC
100
AcDbEntity
  8
0
  6
ByBlock
 62
     0
100
AcDbMText
 10
333.8888584779069
 20
1898.936500327179
 30
0.0
 40
37.5
 41
0.0
 71
     5
 72
     1
  1
\A1;300
 11
0.0000000000000001
 21
1.0
 31
0.0
 73
     1
 44
1.0
  0
POINT
  5
11E3
330
11DC
100
AcDbEntity
  8
DEFPOINTS
  6
ByBlock
 62
     0
100
AcDbPoint
 10
512.0138584779069
 20
2048.936500327179
 30
0.0
  0
POINT
  5
11E4
330
11DC
100
AcDbEntity
  8
DEFPOINTS
  6
ByBlock
 62
     0
100
AcDbPoint
 10
512.0138584779069
 20
1748.936500327179
 30
0.0
  0
POINT
  5
11E5
330
11DC
100
AcDbEntity
  8
DEFPOINTS
  6
ByBlock
 62
     0
100
AcDbPoint
 10
362.0138584779069
 20
1748.936500327179
 30
0.0
  0
ENDBLK
  5
11E7
330
11DC
100
AcDbEntity
  8
0
100
AcDbBlockEnd
  0
BLOCK
  5
11F2
330
11E8
100
AcDbEntity
  8
0
100
AcDbBlockBegin
  2
*D6
 70
     1
 10
0.0
 20
0.0
 30
0.0
  3
*D6
  1

  0
LINE
  5
11E9
330
11E8
100
AcDbEntity
  8
0
  6
ByBlock
 62
     0
100
AcDbLine
 10
502.6388584779069
 20
1748.936500327179
 30
0.0
 11
343.2638584779069
 21
1748.936500327179
 31
0.0
  0
LINE
  5
11EA
330
11E8
100
AcDbEntity
  8
0
  6
ByBlock
 62
     0
100
AcDbLine
 10
502.6388584779069
 20
1648.936500327179
 30
0.0
 11
343.2638584779069
 21
1648.936500327179
 31
0.0
  0
LINE
  5
11EB
330
11E8
100
AcDbEntity
  8
0
  6
ByBlock
 62
     0
100
AcDbLine
 10
362.0138584779069
 20
1711.436500327179
 30
0.0
 11
362.0138584779069
 21
1686.436500327179
 31
0.0
  0
SOLID
  5
11EC
330
11E8
100
AcDbEntity
  8
0
  6
ByBlock
 62
     0
100
AcDbTrace
 10
355.7638584779069
 20
1711.436500327179
 30
0.0
 11
368.2638584779069
 21
1711.436500327179
 31
0.0
 12
362.0138584779069
 22
1748.936500327179
 32
0.0
 13
362.0138584779069
 23
1748.936500327179
 33
0.0
  0
SOLID
  5
11ED
330
11E8
100
AcDbEntity
  8
0
  6
ByBlock
 62
     0
100
AcDbTrace
 10
355.7638584779069
 20
1686.436500327179
 30
0.0
 11
368.2638584779069
 21
1686.436500327179
 31
0.0
 12
362.0138584779069
 22
1648.936500327179
 32
0.0
 13
362.0138584779069
 23
1648.936500327179
 33
0.0
  0
MTEXT
  5
11EE
330
11E8
100
AcDbEntity
  8
0
  6
ByBlock
 62
     0
100
AcDbMText
 10
333.8888584779069
 20
1698.936500327179
 30
0.0
 40
37.5
 41
0.0
 71
     5
 72
     1
  1
\A1;100
 11
0.0000000000000001
 21
1.0
 31
0.0
 73
     1
 44
1.0
  0
POINT
  5
11EF
330
11E8
100
AcDbEntity
  8
DEFPOINTS
  6
ByBlock
 62
     0
100
AcDbPoint
 10
512.0138584779069
 20
1748.936500327179
 30
0.0
  0
POINT
  5
11F0
330
11E8
100
AcDbEntity
  8
DEFPOINTS
  6
ByBlock
 62
     0
100
AcDbPoint
 10
512.0138584779069
 20
1648.936500327179
 30
0.0
  0
POINT
  5
11F1
330
11E8
100
AcDbEntity
  8
DEFPOINTS
  6
ByBlock
 62
     0
100
AcDbPoint
 10
362.0138584779069
 20
1648.936500327179
 30
0.0
  0
ENDBLK
  5
11F3
330
11E8
100
AcDbEntity
  8
0
100
AcDbBlockEnd
  0
BLOCK
  5
11FE
330
11F4
100
AcDbEntity
  8
0
100
AcDbBlockBegin
  2
*D7
 70
     1
 10
0.0
 20
0.0
 30
0.0
  3
*D7
  1

  0
LINE
  5
11F5
330
11F4
100
AcDbEntity
  8
0
  6
ByBlock
 62
     0
100
AcDbLine
 10
687.013858477907
 20
1854.829258318181
 30
0.0
 11
687.013858477907
 21
1972.01247714717
 31
0.0
  0
LINE
  5
11F6
330
11F4
100
AcDbEntity
  8
0
  6
ByBlock
 62
     0
100
AcDbLine
 10
977.013858477907
 20
1854.829258318181
 30
0.0
 11
977.013858477907
 21
1972.01247714717
 31
0.0
  0
LINE
  5
11F7
330
11F4
100
AcDbEntity
  8
0
  6
ByBlock
 62
     0
100
AcDbLine
 10
724.513858477907
 20
1953.262477147171
 30
0.0
 11
939.513858477907
 21
1953.262477147171
 31
0.0
  0
SOLID
  5
11F8
330
11F4
100
AcDbEntity
  8
0
  6
ByBlock
 62
     0
100
AcDbTrace
 10
724.513858477907
 20
1959.51247714717
 30
0.0
 11
724.513858477907
 21
1947.01247714717
 31
0.0
 12
687.013858477907
 22
1953.262477147171
 32
0.0
 13
687.013858477907
 23
1953.262477147171
 33
0.0
  0
SOLID
  5
11F9
330
11F4
100
AcDbEntity
  8
0
  6
ByBlock
 62
     0
100
AcDbTrace
 10
939.513858477907
 20
1959.51247714717
 30
0.0
 11
939.513858477907
 21
1947.01247714717
 31
0.0
 12
977.013858477907
 22
1953.262477147171
 32
0.0
 13
977.013858477907
 23
1953.262477147171
 33
0.0
  0
MTEXT
  5
11FA
330
11F4
100
AcDbEntity
  8
0
  6
ByBlock
 62
     0
100
AcDbMText
 10
832.0138584779069
 20
1981.387477147171
 30
0.0
 40
37.5
 41
0.0
 71
     5
 72
     1
  1
\A1;290
 73
     1
 44
1.0
  0
POINT
  5
11FB
330
11F4
100
AcDbEntity
  8
DEFPOINTS
  6
ByBlock
 62
     0
100
AcDbPoint
 10
687.013858477907
 20
1845.454258318182
 30
0.0
  0
POINT
  5
11FC
330
11F4
100
AcDbEntity
  8
DEFPOINTS
  6
ByBlock
 62
     0
100
AcDbPoint
 10
977.013858477907
 20
1845.454258318182
 30
0.0
  0
POINT
  5
11FD
330
11F4
100
AcDbEntity
  8
DEFPOINTS
  6
ByBlock
 62
     0
100
AcDbPoint
 10
977.013858477907
 20
1953.262477147171
 30
0.0
  0
ENDBLK
  5
11FF
330
11F4
100
AcDbEntity
  8
0
100
AcDbBlockEnd
  0
BLOCK
  5
120C
330
1200
100
AcDbEntity
  8
0
100
AcDbBlockBegin
  2
*D8
 70
     1
 10
0.0
 20
0.0
 30
0.0
  3
*D8
  1

  0
LINE
  5
1201
330
1200
100
AcDbEntity
  8
0
  6
ByBlock
 62
     0
100
AcDbLine
 10
1131.388858477907
 20
2118.936500327179
 30
0.0
 11
1290.763858477907
 21
2118.936500327179
 31
0.0
  0
LINE
  5
1202
330
1200
100
AcDbEntity
  8
0
  6
ByBlock
 62
     0
100
AcDbLine
 10
1131.388858477907
 20
2148.936500327179
 30
0.0
 11
1290.763858477907
 21
2148.936500327179
 31
0.0
  0
LINE
  5
1203
330
1200
100
AcDbEntity
  8
0
  6
ByBlock
 62
     0
100
AcDbLine
 10
1272.013858477907
 20
2081.436500327179
 30
0.0
 11
1272.013858477907
 21
2043.936500327179
 31
0.0
  0
LINE
  5
1204
330
1200
100
AcDbEntity
  8
0
  6
ByBlock
 62
     0
100
AcDbLine
 10
1272.013858477907
 20
2186.436500327179
 30
0.0
 11
1272.013858477907
 21
2290.720208192348
 31
0.0
  0
LINE
  5
1205
330
1200
100
AcDbEntity
  8
0
  6
ByBlock
 62
     0
100
AcDbLine
 10
1272.013858477907
 20
2118.936500327179
 30
0.0
 11
1272.013858477907
 21
2148.936500327179
 31
0.0
  0
SOLID
  5
1206
330
1200
100
AcDbEntity
  8
0
  6
ByBlock
 62
     0
100
AcDbTrace
 10
1265.763858477907
 20
2081.436500327179
 30
0.0
 11
1278.263858477907
 21
2081.436500327179
 31
0.0
 12
1272.013858477907
 22
2118.936500327179
 32
0.0
 13
1272.013858477907
 23
2118.936500327179
 33
0.0
  0
SOLID
  5
1207
330
1200
100
AcDbEntity
  8
0
  6
ByBlock
 62
     0
100
AcDbTrace
 10
1265.763858477907
 20
2186.436500327179
 30
0.0
 11
1278.263858477907
 21
2186.436500327179
 31
0.0
 12
1272.013858477907
 22
2148.936500327179
 32
0.0
 13
1272.013858477907
 23
2148.936500327179
 33
0.0
  0
MTEXT
  5
1208
330
1200
100
AcDbEntity
  8
0
  6
ByBlock
 62
     0
100
AcDbMText
 10
1243.888858477907
 20
2257.328354259763
 30
0.0
 40
37.5
 41
0.0
 71
     5
 72
     1
  1
\A1;30
 11
0.0000000000000001
 21
1.0
 31
0.0
 73
     1
 44
1.0
  0
POINT
  5
1209
330
1200
100
AcDbEntity
  8
DEFPOINTS
  6
ByBlock
 62
     0
100
AcDbPoint
 10
1122.013858477907
 20
2118.936500327179
 30
0.0
  0
POINT
  5
120A
330
1200
100
AcDbEntity
  8
DEFPOINTS
  6
ByBlock
 62
     0
100
AcDbPoint
 10
1122.013858477907
 20
2148.936500327179
 30
0.0
  0
POINT
  5
120B
330
1200
100
AcDbEntity
  8
DEFPOINTS
  6
ByBlock
 62
     0
100
AcDbPoint
 10
1272.013858477907
 20
2148.936500327179
 30
0.0
  0
ENDBLK
  5
120D
330
1200
100
AcDbEntity
  8
0
100
AcDbBlockEnd
  0
BLOCK
  5
1218
330
120E
100
AcDbEntity
  8
0
100
AcDbBlockBegin
  2
*D9
 70
     1
 10
0.0
 20
0.0
 30
0.0
  3
*D9
  1

  0
LINE
  5
120F
330
120E
100
AcDbEntity
  8
0
  6
ByBlock
 62
     0
100
AcDbLine
 10
1131.388858477907
 20
2118.936500327179
 30
0.0
 11
1290.763858477907
 21
2118.936500327179
 31
0.0
  0
LINE
  5
1210
330
120E
100
AcDbEntity
  8
0
  6
ByBlock
 62
     0
100
AcDbLine
 10
1131.388858477907
 20
1678.936500327179
 30
0.0
 11
1290.763858477907
 21
1678.936500327179
 31
0.0
  0
LINE
  5
1211
330
120E
100
AcDbEntity
  8
0
  6
ByBlock
 62
     0
100
AcDbLine
 10
1272.013858477907
 20
2081.436500327179
 30
0.0
 11
1272.013858477907
 21
1716.436500327179
 31
0.0
  0
SOLID
  5
1212
330
120E
100
AcDbEntity
  8
0
  6
ByBlock
 62
     0
100
AcDbTrace
 10
1265.763858477907
 20
2081.436500327179
 30
0.0
 11
1278.263858477907
 21
2081.436500327179
 31
0.0
 12
1272.013858477907
 22
2118.936500327179
 32
0.0
 13
1272.013858477907
 23
2118.936500327179
 33
0.0
  0
SOLID
  5
1213
330
120E
100
AcDbEntity
  8
0
  6
ByBlock
 62
     0
100
AcDbTrace
 10
1265.763858477907
 20
1716.436500327179
 30
0.0
 11
1278.263858477907
 21
1716.436500327179
 31
0.0
 12
1272.013858477907
 22
1678.936500327179
 32
0.0
 13
1272.013858477907
 23
1678.936500327179
 33
0.0
  0
MTEXT
  5
1214
330
120E
100
AcDbEntity
  8
0
  6
ByBlock
 62
     0
100
AcDbMText
 10
1243.888858477907
 20
1898.936500327179
 30
0.0
 40
37.5
 41
0.0
 71
     5
 72
     1
  1
\A1;2@220=440
 11
0.0000000000000001
 21
1.0
 31
0.0
 73
     1
 44
1.0
  0
POINT
  5
1215
330
120E
100
AcDbEntity
  8
DEFPOINTS
  6
ByBlock
 62
     0
100
AcDbPoint
 10
1122.013858477907
 20
2118.936500327179
 30
0.0
  0
POINT
  5
1216
330
120E
100
AcDbEntity
  8
DEFPOINTS
  6
ByBlock
 62
     0
100
AcDbPoint
 10
1122.013858477907
 20
1678.936500327179
 30
0.0
  0
POINT
  5
1217
330
120E
100
AcDbEntity
  8
DEFPOINTS
  6
ByBlock
 62
     0
100
AcDbPoint
 10
1272.013858477907
 20
1678.936500327179
 30
0.0
  0
ENDBLK
  5
1219
330
120E
100
AcDbEntity
  8
0
100
AcDbBlockEnd
  0
BLOCK
  5
1226
330
121A
100
AcDbEntity
  8
0
100
AcDbBlockBegin
  2
*D10
 70
     1
 10
0.0
 20
0.0
 30
0.0
  3
*D10
  1

  0
LINE
  5
121B
330
121A
100
AcDbEntity
  8
0
  6
ByBlock
 62
     0
100
AcDbLine
 10
1131.388858477907
 20
1678.936500327179
 30
0.0
 11
1290.763858477907
 21
1678.936500327179
 31
0.0
  0
LINE
  5
121C
330
121A
100
AcDbEntity
  8
0
  6
ByBlock
 62
     0
100
AcDbLine
 10
1131.388858477907
 20
1648.936500327179
 30
0.0
 11
1290.763858477907
 21
1648.936500327179
 31
0.0
  0
LINE
  5
121D
330
121A
100
AcDbEntity
  8
0
  6
ByBlock
 62
     0
100
AcDbLine
 10
1272.013858477907
 20
1716.436500327179
 30
0.0
 11
1272.013858477907
 21
1753.936500327179
 31
0.0
  0
LINE
  5
121E
330
121A
100
AcDbEntity
  8
0
  6
ByBlock
 62
     0
100
AcDbLine
 10
1272.013858477907
 20
1611.436500327179
 30
0.0
 11
1272.013858477907
 21
1507.152792462011
 31
0.0
  0
LINE
  5
121F
330
121A
100
AcDbEntity
  8
0
  6
ByBlock
 62
     0
100
AcDbLine
 10
1272.013858477907
 20
1678.936500327179
 30
0.0
 11
1272.013858477907
 21
1648.936500327179
 31
0.0
  0
SOLID
  5
1220
330
121A
100
AcDbEntity
  8
0
  6
ByBlock
 62
     0
100
AcDbTrace
 10
1265.763858477907
 20
1716.436500327179
 30
0.0
 11
1278.263858477907
 21
1716.436500327179
 31
0.0
 12
1272.013858477907
 22
1678.936500327179
 32
0.0
 13
1272.013858477907
 23
1678.936500327179
 33
0.0
  0
SOLID
  5
1221
330
121A
100
AcDbEntity
  8
0
  6
ByBlock
 62
     0
100
AcDbTrace
 10
1265.763858477907
 20
1611.436500327179
 30
0.0
 11
1278.263858477907
 21
1611.436500327179
 31
0.0
 12
1272.013858477907
 22
1648.936500327179
 32
0.0
 13
1272.013858477907
 23
1648.936500327179
 33
0.0
  0
MTEXT
  5
1222
330
121A
100
AcDbEntity
  8
0
  6
ByBlock
 62
     0
100
AcDbMText
 10
1243.888858477907
 20
1540.544646394595
 30
0.0
 40
37.5
 41
0.0
 71
     5
 72
     1
  1
\A1;30
 11
0.0000000000000001
 21
1.0
 31
0.0
 73
     1
 44
1.0
  0
POINT
  5
1223
330
121A
100
AcDbEntity
  8
DEFPOINTS
  6
ByBlock
 62
     0
100
AcDbPoint
 10
1122.013858477907
 20
1678.936500327179
 30
0.0
  0
POINT
  5
1224
330
121A
100
AcDbEntity
  8
DEFPOINTS
  6
ByBlock
 62
     0
100
AcDbPoint
 10
1122.013858477907
 20
1648.936500327179
 30
0.0
  0
POINT
  5
1225
330
121A
100
AcDbEntity
  8
DEFPOINTS
  6
ByBlock
 62
     0
100
AcDbPoint
 10
1272.013858477907
 20
1648.936500327179
 30
0.0
  0
ENDBLK
  5
1227
330
121A
100
AcDbEntity
  8
0
100
AcDbBlockEnd
  0
BLOCK
  5
1234
330
1228
100
AcDbEntity
  8
0
100
AcDbBlockBegin
  2
*D11
 70
     1
 10
0.0
 20
0.0
 30
0.0
  3
*D11
  1

  0
LINE
  5
1229
330
1228
100
AcDbEntity
  8
0
  6
ByBlock
 62
     0
100
AcDbLine
 10
562.0138584779069
 20
1619.561500327179
 30
0.0
 11
562.0138584779069
 21
1460.186500327179
 31
0.0
  0
LINE
  5
122A
330
1228
100
AcDbEntity
  8
0
  6
ByBlock
 62
     0
100
AcDbLine
 10
532.0138584779069
 20
1619.561500327179
 30
0.0
 11
532.0138584779069
 21
1460.186500327179
 31
0.0
  0
LINE
  5
122B
330
1228
100
AcDbEntity
  8
0
  6
ByBlock
 62
     0
100
AcDbLine
 10
599.513858477907
 20
1478.936500327179
 30
0.0
 11
637.013858477907
 21
1478.936500327179
 31
0.0
  0
LINE
  5
122C
330
1228
100
AcDbEntity
  8
0
  6
ByBlock
 62
     0
100
AcDbLine
 10
494.5138584779069
 20
1478.936500327179
 30
0.0
 11
390.2301506127384
 21
1478.936500327179
 31
0.0
  0
LINE
  5
122D
330
1228
100
AcDbEntity
  8
0
  6
ByBlock
 62
     0
100
AcDbLine
 10
562.0138584779069
 20
1478.936500327179
 30
0.0
 11
532.0138584779069
 21
1478.936500327179
 31
0.0
  0
SOLID
  5
122E
330
1228
100
AcDbEntity
  8
0
  6
ByBlock
 62
     0
100
AcDbTrace
 10
599.513858477907
 20
1485.186500327179
 30
0.0
 11
599.513858477907
 21
1472.686500327179
 31
0.0
 12
562.0138584779069
 22
1478.936500327179
 32
0.0
 13
562.0138584779069
 23
1478.936500327179
 33
0.0
  0
SOLID
  5
122F
330
1228
100
AcDbEntity
  8
0
  6
ByBlock
 62
     0
100
AcDbTrace
 10
494.5138584779069
 20
1485.186500327179
 30
0.0
 11
494.5138584779069
 21
1472.686500327179
 31
0.0
 12
532.0138584779069
 22
1478.936500327179
 32
0.0
 13
532.0138584779069
 23
1478.936500327179
 33
0.0
  0
MTEXT
  5
1230
330
1228
100
AcDbEntity
  8
0
  6
ByBlock
 62
     0
100
AcDbMText
 10
423.6220045453227
 20
1507.061500327179
 30
0.0
 40
37.5
 41
0.0
 71
     5
 72
     1
  1
\A1;30
 73
     1
 44
1.0
  0
POINT
  5
1231
330
1228
100
AcDbEntity
  8
DEFPOINTS
  6
ByBlock
 62
     0
100
AcDbPoint
 10
562.0138584779069
 20
1628.936500327179
 30
0.0
  0
POINT
  5
1232
330
1228
100
AcDbEntity
  8
DEFPOINTS
  6
ByBlock
 62
     0
100
AcDbPoint
 10
532.0138584779069
 20
1628.936500327179
 30
0.0
  0
POINT
  5
1233
330
1228
100
AcDbEntity
  8
DEFPOINTS
  6
ByBlock
 62
     0
100
AcDbPoint
 10
532.0138584779069
 20
1478.936500327179
 30
0.0
  0
ENDBLK
  5
1235
330
1228
100
AcDbEntity
  8
0
100
AcDbBlockEnd
  0
BLOCK
  5
1240
330
1236
100
AcDbEntity
  8
0
100
AcDbBlockBegin
  2
*D12
 70
     1
 10
0.0
 20
0.0
 30
0.0
  3
*D12
  1

  0
LINE
  5
1237
330
1236
100
AcDbEntity
  8
0
  6
ByBlock
 62
     0
100
AcDbLine
 10
562.0138584779069
 20
1569.561500327179
 30
0.0
 11
562.0138584779069
 21
1410.186500327179
 31
0.0
  0
LINE
  5
1238
330
1236
100
AcDbEntity
  8
0
  6
ByBlock
 62
     0
100
AcDbLine
 10
1072.013858477907
 20
1569.561500327179
 30
0.0
 11
1072.013858477907
 21
1410.186500327179
 31
0.0
  0
LINE
  5
1239
330
1236
100
AcDbEntity
  8
0
  6
ByBlock
 62
     0
100
AcDbLine
 10
599.513858477907
 20
1428.936500327179
 30
0.0
 11
1034.513858477907
 21
1428.936500327179
 31
0.0
  0
SOLID
  5
123A
330
1236
100
AcDbEntity
  8
0
  6
ByBlock
 62
     0
100
AcDbTrace
 10
599.513858477907
 20
1435.186500327179
 30
0.0
 11
599.513858477907
 21
1422.686500327179
 31
0.0
 12
562.0138584779069
 22
1428.936500327179
 32
0.0
 13
562.0138584779069
 23
1428.936500327179
 33
0.0
  0
SOLID
  5
123B
330
1236
100
AcDbEntity
  8
0
  6
ByBlock
 62
     0
100
AcDbTrace
 10
1034.513858477907
 20
1435.186500327179
 30
0.0
 11
1034.513858477907
 21
1422.686500327179
 31
0.0
 12
1072.013858477907
 22
1428.936500327179
 32
0.0
 13
1072.013858477907
 23
1428.936500327179
 33
0.0
  0
MTEXT
  5
123C
330
1236
100
AcDbEntity
  8
0
  6
ByBlock
 62
     0
100
AcDbMText
 10
817.0138584779069
 20
1457.061500327179
 30
0.0
 40
37.5
 41
0.0
 71
     5
 72
     1
  1
\A1;2@255=510
 73
     1
 44
1.0
  0
POINT
  5
123D
330
1236
100
AcDbEntity
  8
DEFPOINTS
  6
ByBlock
 62
     0
100
AcDbPoint
 10
562.0138584779069
 20
1578.936500327179
 30
0.0
  0
POINT
  5
123E
330
1236
100
AcDbEntity
  8
DEFPOINTS
  6
ByBlock
 62
     0
100
AcDbPoint
 10
1072.013858477907
 20
1578.936500327179
 30
0.0
  0
POINT
  5
123F
330
1236
100
AcDbEntity
  8
DEFPOINTS
  6
ByBlock
 62
     0
100
AcDbPoint
 10
1072.013858477907
 20
1428.936500327179
 30
0.0
  0
ENDBLK
  5
1241
330
1236
100
AcDbEntity
  8
0
100
AcDbBlockEnd
  0
BLOCK
  5
124E
330
1242
100
AcDbEntity
  8
0
100
AcDbBlockBegin
  2
*D13
 70
     1
 10
0.0
 20
0.0
 30
0.0
  3
*D13
  1

  0
LINE
  5
1243
330
1242
100
AcDbEntity
  8
0
  6
ByBlock
 62
     0
100
AcDbLine
 10
1072.013858477907
 20
1619.561500327179
 30
0.0
 11
1072.013858477907
 21
1460.186500327179
 31
0.0
  0
LINE
  5
1244
330
1242
100
AcDbEntity
  8
0
  6
ByBlock
 62
     0
100
AcDbLine
 10
1102.013858477907
 20
1619.561500327179
 30
0.0
 11
1102.013858477907
 21
1460.186500327179
 31
0.0
  0
LINE
  5
1245
330
1242
100
AcDbEntity
  8
0
  6
ByBlock
 62
     0
100
AcDbLine
 10
1034.513858477907
 20
1478.936500327179
 30
0.0
 11
997.013858477907
 21
1478.936500327179
 31
0.0
  0
LINE
  5
1246
330
1242
100
AcDbEntity
  8
0
  6
ByBlock
 62
     0
100
AcDbLine
 10
1139.513858477907
 20
1478.936500327179
 30
0.0
 11
1243.797566343075
 21
1478.936500327179
 31
0.0
  0
LINE
  5
1247
330
1242
100
AcDbEntity
  8
0
  6
ByBlock
 62
     0
100
AcDbLine
 10
1072.013858477907
 20
1478.936500327179
 30
0.0
 11
1102.013858477907
 21
1478.936500327179
 31
0.0
  0
SOLID
  5
1248
330
1242
100
AcDbEntity
  8
0
  6
ByBlock
 62
     0
100
AcDbTrace
 10
1034.513858477907
 20
1485.186500327179
 30
0.0
 11
1034.513858477907
 21
1472.686500327179
 31
0.0
 12
1072.013858477907
 22
1478.936500327179
 32
0.0
 13
1072.013858477907
 23
1478.936500327179
 33
0.0
  0
SOLID
  5
1249
330
1242
100
AcDbEntity
  8
0
  6
ByBlock
 62
     0
100
AcDbTrace
 10
1139.513858477907
 20
1485.186500327179
 30
0.0
 11
1139.513858477907
 21
1472.686500327179
 31
0.0
 12
1102.013858477907
 22
1478.936500327179
 32
0.0
 13
1102.013858477907
 23
1478.936500327179
 33
0.0
  0
MTEXT
  5
124A
330
1242
100
AcDbEntity
  8
0
  6
ByBlock
 62
     0
100
AcDbMText
 10
1210.405712410491
 20
1507.061500327179
 30
0.0
 40
37.5
 41
0.0
 71
     5
 72
     1
  1
\A1;30
 73
     1
 44
1.0
  0
POINT
  5
124B
330
1242
100
AcDbEntity
  8
DEFPOINTS
  6
ByBlock
 62
     0
100
AcDbPoint
 10
1072.013858477907
 20
1628.936500327179
 30
0.0
  0
POINT
  5
124C
330
1242
100
AcDbEntity
  8
DEFPOINTS
  6
ByBlock
 62
     0
100
AcDbPoint
 10
1102.013858477907
 20
1628.936500327179
 30
0.0
  0
POINT
  5
124D
330
1242
100
AcDbEntity
  8
DEFPOINTS
  6
ByBlock
 62
     0
100
AcDbPoint
 10
1102.013858477907
 20
1478.936500327179
 30
0.0
  0
ENDBLK
  5
124F
330
1242
100
AcDbEntity
  8
0
100
AcDbBlockEnd
  0
BLOCK
  5
12EB
330
1250
100
AcDbEntity
  8
0
100
AcDbBlockBegin
  2
A$C5C396CD4
 70
     0
 10
0.0
 20
0.0
 30
0.0
  3
A$C5C396CD4
  1

  0
DIMENSION
  5
1251
330
1250
100
AcDbEntity
  8
上線
100
AcDbDimension
  2
*D13
 10
916.8019584441262
 20
18.74999919439505
 30
0.0
 11
1025.19381237671
 21
46.87499919439505
 31
0.0
 12
-185.2119000337807
 22
-1460.186501132784
 32
0.0
 71
     5
 42
-1.0
  3
STANDARD
100
AcDbAlignedDimension
 13
886.8019584441263
 23
168.749999194395
 33
0.0
 14
916.8019584441262
 24
168.749999194395
 34
0.0
100
AcDbRotatedDimension
1001
ACAD
1000
DSTYLE
1002
{
1070
    40
1040
15.0
1070
    41
1040
2.5
1070
    42
1040
0.625
1070
    43
1040
3.75
1070
    44
1040
1.25
1070
    73
1070
     0
1070
    74
1070
     0
1070
    77
1070
     1
1070
    78
1070
     8
1070
   140
1040
2.5
1070
   141
1040
2.5
1070
   143
1040
0.0394
1070
   147
1040
0.625
1070
   171
1070
     4
1070
   172
1070
     1
1070
   273
1070
     8
1070
   274
1070
     4
1070
   277
1070
     6
1002
}
  0
DIMENSION
  5
1252
330
1250
100
AcDbEntity
  8
上線
100
AcDbDimension
  2
*D12
 10
886.8019584441263
 20
18.74999919439505
 30
0.0
 11
631.8019584441262
 21
46.87499919439505
 31
0.0
 12
-185.2119000337807
 22
-1410.186501132784
 32
0.0
  1
2@255=<>
 71
     5
 42
-1.0
  3
STANDARD
100
AcDbAlignedDimension
 13
376.8019584441262
 23
168.749999194395
 33
0.0
 14
886.8019584441263
 24
168.749999194395
 34
0.0
100
AcDbRotatedDimension
1001
ACAD
1000
DSTYLE
1002
{
1070
    40
1040
15.0
1070
    41
1040
2.5
1070
    42
1040
0.625
1070
    43
1040
3.75
1070
    44
1040
1.25
1070
    73
1070
     0
1070
    74
1070
     0
1070
    77
1070
     1
1070
    78
1070
     8
1070
   140
1040
2.5
1070
   141
1040
2.5
1070
   143
1040
0.0394
1070
   147
1040
0.625
1070
   171
1070
     4
1070
   172
1070
     1
1070
   273
1070
     8
1070
   274
1070
     4
1070
   277
1070
     6
1002
}
  0
DIMENSION
  5
1253
330
1250
100
AcDbEntity
  8
上線
100
AcDbDimension
  2
*D11
 10
346.8019584441262
 20
18.74999919439505
 30
0.0
 11
238.410104511542
 21
46.87499919439505
 31
0.0
 12
-185.2119000337807
 22
-1460.186501132784
 32
0.0
 71
     5
 42
-1.0
  3
STANDARD
100
AcDbAlignedDimension
 13
376.8019584441262
 23
168.749999194395
 33
0.0
 14
346.8019584441262
 24
168.749999194395
 34
0.0
100
AcDbRotatedDimension
1001
ACAD
1000
DSTYLE
1002
{
1070
    40
1040
15.0
1070
    41
1040
2.5
1070
    42
1040
0.625
1070
    43
1040
3.75
1070
    44
1040
1.25
1070
    73
1070
     0
1070
    74
1070
     0
1070
    77
1070
     1
1070
    78
1070
     8
1070
   140
1040
2.5
1070
   141
1040
2.5
1070
   143
1040
0.0394
1070
   147
1040
0.625
1070
   171
1070
     4
1070
   172
1070
     1
1070
   273
1070
     8
1070
   274
1070
     4
1070
   277
1070
     6
1002
}
  0
DIMENSION
  5
1254
330
1250
100
AcDbEntity
  8
上線
100
AcDbDimension
  2
*D7
 10
791.8019584441262
 20
552.1908758488116
 30
0.0
 11
646.8019584441263
 21
580.3158758488116
 31
0.0
 12
-185.2119000337807
 22
-1401.071601298359
 32
0.0
 71
     5
 42
-1.0
  3
STANDARD
100
AcDbAlignedDimension
 13
501.8019584441263
 23
444.3826570198225
 33
0.0
 14
791.8019584441262
 24
444.3826570198225
 34
0.0
100
AcDbRotatedDimension
1001
ACAD
1000
DSTYLE
1002
{
1070
    40
1040
15.0
1070
    41
1040
2.5
1070
    42
1040
0.625
1070
    43
1040
3.75
1070
    44
1040
1.25
1070
    73
1070
     0
1070
    74
1070
     0
1070
    77
1070
     1
1070
    78
1070
     8
1070
   140
1040
2.5
1070
   141
1040
2.5
1070
   143
1040
0.0394
1070
   147
1040
0.625
1070
   171
1070
     4
1070
   172
1070
     1
1070
   273
1070
     8
1070
   274
1070
     4
1070
   277
1070
     6
1002
}
  0
MTEXT
  5
1255
102
{ACAD_REACTORS
330
1256
102
}
330
1250
100
AcDbEntity
  8
上線
100
AcDbMText
 10
616.4446699391882
 20
499.2567275619548
 30
0.0
 40
37.5
 41
0.0
 71
     4
 72
     1
  1
\A1;R=50
 73
     1
 44
1.0
  0
LEADER
  5
1256
330
1250
100
AcDbEntity
  8
上線
100
AcDbLeader
  3
STANDARD
 73
     0
 74
     0
 75
     1
 40
37.5
 41
108.0758426966292
 76
     3
 10
515.9908560582247
 20
353.1430431186704
 30
0.0
 10
569.5696699391882
 20
471.1317275619548
 30
0.0
 10
607.0696699391882
 20
471.1317275619548
 30
0.0
340
1255
1001
ACAD
1000
DSTYLE
1002
{
1070
    78
1070
     8
1070
   270
1070
     8
1070
   140
1040
2.5
1070
    74
1070
     0
1070
   172
1070
     1
1070
    73
1070
     0
1070
    77
1070
     1
1070
    40
1040
15.0
1070
   147
1040
0.625
1070
    42
1040
0.625
1070
    44
1040
1.25
1070
    43
1040
3.75
1070
   141
1040
2.5
1070
    41
1040
2.5
1070
   273
1070
     8
1070
   274
1070
     4
1070
   143
1040
0.0394
1070
   171
1070
     4
1002
}
  0
DIMENSION
  5
1257
330
1250
100
AcDbEntity
  8
上線
100
AcDbDimension
  2
*D2
 10
796.8019584441263
 20
908.749999194395
 30
0.0
 11
646.8019584441263
 21
936.874999194395
 31
0.0
 12
-185.2119000337807
 22
-1410.186501132784
 32
0.0
 71
     5
 42
-1.0
  3
STANDARD
100
AcDbAlignedDimension
 13
496.8019584441263
 23
758.7499991943955
 33
0.0
 14
796.8019584441263
 24
758.749999194395
 34
0.0
100
AcDbRotatedDimension
1001
ACAD
1000
DSTYLE
1002
{
1070
    40
1040
15.0
1070
    41
1040
2.5
1070
    42
1040
0.625
1070
    43
1040
3.75
1070
    44
1040
1.25
1070
    73
1070
     0
1070
    74
1070
     0
1070
    77
1070
     1
1070
    78
1070
     8
1070
   140
1040
2.5
1070
   141
1040
2.5
1070
   143
1040
0.0394
1070
   147
1040
0.625
1070
   171
1070
     4
1070
   172
1070
     1
1070
   273
1070
     8
1070
   274
1070
     4
1070
   277
1070
     6
1002
}
  0
DIMENSION
  5
1258
330
1250
100
AcDbEntity
  8
上線
100
AcDbDimension
  2
*D1
 10
346.8019584441262
 20
1028.749999194395
 30
0.0
 11
631.8019584441262
 21
1056.874999194395
 31
0.0
 12
-185.2119000337807
 22
-1410.186501132784
 32
0.0
 71
     5
 42
-1.0
  3
STANDARD
100
AcDbAlignedDimension
 13
916.8019584441262
 23
758.749999194395
 33
0.0
 14
346.8019584441262
 24
758.749999194395
 34
0.0
100
AcDbRotatedDimension
1001
ACAD
1000
DSTYLE
1002
{
1070
    40
1040
15.0
1070
    41
1040
2.5
1070
    42
1040
0.625
1070
    43
1040
3.75
1070
    44
1040
1.25
1070
    73
1070
     0
1070
    74
1070
     0
1070
    77
1070
     1
1070
    78
1070
     8
1070
   140
1040
2.5
1070
   141
1040
2.5
1070
   143
1040
0.0394
1070
   147
1040
0.625
1070
   171
1070
     4
1070
   172
1070
     1
1070
   273
1070
     8
1070
   274
1070
     4
1070
   277
1070
     6
1002
}
  0
LINE
  5
1259
330
1250
100
AcDbEntity
  8
上線
 48
10.0
100
AcDbLine
 10
886.8019584441263
 20
268.749999194395
 30
0.0
 11
376.8019584441262
 21
268.7499991943948
 31
0.0
  0
LINE
  5
125A
330
1250
100
AcDbEntity
  8
上線
100
AcDbLine
 10
356.8019584441262
 20
238.749999194395
 30
0.0
 11
906.8019584441262
 21
238.7499991943948
 31
0.0
  0
LINE
  5
125B
330
1250
100
AcDbEntity
  8
上線
100
AcDbLine
 10
742.5111423778771
 20
338.749999194395
 30
0.0
 11
551.0927745103754
 21
338.7499991943948
 31
0.0
  0
TEXT
  5
125C
330
1250
100
AcDbEntity
  8
点線
 62
     0
100
AcDbText
 10
447.4814065118716
 20
959.1646111938098
 30
0.0
 40
37.5
  1
50
100
AcDbText
  0
DIMENSION
  5
125D
330
1250
100
AcDbEntity
  8
上線
100
AcDbDimension
  2
*D5
 10
176.8019584441262
 20
338.749999194395
 30
0.0
 11
148.6769584441262
 21
488.7499991943951
 31
0.0
 12
-185.2119000337807
 22
-1410.186501132784
 32
0.0
 71
     5
 42
-1.0
  3
STANDARD
100
AcDbAlignedDimension
 13
326.8019584441262
 23
638.7499991943951
 33
0.0
 14
326.8019584441262
 24
338.749999194395
 34
0.0
 50
90.0
100
AcDbRotatedDimension
1001
ACAD
1000
DSTYLE
1002
{
1070
    40
1040
15.0
1070
    41
1040
2.5
1070
    42
1040
0.625
1070
    43
1040
3.75
1070
    44
1040
1.25
1070
    73
1070
     0
1070
    74
1070
     0
1070
    77
1070
     1
1070
    78
1070
     8
1070
   140
1040
2.5
1070
   141
1040
2.5
1070
   143
1040
0.0394
1070
   147
1040
0.625
1070
   171
1070
     4
1070
   172
1070
     1
1070
   273
1070
     8
1070
   274
1070
     4
1070
   277
1070
     6
1002
}
  0
DIMENSION
  5
125E
330
1250
100
AcDbEntity
  8
上線
100
AcDbDimension
  2
*D3
 10
56.80195844412629
 20
238.749999194395
 30
0.0
 11
28.67695844412628
 21
488.7499991943951
 31
0.0
 12
-185.2119000337807
 22
-1410.186501132784
 32
0.0
 71
     5
 42
-1.0
  3
STANDARD
100
AcDbAlignedDimension
 13
326.8019584441262
 23
738.7499991943951
 33
0.0
 14
326.8019584441262
 24
238.749999194395
 34
0.0
 50
90.0
100
AcDbRotatedDimension
1001
ACAD
1000
DSTYLE
1002
{
1070
    40
1040
15.0
1070
    41
1040
2.5
1070
    42
1040
0.625
1070
    43
1040
3.75
1070
    44
1040
1.25
1070
    73
1070
     0
1070
    74
1070
     0
1070
    77
1070
     1
1070
    78
1070
     8
1070
   140
1040
2.5
1070
   141
1040
2.5
1070
   143
1040
0.0394
1070
   147
1040
0.625
1070
   171
1070
     4
1070
   172
1070
     1
1070
   273
1070
     8
1070
   274
1070
     4
1070
   277
1070
     6
1002
}
  0
LWPOLYLINE
  5
125F
330
1250
100
AcDbEntity
  8
上線
 48
10.0
100
AcDbPolyline
 90
        2
 70
     1
 43
5.0
 10
379.2719889762065
 20
489.0178669992764
 42
1.0
 10
384.2719889762065
 20
489.0178669992764
 42
1.0
  0
LINE
  5
1260
330
1250
100
AcDbEntity
  8
上線
 48
10.0
100
AcDbLine
 10
376.8019584441262
 20
708.749999194395
 30
0.0
 11
376.8019584441262
 21
268.7499991943948
 31
0.0
  0
LINE
  5
1261
330
1250
100
AcDbEntity
  8
上線
 48
10.0
100
AcDbLine
 10
487.5075223206668
 20
638.8170523762724
 30
0.0
 11
491.1190474833351
 21
378.0575644044877
 31
0.0
  0
LINE
  5
1262
330
1250
100
AcDbEntity
  8
上線
100
AcDbLine
 10
346.8019584441262
 20
730.749999194395
 30
0.0
 11
346.8019584441262
 21
288.749999194395
 31
0.0
  0
LINE
  5
1263
330
1250
100
AcDbEntity
  8
上線
100
AcDbLine
 10
501.0978757703997
 20
388.0357863552524
 30
0.0
 11
497.5905704406491
 21
633.5471594378032
 31
0.0
  0
DIMENSION
  5
1264
330
1250
100
AcDbEntity
  8
上線
100
AcDbDimension
  2
*D6
 10
176.8019584441262
 20
238.749999194395
 30
0.0
 11
148.6769584441262
 21
288.749999194395
 31
0.0
 12
-185.2119000337807
 22
-1410.186501132784
 32
0.0
 71
     5
 42
-1.0
  3
STANDARD
100
AcDbAlignedDimension
 13
326.8019584441262
 23
338.749999194395
 33
0.0
 14
326.8019584441262
 24
238.749999194395
 34
0.0
 50
90.0
100
AcDbRotatedDimension
1001
ACAD
1000
DSTYLE
1002
{
1070
    40
1040
15.0
1070
    41
1040
2.5
1070
    42
1040
0.625
1070
    43
1040
3.75
1070
    44
1040
1.25
1070
    73
1070
     0
1070
    74
1070
     0
1070
    77
1070
     1
1070
    78
1070
     8
1070
   140
1040
2.5
1070
   141
1040
2.5
1070
   143
1040
0.0394
1070
   147
1040
0.625
1070
   171
1070
     4
1070
   172
1070
     1
1070
   273
1070
     8
1070
   274
1070
     4
1070
   277
1070
     6
1002
}
  0
LINE
  5
1265
330
1250
100
AcDbEntity
  8
0
  6
ByBlock
 62
     0
 48
10.0
100
AcDbLine
 10
326.8019584441262
 20
238.7499991943948
 30
0.0
 11
118.004312830264
 21
238.749999194395
 31
0.0
  0
LINE
  5
1266
330
1250
100
AcDbEntity
  8
0
  6
ByBlock
 62
     0
 48
10.0
100
AcDbLine
 10
310.5851574531898
 20
238.749999194395
 30
0.0
 11
211.6505481529238
 21
238.749999194395
 31
0.0
  0
LINE
  5
1267
330
1250
100
AcDbEntity
  8
0
  6
ByBlock
 62
     0
 48
10.0
100
AcDbLine
 10
326.8019584441262
 20
338.749999194395
 30
0.0
 11
211.6505481529238
 21
338.749999194395
 31
0.0
  0
LINE
  5
1268
330
1250
100
AcDbEntity
  8
0
  6
ByBlock
 62
     0
 48
10.0
100
AcDbLine
 10
310.5851574531898
 20
338.749999194395
 30
0.0
 11
211.6505481529238
 21
338.749999194395
 31
0.0
  0
POINT
  5
1269
330
1250
100
AcDbEntity
  8
DEFPOINTS
  6
ByBlock
 62
     0
 48
10.0
100
AcDbPoint
 10
130.504312830264
 20
238.749999194395
 30
0.0
  0
POINT
  5
126A
330
1250
100
AcDbEntity
  8
DEFPOINTS
  6
ByBlock
 62
     0
 48
10.0
100
AcDbPoint
 10
224.1505481529238
 20
238.749999194395
 30
0.0
  0
LINE
  5
126B
330
1250
100
AcDbEntity
  8
点線
100
AcDbLine
 10
586.3855810592959
 20
338.7499991943948
 30
0.0
 11
596.3855810592958
 21
238.749999194395
 31
0.0
  0
LINE
  5
126C
330
1250
100
AcDbEntity
  8
中心線
100
AcDbLine
 10
646.3855810592958
 20
429.016953178967
 30
0.0
 11
646.3855810592958
 21
184.1041986142136
 31
0.0
  0
LINE
  5
126D
330
1250
100
AcDbEntity
  8
上線
100
AcDbLine
 10
346.8019584441262
 20
288.749999194395
 30
0.0
 11
346.8019584441262
 21
248.7499991943952
 31
0.0
  0
LINE
  5
126E
330
1250
100
AcDbEntity
  8
上線
100
AcDbLine
 10
376.8019584441262
 20
159.374999194395
 30
0.0
 11
376.8019584441262
 21
218.749999194395
 31
0.0
  0
LINE
  5
126F
330
1250
100
AcDbEntity
  8
上線
100
AcDbLine
 10
346.8019584441262
 20
159.374999194395
 30
0.0
 11
346.8019584441262
 21
218.749999194395
 31
0.0
  0
POINT
  5
1270
330
1250
100
AcDbEntity
  8
DEFPOINTS
  6
ByBlock
 62
     0
 48
10.0
100
AcDbPoint
 10
346.8019584441262
 20
170.5442479055909
 30
0.0
  0
POINT
  5
1271
330
1250
100
AcDbEntity
  8
DEFPOINTS
  6
ByBlock
 62
     0
 48
10.0
100
AcDbPoint
 10
346.8351574531898
 20
188.749999194395
 30
0.0
  0
POINT
  5
1272
330
1250
100
AcDbEntity
  8
DEFPOINTS
  6
ByBlock
 62
     0
 48
10.0
100
AcDbPoint
 10
376.8019584441262
 20
170.5442479055909
 30
0.0
  0
POINT
  5
1273
330
1250
100
AcDbEntity
  8
DEFPOINTS
  6
ByBlock
 62
     0
 48
10.0
100
AcDbPoint
 10
376.8019584441262
 20
161.4754788463706
 30
0.0
  0
LINE
  5
1274
330
1250
100
AcDbEntity
  8
上線
100
AcDbLine
 10
346.8019584441262
 20
248.7499991943952
 30
0.0
 11
356.8019584441262
 21
238.7499991943952
 31
0.0
  0
POINT
  5
1275
330
1250
100
AcDbEntity
  8
DEFPOINTS
  6
ByBlock
 62
     0
 48
10.0
100
AcDbPoint
 10
316.8351574531898
 20
238.749999194395
 30
0.0
  0
POINT
  5
1276
330
1250
100
AcDbEntity
  8
DEFPOINTS
  6
ByBlock
 62
     0
 48
10.0
100
AcDbPoint
 10
566.3855810592958
 20
208.3903612838878
 30
0.0
  0
POINT
  5
1277
330
1250
100
AcDbEntity
  8
DEFPOINTS
  6
ByBlock
 62
     0
 48
10.0
100
AcDbPoint
 10
551.8019584441263
 20
220.7708691052666
 30
0.0
  0
POINT
  5
1278
330
1250
100
AcDbEntity
  8
DEFPOINTS
  6
ByBlock
 62
     0
 48
10.0
100
AcDbPoint
 10
541.8019584441262
 20
220.7708691052666
 30
0.0
  0
ARC
  5
1279
330
1250
100
AcDbEntity
  8
上線
 48
10.0
100
AcDbCircle
 10
541.1142525940431
 20
378.749999194395
 30
0.0
 40
50.0
100
AcDbArc
 50
180.793497186031
 51
270.0
  0
POINT
  5
127A
330
1250
100
AcDbEntity
  8
DEFPOINTS
  6
ByBlock
 62
     0
 48
10.0
100
AcDbPoint
 10
346.8351574531898
 20
288.749999194395
 30
0.0
  0
POINT
  5
127B
330
1250
100
AcDbEntity
  8
DEFPOINTS
  6
ByBlock
 62
     0
 48
10.0
100
AcDbPoint
 10
346.8351574531898
 20
288.749999194395
 30
0.0
  0
LWPOLYLINE
  5
127C
330
1250
100
AcDbEntity
  8
上線
 48
10.0
100
AcDbPolyline
 90
        2
 70
     1
 43
5.0
 10
379.2090076868389
 20
273.6041892555495
 42
1.0
 10
384.2090076868389
 20
273.6041892555495
 42
1.0
  0
ARC
  5
127D
330
1250
100
AcDbEntity
  8
上線
100
AcDbCircle
 10
551.0927745103754
 20
388.7499991943948
 30
0.0
 40
50.0
100
AcDbArc
 50
180.8184554616886
 51
270.0
  0
LINE
  5
127E
330
1250
100
AcDbEntity
  8
上線
 48
10.0
100
AcDbLine
 10
541.1142525940431
 20
328.749999194395
 30
0.0
 11
646.3855810592958
 21
328.749999194395
 31
0.0
  0
LWPOLYLINE
  5
127F
330
1250
100
AcDbEntity
  8
上線
 48
10.0
100
AcDbPolyline
 90
        2
 70
     1
 43
5.0
 10
629.4676161832649
 20
273.6041892555495
 42
1.0
 10
634.4676161832649
 20
273.6041892555495
 42
1.0
  0
DIMENSION
  5
1280
330
1250
100
AcDbEntity
  8
上線
100
AcDbDimension
  2
*D4
 10
176.8019584441262
 20
738.7499991943951
 30
0.0
 11
148.6769584441262
 21
688.7499991943951
 31
0.0
 12
-185.2119000337807
 22
-1410.186501132784
 32
0.0
 71
     5
 42
-1.0
  3
STANDARD
100
AcDbAlignedDimension
 13
326.8019584441262
 23
638.7499991943951
 33
0.0
 14
326.8019584441262
 24
738.7499991943951
 34
0.0
 50
90.0
100
AcDbRotatedDimension
1001
ACAD
1000
DSTYLE
1002
{
1070
    40
1040
15.0
1070
    41
1040
2.5
1070
    42
1040
0.625
1070
    43
1040
3.75
1070
    44
1040
1.25
1070
    73
1070
     0
1070
    74
1070
     0
1070
    77
1070
     1
1070
    78
1070
     8
1070
   140
1040
2.5
1070
   141
1040
2.5
1070
   143
1040
0.0394
1070
   147
1040
0.625
1070
   171
1070
     4
1070
   172
1070
     1
1070
   273
1070
     8
1070
   274
1070
     4
1070
   277
1070
     6
1002
}
  0
LINE
  5
1281
330
1250
100
AcDbEntity
  8
0
  6
ByBlock
 62
     0
 48
10.0
100
AcDbLine
 10
310.5851574531898
 20
738.7499991943951
 30
0.0
 11
118.004312830264
 21
738.7499991943951
 31
0.0
  0
LINE
  5
1282
330
1250
100
AcDbEntity
  8
0
  6
ByBlock
 62
     0
 48
10.0
100
AcDbLine
 10
326.8019584441262
 20
638.7499991943951
 30
0.0
 11
211.6505481529238
 21
638.7499991943951
 31
0.0
  0
LINE
  5
1283
330
1250
100
AcDbEntity
  8
0
  6
ByBlock
 62
     0
 48
10.0
100
AcDbLine
 10
310.5851574531898
 20
738.7499991943951
 30
0.0
 11
211.6505481529238
 21
738.7499991943951
 31
0.0
  0
POINT
  5
1284
330
1250
100
AcDbEntity
  8
DEFPOINTS
  6
ByBlock
 62
     0
 48
10.0
100
AcDbPoint
 10
224.1505481529238
 20
738.7499991943951
 30
0.0
  0
LINE
  5
1285
330
1250
100
AcDbEntity
  8
上線
 48
10.0
100
AcDbLine
 10
446.8019584441263
 20
738.7499991943951
 30
0.0
 11
446.8019584441263
 21
688.7499991943951
 31
0.0
  0
ARC
  5
1286
330
1250
100
AcDbEntity
  8
上線
100
AcDbCircle
 10
354.8019584441262
 20
730.749999194395
 30
0.0
 40
8.0
100
AcDbArc
 50
90.0
 51
180.0
  0
ARC
  5
1287
330
1250
100
AcDbEntity
  8
上線
100
AcDbCircle
 10
496.8019584441263
 20
688.7499991943951
 30
0.0
 40
50.0
100
AcDbArc
 50
220.3081602875997
 51
258.4630409671845
  0
POINT
  5
1288
330
1250
100
AcDbEntity
  8
DEFPOINTS
  6
ByBlock
 62
     0
 48
10.0
100
AcDbPoint
 10
346.8351574531898
 20
638.7499991943951
 30
0.0
  0
POINT
  5
1289
330
1250
100
AcDbEntity
  8
DEFPOINTS
  6
ByBlock
 62
     0
 48
10.0
100
AcDbPoint
 10
346.8351574531898
 20
688.7499991943951
 30
0.0
  0
LWPOLYLINE
  5
128A
330
1250
100
AcDbEntity
  8
上線
 48
10.0
100
AcDbPolyline
 90
        2
 70
     1
 43
5.0
 10
379.6245978165225
 20
709.0178669992765
 42
1.0
 10
384.6245978165225
 20
709.0178669992765
 42
1.0
  0
ARC
  5
128B
330
1250
100
AcDbEntity
  8
上線
100
AcDbCircle
 10
496.8019584441263
 20
688.7499991943951
 30
0.0
 40
50.0
100
AcDbArc
 50
180.0
 51
220.3081602875999
  0
LINE
  5
128C
330
1250
100
AcDbEntity
  8
上線
100
AcDbLine
 10
446.8019584441263
 20
638.7499991943951
 30
0.0
 11
446.8019584441263
 21
638.7499991943951
 31
0.0
  0
LINE
  5
128D
330
1250
100
AcDbEntity
  8
上線
 48
10.0
100
AcDbLine
 10
489.8019584441263
 20
635.749999194395
 30
0.0
 11
497.5905704406486
 21
633.5471594378027
 31
0.0
  0
LINE
  5
128E
330
1250
100
AcDbEntity
  8
上線
 48
10.0
100
AcDbLine
 10
486.8019584441262
 20
639.7602043387232
 30
0.0
 11
489.8019584441263
 21
635.749999194395
 31
0.0
  0
LINE
  5
128F
330
1250
100
AcDbEntity
  8
上線
100
AcDbLine
 10
496.8019584441263
 20
638.7499991943951
 30
0.0
 11
496.8019584441263
 21
638.7499991943951
 31
0.0
  0
LINE
  5
1290
330
1250
100
AcDbEntity
  8
上線
100
AcDbLine
 10
446.8019584441264
 20
908.749999194395
 30
0.0
 11
496.8019584441263
 21
908.749999194395
 31
0.0
  0
LINE
  5
1291
330
1250
100
AcDbEntity
  8
0
  6
ByBlock
 62
     0
100
AcDbLine
 10
346.8019584441262
 20
768.1249991943951
 30
0.0
 11
346.8019584441262
 21
927.499999194395
 31
0.0
  0
LINE
  5
1292
330
1250
100
AcDbEntity
  8
0
  6
ByBlock
 62
     0
100
AcDbLine
 10
446.8019584441264
 20
768.1249991943951
 30
0.0
 11
446.8019584441264
 21
927.499999194395
 31
0.0
  0
LINE
  5
1293
330
1250
100
AcDbEntity
  8
0
  6
ByBlock
 62
     0
 48
10.0
100
AcDbLine
 10
446.8019584441264
 20
758.7499991943955
 30
0.0
 11
446.8019584441263
 21
876.9924315276494
 31
0.0
  0
LINE
  5
1294
330
1250
100
AcDbEntity
  8
0
  6
ByBlock
 62
     0
 48
10.0
100
AcDbLine
 10
346.8019584441262
 20
758.749999194395
 30
0.0
 11
346.8019584441262
 21
964.784778851852
 31
0.0
  0
LINE
  5
1295
330
1250
100
AcDbEntity
  8
0
  6
ByBlock
 62
     0
 48
10.0
100
AcDbLine
 10
446.8019584441263
 20
792.7558852392803
 30
0.0
 11
446.8019584441263
 21
876.9924315276494
 31
0.0
  0
LINE
  5
1296
330
1250
100
AcDbEntity
  8
上線
100
AcDbLine
 10
446.8019584441263
 20
738.7499991943951
 30
0.0
 11
354.8019584441262
 21
738.7499991943951
 31
0.0
  0
POINT
  5
1297
330
1250
100
AcDbEntity
  8
DEFPOINTS
  6
ByBlock
 62
     0
 48
10.0
100
AcDbPoint
 10
316.8351574531898
 20
738.7499991943951
 30
0.0
  0
POINT
  5
1298
330
1250
100
AcDbEntity
  8
DEFPOINTS
  6
ByBlock
 62
     0
100
AcDbPoint
 10
346.8019584441262
 20
758.749999194395
 30
0.0
  0
POINT
  5
1299
330
1250
100
AcDbEntity
  8
DEFPOINTS
  6
ByBlock
 62
     0
 48
10.0
100
AcDbPoint
 10
346.8351574531898
 20
738.7499991943951
 30
0.0
  0
POINT
  5
129A
330
1250
100
AcDbEntity
  8
DEFPOINTS
  6
ByBlock
 62
     0
 48
10.0
100
AcDbPoint
 10
376.8019584441262
 20
736.5058852392803
 30
0.0
  0
POINT
  5
129B
330
1250
100
AcDbEntity
  8
DEFPOINTS
  6
ByBlock
 62
     0
 48
10.0
100
AcDbPoint
 10
376.8019584441262
 20
736.5058852392803
 30
0.0
  0
POINT
  5
129C
330
1250
100
AcDbEntity
  8
DEFPOINTS
  6
ByBlock
 62
     0
100
AcDbPoint
 10
446.8019584441264
 20
758.749999194395
 30
0.0
  0
POINT
  5
129D
330
1250
100
AcDbEntity
  8
DEFPOINTS
  6
ByBlock
 62
     0
 48
10.0
100
AcDbPoint
 10
446.8019584441263
 20
736.5058852392803
 30
0.0
  0
POINT
  5
129E
330
1250
100
AcDbEntity
  8
DEFPOINTS
  6
ByBlock
 62
     0
 48
10.0
100
AcDbPoint
 10
446.8019584441263
 20
736.5058852392803
 30
0.0
  0
MTEXT
  5
129F
330
1250
100
AcDbEntity
  8
0
  6
ByBlock
 62
     0
100
AcDbMText
 10
396.8019584441262
 20
936.874999194395
 30
0.0
 40
37.5
 41
0.0
 71
     5
 72
     1
  1
\A1;100
 73
     1
 44
1.0
  0
LINE
  5
12A0
330
1250
100
AcDbEntity
  8
0
  6
ByBlock
 62
     0
100
AcDbLine
 10
409.3019584441264
 20
908.749999194395
 30
0.0
 11
384.3019584441262
 21
908.749999194395
 31
0.0
  0
SOLID
  5
12A1
330
1250
100
AcDbEntity
  8
0
  6
ByBlock
 62
     0
100
AcDbTrace
 10
384.3019584441262
 20
914.999999194395
 30
0.0
 11
384.3019584441262
 21
902.499999194395
 31
0.0
 12
346.8019584441262
 22
908.749999194395
 32
0.0
 13
346.8019584441262
 23
908.749999194395
 33
0.0
  0
POINT
  5
12A2
330
1250
100
AcDbEntity
  8
DEFPOINTS
  6
ByBlock
 62
     0
100
AcDbPoint
 10
346.8019584441262
 20
908.749999194395
 30
0.0
  0
SOLID
  5
12A3
330
1250
100
AcDbEntity
  8
0
  6
ByBlock
 62
     0
100
AcDbTrace
 10
409.3019584441264
 20
914.999999194395
 30
0.0
 11
409.3019584441264
 21
902.499999194395
 31
0.0
 12
446.8019584441264
 22
908.749999194395
 32
0.0
 13
446.8019584441264
 23
908.749999194395
 33
0.0
  0
LINE
  5
12A4
330
1250
100
AcDbEntity
  8
0
  6
ByBlock
 62
     0
 48
10.0
100
AcDbLine
 10
496.8019584441263
 20
758.7499991943955
 30
0.0
 11
496.8019584441263
 21
876.9924315276494
 31
0.0
  0
LINE
  5
12A5
330
1250
100
AcDbEntity
  8
0
  6
ByBlock
 62
     0
 48
10.0
100
AcDbLine
 10
496.8019584441263
 20
792.7558852392803
 30
0.0
 11
496.8019584441263
 21
876.9924315276494
 31
0.0
  0
POINT
  5
12A6
330
1250
100
AcDbEntity
  8
DEFPOINTS
  6
ByBlock
 62
     0
 48
10.0
100
AcDbPoint
 10
496.8019584441263
 20
864.4924315276494
 30
0.0
  0
MTEXT
  5
12A7
330
1250
100
AcDbEntity
  8
0
  6
ByBlock
 62
     0
 48
10.0
100
AcDbMText
 10
817.1331735409131
 20
976.2033045666139
 30
0.0
 40
37.5
 41
0.0
 71
     5
 72
     1
  1
\A1;50
 73
     1
 44
1.0
  0
DIMENSION
  5
12A8
330
1250
100
AcDbEntity
  8
上線
100
AcDbDimension
  2
*D9
 10
1086.801958444126
 20
268.749999194395
 30
0.0
 11
1058.676958444126
 21
488.7499991943951
 31
0.0
 12
-185.2119000337807
 22
-1410.186501132784
 32
0.0
  1
2@220=<>
 71
     5
 42
-1.0
  3
STANDARD
100
AcDbAlignedDimension
 13
936.8019584441263
 23
708.749999194395
 33
0.0
 14
936.8019584441263
 24
268.749999194395
 34
0.0
 50
90.0
100
AcDbRotatedDimension
1001
ACAD
1000
DSTYLE
1002
{
1070
    40
1040
15.0
1070
    41
1040
2.5
1070
    42
1040
0.625
1070
    43
1040
3.75
1070
    44
1040
1.25
1070
    73
1070
     0
1070
    74
1070
     0
1070
    77
1070
     1
1070
    78
1070
     8
1070
   140
1040
2.5
1070
   141
1040
2.5
1070
   143
1040
0.0394
1070
   147
1040
0.625
1070
   171
1070
     4
1070
   172
1070
     1
1070
   273
1070
     8
1070
   274
1070
     4
1070
   277
1070
     6
1002
}
  0
LWPOLYLINE
  5
12A9
330
1250
100
AcDbEntity
  8
上線
 48
10.0
100
AcDbPolyline
 90
        2
 70
     1
 43
5.0
 10
879.244219360835
 20
489.0178669992764
 42
1.0
 10
884.2442193608349
 20
489.0178669992764
 42
1.0
  0
LINE
  5
12AA
330
1250
100
AcDbEntity
  8
上線
 48
10.0
100
AcDbLine
 10
886.8019584441263
 20
708.749999194395
 30
0.0
 11
886.8019584441263
 21
268.749999194395
 31
0.0
  0
LINE
  5
12AB
330
1250
100
AcDbEntity
  8
上線
100
AcDbLine
 10
916.8019584441262
 20
730.749999194395
 30
0.0
 11
916.8019584441262
 21
288.749999194395
 31
0.0
  0
LINE
  5
12AC
330
1250
100
AcDbEntity
  8
上線
100
AcDbLine
 10
796.0130400122903
 20
633.5257089658816
 30
0.0
 11
792.5060411178528
 21
388.0357863552526
 31
0.0
  0
DIMENSION
  5
12AD
330
1250
100
AcDbEntity
  8
上線
100
AcDbDimension
  2
*D10
 10
1086.801958444126
 20
238.749999194395
 30
0.0
 11
1058.676958444126
 21
130.3581452618107
 31
0.0
 12
-185.2119000337807
 22
-1410.186501132784
 32
0.0
 71
     5
 42
-1.0
  3
STANDARD
100
AcDbAlignedDimension
 13
936.8019584441263
 23
268.749999194395
 33
0.0
 14
936.8019584441263
 24
238.749999194395
 34
0.0
 50
90.0
100
AcDbRotatedDimension
1001
ACAD
1000
DSTYLE
1002
{
1070
    40
1040
15.0
1070
    41
1040
2.5
1070
    42
1040
0.625
1070
    43
1040
3.75
1070
    44
1040
1.25
1070
    73
1070
     0
1070
    74
1070
     0
1070
    77
1070
     1
1070
    78
1070
     8
1070
   140
1040
2.5
1070
   141
1040
2.5
1070
   143
1040
0.0394
1070
   147
1040
0.625
1070
   171
1070
     4
1070
   172
1070
     1
1070
   273
1070
     8
1070
   274
1070
     4
1070
   277
1070
     6
1002
}
  0
LINE
  5
12AE
330
1250
100
AcDbEntity
  8
0
  6
ByBlock
 62
     0
 48
10.0
100
AcDbLine
 10
984.5575333859907
 20
268.749999194395
 30
0.0
 11
1066.654704827582
 21
268.749999194395
 31
0.0
  0
LINE
  5
12AF
330
1250
100
AcDbEntity
  8
0
  6
ByBlock
 62
     0
 48
10.0
100
AcDbLine
 10
984.5575333859907
 20
238.749999194395
 30
0.0
 11
1066.654704827582
 21
238.749999194395
 31
0.0
  0
LINE
  5
12B0
330
1250
100
AcDbEntity
  8
0
  6
ByBlock
 62
     0
 48
10.0
100
AcDbLine
 10
984.5575333859907
 20
268.749999194395
 30
0.0
 11
1066.654704827582
 21
268.749999194395
 31
0.0
  0
LINE
  5
12B1
330
1250
100
AcDbEntity
  8
点線
100
AcDbLine
 10
706.8095288968443
 20
338.749999194395
 30
0.0
 11
696.3855810592958
 21
238.749999194395
 31
0.0
  0
LINE
  5
12B2
330
1250
100
AcDbEntity
  8
上線
100
AcDbLine
 10
916.8019584441262
 20
248.7499991943948
 30
0.0
 11
916.8019584441262
 21
288.749999194395
 31
0.0
  0
POINT
  5
12B3
330
1250
100
AcDbEntity
  8
DEFPOINTS
  6
ByBlock
 62
     0
 48
10.0
100
AcDbPoint
 10
741.8019584441262
 20
220.7708691052666
 30
0.0
  0
POINT
  5
12B4
330
1250
100
AcDbEntity
  8
DEFPOINTS
  6
ByBlock
 62
     0
 48
10.0
100
AcDbPoint
 10
751.8019584441263
 20
220.7708691052666
 30
0.0
  0
LINE
  5
12B5
330
1250
100
AcDbEntity
  8
上線
100
AcDbLine
 10
916.8019584441262
 20
159.374999194395
 30
0.0
 11
916.8019584441262
 21
218.749999194395
 31
0.0
  0
LINE
  5
12B6
330
1250
100
AcDbEntity
  8
上線
100
AcDbLine
 10
886.8019584441263
 20
159.374999194395
 30
0.0
 11
886.8019584441263
 21
218.749999194395
 31
0.0
  0
LINE
  5
12B7
330
1250
100
AcDbEntity
  8
上線
100
AcDbLine
 10
916.8019584441262
 20
248.7499991943948
 30
0.0
 11
906.8019584441262
 21
238.7499991943948
 31
0.0
  0
POINT
  5
12B8
330
1250
100
AcDbEntity
  8
DEFPOINTS
  6
ByBlock
 62
     0
 48
10.0
100
AcDbPoint
 10
978.3075333859907
 20
218.749999194395
 30
0.0
  0
POINT
  5
12B9
330
1250
100
AcDbEntity
  8
DEFPOINTS
  6
ByBlock
 62
     0
 48
10.0
100
AcDbPoint
 10
978.3075333859907
 20
218.749999194395
 30
0.0
  0
ARC
  5
12BA
330
1250
100
AcDbEntity
  8
上線
100
AcDbCircle
 10
742.5111423778771
 20
388.749999194395
 30
0.0
 40
50.0
100
AcDbArc
 50
270.0
 51
359.1815445383113
  0
LWPOLYLINE
  5
12BB
330
1250
100
AcDbEntity
  8
上線
 48
10.0
100
AcDbPolyline
 90
        2
 70
     1
 43
5.0
 10
879.244219360835
 20
273.6041892555495
 42
1.0
 10
884.2442193608349
 20
273.6041892555495
 42
1.0
  0
POINT
  5
12BC
330
1250
100
AcDbEntity
  8
DEFPOINTS
  6
ByBlock
 62
     0
 48
10.0
100
AcDbPoint
 10
950.7242605683041
 20
308.749999194395
 30
0.0
  0
POINT
  5
12BD
330
1250
100
AcDbEntity
  8
DEFPOINTS
  6
ByBlock
 62
     0
 48
10.0
100
AcDbPoint
 10
978.3075333859907
 20
288.749999194395
 30
0.0
  0
POINT
  5
12BE
330
1250
100
AcDbEntity
  8
DEFPOINTS
  6
ByBlock
 62
     0
 48
10.0
100
AcDbPoint
 10
978.3075333859907
 20
258.749999194395
 30
0.0
  0
POINT
  5
12BF
330
1250
100
AcDbEntity
  8
DEFPOINTS
  6
ByBlock
 62
     0
 48
10.0
100
AcDbPoint
 10
978.3075333859907
 20
258.749999194395
 30
0.0
  0
POINT
  5
12C0
330
1250
100
AcDbEntity
  8
DEFPOINTS
  6
ByBlock
 62
     0
 48
10.0
100
AcDbPoint
 10
950.7242605683041
 20
488.7499991943951
 30
0.0
  0
POINT
  5
12C1
330
1250
100
AcDbEntity
  8
DEFPOINTS
  6
ByBlock
 62
     0
 48
10.0
100
AcDbPoint
 10
950.7242605683041
 20
488.7499991943951
 30
0.0
  0
POINT
  5
12C2
330
1250
100
AcDbEntity
  8
DEFPOINTS
  6
ByBlock
 62
     0
 48
10.0
100
AcDbPoint
 10
1054.154704827582
 20
238.749999194395
 30
0.0
  0
POINT
  5
12C3
330
1250
100
AcDbEntity
  8
DEFPOINTS
  6
ByBlock
 62
     0
 48
10.0
100
AcDbPoint
 10
1054.154704827582
 20
258.749999194395
 30
0.0
  0
DIMENSION
  5
12C4
330
1250
100
AcDbEntity
  8
上線
100
AcDbDimension
  2
*D8
 10
1086.801958444126
 20
738.7499991943951
 30
0.0
 11
1058.676958444126
 21
847.1418531269792
 31
0.0
 12
-185.2119000337807
 22
-1410.186501132784
 32
0.0
 71
     5
 42
-1.0
  3
STANDARD
100
AcDbAlignedDimension
 13
936.8019584441263
 23
708.749999194395
 33
0.0
 14
936.8019584441263
 24
738.7499991943951
 34
0.0
 50
90.0
100
AcDbRotatedDimension
1001
ACAD
1000
DSTYLE
1002
{
1070
    40
1040
15.0
1070
    41
1040
2.5
1070
    42
1040
0.625
1070
    43
1040
3.75
1070
    44
1040
1.25
1070
    73
1070
     0
1070
    74
1070
     0
1070
    77
1070
     1
1070
    78
1070
     8
1070
   140
1040
2.5
1070
   141
1040
2.5
1070
   143
1040
0.0394
1070
   147
1040
0.625
1070
   171
1070
     4
1070
   172
1070
     1
1070
   273
1070
     8
1070
   274
1070
     4
1070
   277
1070
     6
1002
}
  0
LINE
  5
12C5
330
1250
100
AcDbEntity
  8
0
  6
ByBlock
 62
     0
 48
10.0
100
AcDbLine
 10
956.9742605683041
 20
708.749999194395
 30
0.0
 11
1066.288661039127
 21
708.749999194395
 31
0.0
  0
LINE
  5
12C6
330
1250
100
AcDbEntity
  8
上線
 48
10.0
100
AcDbLine
 10
846.8019584441263
 20
738.7499991943951
 30
0.0
 11
846.8019584441263
 21
688.7499991943951
 31
0.0
  0
ARC
  5
12C7
330
1250
100
AcDbEntity
  8
上線
100
AcDbCircle
 10
908.8019584441262
 20
730.749999194395
 30
0.0
 40
8.0
100
AcDbArc
 50
0.0
 51
90.0
  0
ARC
  5
12C8
330
1250
100
AcDbEntity
  8
上線
100
AcDbCircle
 10
796.8019584441263
 20
688.7499991943951
 30
0.0
 40
50.0
100
AcDbArc
 50
303.4316350040887
 51
0.0
  0
LINE
  5
12C9
330
1250
100
AcDbEntity
  8
上線
 48
10.0
100
AcDbLine
 10
796.8019584441263
 20
633.749999194395
 30
0.0
 11
796.7305298726978
 21
633.749999194395
 31
0.0
  0
LINE
  5
12CA
330
1250
100
AcDbEntity
  8
上線
 48
10.0
100
AcDbLine
 10
803.8367582841861
 20
635.749999194395
 30
0.0
 11
796.0130400122903
 21
633.5257089658816
 31
0.0
  0
LINE
  5
12CB
330
1250
100
AcDbEntity
  8
上線
 48
10.0
100
AcDbLine
 10
806.8019584441262
 20
639.7602043387315
 30
0.0
 11
803.8367582841861
 21
635.749999194395
 31
0.0
  0
ARC
  5
12CC
330
1250
100
AcDbEntity
  8
上線
100
AcDbCircle
 10
796.8019584441263
 20
688.7499991943951
 30
0.0
 40
50.0
100
AcDbArc
 50
281.5369590328155
 51
303.4316350040884
  0
LINE
  5
12CD
330
1250
100
AcDbEntity
  8
上線
100
AcDbLine
 10
796.8019584441263
 20
638.7499991943951
 30
0.0
 11
796.8019584441263
 21
638.7499991943951
 31
0.0
  0
LINE
  5
12CE
330
1250
100
AcDbEntity
  8
上線
100
AcDbLine
 10
846.8019584441263
 20
638.7499991943951
 30
0.0
 11
846.8019584441263
 21
638.7499991943951
 31
0.0
  0
LWPOLYLINE
  5
12CF
330
1250
100
AcDbEntity
  8
上線
 48
10.0
100
AcDbPolyline
 90
        2
 70
     1
 43
5.0
 10
879.244219360835
 20
709.0178669992765
 42
1.0
 10
884.2442193608349
 20
709.0178669992765
 42
1.0
  0
POINT
  5
12D0
330
1250
100
AcDbEntity
  8
DEFPOINTS
  6
ByBlock
 62
     0
 48
10.0
100
AcDbPoint
 10
950.7242605683041
 20
708.749999194395
 30
0.0
  0
LINE
  5
12D1
330
1250
100
AcDbEntity
  8
0
  6
ByBlock
 62
     0
100
AcDbLine
 10
846.8019584441263
 20
908.749999194395
 30
0.0
 11
771.8019584441263
 21
908.749999194395
 31
0.0
  0
LINE
  5
12D2
330
1250
100
AcDbEntity
  8
0
  6
ByBlock
 62
     0
 48
10.0
100
AcDbLine
 10
796.8019584441263
 20
758.7499991943955
 30
0.0
 11
796.8019584441263
 21
876.9924315276494
 31
0.0
  0
LINE
  5
12D3
330
1250
100
AcDbEntity
  8
0
  6
ByBlock
 62
     0
 48
10.0
100
AcDbLine
 10
796.8019584441263
 20
792.7558852392803
 30
0.0
 11
796.8019584441263
 21
876.9924315276494
 31
0.0
  0
POINT
  5
12D4
330
1250
100
AcDbEntity
  8
DEFPOINTS
  6
ByBlock
 62
     0
 48
10.0
100
AcDbPoint
 10
796.8019584441263
 20
864.4924315276494
 30
0.0
  0
LINE
  5
12D5
330
1250
100
AcDbEntity
  8
0
  6
ByBlock
 62
     0
100
AcDbLine
 10
916.8019584441262
 20
768.1249991943951
 30
0.0
 11
916.8019584441262
 21
927.499999194395
 31
0.0
  0
LINE
  5
12D6
330
1250
100
AcDbEntity
  8
0
  6
ByBlock
 62
     0
100
AcDbLine
 10
846.8019584441263
 20
768.1249991943951
 30
0.0
 11
846.8019584441263
 21
927.499999194395
 31
0.0
  0
LINE
  5
12D7
330
1250
100
AcDbEntity
  8
0
  6
ByBlock
 62
     0
 48
10.0
100
AcDbLine
 10
916.8019584441262
 20
792.7558852392803
 30
0.0
 11
916.8019584441262
 21
878.6391810007971
 31
0.0
  0
LINE
  5
12D8
330
1250
100
AcDbEntity
  8
0
  6
ByBlock
 62
     0
 48
10.0
100
AcDbLine
 10
846.8019584441263
 20
758.749999194395
 30
0.0
 11
846.8019584441263
 21
878.6391810007971
 31
0.0
  0
LINE
  5
12D9
330
1250
100
AcDbEntity
  8
0
  6
ByBlock
 62
     0
 48
10.0
100
AcDbLine
 10
846.8019584441263
 20
792.7558852392803
 30
0.0
 11
846.8019584441263
 21
876.9924315276494
 31
0.0
  0
LINE
  5
12DA
330
1250
100
AcDbEntity
  8
0
  6
ByBlock
 62
     0
 48
10.0
100
AcDbLine
 10
916.8019584441262
 20
758.749999194395
 30
0.0
 11
916.8019584441262
 21
964.784778851852
 31
0.0
  0
LINE
  5
12DB
330
1250
100
AcDbEntity
  8
上線
100
AcDbLine
 10
846.8019584441263
 20
738.7499991943951
 30
0.0
 11
908.8019584441262
 21
738.7499991943951
 31
0.0
  0
POINT
  5
12DC
330
1250
100
AcDbEntity
  8
DEFPOINTS
  6
ByBlock
 62
     0
100
AcDbPoint
 10
846.8019584441263
 20
758.749999194395
 30
0.0
  0
POINT
  5
12DD
330
1250
100
AcDbEntity
  8
DEFPOINTS
  6
ByBlock
 62
     0
 48
10.0
100
AcDbPoint
 10
846.8019584441263
 20
736.5058852392803
 30
0.0
  0
POINT
  5
12DE
330
1250
100
AcDbEntity
  8
DEFPOINTS
  6
ByBlock
 62
     0
 48
10.0
100
AcDbPoint
 10
846.8019584441263
 20
736.5058852392803
 30
0.0
  0
POINT
  5
12DF
330
1250
100
AcDbEntity
  8
DEFPOINTS
  6
ByBlock
 62
     0
100
AcDbPoint
 10
916.8019584441262
 20
758.749999194395
 30
0.0
  0
POINT
  5
12E0
330
1250
100
AcDbEntity
  8
DEFPOINTS
  6
ByBlock
 62
     0
 48
10.0
100
AcDbPoint
 10
916.8019584441262
 20
736.5058852392803
 30
0.0
  0
POINT
  5
12E1
330
1250
100
AcDbEntity
  8
DEFPOINTS
  6
ByBlock
 62
     0
 48
10.0
100
AcDbPoint
 10
916.8019584441262
 20
736.5058852392803
 30
0.0
  0
SOLID
  5
12E2
330
1250
100
AcDbEntity
  8
0
  6
ByBlock
 62
     0
100
AcDbTrace
 10
954.3019584441262
 20
914.999999194395
 30
0.0
 11
954.3019584441262
 21
902.499999194395
 31
0.0
 12
916.8019584441262
 22
908.749999194395
 32
0.0
 13
916.8019584441262
 23
908.749999194395
 33
0.0
  0
MTEXT
  5
12E3
330
1250
100
AcDbEntity
  8
0
  6
ByBlock
 62
     0
100
AcDbMText
 10
881.8019584441262
 20
936.874999194395
 30
0.0
 40
37.5
 41
0.0
 71
     5
 72
     1
  1
\A1;70
 73
     1
 44
1.0
  0
LINE
  5
12E4
330
1250
100
AcDbEntity
  8
0
  6
ByBlock
 62
     0
100
AcDbLine
 10
846.8019584441263
 20
908.749999194395
 30
0.0
 11
916.8019584441262
 21
908.749999194395
 31
0.0
  0
LWPOLYLINE
  5
12E5
330
1250
100
AcDbEntity
  8
上線
100
AcDbPolyline
 90
        2
 70
     1
 43
7.5
 10
843.0519584441263
 20
908.749999194395
 42
1.0
 10
850.5519584441262
 20
908.749999194395
 42
1.0
  0
POINT
  5
12E6
330
1250
100
AcDbEntity
  8
DEFPOINTS
  6
ByBlock
 62
     0
 48
10.0
100
AcDbPoint
 10
846.8019584441263
 20
864.4924315276494
 30
0.0
  0
POINT
  5
12E7
330
1250
100
AcDbEntity
  8
DEFPOINTS
  6
ByBlock
 62
     0
100
AcDbPoint
 10
916.8019584441262
 20
908.749999194395
 30
0.0
  0
POINT
  5
12E8
330
1250
100
AcDbEntity
  8
DEFPOINTS
  6
ByBlock
 62
     0
 48
10.0
100
AcDbPoint
 10
916.8019584441262
 20
866.1391810007971
 30
0.0
  0
POINT
  5
12E9
330
1250
100
AcDbEntity
  8
DEFPOINTS
  6
ByBlock
 62
     0
 48
10.0
100
AcDbPoint
 10
916.8019584441262
 20
952.284778851852
 30
0.0
  0
LINE
  5
12EA
330
1250
100
AcDbEntity
  8
0
  6
ByBlock
 62
     0
100
AcDbLine
 10
954.3019584441262
 20
908.749999194395
 30
0.0
 11
991.8019584441262
 21
908.749999194395
 31
0.0
  0
ENDBLK
  5
12EC
330
1250
100
AcDbEntity
  8
0
100
AcDbBlockEnd
  0
BLOCK
  5
1931
330
1927
100
AcDbEntity
  8
0
100
AcDbBlockBegin
  2
*D15
 70
     1
 10
0.0
 20
0.0
 30
0.0
  3
*D15
  1

  0
LINE
  5
1928
330
1927
100
AcDbEntity
  8
基準線
 62
     0
370
    -2
100
AcDbLine
 10
3002.538330236217
 20
57.07879791715004
 30
0.0
 11
3002.538330236217
 21
-139.9418659482125
 31
0.0
  0
LINE
  5
1929
330
1927
100
AcDbEntity
  8
基準線
 62
     0
370
    -2
100
AcDbLine
 10
4149.492950842446
 20
57.07879791715512
 30
0.0
 11
4149.492950842446
 21
-139.9418659482125
 31
0.0
  0
LINE
  5
192A
330
1927
100
AcDbEntity
  8
基準線
 62
     0
370
    -2
100
AcDbLine
 10
3040.038330236217
 20
-121.1918659482125
 30
0.0
 11
4111.992950842447
 21
-121.1918659482125
 31
0.0
  0
SOLID
  5
192B
330
1927
100
AcDbEntity
  8
基準線
 62
     0
100
AcDbTrace
 10
3040.038330236217
 20
-114.9418659482125
 30
0.0
 11
3040.038330236217
 21
-127.4418659482125
 31
0.0
 12
3002.538330236217
 22
-121.1918659482125
 32
0.0
 13
3002.538330236217
 23
-121.1918659482125
 33
0.0
  0
SOLID
  5
192C
330
1927
100
AcDbEntity
  8
基準線
 62
     0
100
AcDbTrace
 10
4111.992950842447
 20
-114.9418659482125
 30
0.0
 11
4111.992950842447
 21
-127.4418659482125
 31
0.0
 12
4149.492950842446
 22
-121.1918659482125
 32
0.0
 13
4149.492950842446
 23
-121.1918659482125
 33
0.0
  0
MTEXT
  5
192D
330
1927
100
AcDbEntity
  8
基準線
 62
     0
100
AcDbMText
 10
3576.015640539331
 20
-89.80141651001034
 30
0.0
 40
37.5
 41
0.0
 71
     5
 72
     1
  1
\A1;1,146.9546
 73
     1
 44
1.0
  0
POINT
  5
192E
330
1927
100
AcDbEntity
  8
DEFPOINTS
 62
     0
100
AcDbPoint
 10
3002.538330236217
 20
66.45379791715004
 30
0.0
  0
POINT
  5
192F
330
1927
100
AcDbEntity
  8
DEFPOINTS
 62
     0
100
AcDbPoint
 10
4149.492950842446
 20
66.45379791715512
 30
0.0
  0
POINT
  5
1930
330
1927
100
AcDbEntity
  8
DEFPOINTS
 62
     0
100
AcDbPoint
 10
4149.492950842446
 20
-121.1918659482125
 30
0.0
  0
ENDBLK
  5
1932
330
1927
100
AcDbEntity
  8
0
100
AcDbBlockEnd
  0
ENDSEC
  0
SECTION
  2
ENTITIES
  0
LINE
  5
107
330
18
100
AcDbEntity
  8
上線
100
AcDbLine
 10
5568.041507094019
 20
1664.516635661831
 30
0.0
 11
5568.041507094019
 21
984.5166356618321
 31
0.0
  0
LINE
  5
302
330
18
100
AcDbEntity
  8
上線
 48
10.0
100
AcDbLine
 10
6384.992623904476
 20
1674.516635661831
 30
0.0
 11
8384.992623904476
 21
1674.516635661831
 31
0.0
  0
LINE
  5
303
330
18
100
AcDbEntity
  8
上線
 48
10.0
100
AcDbLine
 10
6384.992623904476
 20
974.5166356618318
 30
0.0
 11
8384.992623904476
 21
974.5166356618319
 31
0.0
  0
LINE
  5
318
330
18
100
AcDbEntity
  8
上線
 48
10.0
100
AcDbLine
 10
8384.992623904476
 20
1674.516635661831
 30
0.0
 11
8384.992623904476
 21
974.5166356618319
 31
0.0
  0
LINE
  5
31D
330
18
100
AcDbEntity
  8
上線
 48
10.0
100
AcDbLine
 10
6384.992623904476
 20
1674.516635661831
 30
0.0
 11
6384.992623904476
 21
974.5166356618318
 31
0.0
  0
MTEXT
  5
479
330
18
100
AcDbEntity
  8
上線
 48
10.0
100
AcDbMText
 10
2253.72144281457
 20
1430.035937614872
 30
0.0
 40
25.0
 41
0.0
 71
     4
 72
     1
  1
\A1;
 73
     1
 44
1.0
  0
MTEXT
  5
482
330
18
100
AcDbEntity
  8
上線
 48
10.0
100
AcDbMText
 10
2528.397580071227
 20
1457.117940756564
 30
0.0
 40
25.0
 41
0.0
 71
     4
 72
     1
  1
\A1;
 73
     1
 44
1.0
  0
LINE
  5
F0E
330
18
100
AcDbEntity
  8
基準線
100
AcDbLine
 10
626.2637100491338
 20
1633.696318191991
 30
0.0
 11
626.2637100491338
 21
864.8577373422794
 31
0.0
  0
LINE
  5
FA8
330
18
100
AcDbEntity
  8
基準線
100
AcDbLine
 10
1206.263710049134
 20
1133.69631819199
 30
0.0
 11
1564.107687155901
 21
1133.69631819199
 31
0.0
  0
LINE
  5
FAA
330
18
100
AcDbEntity
  8
基準線
100
AcDbLine
 10
1206.263710049134
 20
1163.69631819199
 30
0.0
 11
1564.107687155901
 21
1163.69631819199
 31
0.0
  0
LINE
  5
10C1
330
18
100
AcDbEntity
  8
基準線
100
AcDbLine
 10
646.2637100491337
 20
1683.696318191991
 30
0.0
 11
124.0319890515893
 21
1683.696318191991
 31
0.0
  0
LINE
  5
10DE
330
18
100
AcDbEntity
  8
基準線
100
AcDbLine
 10
2929.45590405981
 20
1039.009985663722
 30
0.0
 11
3151.727101813951
 21
1039.009985663722
 31
0.0
  0
LINE
  5
10ED
330
18
100
AcDbEntity
  8
点線
100
AcDbLine
 10
8384.992623904476
 20
1474.516635661831
 30
0.0
 11
6384.992623904476
 21
1474.516635661831
 31
0.0
  0
LINE
  5
10F4
330
18
100
AcDbEntity
  8
基準線
100
AcDbLine
 10
3002.538330236217
 20
266.45379791715
 30
0.0
 11
3538.454060485323
 21
266.45379791715
 31
0.0
  0
LINE
  5
10F6
330
18
100
AcDbEntity
  8
基準線
100
AcDbLine
 10
3538.454060485323
 20
266.45379791715
 30
0.0
 11
4149.492950842446
 21
266.45379791715
 31
0.0
  0
LINE
  5
1164
330
18
100
AcDbEntity
  8
基準線
100
AcDbLine
 10
746.2637100491337
 20
1533.69631819199
 30
0.0
 11
222.3475710465136
 21
1533.69631819199
 31
0.0
  0
LINE
  5
1170
330
18
100
AcDbEntity
  8
基準線
100
AcDbLine
 10
696.2637100491337
 20
1633.696318191991
 30
0.0
 11
-29.86892741738847
 21
1633.696318191991
 31
0.0
  0
LINE
  5
117C
330
18
100
AcDbEntity
  8
基準線
100
AcDbLine
 10
1181.263710049133
 20
1383.696318191991
 30
0.0
 11
1642.392332062234
 21
1383.696318191991
 31
0.0
  0
LINE
  5
11A1
330
18
100
AcDbEntity
  8
点線
100
AcDbLine
 10
8384.992623904476
 20
1074.516635661831
 30
0.0
 11
6384.992623904476
 21
1074.516635661831
 31
0.0
  0
LINE
  5
11A2
330
18
100
AcDbEntity
  8
基準線
100
AcDbLine
 10
2952.815058180269
 20
1927.622025051699
 30
0.0
 11
3119.84885248373
 21
1927.622025051699
 31
0.0
  0
LINE
  5
12F0
330
18
100
AcDbEntity
  8
基準線
100
AcDbLine
 10
4083.141758329654
 20
1633.696318191991
 30
0.0
 11
4083.141758329654
 21
2147.379536494602
 31
0.0
  0
LINE
  5
130C
330
18
100
AcDbEntity
  8
基準線
100
AcDbLine
 10
697.3719881960278
 20
1025.269288012343
 30
0.0
 11
970.6190243844249
 21
1025.269288012343
 31
0.0
  0
LINE
  5
16EF
330
18
100
AcDbEntity
  8
基準線
100
AcDbLine
 10
7314.127691591993
 20
342.8567527658483
 30
0.0
 11
7943.369744876169
 21
342.8567527658454
 31
0.0
  0
LINE
  5
17A0
330
18
100
AcDbEntity
  8
上線
100
AcDbLine
 10
5428.040039424391
 20
1374.345313630308
 30
0.0
 11
5423.744122098118
 21
1123.631100791165
 31
0.0
  0
LINE
  5
17A1
330
18
100
AcDbEntity
  8
上線
100
AcDbLine
 10
5418.041507094019
 20
1374.516635661831
 30
0.0
 11
5413.745589767746
 21
1123.802422822689
 31
0.0
  0
LINE
  5
17A2
330
18
100
AcDbEntity
  8
上線
100
AcDbLine
 10
5118.041507094019
 20
1374.516635661832
 30
0.0
 11
5122.337424420291
 21
1123.802422822689
 31
0.0
  0
LINE
  5
17A5
330
18
100
AcDbEntity
  8
上線
100
AcDbLine
 10
4968.041507094019
 20
1474.516635661832
 30
0.0
 11
4968.041507094019
 21
984.5166356618319
 31
0.0
  0
LINE
  5
17AB
330
18
100
AcDbEntity
  8
上線
100
AcDbLine
 10
5268.457884478848
 20
1064.516635661831
 30
0.0
 11
5363.75069102777
 21
1064.516635661831
 31
0.0
  0
LINE
  5
17AC
330
18
100
AcDbEntity
  8
上線
100
AcDbLine
 10
5558.041507094018
 20
974.5166356618318
 30
0.0
 11
4978.041507094019
 21
974.5166356618318
 31
0.0
  0
LINE
  5
17AD
330
18
100
AcDbEntity
  8
上線
100
AcDbLine
 10
5172.332323160269
 20
1074.516635661831
 30
0.0
 11
5363.75069102777
 21
1074.516635661831
 31
0.0
  0
ARC
  5
17C1
330
18
100
AcDbEntity
  8
上線
100
AcDbCircle
 10
5363.75069102777
 20
1124.516635661831
 30
0.0
 40
60.0
100
AcDbArc
 50
270.0
 51
359.1815445383113
  0
ARC
  5
17C2
330
18
100
AcDbEntity
  8
上線
100
AcDbCircle
 10
5363.75069102777
 20
1124.516635661831
 30
0.0
 40
50.0
100
AcDbArc
 50
270.0
 51
359.1815445383113
  0
LINE
  5
17C3
330
18
100
AcDbEntity
  8
上線
100
AcDbLine
 10
5568.041507094018
 20
984.5166356618319
 30
0.0
 11
5558.041507094018
 21
974.5166356618319
 31
0.0
  0
ARC
  5
17D1
330
18
100
AcDbEntity
  8
上線
100
AcDbCircle
 10
5172.332323160269
 20
1124.516635661831
 30
0.0
 40
50.0
100
AcDbArc
 50
180.8184554616886
 51
269.9999999999999
  0
LINE
  5
17DA
330
18
100
AcDbEntity
  8
上線
100
AcDbLine
 10
4968.041507094019
 20
984.5166356618317
 30
0.0
 11
4978.041507094019
 21
974.5166356618318
 31
0.0
  0
LINE
  5
17EA
330
18
100
AcDbEntity
  8
上線
100
AcDbLine
 10
5468.041507094019
 20
1674.516635661831
 30
0.0
 11
5558.041507094019
 21
1674.516635661831
 31
0.0
  0
LINE
  5
17EC
330
18
100
AcDbEntity
  8
上線
100
AcDbLine
 10
5468.041507094019
 20
1674.516635661831
 30
0.0
 11
5468.041507094019
 21
1374.516635661831
 31
0.0
  0
LINE
  5
17ED
330
18
100
AcDbEntity
  8
上線
100
AcDbLine
 10
5468.041507094019
 20
1374.516635661831
 30
0.0
 11
5418.041507094019
 21
1374.516635661831
 31
0.0
  0
LINE
  5
17F9
330
18
100
AcDbEntity
  8
上線
100
AcDbLine
 10
5068.041507094018
 20
1474.516635661831
 30
0.0
 11
4968.041507094019
 21
1474.516635661831
 31
0.0
  0
LINE
  5
17FC
330
18
100
AcDbEntity
  8
上線
 48
10.0
100
AcDbLine
 10
5068.041507094018
 20
1474.516635661831
 30
0.0
 11
5068.041507094018
 21
1374.516635661832
 31
0.0
  0
LINE
  5
17FE
330
18
100
AcDbEntity
  8
上線
100
AcDbLine
 10
5068.041507094018
 20
1374.516635661832
 30
0.0
 11
5118.041507094019
 21
1374.516635661831
 31
0.0
  0
LINE
  5
1824
330
18
100
AcDbEntity
  8
上線
100
AcDbLine
 10
5108.042974763646
 20
1374.345313630308
 30
0.0
 11
5112.338892089919
 21
1123.631100791165
 31
0.0
  0
ARC
  5
1825
330
18
100
AcDbEntity
  8
上線
100
AcDbCircle
 10
5172.332323160269
 20
1124.516635661831
 30
0.0
 40
60.0
100
AcDbArc
 50
180.8184554616886
 51
270.0
  0
LINE
  5
1826
330
18
100
AcDbEntity
  8
上線
100
AcDbLine
 10
5267.625129709188
 20
1064.516635661831
 30
0.0
 11
5172.332323160269
 21
1064.516635661831
 31
0.0
  0
LINE
  5
1845
330
18
100
AcDbEntity
  8
上線
100
AcDbLine
 10
5568.041507094019
 20
1664.516635661831
 30
0.0
 11
5558.041507094019
 21
1674.516635661831
 31
0.0
  0
LINE
  5
18AA
330
18
100
AcDbEntity
  8
上線
 48
10.0
100
AcDbLine
 10
6384.992623904476
 20
1664.516635661831
 30
0.0
 11
8384.992623904476
 21
1664.516635661831
 31
0.0
  0
LINE
  5
18B2
330
18
100
AcDbEntity
  8
点線
100
AcDbLine
 10
8384.992623904476
 20
1374.516635661831
 30
0.0
 11
6384.992623904476
 21
1374.516635661831
 31
0.0
  0
DIMENSION
  5
1926
330
18
100
AcDbEntity
  8
基準線
100
AcDbDimension
  2
*D15
 10
4149.492950842446
 20
-121.1918659482125
 30
0.0
 11
3576.015640539331
 21
-89.80141651001034
 31
0.0
 70
    32
 71
     5
 42
1146.954620606229
  3
STANDARD
100
AcDbAlignedDimension
 13
3002.538330236217
 23
66.45379791715004
 33
0.0
 14
4149.492950842446
 24
66.45379791715512
 34
0.0
100
AcDbRotatedDimension
1001
ACAD
1000
DSTYLE
1002
{
1070
    40
1040
15.0
1070
    41
1040
2.5
1070
    42
1040
0.625
1070
    43
1040
3.75
1070
    44
1040
1.25
1070
    73
1070
     0
1070
    74
1070
     0
1070
    77
1070
     1
1070
    78
1070
     8
1070
   140
1040
2.5
1070
   141
1040
2.5
1070
   143
1040
0.0394
1070
   147
1040
0.625
1070
   171
1070
     4
1070
   172
1070
     1
1070
   273
1070
     8
1070
   274
1070
     4
1070
   277
1070
     6
1002
}
  0
LINE
  5
1984
330
18
100
AcDbEntity
  8
上線
 48
10.0
100
AcDbLine
 10
6384.992623904476
 20
984.5166368796057
 30
0.0
 11
8384.992623904476
 21
984.5166368796061
 31
0.0
  0
MTEXT
  5
1A36
330
18
100
AcDbEntity
  8
0
  6
ByBlock
 62
     0
 48
10.0
100
AcDbMText
 10
5866.541498291063
 20
1324.516635661789
 30
0.0
 40
37.5
 41
0.0
 71
     5
 72
     1
  1
700
 11
0.0000000000000001
 21
1.0
 31
0.0
 73
     1
 44
1.0
  0
LINE
  5
1A37
330
18
100
AcDbEntity
  8
0
 48
10.0
100
AcDbLine
 10
5413.223146149337
 20
1218.516621068632
 30
0.0
 11
5413.223146149337
 21
1338.516621068632
 31
0.0
  0
LINE
  5
1A38
330
18
100
AcDbEntity
  8
0
 48
10.0
100
AcDbLine
 10
5123.223146149292
 20
1218.516621068632
 30
0.0
 11
5123.223146149292
 21
1338.516621068632
 31
0.0
  0
LINE
  5
1A39
330
18
100
AcDbEntity
  8
OBJECT
 48
10.0
100
AcDbLine
 10
5746.541489527641
 20
974.5166356617881
 30
0.0
 11
5746.541489527642
 21
1674.516635661833
 31
0.0
  0
LINE
  5
1A3A
330
18
100
AcDbEntity
  8
OBJECT
 48
10.0
100
AcDbLine
 10
5896.541498291064
 20
974.5166356617881
 30
0.0
 11
5896.541498291064
 21
1674.516635661833
 31
0.0
  0
LINE
  5
1A3B
330
18
100
AcDbEntity
  8
OBJECT
 48
10.0
100
AcDbLine
 10
4639.541515896975
 20
974.5166356617879
 30
0.0
 11
4639.541515896975
 21
1474.516635661832
 31
0.0
  0
LINE
  5
1A3C
330
18
100
AcDbEntity
  8
OBJECT
 48
10.0
100
AcDbLine
 10
4789.541524660398
 20
974.5166356617879
 30
0.0
 11
4789.541524660397
 21
1474.516635661832
 31
0.0
  0
LINE
  5
1A3D
330
18
100
AcDbEntity
  8
WUWAGAKI
100
AcDbLine
 10
4425.106844855855
 20
2979.341963201569
 30
0.0
 11
4425.106844855855
 21
53.19211140544576
 31
0.0
  0
LINE
  5
1A3E
330
18
100
AcDbEntity
  8
WUWAGAKI
100
AcDbLine
 10
8695.825763482773
 20
53.19211140544576
 30
0.0
 11
8695.825763482773
 21
2979.341963201569
 31
0.0
  0
LINE
  5
1A48
330
18
100
AcDbEntity
  8
WUWAGAKI
100
AcDbLine
 10
4425.106844855855
 20
53.19211140544576
 30
0.0
 11
8695.825763482773
 21
53.19211140544576
 31
0.0
  0
LINE
  5
1A4C
330
18
100
AcDbEntity
  8
0
 48
10.0
100
AcDbLine
 10
5596.54149829106
 20
974.516635661789
 30
0.0
 11
5926.54149829106
 21
974.5166356617881
 31
0.0
  0
SOLID
  5
1A4E
330
18
100
AcDbEntity
  8
0
  6
ByBlock
 62
     0
 48
10.0
100
AcDbTrace
 10
4645.791515896974
 20
1012.016635661809
 30
0.0
 11
4633.291515896974
 21
1012.016635661809
 31
0.0
 12
4639.541515896975
 22
974.5166356618097
 32
0.0
 13
4639.541515896975
 23
974.5166356618097
 33
0.0
  0
SOLID
  5
1A4F
330
18
100
AcDbEntity
  8
0
  6
ByBlock
 62
     0
 48
10.0
100
AcDbTrace
 10
4783.291524660399
 20
1012.016647520942
 30
0.0
 11
4795.791524660399
 21
1012.016647520942
 31
0.0
 12
4789.541524660399
 22
974.5166475209421
 32
0.0
 13
4789.541524660399
 23
974.5166475209421
 33
0.0
  0
MTEXT
  5
1A50
330
18
100
AcDbEntity
  8
0
  6
ByBlock
 62
     0
 48
10.0
100
AcDbMText
 10
4759.541522683865
 20
1024.516635661788
 30
0.0
 40
37.5
 41
0.0
 71
     5
 72
     1
  1
100
 11
0.0000000000000001
 21
1.0
 31
0.0
 73
     1
 44
1.0
  0
LINE
  5
1A51
330
18
100
AcDbEntity
  8
0
 48
10.0
100
AcDbLine
 10
4939.541515896979
 20
974.5166356617879
 30
0.0
 11
4609.541515896979
 21
974.5166356617879
 31
0.0
  0
MTEXT
  5
1A52
330
18
100
AcDbEntity
  8
0
  6
ByBlock
 62
     0
 48
10.0
100
AcDbMText
 10
4609.541515896975
 20
1224.516635661831
 30
0.0
 40
37.5
 41
0.0
 71
     5
 72
     1
  1
500
 11
0.0000000000000001
 21
1.0
 31
0.0
 73
     1
 44
1.0
  0
LINE
  5
1A53
330
18
100
AcDbEntity
  8
0
 48
10.0
100
AcDbLine
 10
4939.54152599217
 20
1074.516635661787
 30
0.0
 11
4759.54152599217
 21
1074.516635661787
 31
0.0
  0
SOLID
  5
1A54
330
18
100
AcDbEntity
  8
0
  6
ByBlock
 62
     0
 48
10.0
100
AcDbTrace
 10
4795.791507133555
 20
1037.016635661782
 30
0.0
 11
4783.291507133557
 21
1037.016635661782
 31
0.0
 12
4789.541507133554
 22
1074.516635661782
 32
0.0
 13
4789.541507133554
 23
1074.516635661782
 33
0.0
  0
SOLID
  5
1A55
330
18
100
AcDbEntity
  8
0
  6
ByBlock
 62
     0
 48
10.0
100
AcDbTrace
 10
4795.791507133555
 20
1112.016635661793
 30
0.0
 11
4783.291507133557
 21
1112.016635661793
 31
0.0
 12
4789.541507133554
 22
1074.516635661793
 32
0.0
 13
4789.541507133554
 23
1074.516635661793
 33
0.0
  0
MTEXT
  5
1A56
330
18
100
AcDbEntity
  8
0
  6
ByBlock
 62
     0
 48
10.0
100
AcDbMText
 10
4759.541515896979
 20
1224.516635661831
 30
0.0
 40
37.5
 41
0.0
 71
     5
 72
     1
  1
300
 11
0.0000000000000001
 21
1.0
 31
0.0
 73
     1
 44
1.0
  0
LINE
  5
1A5B
330
18
100
AcDbEntity
  8
WUWAGAKI
 48
10.0
100
AcDbLine
 10
5152.750904711524
 20
1100.324461913112
 30
0.0
 11
5198.902639500204
 21
1134.523521293724
 31
0.0
210
0.0
220
0.0
230
-1.0
1001
ACAD
1000
DSTYLE
1002
{
1070
    78
1070
     8
1070
   270
1070
     8
1070
   140
1040
2.5
1070
    74
1070
     0
1070
   172
1070
     1
1070
    73
1070
     0
1070
    77
1070
     1
1070
    40
1040
10.0
1070
   147
1040
0.625
1070
    42
1040
0.625
1070
    44
1040
1.25
1070
    43
1040
3.75
1070
   141
1040
2.5
1070
    41
1040
2.5
1070
   273
1070
     8
1070
   274
1070
     4
1070
   143
1040
0.0394
1070
   171
1070
     4
1002
}
  0
SOLID
  5
1A5C
330
18
100
AcDbEntity
  8
0
  6
ByBlock
 62
     0
 48
10.0
100
AcDbTrace
 10
5164.232162048734
 20
1116.37568110092
 30
0.0
 11
5171.623532048016
 21
1106.29512310378
 31
0.0
 12
5137.686173056958
 22
1089.161292104495
 32
0.0
 13
5137.686173056958
 23
1089.161292104495
 33
0.0
  0
LINE
  5
1A60
330
18
100
AcDbEntity
  8
OBJECT
 48
10.0
100
AcDbLine
 10
5198.902639500204
 20
1134.523521293724
 30
0.0
 11
5303.902639500204
 21
1134.523521293724
 31
0.0
  0
MTEXT
  5
1A61
330
18
100
AcDbEntity
  8
0
  6
ByBlock
 62
     0
 48
10.0
100
AcDbMText
 10
5251.402639500204
 20
1164.523521293724
 30
0.0
 40
30.0
 41
0.0
 71
     5
 72
     1
  1
50R
 73
     1
 44
1.0
  0
SOLID
  5
1A64
330
18
100
AcDbEntity
  8
0
  6
ByBlock
 62
     0
 48
10.0
100
AcDbTrace
 10
5890.291498291064
 20
1012.01663566181
 30
0.0
 11
5902.791498291064
 21
1012.01663566181
 31
0.0
 12
5896.541498291064
 22
974.5166356618108
 32
0.0
 13
5896.541498291064
 23
974.5166356618108
 33
0.0
  0
SOLID
  5
1A65
330
18
100
AcDbEntity
  8
0
  6
ByBlock
 62
     0
 48
10.0
100
AcDbTrace
 10
5740.291498291064
 20
1012.016530500744
 30
0.0
 11
5752.79149829106
 21
1012.016530500744
 31
0.0
 12
5746.541498291064
 22
974.5165305007446
 32
0.0
 13
5746.541498291064
 23
974.5165305007446
 33
0.0
  0
MTEXT
  5
1A66
330
18
100
AcDbEntity
  8
0
  6
ByBlock
 62
     0
 48
10.0
100
AcDbMText
 10
5716.541480764223
 20
1224.516635661788
 30
0.0
 40
37.5
 41
0.0
 71
     5
 72
     1
  1
500
 11
0.0000000000000001
 21
1.0
 31
0.0
 73
     1
 44
1.0
  0
TEXT
  5
1A67
330
18
100
AcDbEntity
  8
WUWAGAKI
100
AcDbText
 10
7813.6426471429
 20
372.833275294154
 30
0.0
 40
47.25
  1
300×300×150/150×2000
100
AcDbText
  0
LINE
  5
1A68
330
18
100
AcDbEntity
  8
WUWAGAKI
100
AcDbLine
 10
7536.526175574394
 20
121.6916458472483
 30
0.0
 11
8629.322750674816
 21
121.6916458472483
 31
0.0
  0
LINE
  5
1A69
330
18
100
AcDbEntity
  8
WUWAGAKI
100
AcDbLine
 10
7536.526175574394
 20
351.2354055670657
 30
0.0
 11
8629.322750674814
 21
351.2354055670657
 31
0.0
  0
LINE
  5
1A6A
330
18
100
AcDbEntity
  8
WUWAGAKI
100
AcDbLine
 10
7536.526175574394
 20
252.7203414024597
 30
0.0
 11
8629.322750674814
 21
252.7203414024597
 31
0.0
  0
TEXT
  5
1A6B
330
18
100
AcDbEntity
  8
WUWAGAKI
100
AcDbText
 10
8407.04056008913
 20
275.2038521851677
 30
0.0
 40
45.0
  1
 920㎏
100
AcDbText
  0
LINE
  5
1A6C
330
18
100
AcDbEntity
  8
WUWAGAKI
100
AcDbLine
 10
7536.526175574394
 20
541.6720784768176
 30
0.0
 11
8629.322750674816
 21
541.6720784768176
 31
0.0
  0
LINE
  5
1A6D
330
18
100
AcDbEntity
  8
WUWAGAKI
100
AcDbLine
 10
7536.526175574394
 20
447.1417905316807
 30
0.0
 11
8626.690928339055
 21
447.1417905316807
 31
0.0
  0
LINE
  5
1A6E
330
18
100
AcDbEntity
  8
WUWAGAKI
100
AcDbLine
 10
7536.526175574394
 20
447.1417905316807
 30
0.0
 11
8626.690928339055
 21
447.1417905316807
 31
0.0
  0
TEXT
  5
1A6F
330
18
100
AcDbEntity
  8
WUWAGAKI
100
AcDbText
 10
7813.6426471429
 20
470.8485175531368
 30
0.0
 40
45.0
  1
土留め付 長尺Ｕ字溝 H=200
100
AcDbText
  0
TEXT
  5
1A70
330
18
100
AcDbEntity
  8
WUWAGAKI
100
AcDbText
 10
7609.052377097754
 20
275.7908847207331
 30
0.0
 40
45.0
  1
縮尺
100
AcDbText
  0
TEXT
  5
1A71
330
18
100
AcDbEntity
  8
WUWAGAKI
100
AcDbText
 10
7581.404619336673
 20
372.2888377122144
 30
0.0
 40
45.0
  1
寸　法
100
AcDbText
  0
TEXT
  5
1A72
330
18
100
AcDbEntity
  8
WUWAGAKI
100
AcDbText
 10
7584.059831223093
 20
473.4276777491959
 30
0.0
 40
45.0
  1
種　別
100
AcDbText
  0
LINE
  5
1A73
330
18
100
AcDbEntity
  8
WUWAGAKI
100
AcDbLine
 10
7536.526175574394
 20
541.6720784768176
 30
0.0
 11
7536.526175574394
 21
121.6916458472483
 31
0.0
  0
LINE
  5
1A74
330
18
100
AcDbEntity
  8
WUWAGAKI
100
AcDbLine
 10
7788.6426471429
 20
541.6720784768176
 30
0.0
 11
7788.6426471429
 21
252.7203414024597
 31
0.0
  0
TEXT
  5
1A75
330
18
100
AcDbEntity
  8
WUWAGAKI
100
AcDbText
 10
7775.23160847387
 20
153.2992126536346
 30
0.0
 40
60.0
  1
㈱　ウ　チ　コ　ン
100
AcDbText
  0
TEXT
  5
1A76
330
18
100
AcDbEntity
  8
WUWAGAKI
100
AcDbText
 10
7854.33491988845
 20
277.0928001501902
 30
0.0
 40
45.0
  1
S＝　1：15
100
AcDbText
  0
TEXT
  5
1A77
330
18
100
AcDbEntity
  8
WUWAGAKI
100
AcDbText
 10
8209.739909078956
 20
277.1422376617315
 30
0.0
 40
45.0
  1
重量
100
AcDbText
  0
LINE
  5
1A78
330
18
100
AcDbEntity
  8
WUWAGAKI
100
AcDbLine
 10
8182.812133326811
 20
351.2354055670657
 30
0.0
 11
8182.812133326811
 21
252.7203414024597
 31
0.0
  0
LINE
  5
1A79
330
18
100
AcDbEntity
  8
WUWAGAKI
100
AcDbLine
 10
8367.040560089128
 20
351.2354055670657
 30
0.0
 11
8367.040560089128
 21
252.7203414024597
 31
0.0
  0
LINE
  5
1A7A
330
18
100
AcDbEntity
  8
WUWAGAKI
100
AcDbLine
 10
8629.322750674816
 20
121.6916458472483
 30
0.0
 11
8629.322750674816
 21
541.6720784768176
 31
0.0
  0
LINE
  5
1A7B
330
18
100
AcDbEntity
  8
OBJECT
 48
10.0
100
AcDbLine
 10
8384.992623904476
 20
2004.51662689841
 30
0.0
 11
6384.992623904473
 21
2004.516626898412
 31
0.0
  0
LINE
  5
1A7C
330
18
100
AcDbEntity
  8
WUWAGAKI
100
AcDbLine
 10
8695.825763482773
 20
2979.341963201569
 30
0.0
 11
4425.106844855855
 21
2979.341963201569
 31
0.0
  0
LINE
  5
1A81
330
18
100
AcDbEntity
  8
上線
100
AcDbLine
 10
5398.796748046578
 20
2563.126079236164
 30
0.0
 11
5398.796748046578
 21
2662.83046198217
 31
0.0
  0
LINE
  5
1A82
330
18
100
AcDbEntity
  8
上線
100
AcDbLine
 10
5395.796748046578
 20
2566.126079236164
 30
0.0
 11
5395.796748046578
 21
2659.830461982169
 31
0.0
  0
LINE
  5
1A83
330
18
100
AcDbEntity
  8
上線
100
AcDbLine
 10
5137.286317786447
 20
2662.83046198217
 30
0.0
 11
5137.286317786447
 21
2563.126079236164
 31
0.0
  0
LINE
  5
1A84
330
18
100
AcDbEntity
  8
上線
100
AcDbLine
 10
5140.286317786447
 20
2659.830461982169
 30
0.0
 11
5140.286317786447
 21
2566.126079236164
 31
0.0
  0
LINE
  5
1A85
330
18
100
AcDbEntity
  8
0
 48
10.0
100
AcDbLine
 10
5596.541488195868
 20
1474.516635661833
 30
0.0
 11
5776.541488195869
 21
1474.516635661833
 31
0.0
  0
LINE
  5
1A86
330
18
100
AcDbEntity
  8
0
 48
10.0
100
AcDbLine
 10
5596.541498291063
 20
1674.516635661833
 30
0.0
 11
5926.541498291063
 21
1674.516635661833
 31
0.0
  0
LINE
  5
1A87
330
18
100
AcDbEntity
  8
WUWAGAKI
 48
10.0
100
AcDbLine
 10
5578.106238748585
 20
1680.679805470448
 30
0.0
 11
5691.229823983664
 21
1764.505911390764
 31
0.0
210
0.0
220
0.0
230
-1.0
1001
ACAD
1000
DSTYLE
1002
{
1070
    78
1070
     8
1070
   270
1070
     8
1070
   140
1040
2.5
1070
    74
1070
     0
1070
   172
1070
     1
1070
    73
1070
     0
1070
    77
1070
     1
1070
    40
1040
10.0
1070
   147
1040
0.625
1070
    42
1040
0.625
1070
    44
1040
1.25
1070
    43
1040
3.75
1070
   141
1040
2.5
1070
    41
1040
2.5
1070
   273
1070
     8
1070
   274
1070
     4
1070
   143
1040
0.0394
1070
   171
1070
     4
1002
}
  0
LINE
  5
1A88
330
18
100
AcDbEntity
  8
0
 48
10.0
100
AcDbLine
 10
4968.04153291649
 20
1704.516635661831
 30
0.0
 11
4968.04153291649
 21
2034.516635661831
 31
0.0
  0
LINE
  5
1A89
330
18
100
AcDbEntity
  8
0
 48
10.0
100
AcDbLine
 10
5568.041532916534
 20
1704.516635661835
 30
0.0
 11
5568.041532916534
 21
2034.516635661835
 31
0.0
  0
SOLID
  5
1A8A
330
18
100
AcDbEntity
  8
0
  6
ByBlock
 62
     0
 48
10.0
100
AcDbTrace
 10
5005.541532916491
 20
1848.266626898413
 30
0.0
 11
5005.541532916491
 21
1860.766626898412
 31
0.0
 12
4968.04153291649
 22
1854.516626898415
 32
0.0
 13
4968.04153291649
 23
1854.516626898415
 33
0.0
  0
LINE
  5
1A8B
330
18
100
AcDbEntity
  8
OBJECT
 48
10.0
100
AcDbLine
 10
4968.04153291649
 20
1854.516626898412
 30
0.0
 11
5568.041532916534
 21
1854.516626898415
 31
0.0
  0
LINE
  5
1A8D
330
18
100
AcDbEntity
  8
0
 48
10.0
100
AcDbLine
 10
4939.541515896975
 20
1474.516635661832
 30
0.0
 11
4609.541515896975
 21
1474.516635661832
 31
0.0
  0
MTEXT
  5
1A8E
330
18
100
AcDbEntity
  8
0
  6
ByBlock
 62
     0
 48
10.0
100
AcDbMText
 10
4759.541524660397
 20
1424.516635661832
 30
0.0
 40
37.5
 41
0.0
 71
     5
 72
     1
  1
100
 11
0.0000000000000001
 21
1.0
 31
0.0
 73
     1
 44
1.0
  0
LINE
  5
1A8F
330
18
100
AcDbEntity
  8
0
 48
10.0
100
AcDbLine
 10
4939.54152599217
 20
1374.516635661832
 30
0.0
 11
4759.54152599217
 21
1374.516635661832
 31
0.0
  0
SOLID
  5
1A90
330
18
100
AcDbEntity
  8
0
  6
ByBlock
 62
     0
 48
10.0
100
AcDbTrace
 10
4795.791515896975
 20
1337.016740822876
 30
0.0
 11
4783.291515896979
 21
1337.016740822876
 31
0.0
 12
4789.541515896975
 22
1374.516740822876
 32
0.0
 13
4789.541515896975
 23
1374.516740822876
 33
0.0
  0
SOLID
  5
1A91
330
18
100
AcDbEntity
  8
0
  6
ByBlock
 62
     0
 48
10.0
100
AcDbTrace
 10
4783.291524660401
 20
1412.016647520964
 30
0.0
 11
4795.7915246604
 21
1412.016647520964
 31
0.0
 12
4789.541524660401
 22
1374.516647520964
 32
0.0
 13
4789.541524660401
 23
1374.516647520964
 33
0.0
  0
SOLID
  5
1A92
330
18
100
AcDbEntity
  8
0
  6
ByBlock
 62
     0
 48
10.0
100
AcDbTrace
 10
4645.791515896975
 20
1437.016635661809
 30
0.0
 11
4633.291515896975
 21
1437.016635661809
 31
0.0
 12
4639.541515896975
 22
1474.516635661809
 32
0.0
 13
4639.541515896975
 23
1474.516635661809
 33
0.0
  0
SOLID
  5
1A93
330
18
100
AcDbEntity
  8
0
  6
ByBlock
 62
     0
 48
10.0
100
AcDbTrace
 10
4783.291524660401
 20
1437.016623802699
 30
0.0
 11
4795.7915246604
 21
1437.016623802699
 31
0.0
 12
4789.541524660401
 22
1474.516623802699
 32
0.0
 13
4789.541524660401
 23
1474.516623802699
 33
0.0
  0
SOLID
  5
1A94
330
18
100
AcDbEntity
  8
0
  6
ByBlock
 62
     0
 48
10.0
100
AcDbTrace
 10
5589.587496085795
 20
1696.731024658256
 30
0.0
 11
5596.978866085077
 21
1686.650466661116
 31
0.0
 12
5563.041507094019
 22
1669.516635661832
 32
0.0
 13
5563.041507094019
 23
1669.516635661832
 33
0.0
  0
LINE
  5
1A95
330
18
100
AcDbEntity
  8
OBJECT
 48
10.0
100
AcDbLine
 10
5123.223146149292
 20
1308.516622400405
 30
0.0
 11
5413.223146149337
 21
1308.516622400407
 31
0.0
  0
SOLID
  5
1A97
330
18
100
AcDbEntity
  8
0
  6
ByBlock
 62
     0
 48
10.0
100
AcDbTrace
 10
5160.7231461493
 20
1302.266639927248
 30
0.0
 11
5160.7231461493
 21
1314.766639927246
 31
0.0
 12
5123.2231461493
 22
1308.516639927249
 32
0.0
 13
5123.2231461493
 23
1308.516639927249
 33
0.0
  0
MTEXT
  5
1A99
330
18
100
AcDbEntity
  8
0
  6
ByBlock
 62
     0
 48
10.0
100
AcDbMText
 10
5268.223146149336
 20
1338.516631163825
 30
0.0
 40
37.5
 41
0.0
 71
     5
 72
     1
  1
290
 73
     1
 44
1.0
  0
SOLID
  5
1A9B
330
18
100
AcDbEntity
  8
0
  6
ByBlock
 62
     0
 48
10.0
100
AcDbTrace
 10
5375.723251310382
 20
1302.266631163827
 30
0.0
 11
5375.723251310382
 21
1314.766631163825
 31
0.0
 12
5413.223251310381
 22
1308.516631163829
 32
0.0
 13
5413.223251310381
 23
1308.516631163829
 33
0.0
  0
LINE
  5
1A9F
330
18
100
AcDbEntity
  8
0
 48
10.0
100
AcDbLine
 10
5118.041532916491
 20
1704.51662556664
 30
0.0
 11
5118.041532916491
 21
1884.51662556664
 31
0.0
  0
SOLID
  5
1AA0
330
18
100
AcDbEntity
  8
0
  6
ByBlock
 62
     0
 48
10.0
100
AcDbTrace
 10
5155.541532916497
 20
1848.266644425256
 30
0.0
 11
5155.541532916497
 21
1860.766644425254
 31
0.0
 12
5118.041532916497
 22
1854.516644425258
 32
0.0
 13
5118.041532916497
 23
1854.516644425258
 33
0.0
  0
MTEXT
  5
1AA1
330
18
100
AcDbEntity
  8
0
  6
ByBlock
 62
     0
 48
10.0
100
AcDbMText
 10
5043.041532916491
 20
1884.516626898416
 30
0.0
 40
37.5
 41
0.0
 71
     5
 72
     1
  1
150
 73
     1
 44
1.0
  0
SOLID
  5
1AA2
330
18
100
AcDbEntity
  8
0
  6
ByBlock
 62
     0
 48
10.0
100
AcDbTrace
 10
5080.541532916491
 20
1848.266626898413
 30
0.0
 11
5080.541532916491
 21
1860.766626898413
 31
0.0
 12
5118.041532916491
 22
1854.516626898415
 32
0.0
 13
5118.041532916491
 23
1854.516626898415
 33
0.0
  0
MTEXT
  5
1AA3
330
18
100
AcDbEntity
  8
0
  6
ByBlock
 62
     0
 48
10.0
100
AcDbMText
 10
5268.041532916534
 20
1884.516635661833
 30
0.0
 40
37.5
 41
0.0
 71
     5
 72
     1
  1
300
 73
     1
 44
1.0
  0
LINE
  5
1AA4
330
18
100
AcDbEntity
  8
0
 48
10.0
100
AcDbLine
 10
5418.041532916534
 20
1704.51662556664
 30
0.0
 11
5418.041532916534
 21
1884.51662556664
 31
0.0
  0
LINE
  5
1AA5
330
18
100
AcDbEntity
  8
0
 48
10.0
100
AcDbLine
 10
5468.041532916534
 20
1704.516635661831
 30
0.0
 11
5468.041532916534
 21
1884.516635661832
 31
0.0
  0
MTEXT
  5
1AA6
330
18
100
AcDbEntity
  8
0
  6
ByBlock
 62
     0
 48
10.0
100
AcDbMText
 10
5518.041532916534
 20
1884.516626898416
 30
0.0
 40
37.5
 41
0.0
 71
     5
 72
     1
  1
100
 73
     1
 44
1.0
  0
SOLID
  5
1AA7
330
18
100
AcDbEntity
  8
0
  6
ByBlock
 62
     0
 48
10.0
100
AcDbTrace
 10
5505.541532916534
 20
1848.266626898413
 30
0.0
 11
5505.541532916534
 21
1860.766626898413
 31
0.0
 12
5468.041532916534
 22
1854.516626898415
 32
0.0
 13
5468.041532916534
 23
1854.516626898415
 33
0.0
  0
MTEXT
  5
1AA8
330
18
100
AcDbEntity
  8
0
  6
ByBlock
 62
     0
 48
10.0
100
AcDbMText
 10
5443.041532916534
 20
1914.516626898415
 30
0.0
 40
37.5
 41
0.0
 71
     5
 72
     1
  1
50
 73
     1
 44
1.0
  0
SOLID
  5
1AA9
330
18
100
AcDbEntity
  8
0
  6
ByBlock
 62
     0
 48
10.0
100
AcDbTrace
 10
5380.541638077581
 20
1848.266635661835
 30
0.0
 11
5380.541638077581
 21
1860.766635661834
 31
0.0
 12
5418.04163807758
 22
1854.516635661837
 32
0.0
 13
5418.04163807758
 23
1854.516635661837
 33
0.0
  0
SOLID
  5
1AAA
330
18
100
AcDbEntity
  8
0
  6
ByBlock
 62
     0
 48
10.0
100
AcDbTrace
 10
5530.541532916534
 20
1848.266626898413
 30
0.0
 11
5530.541532916534
 21
1860.766626898412
 31
0.0
 12
5568.041532916534
 22
1854.516626898415
 32
0.0
 13
5568.041532916534
 23
1854.516626898415
 33
0.0
  0
SOLID
  5
1AAB
330
18
100
AcDbEntity
  8
0
  6
ByBlock
 62
     0
 48
10.0
100
AcDbTrace
 10
5005.541532916513
 20
1998.266635661835
 30
0.0
 11
5005.541532916513
 21
2010.766635661835
 31
0.0
 12
4968.041532916513
 22
2004.516635661837
 32
0.0
 13
4968.041532916513
 23
2004.516635661837
 33
0.0
  0
LINE
  5
1AAC
330
18
100
AcDbEntity
  8
OBJECT
 48
10.0
100
AcDbLine
 10
4968.04153291649
 20
2004.516635661837
 30
0.0
 11
5568.041532916534
 21
2004.516635661837
 31
0.0
  0
MTEXT
  5
1AAD
330
18
100
AcDbEntity
  8
0
  6
ByBlock
 62
     0
 48
10.0
100
AcDbMText
 10
5268.041532916534
 20
2034.516635661835
 30
0.0
 40
37.5
 41
0.0
 71
     5
 72
     1
  1
600
 73
     1
 44
1.0
  0
SOLID
  5
1AAE
330
18
100
AcDbEntity
  8
0
  6
ByBlock
 62
     0
 48
10.0
100
AcDbTrace
 10
5530.541532916513
 20
1998.266635661835
 30
0.0
 11
5530.541532916513
 21
2010.766635661835
 31
0.0
 12
5568.041532916513
 22
2004.516635661837
 32
0.0
 13
5568.041532916513
 23
2004.516635661837
 33
0.0
  0
LINE
  5
1AAF
330
18
100
AcDbEntity
  8
上線
100
AcDbLine
 10
5137.286317786447
 20
2563.126079236164
 30
0.0
 11
5398.796748046578
 21
2563.126079236164
 31
0.0
  0
LINE
  5
1AB0
330
18
100
AcDbEntity
  8
上線
100
AcDbLine
 10
5140.286317786447
 20
2566.126079236164
 30
0.0
 11
5395.796748046578
 21
2566.126079236164
 31
0.0
  0
LINE
  5
1AB1
330
18
100
AcDbEntity
  8
0
 48
10.0
100
AcDbLine
 10
6384.992623904473
 20
1704.516635661831
 30
0.0
 11
6384.992623904473
 21
2034.516635661832
 31
0.0
  0
MTEXT
  5
1AB2
330
18
100
AcDbEntity
  8
0
  6
ByBlock
 62
     0
 48
10.0
100
AcDbMText
 10
5716.54148952764
 20
1574.516635661832
 30
0.0
 40
37.5
 41
0.0
 71
     5
 72
     1
  1
200
 11
0.0000000000000001
 21
1.0
 31
0.0
 73
     1
 44
1.0
  0
SOLID
  5
1AB3
330
18
100
AcDbEntity
  8
0
  6
ByBlock
 62
     0
 48
10.0
100
AcDbTrace
 10
5752.791489527638
 20
1512.016647520965
 30
0.0
 11
5740.291489527638
 21
1512.016647520965
 31
0.0
 12
5746.541489527638
 22
1474.516647520965
 32
0.0
 13
5746.541489527638
 23
1474.516647520965
 33
0.0
  0
SOLID
  5
1AB4
330
18
100
AcDbEntity
  8
0
  6
ByBlock
 62
     0
 48
10.0
100
AcDbTrace
 10
5740.291498291064
 20
1437.016740822878
 30
0.0
 11
5752.79149829106
 21
1437.016740822878
 31
0.0
 12
5746.541498291064
 22
1474.516740822878
 32
0.0
 13
5746.541498291064
 23
1474.516740822878
 33
0.0
  0
SOLID
  5
1AB5
330
18
100
AcDbEntity
  8
0
  6
ByBlock
 62
     0
 48
10.0
100
AcDbTrace
 10
5752.791489527638
 20
1637.0166238027
 30
0.0
 11
5740.291489527638
 21
1637.0166238027
 31
0.0
 12
5746.541489527638
 22
1674.5166238027
 32
0.0
 13
5746.541489527638
 23
1674.5166238027
 33
0.0
  0
SOLID
  5
1AB6
330
18
100
AcDbEntity
  8
0
  6
ByBlock
 62
     0
 48
10.0
100
AcDbTrace
 10
5890.291498291063
 20
1637.01663566181
 30
0.0
 11
5902.791498291064
 21
1637.01663566181
 31
0.0
 12
5896.541498291064
 22
1674.51663566181
 32
0.0
 13
5896.541498291064
 23
1674.51663566181
 33
0.0
  0
LINE
  5
1AB7
330
18
100
AcDbEntity
  8
OBJECT
 48
10.0
100
AcDbLine
 10
5691.229823983664
 20
1764.505911390764
 30
0.0
 11
5911.229823983664
 21
1764.505911390764
 31
0.0
  0
MTEXT
  5
1AB8
330
18
100
AcDbEntity
  8
0
  6
ByBlock
 62
     0
 48
10.0
100
AcDbMText
 10
5798.729823983664
 20
1794.505911390764
 30
0.0
 40
30.0
 41
0.0
 71
     5
 72
     1
  1
面取り 10C
 73
     1
 44
1.0
  0
SOLID
  5
1AB9
330
18
100
AcDbEntity
  8
0
  6
ByBlock
 62
     0
 48
10.0
100
AcDbTrace
 10
6422.492623904495
 20
1998.266635661833
 30
0.0
 11
6422.492623904495
 21
2010.766635661835
 31
0.0
 12
6384.992623904494
 22
2004.516635661835
 32
0.0
 13
6384.992623904494
 23
2004.516635661835
 33
0.0
  0
LINE
  5
1ABA
330
18
100
AcDbEntity
  8
上線
100
AcDbLine
 10
5398.796748046578
 20
2662.83046198217
 30
0.0
 11
5137.286317786447
 21
2662.83046198217
 31
0.0
  0
LINE
  5
1ABB
330
18
100
AcDbEntity
  8
上線
100
AcDbLine
 10
5395.796748046578
 20
2659.830461982169
 30
0.0
 11
5140.286317786447
 21
2659.830461982169
 31
0.0
  0
MTEXT
  5
1ABC
330
18
100
AcDbEntity
  8
上線
 48
10.0
100
AcDbMText
 10
5161.341187211525
 20
2645.272131247456
 30
0.0
 40
50.0
 41
558.2059
 71
     1
 72
     5
  1
\fＭＳ Ｐ明朝|b0|i0|c128|p18;正面図
 73
     1
 44
1.0
  0
LINE
  5
1ABD
330
18
100
AcDbEntity
  8
上線
100
AcDbLine
 10
7512.499731740915
 20
2564.626070433204
 30
0.0
 11
7512.499731740915
 21
2658.330453179209
 31
0.0
  0
LINE
  5
1ABE
330
18
100
AcDbEntity
  8
上線
100
AcDbLine
 10
7515.499731740916
 20
2561.626070433204
 30
0.0
 11
7515.499731740916
 21
2661.330453179209
 31
0.0
  0
LINE
  5
1ABF
330
18
100
AcDbEntity
  8
上線
100
AcDbLine
 10
7257.48551606803
 20
2658.330453179209
 30
0.0
 11
7257.48551606803
 21
2564.626070433204
 31
0.0
  0
LINE
  5
1AC0
330
18
100
AcDbEntity
  8
上線
100
AcDbLine
 10
7254.485516068029
 20
2661.330453179209
 30
0.0
 11
7254.485516068029
 21
2561.626070433204
 31
0.0
  0
MTEXT
  5
1AC1
330
18
100
AcDbEntity
  8
上線
 48
10.0
100
AcDbMText
 10
7278.540385493108
 20
2643.772122444496
 30
0.0
 40
50.0
 41
558.2059
 71
     1
 72
     5
  1
\fＭＳ Ｐ明朝|b0|i0|c128|p18;側面図
 73
     1
 44
1.0
  0
LINE
  5
1AC2
330
18
100
AcDbEntity
  8
0
 48
10.0
100
AcDbLine
 10
8384.992623904476
 20
1704.516635661831
 30
0.0
 11
8384.992623904476
 21
2034.516635661832
 31
0.0
  0
MTEXT
  5
1AC3
330
18
100
AcDbEntity
  8
0
  6
ByBlock
 62
     0
 48
10.0
100
AcDbMText
 10
7384.992623904473
 20
2034.516635661832
 30
0.0
 40
37.5
 41
0.0
 71
     5
 72
     1
  1
2000
 73
     1
 44
1.0
  0
LINE
  5
1AC4
330
18
100
AcDbEntity
  8
上線
100
AcDbLine
 10
7257.48551606803
 20
2564.626070433204
 30
0.0
 11
7512.499731740914
 21
2564.626070433204
 31
0.0
  0
LINE
  5
1AC5
330
18
100
AcDbEntity
  8
上線
100
AcDbLine
 10
7254.485516068029
 20
2561.626070433204
 30
0.0
 11
7515.499731740916
 21
2561.626070433204
 31
0.0
  0
SOLID
  5
1AC6
330
18
100
AcDbEntity
  8
0
  6
ByBlock
 62
     0
 48
10.0
100
AcDbTrace
 10
8347.492623904456
 20
1998.266635661833
 30
0.0
 11
8347.492623904456
 21
2010.766635661835
 31
0.0
 12
8384.992623904455
 22
2004.516635661835
 32
0.0
 13
8384.992623904455
 23
2004.516635661835
 33
0.0
  0
LINE
  5
1AC7
330
18
100
AcDbEntity
  8
上線
100
AcDbLine
 10
7512.499731740914
 20
2658.330453179209
 30
0.0
 11
7257.48551606803
 21
2658.330453179209
 31
0.0
  0
LINE
  5
1AC8
330
18
100
AcDbEntity
  8
上線
100
AcDbLine
 10
7515.499731740916
 20
2661.330453179209
 30
0.0
 11
7254.485516068029
 21
2661.330453179209
 31
0.0
  0
ENDSEC
  0
SECTION
  2
OBJECTS
  0
DICTIONARY
  5
C
330
0
100
AcDbDictionary
281
     1
  3
ACAD_GROUP
350
D
  3
ACAD_LAYOUT
350
1318
  3
ACAD_MLINESTYLE
350
1B
  3
ACAD_PLOTSETTINGS
350
1319
  3
ACAD_PLOTSTYLENAME
350
1316
  3
DRAWINGVARIABLESDICT
350
1125
  0
DICTIONARY
  5
D
102
{ACAD_REACTORS
330
C
102
}
330
C
100
AcDbDictionary
281
     1
  0
DICTIONARY
  5
1318
102
{ACAD_REACTORS
330
C
102
}
330
C
100
AcDbDictionary
281
     1
  3
Model
350
131A
  3
ﾚｲｱｳﾄ1
350
131B
  0
DICTIONARY
  5
1B
102
{ACAD_REACTORS
330
C
102
}
330
C
100
AcDbDictionary
281
     1
  3
STANDARD
350
1C
  0
DICTIONARY
  5
1319
102
{ACAD_REACTORS
330
C
102
}
330
C
100
AcDbDictionary
281
     1
  0
ACDBDICTIONARYWDFLT
  5
1316
102
{ACAD_REACTORS
330
C
102
}
330
C
100
AcDbDictionary
281
     1
  3
Normal
350
1317
100
AcDbDictionaryWithDefault
340
1317
  0
DICTIONARY
  5
1125
102
{ACAD_REACTORS
330
C
102
}
330
C
100
AcDbDictionary
281
     1
1001
DRAWINGVARIABLESXDATA
1000
POLARANG
1000
0.785398
1000
POLARMODE
1000
0
  0
LAYOUT
  5
131A
102
{ACAD_REACTORS
330
1318
102
}
330
1318
100
AcDbPlotSettings
  1

  2
PrimoPDF
  4
A4
  6

 40
3.174999952316284
 41
3.174999952316284
 42
3.175003051757812
 43
3.17498779296875
 44
209.8886566162109
 45
297.0530090332031
 46
4.32
 47
6.11
 48
20.07909318908423
 49
15.17912432367302
140
4197.297921059774
141
2938.521645731728
142
1.0
143
15.0
 70
 11940
 72
     1
 73
     1
 74
     4
  7

 75
     0
147
0.0666666666666667
148
-20.07909318908423
149
-15.17912432367302
100
AcDbLayout
  1
Model
 70
     1
 71
     0
 10
0.0
 20
0.0
 11
12.0
 21
9.0
 12
0.0
 22
0.0
 32
0.0
 14
0.0
 24
0.0
 34
0.0
 15
0.0
 25
0.0
 35
0.0
146
0.0
 13
0.0
 23
0.0
 33
0.0
 16
1.0
 26
0.0
 36
0.0
 17
0.0
 27
1.0
 37
0.0
 76
     0
330
18
  0
LAYOUT
  5
131B
102
{ACAD_REACTORS
330
1318
102
}
330
1318
100
AcDbPlotSettings
  1

  2
Canon LBP3800 LIPSLX
  4

  6

 40
0.0
 41
0.0
 42
0.0
 43
0.0
 44
0.0
 45
0.0
 46
0.0
 47
0.0
 48
0.0
 49
0.0
140
0.0
141
0.0
142
1.0
143
1.0
 70
   688
 72
     0
 73
     0
 74
     5
  7

 75
    16
147
1.0
148
0.0
149
0.0
100
AcDbLayout
  1
ﾚｲｱｳﾄ1
 70
     1
 71
     1
 10
0.0
 20
0.0
 11
420.0
 21
297.0
 12
0.0
 22
0.0
 32
0.0
 14
1.000000000000000E+20
 24
1.000000000000000E+20
 34
1.000000000000000E+20
 15
-1.000000000000000E+20
 25
-1.000000000000000E+20
 35
-1.000000000000000E+20
146
0.0
 13
0.0
 23
0.0
 33
0.0
 16
1.0
 26
0.0
 36
0.0
 17
0.0
 27
1.0
 37
0.0
 76
     0
330
15
  0
MLINESTYLE
  5
1C
102
{ACAD_REACTORS
330
1B
102
}
330
1B
100
AcDbMlineStyle
  2
STANDARD
 70
     0
  3

 62
   256
 51
90.0
 52
90.0
 71
     2
 49
0.5
 62
   256
  6
BYLAYER
 49
-0.5
 62
   256
  6
BYLAYER
  0
ACDBPLACEHOLDER
  5
1317
102
{ACAD_REACTORS
330
1316
102
}
330
1316
  0
ENDSEC
  0
EOF
