  0
SECTION
  2
HEADER
  9
$ACADVER
  1
AC1015
  9
$ACADMAINTVER
 70
     6
  9
$DWGCODEPAGE
  3
ANSI_932
  9
$INSBASE
 10
0.0
 20
0.0
 30
0.0
  9
$EXTMIN
 10
-52.19747824804108
 20
-2089.870686350898
 30
0.0
  9
$EXTMAX
 10
9111.978216497123
 20
1901.867561902343
 30
0.0
  9
$LIMMIN
 10
0.0
 20
0.0
  9
$LIMMAX
 10
4200.0
 20
2970.0
  9
$ORTHOMODE
 70
     0
  9
$REGENMODE
 70
     1
  9
$FILLMODE
 70
     1
  9
$QTEXTMODE
 70
     0
  9
$MIRRTEXT
 70
     1
  9
$LTSCALE
 40
1.0
  9
$ATTMODE
 70
     1
  9
$TEXTSIZE
 40
2.5
  9
$TRACEWID
 40
1.0
  9
$TEXTSTYLE
  7
STANDARD
  9
$CLAYER
  8
OBJECT
  9
$CELTYPE
  6
BYLAYER
  9
$CECOLOR
 62
   256
  9
$CELTSCALE
 40
10.0
  9
$DISPSILH
 70
     0
  9
$DIMSCALE
 40
15.0
  9
$DIMASZ
 40
2.5
  9
$DIMEXO
 40
0.625
  9
$DIMDLI
 40
3.75
  9
$DIMRND
 40
0.0
  9
$DIMDLE
 40
0.0
  9
$DIMEXE
 40
1.25
  9
$DIMTP
 40
0.0
  9
$DIMTM
 40
0.0
  9
$DIMTXT
 40
2.5
  9
$DIMCEN
 40
2.5
  9
$DIMTSZ
 40
0.0
  9
$DIMTOL
 70
     0
  9
$DIMLIM
 70
     0
  9
$DIMTIH
 70
     0
  9
$DIMTOH
 70
     0
  9
$DIMSE1
 70
     0
  9
$DIMSE2
 70
     0
  9
$DIMTAD
 70
     1
  9
$DIMZIN
 70
     8
  9
$DIMBLK
  1

  9
$DIMASO
 70
     1
  9
$DIMSHO
 70
     1
  9
$DIMPOST
  1

  9
$DIMAPOST
  1

  9
$DIMALT
 70
     0
  9
$DIMALTD
 70
     4
  9
$DIMALTF
 40
0.0394
  9
$DIMLFAC
 40
1.0
  9
$DIMTOFL
 70
     1
  9
$DIMTVP
 40
0.0
  9
$DIMTIX
 70
     0
  9
$DIMSOXD
 70
     0
  9
$DIMSAH
 70
     0
  9
$DIMBLK1
  1

  9
$DIMBLK2
  1

  9
$DIMSTYLE
  2
STANDARD
  9
$DIMCLRD
 70
     0
  9
$DIMCLRE
 70
     0
  9
$DIMCLRT
 70
     0
  9
$DIMTFAC
 40
1.0
  9
$DIMGAP
 40
0.625
  9
$DIMJUST
 70
     0
  9
$DIMSD1
 70
     0
  9
$DIMSD2
 70
     0
  9
$DIMTOLJ
 70
     1
  9
$DIMTZIN
 70
     0
  9
$DIMALTZ
 70
     0
  9
$DIMALTTZ
 70
     0
  9
$DIMUPT
 70
     0
  9
$DIMDEC
 70
     4
  9
$DIMTDEC
 70
     4
  9
$DIMALTU
 70
     8
  9
$DIMALTTD
 70
     4
  9
$DIMTXSTY
  7
STANDARD
  9
$DIMAUNIT
 70
     0
  9
$DIMADEC
 70
     0
  9
$DIMALTRND
 40
0.0
  9
$DIMAZIN
 70
     0
  9
$DIMDSEP
 70
    46
  9
$DIMATFIT
 70
     3
  9
$DIMFRAC
 70
     0
  9
$DIMLDRBLK
  1

  9
$DIMLUNIT
 70
     6
  9
$DIMLWD
 70
    -2
  9
$DIMLWE
 70
    -2
  9
$DIMTMOVE
 70
     0
  9
$LUNITS
 70
     2
  9
$LUPREC
 70
     4
  9
$SKETCHINC
 40
1.0
  9
$FILLETRAD
 40
50.0
  9
$AUNITS
 70
     0
  9
$AUPREC
 70
     0
  9
$MENU
  1
acad
  9
$ELEVATION
 40
0.0
  9
$PELEVATION
 40
0.0
  9
$THICKNESS
 40
0.0
  9
$LIMCHECK
 70
     0
  9
$CHAMFERA
 40
10.0
  9
$CHAMFERB
 40
10.0
  9
$CHAMFERC
 40
20.0
  9
$CHAMFERD
 40
0.0
  9
$SKPOLY
 70
     0
  9
$TDCREATE
 40
2452179.387794213
  9
$TDUCREATE
 40
2452179.012794213
  9
$TDUPDATE
 40
2454544.752414212
  9
$TDUUPDATE
 40
2454544.377414213
  9
$TDINDWG
 40
0.9692715046
  9
$TDUSRTIMER
 40
0.9692715046
  9
$USRTIMER
 70
     1
  9
$ANGBASE
 50
0.0
  9
$ANGDIR
 70
     0
  9
$PDMODE
 70
     0
  9
$PDSIZE
 40
0.0
  9
$PLINEWID
 40
0.0
  9
$SPLFRAME
 70
     0
  9
$SPLINETYPE
 70
     6
  9
$SPLINESEGS
 70
     8
  9
$HANDSEED
  5
1931
  9
$SURFTAB1
 70
     6
  9
$SURFTAB2
 70
     6
  9
$SURFTYPE
 70
     6
  9
$SURFU
 70
     6
  9
$SURFV
 70
     6
  9
$UCSBASE
  2

  9
$UCSNAME
  2

  9
$UCSORG
 10
0.0
 20
0.0
 30
0.0
  9
$UCSXDIR
 10
1.0
 20
0.0
 30
0.0
  9
$UCSYDIR
 10
0.0
 20
1.0
 30
0.0
  9
$UCSORTHOREF
  2

  9
$UCSORTHOVIEW
 70
     0
  9
$UCSORGTOP
 10
0.0
 20
0.0
 30
0.0
  9
$UCSORGBOTTOM
 10
0.0
 20
0.0
 30
0.0
  9
$UCSORGLEFT
 10
0.0
 20
0.0
 30
0.0
  9
$UCSORGRIGHT
 10
0.0
 20
0.0
 30
0.0
  9
$UCSORGFRONT
 10
0.0
 20
0.0
 30
0.0
  9
$UCSORGBACK
 10
0.0
 20
0.0
 30
0.0
  9
$PUCSBASE
  2

  9
$PUCSNAME
  2

  9
$PUCSORG
 10
0.0
 20
0.0
 30
0.0
  9
$PUCSXDIR
 10
1.0
 20
0.0
 30
0.0
  9
$PUCSYDIR
 10
0.0
 20
1.0
 30
0.0
  9
$PUCSORTHOREF
  2

  9
$PUCSORTHOVIEW
 70
     0
  9
$PUCSORGTOP
 10
0.0
 20
0.0
 30
0.0
  9
$PUCSORGBOTTOM
 10
0.0
 20
0.0
 30
0.0
  9
$PUCSORGLEFT
 10
0.0
 20
0.0
 30
0.0
  9
$PUCSORGRIGHT
 10
0.0
 20
0.0
 30
0.0
  9
$PUCSORGFRONT
 10
0.0
 20
0.0
 30
0.0
  9
$PUCSORGBACK
 10
0.0
 20
0.0
 30
0.0
  9
$USERI1
 70
     0
  9
$USERI2
 70
     0
  9
$USERI3
 70
     0
  9
$USERI4
 70
     0
  9
$USERI5
 70
     0
  9
$USERR1
 40
0.0
  9
$USERR2
 40
0.0
  9
$USERR3
 40
0.0
  9
$USERR4
 40
0.0
  9
$USERR5
 40
0.0
  9
$WORLDVIEW
 70
     1
  9
$SHADEDGE
 70
     3
  9
$SHADEDIF
 70
    70
  9
$TILEMODE
 70
     1
  9
$MAXACTVP
 70
    48
  9
$PINSBASE
 10
0.0
 20
0.0
 30
0.0
  9
$PLIMCHECK
 70
     0
  9
$PEXTMIN
 10
1.000000000000000E+20
 20
1.000000000000000E+20
 30
1.000000000000000E+20
  9
$PEXTMAX
 10
-1.000000000000000E+20
 20
-1.000000000000000E+20
 30
-1.000000000000000E+20
  9
$PLIMMIN
 10
0.0
 20
0.0
  9
$PLIMMAX
 10
420.0
 20
297.0
  9
$UNITMODE
 70
     0
  9
$VISRETAIN
 70
     1
  9
$PLINEGEN
 70
     0
  9
$PSLTSCALE
 70
     1
  9
$TREEDEPTH
 70
  3020
  9
$CMLSTYLE
  2
STANDARD
  9
$CMLJUST
 70
     0
  9
$CMLSCALE
 40
20.0
  9
$PROXYGRAPHICS
 70
     1
  9
$MEASUREMENT
 70
     1
  9
$CELWEIGHT
370
    -1
  9
$ENDCAPS
280
     0
  9
$JOINSTYLE
280
     0
  9
$LWDISPLAY
290
     0
  9
$INSUNITS
 70
     0
  9
$HYPERLINKBASE
  1

  9
$STYLESHEET
  1

  9
$XEDIT
290
     1
  9
$CEPSNTYPE
380
     0
  9
$PSTYLEMODE
290
     1
  9
$FINGERPRINTGUID
  2
{2A8E3607-5627-47B6-A4BB-2A79792D8AC5}
  9
$VERSIONGUID
  2
{8C941339-A92E-4E10-A145-37B943CDB5D8}
  9
$EXTNAMES
290
     1
  9
$PSVPSCALE
 40
0.0
  9
$OLESTARTUP
290
     0
  0
ENDSEC
  0
SECTION
  2
CLASSES
  0
CLASS
  1
LWPOLYLINE
  2
AcDbPolyline
  3
AutoCAD 2000
 90
    32768
280
     0
281
     1
  0
CLASS
  1
ACDBDICTIONARYWDFLT
  2
AcDbDictionaryWithDefault
  3
AutoCAD 2000
 90
        0
280
     0
281
     0
  0
CLASS
  1
ACDBPLACEHOLDER
  2
AcDbPlaceHolder
  3
AutoCAD 2000
 90
        0
280
     0
281
     0
  0
CLASS
  1
LAYOUT
  2
AcDbLayout
  3
AutoCAD 2000
 90
        0
280
     0
281
     0
  0
ENDSEC
  0
SECTION
  2
TABLES
  0
TABLE
  2
VPORT
  5
8
330
0
100
AcDbSymbolTable
 70
     2
  0
VPORT
  5
1930
330
8
100
AcDbSymbolTableRecord
100
AcDbViewportTableRecord
  2
*Active
 70
     0
 10
0.0
 20
0.0
 11
1.0
 21
1.0
 12
7131.847617620657
 22
-647.4876722667313
 13
0.0
 23
0.0
 14
10.0
 24
10.0
 15
10.0
 25
10.0
 16
0.0
 26
0.0
 36
1.0
 17
0.0
 27
0.0
 37
0.0
 40
3260.052410455713
 41
1.731203007518796
 42
50.0
 43
0.0
 44
0.0
 50
0.0
 51
0.0
 71
     0
 72
   100
 73
     1
 74
     1
 75
     0
 76
     0
 77
     0
 78
     0
281
     0
 65
     1
110
0.0
120
0.0
130
0.0
111
1.0
121
0.0
131
0.0
112
0.0
122
1.0
132
0.0
 79
     0
146
0.0
  0
ENDTAB
  0
TABLE
  2
LTYPE
  5
5
330
0
100
AcDbSymbolTable
 70
    46
  0
LTYPE
  5
12
330
5
100
AcDbSymbolTableRecord
100
AcDbLinetypeTableRecord
  2
BYBLOCK
 70
     0
  3

 72
    65
 73
     0
 40
0.0
  0
LTYPE
  5
13
330
5
100
AcDbSymbolTableRecord
100
AcDbLinetypeTableRecord
  2
BYLAYER
 70
     0
  3

 72
    65
 73
     0
 40
0.0
  0
LTYPE
  5
14
330
5
100
AcDbSymbolTableRecord
100
AcDbLinetypeTableRecord
  2
CONTINUOUS
 70
     0
  3
Solid line
 72
    65
 73
     0
 40
0.0
  0
LTYPE
  5
BC
330
5
100
AcDbSymbolTableRecord
100
AcDbLinetypeTableRecord
  2
ACAD_ISO02W100
 70
     0
  3
ISO dash __ __ __ __ __ __ __ __ __ __ __ __ __
 72
    65
 73
     2
 40
15.0
 49
12.0
 74
     0
 49
-3.0
 74
     0
  0
LTYPE
  5
BD
330
5
100
AcDbSymbolTableRecord
100
AcDbLinetypeTableRecord
  2
ACAD_ISO03W100
 70
     0
  3
ISO dash space __    __    __    __    __    __
 72
    65
 73
     2
 40
30.0
 49
12.0
 74
     0
 49
-18.0
 74
     0
  0
LTYPE
  5
BE
330
5
100
AcDbSymbolTableRecord
100
AcDbLinetypeTableRecord
  2
ACAD_ISO04W100
 70
     0
  3
ISO long-dash dot ____ . ____ . ____ . ____ . _
 72
    65
 73
     4
 40
30.5
 49
24.0
 74
     0
 49
-3.0
 74
     0
 49
0.5
 74
     0
 49
-3.0
 74
     0
  0
LTYPE
  5
BF
330
5
100
AcDbSymbolTableRecord
100
AcDbLinetypeTableRecord
  2
ACAD_ISO05W100
 70
     0
  3
ISO long-dash double-dot ____ .. ____ .. ____ .
 72
    65
 73
     8
 40
37.5
 49
24.0
 74
     0
 49
-3.0
 74
     0
 49
0.5
 74
     0
 49
-3.0
 74
     0
 49
0.5
 74
     0
 49
-3.0
 74
     0
 49
0.5
 74
     0
 49
-3.0
 74
     0
  0
LTYPE
  5
C0
330
5
100
AcDbSymbolTableRecord
100
AcDbLinetypeTableRecord
  2
ACAD_ISO06W100
 70
     0
  3
ISO long-dash triple-dot ____ ... ____ ... ____
 72
    65
 73
     8
 40
37.5
 49
24.0
 74
     0
 49
-3.0
 74
     0
 49
0.5
 74
     0
 49
-3.0
 74
     0
 49
0.5
 74
     0
 49
-3.0
 74
     0
 49
0.5
 74
     0
 49
-3.0
 74
     0
  0
LTYPE
  5
C1
330
5
100
AcDbSymbolTableRecord
100
AcDbLinetypeTableRecord
  2
ACAD_ISO07W100
 70
     0
  3
ISO dot . . . . . . . . . . . . . . . . . . . .
 72
    65
 73
     2
 40
3.5
 49
0.5
 74
     0
 49
-3.0
 74
     0
  0
LTYPE
  5
C2
330
5
100
AcDbSymbolTableRecord
100
AcDbLinetypeTableRecord
  2
ACAD_ISO08W100
 70
     0
  3
ISO long-dash short-dash ____ __ ____ __ ____ _
 72
    65
 73
     4
 40
36.0
 49
24.0
 74
     0
 49
-3.0
 74
     0
 49
6.0
 74
     0
 49
-3.0
 74
     0
  0
LTYPE
  5
C3
330
5
100
AcDbSymbolTableRecord
100
AcDbLinetypeTableRecord
  2
ACAD_ISO09W100
 70
     0
  3
ISO long-dash double-short-dash ____ __ __ ____
 72
    65
 73
     6
 40
45.0
 49
24.0
 74
     0
 49
-3.0
 74
     0
 49
6.0
 74
     0
 49
-3.0
 74
     0
 49
6.0
 74
     0
 49
-3.0
 74
     0
  0
LTYPE
  5
C4
330
5
100
AcDbSymbolTableRecord
100
AcDbLinetypeTableRecord
  2
ACAD_ISO10W100
 70
     0
  3
ISO dash dot __ . __ . __ . __ . __ . __ . __ .
 72
    65
 73
     4
 40
18.5
 49
12.0
 74
     0
 49
-3.0
 74
     0
 49
0.5
 74
     0
 49
-3.0
 74
     0
  0
LTYPE
  5
C5
330
5
100
AcDbSymbolTableRecord
100
AcDbLinetypeTableRecord
  2
ACAD_ISO11W100
 70
     0
  3
ISO double-dash dot __ __ . __ __ . __ __ . __ 
 72
    65
 73
     6
 40
33.5
 49
12.0
 74
     0
 49
-3.0
 74
     0
 49
12.0
 74
     0
 49
-3.0
 74
     0
 49
0.5
 74
     0
 49
-3.0
 74
     0
  0
LTYPE
  5
C6
330
5
100
AcDbSymbolTableRecord
100
AcDbLinetypeTableRecord
  2
ACAD_ISO12W100
 70
     0
  3
ISO dash double-dot __ . . __ . . __ . . __ . .
 72
    65
 73
     6
 40
22.0
 49
12.0
 74
     0
 49
-3.0
 74
     0
 49
0.5
 74
     0
 49
-3.0
 74
     0
 49
0.5
 74
     0
 49
-3.0
 74
     0
  0
LTYPE
  5
C7
330
5
100
AcDbSymbolTableRecord
100
AcDbLinetypeTableRecord
  2
ACAD_ISO13W100
 70
     0
  3
ISO double-dash double-dot __ __ . . __ __ . . 
 72
    65
 73
     8
 40
37.0
 49
12.0
 74
     0
 49
-3.0
 74
     0
 49
12.0
 74
     0
 49
-3.0
 74
     0
 49
0.5
 74
     0
 49
-3.0
 74
     0
 49
0.5
 74
     0
 49
-3.0
 74
     0
  0
LTYPE
  5
C8
330
5
100
AcDbSymbolTableRecord
100
AcDbLinetypeTableRecord
  2
ACAD_ISO14W100
 70
     0
  3
ISO dash triple-dot __ . . . __ . . . __ . . . 
 72
    65
 73
     8
 40
25.5
 49
12.0
 74
     0
 49
-3.0
 74
     0
 49
0.5
 74
     0
 49
-3.0
 74
     0
 49
0.5
 74
     0
 49
-3.0
 74
     0
 49
0.5
 74
     0
 49
-3.0
 74
     0
  0
LTYPE
  5
C9
330
5
100
AcDbSymbolTableRecord
100
AcDbLinetypeTableRecord
  2
ACAD_ISO15W100
 70
     0
  3
ISO double-dash triple-dot __ __ . . . __ __ . 
 72
    65
 73
    10
 40
40.49999999999999
 49
12.0
 74
     0
 49
-3.0
 74
     0
 49
12.0
 74
     0
 49
-3.0
 74
     0
 49
0.5
 74
     0
 49
-3.0
 74
     0
 49
0.5
 74
     0
 49
-3.0
 74
     0
 49
0.5
 74
     0
 49
-3.0
 74
     0
  0
LTYPE
  5
CA
330
5
100
AcDbSymbolTableRecord
100
AcDbLinetypeTableRecord
  2
BATTING
 70
     0
  3
Batting SSSSSSSSSSSSSSSSSSSSSSSSSSSSSSSSSSSSSSS
 72
    65
 73
     4
 40
10.16253999999999
 49
0.00254
 74
     0
 49
-2.54
 74
     4
 75
   134
340
BB
 46
2.54
 50
0.0
 44
-2.54
 45
0.0
 49
-5.08
 74
     4
 75
   134
340
BB
 46
2.54
 50
180.0
 44
2.54
 45
0.0
 49
-2.54
 74
     0
  0
LTYPE
  5
CB
330
5
100
AcDbSymbolTableRecord
100
AcDbLinetypeTableRecord
  2
BORDER
 70
     0
  3
Border __ __ . __ __ . __ __ . __ __ . __ __ .
 72
    65
 73
     6
 40
44.45
 49
12.7
 74
     0
 49
-6.349999999999999
 74
     0
 49
12.7
 74
     0
 49
-6.349999999999999
 74
     0
 49
0.0
 74
     0
 49
-6.349999999999999
 74
     0
  0
LTYPE
  5
CC
330
5
100
AcDbSymbolTableRecord
100
AcDbLinetypeTableRecord
  2
BORDER2
 70
     0
  3
Border (.5x) __.__.__.__.__.__.__.__.__.__.__.
 72
    65
 73
     6
 40
22.225
 49
6.349999999999999
 74
     0
 49
-3.174999999999999
 74
     0
 49
6.349999999999999
 74
     0
 49
-3.174999999999999
 74
     0
 49
0.0
 74
     0
 49
-3.174999999999999
 74
     0
  0
LTYPE
  5
CD
330
5
100
AcDbSymbolTableRecord
100
AcDbLinetypeTableRecord
  2
BORDERX2
 70
     0
  3
Border (2x) ____  ____  .  ____  ____  .  ___
 72
    65
 73
     6
 40
88.9
 49
25.4
 74
     0
 49
-12.7
 74
     0
 49
25.4
 74
     0
 49
-12.7
 74
     0
 49
0.0
 74
     0
 49
-12.7
 74
     0
  0
LTYPE
  5
CE
330
5
100
AcDbSymbolTableRecord
100
AcDbLinetypeTableRecord
  2
CENTER
 70
     0
  3
Center ____ _ ____ _ ____ _ ____ _ ____ _ ____
 72
    65
 73
     4
 40
50.8
 49
31.75
 74
     0
 49
-6.349999999999999
 74
     0
 49
6.349999999999999
 74
     0
 49
-6.349999999999999
 74
     0
  0
LTYPE
  5
CF
330
5
100
AcDbSymbolTableRecord
100
AcDbLinetypeTableRecord
  2
CENTER2
 70
     0
  3
Center (.5x) ___ _ ___ _ ___ _ ___ _ ___ _ ___
 72
    65
 73
     4
 40
28.57499999999999
 49
19.05
 74
     0
 49
-3.174999999999999
 74
     0
 49
3.174999999999999
 74
     0
 49
-3.174999999999999
 74
     0
  0
LTYPE
  5
D0
330
5
100
AcDbSymbolTableRecord
100
AcDbLinetypeTableRecord
  2
CENTERX2
 70
     0
  3
Center (2x) ________  __  ________  __  _____
 72
    65
 73
     4
 40
101.6
 49
63.5
 74
     0
 49
-12.7
 74
     0
 49
12.7
 74
     0
 49
-12.7
 74
     0
  0
LTYPE
  5
D1
330
5
100
AcDbSymbolTableRecord
100
AcDbLinetypeTableRecord
  2
DASHDOT
 70
     0
  3
Dash dot __ . __ . __ . __ . __ . __ . __ . __
 72
    65
 73
     4
 40
25.4
 49
12.7
 74
     0
 49
-6.349999999999999
 74
     0
 49
0.0
 74
     0
 49
-6.349999999999999
 74
     0
  0
LTYPE
  5
D2
330
5
100
AcDbSymbolTableRecord
100
AcDbLinetypeTableRecord
  2
DASHDOT2
 70
     0
  3
Dash dot (.5x) _._._._._._._._._._._._._._._.
 72
    65
 73
     4
 40
12.7
 49
6.349999999999999
 74
     0
 49
-3.174999999999999
 74
     0
 49
0.0
 74
     0
 49
-3.174999999999999
 74
     0
  0
LTYPE
  5
D3
330
5
100
AcDbSymbolTableRecord
100
AcDbLinetypeTableRecord
  2
DASHDOTX2
 70
     0
  3
Dash dot (2x) ____  .  ____  .  ____  .  ___
 72
    65
 73
     4
 40
50.8
 49
25.4
 74
     0
 49
-12.7
 74
     0
 49
0.0
 74
     0
 49
-12.7
 74
     0
  0
LTYPE
  5
D4
330
5
100
AcDbSymbolTableRecord
100
AcDbLinetypeTableRecord
  2
DASHED
 70
     0
  3
Dashed __ __ __ __ __ __ __ __ __ __ __ __ __ _
 72
    65
 73
     2
 40
19.04999999999999
 49
12.7
 74
     0
 49
-6.349999999999999
 74
     0
  0
LTYPE
  5
D5
330
5
100
AcDbSymbolTableRecord
100
AcDbLinetypeTableRecord
  2
DASHED2
 70
     0
  3
Dashed (.5x) _ _ _ _ _ _ _ _ _ _ _ _ _ _ _ _ _
 72
    65
 73
     2
 40
9.524999999999998
 49
6.349999999999999
 74
     0
 49
-3.174999999999999
 74
     0
  0
LTYPE
  5
D6
330
5
100
AcDbSymbolTableRecord
100
AcDbLinetypeTableRecord
  2
DASHEDX2
 70
     0
  3
Dashed (2x) ____  ____  ____  ____  ____  ___
 72
    65
 73
     2
 40
38.09999999999999
 49
25.4
 74
     0
 49
-12.7
 74
     0
  0
LTYPE
  5
D7
330
5
100
AcDbSymbolTableRecord
100
AcDbLinetypeTableRecord
  2
DIVIDE
 70
     0
  3
Divide ____ . . ____ . . ____ . . ____ . . ____
 72
    65
 73
     6
 40
31.74999999999999
 49
12.7
 74
     0
 49
-6.349999999999999
 74
     0
 49
0.0
 74
     0
 49
-6.349999999999999
 74
     0
 49
0.0
 74
     0
 49
-6.349999999999999
 74
     0
  0
LTYPE
  5
D8
330
5
100
AcDbSymbolTableRecord
100
AcDbLinetypeTableRecord
  2
DIVIDE2
 70
     0
  3
Divide (.5x) __..__..__..__..__..__..__..__.._
 72
    65
 73
     6
 40
15.87499999999999
 49
6.349999999999999
 74
     0
 49
-3.174999999999999
 74
     0
 49
0.0
 74
     0
 49
-3.174999999999999
 74
     0
 49
0.0
 74
     0
 49
-3.174999999999999
 74
     0
  0
LTYPE
  5
D9
330
5
100
AcDbSymbolTableRecord
100
AcDbLinetypeTableRecord
  2
DIVIDEX2
 70
     0
  3
Divide (2x) ________  .  .  ________  .  .  _
 72
    65
 73
     6
 40
63.49999999999999
 49
25.4
 74
     0
 49
-12.7
 74
     0
 49
0.0
 74
     0
 49
-12.7
 74
     0
 49
0.0
 74
     0
 49
-12.7
 74
     0
  0
LTYPE
  5
DA
330
5
100
AcDbSymbolTableRecord
100
AcDbLinetypeTableRecord
  2
DOT
 70
     0
  3
Dot . . . . . . . . . . . . . . . . . . . . . .
 72
    65
 73
     2
 40
6.349999999999999
 49
0.0
 74
     0
 49
-6.349999999999999
 74
     0
  0
LTYPE
  5
DB
330
5
100
AcDbSymbolTableRecord
100
AcDbLinetypeTableRecord
  2
DOT2
 70
     0
  3
Dot (.5x) .....................................
 72
    65
 73
     2
 40
3.174999999999999
 49
0.0
 74
     0
 49
-3.174999999999999
 74
     0
  0
LTYPE
  5
DC
330
5
100
AcDbSymbolTableRecord
100
AcDbLinetypeTableRecord
  2
DOTX2
 70
     0
  3
Dot (2x) .  .  .  .  .  .  .  .  .  .  .  .  . 
 72
    65
 73
     2
 40
12.7
 49
0.0
 74
     0
 49
-12.7
 74
     0
  0
LTYPE
  5
DD
330
5
100
AcDbSymbolTableRecord
100
AcDbLinetypeTableRecord
  2
FENCELINE1
 70
     0
  3
Fenceline circle ----0-----0----0-----0----0---
 72
    65
 73
     4
 40
36.82999999999999
 49
6.349999999999999
 74
     0
 49
-2.54
 74
     4
 75
   133
340
BB
 46
2.54
 50
0.0
 44
-2.54
 45
0.0
 49
-2.54
 74
     0
 49
25.4
 74
     0
  0
LTYPE
  5
DE
330
5
100
AcDbSymbolTableRecord
100
AcDbLinetypeTableRecord
  2
FENCELINE2
 70
     0
  3
Fenceline square ----[]-----[]----[]-----[]----
 72
    65
 73
     4
 40
36.82999999999999
 49
6.349999999999999
 74
     0
 49
-2.54
 74
     4
 75
   132
340
BB
 46
2.54
 50
0.0
 44
-2.54
 45
0.0
 49
-2.54
 74
     0
 49
25.4
 74
     0
  0
LTYPE
  5
DF
330
5
100
AcDbSymbolTableRecord
100
AcDbLinetypeTableRecord
  2
GAS_LINE
 70
     0
  3
Gas line ----GAS----GAS----GAS----GAS----GAS---
 72
    65
 73
     3
 40
24.13
 49
12.7
 74
     0
 49
-5.08
 74
     2
 75
     0
340
F
 46
2.54
 50
0.0
 44
-2.54
 45
-1.27
  9
GAS
 49
-6.349999999999999
 74
     0
  0
LTYPE
  5
E0
330
5
100
AcDbSymbolTableRecord
100
AcDbLinetypeTableRecord
  2
HIDDEN
 70
     0
  3
Hidden __ __ __ __ __ __ __ __ __ __ __ __ __ _
 72
    65
 73
     2
 40
9.524999999999998
 49
6.349999999999999
 74
     0
 49
-3.174999999999999
 74
     0
  0
LTYPE
  5
E1
330
5
100
AcDbSymbolTableRecord
100
AcDbLinetypeTableRecord
  2
HIDDEN2
 70
     0
  3
Hidden (.5x) _ _ _ _ _ _ _ _ _ _ _ _ _ _ _ _ _
 72
    65
 73
     2
 40
4.762499999999999
 49
3.174999999999999
 74
     0
 49
-1.587499999999999
 74
     0
  0
LTYPE
  5
E2
330
5
100
AcDbSymbolTableRecord
100
AcDbLinetypeTableRecord
  2
HIDDENX2
 70
     0
  3
Hidden (2x) ____ ____ ____ ____ ____ ____ ____
 72
    65
 73
     2
 40
19.04999999999999
 49
12.7
 74
     0
 49
-6.349999999999999
 74
     0
  0
LTYPE
  5
E3
330
5
100
AcDbSymbolTableRecord
100
AcDbLinetypeTableRecord
  2
HOT_WATER_SUPPLY
 70
     0
  3
Hot water supply ---- HW ---- HW ---- HW ----
 72
    65
 73
     3
 40
22.86
 49
12.7
 74
     0
 49
-5.08
 74
     2
 75
     0
340
F
 46
2.54
 50
0.0
 44
-2.54
 45
-1.27
  9
HW
 49
-5.08
 74
     0
  0
LTYPE
  5
E4
330
5
100
AcDbSymbolTableRecord
100
AcDbLinetypeTableRecord
  2
PHANTOM
 70
     0
  3
Phantom ______  __  __  ______  __  __  ______
 72
    65
 73
     6
 40
63.5
 49
31.75
 74
     0
 49
-6.349999999999999
 74
     0
 49
6.349999999999999
 74
     0
 49
-6.349999999999999
 74
     0
 49
6.349999999999999
 74
     0
 49
-6.349999999999999
 74
     0
  0
LTYPE
  5
E5
330
5
100
AcDbSymbolTableRecord
100
AcDbLinetypeTableRecord
  2
PHANTOM2
 70
     0
  3
Phantom (.5x) ___ _ _ ___ _ _ ___ _ _ ___ _ _
 72
    65
 73
     6
 40
31.75
 49
15.875
 74
     0
 49
-3.174999999999999
 74
     0
 49
3.174999999999999
 74
     0
 49
-3.174999999999999
 74
     0
 49
3.174999999999999
 74
     0
 49
-3.174999999999999
 74
     0
  0
LTYPE
  5
E6
330
5
100
AcDbSymbolTableRecord
100
AcDbLinetypeTableRecord
  2
PHANTOMX2
 70
     0
  3
Phantom (2x) ____________    ____    ____   _
 72
    65
 73
     6
 40
127.0
 49
63.5
 74
     0
 49
-12.7
 74
     0
 49
12.7
 74
     0
 49
-12.7
 74
     0
 49
12.7
 74
     0
 49
-12.7
 74
     0
  0
LTYPE
  5
E7
330
5
100
AcDbSymbolTableRecord
100
AcDbLinetypeTableRecord
  2
TRACKS
 70
     0
  3
Tracks -|-|-|-|-|-|-|-|-|-|-|-|-|-|-|-|-|-|-|-|
 72
    65
 73
     2
 40
7.62
 49
3.81
 74
     4
 75
   130
340
BB
 46
6.349999999999999
 50
0.0
 44
0.0
 45
0.0
 49
3.81
 74
     0
  0
LTYPE
  5
E8
330
5
100
AcDbSymbolTableRecord
100
AcDbLinetypeTableRecord
  2
ZIGZAG
 70
     0
  3
Zig zag /\/\/\/\/\/\/\/\/\/\/\/\/\/\/\/\/\/\/\/
 72
    65
 73
     4
 40
20.32254
 49
0.00254
 74
     0
 49
-5.08
 74
     4
 75
   131
340
BB
 46
5.08
 50
0.0
 44
-5.08
 45
0.0
 49
-10.16
 74
     4
 75
   131
340
BB
 46
5.08
 50
180.0
 44
5.08
 45
0.0
 49
-5.08
 74
     0
  0
ENDTAB
  0
TABLE
  2
LAYER
  5
2
330
0
100
AcDbSymbolTable
 70
     9
  0
LAYER
  5
E
330
2
100
AcDbSymbolTableRecord
100
AcDbLayerTableRecord
  2
0
 70
     0
 62
     7
  6
CONTINUOUS
370
    -3
390
1577
  0
LAYER
  5
20
330
2
100
AcDbSymbolTableRecord
100
AcDbLayerTableRecord
  2
DEFPOINTS
 70
     0
 62
     7
  6
CONTINUOUS
290
     0
370
    -3
390
1577
  0
LAYER
  5
21
330
2
100
AcDbSymbolTableRecord
100
AcDbLayerTableRecord
  2
OBJECT
 70
     0
 62
     7
  6
CONTINUOUS
370
    -3
390
1577
  0
LAYER
  5
E9
330
2
100
AcDbSymbolTableRecord
100
AcDbLayerTableRecord
  2
基準線
 70
     0
 62
    -1
  6
CONTINUOUS
370
    -3
390
1577
  0
LAYER
  5
EA
330
2
100
AcDbSymbolTableRecord
100
AcDbLayerTableRecord
  2
上線
 70
     0
 62
     7
  6
CONTINUOUS
370
    -3
390
1577
  0
LAYER
  5
EB
330
2
100
AcDbSymbolTableRecord
100
AcDbLayerTableRecord
  2
点線
 70
     0
 62
     5
  6
HIDDEN
370
    -3
390
1577
  0
LAYER
  5
EC
330
2
100
AcDbSymbolTableRecord
100
AcDbLayerTableRecord
  2
中心線
 70
     0
 62
     6
  6
CENTER
370
    -3
390
1577
  0
LAYER
  5
16F4
330
2
100
AcDbSymbolTableRecord
100
AcDbLayerTableRecord
  2
上書線
 70
     0
 62
     7
  6
CONTINUOUS
370
    -3
390
1577
  0
LAYER
  5
16F5
330
2
100
AcDbSymbolTableRecord
100
AcDbLayerTableRecord
  2
WUWAGAKI
 70
     0
 62
     7
  6
CONTINUOUS
370
    -3
390
1577
  0
ENDTAB
  0
TABLE
  2
STYLE
  5
3
330
0
100
AcDbSymbolTable
 70
     3
  0
STYLE
  5
F
330
3
100
AcDbSymbolTableRecord
100
AcDbTextStyleTableRecord
  2
STANDARD
 70
     0
 40
0.0
 41
1.0
 50
0.0
 71
     0
 42
2.5
  3
MS PMincho.ttf
  4

1001
ACAD
1000
MS PMincho
1071
    32786
  0
STYLE
  5
22
330
3
100
AcDbSymbolTableRecord
100
AcDbTextStyleTableRecord
  2
ADESK1
 70
     0
 40
0.0
 41
1.0
 50
0.0
 71
     0
 42
5.0
  3
romans
  4
bigfont
  0
STYLE
  5
BB
330
3
100
AcDbSymbolTableRecord
100
AcDbTextStyleTableRecord
  2

 70
     1
 40
0.0
 41
1.0
 50
0.0
 71
     0
 42
2.5
  3
ltypeshp.shx
  4

  0
ENDTAB
  0
TABLE
  2
VIEW
  5
6
330
0
100
AcDbSymbolTable
 70
     0
  0
ENDTAB
  0
TABLE
  2
UCS
  5
7
330
0
100
AcDbSymbolTable
 70
     0
  0
ENDTAB
  0
TABLE
  2
APPID
  5
9
330
0
100
AcDbSymbolTable
 70
     1
  0
APPID
  5
10
330
9
100
AcDbSymbolTableRecord
100
AcDbRegAppTableRecord
  2
ACAD
 70
     0
  0
ENDTAB
  0
TABLE
  2
DIMSTYLE
  5
A
330
0
100
AcDbSymbolTable
 70
     2
100
AcDbDimStyleTable
 71
     0
  0
DIMSTYLE
105
1D
102
{ACAD_REACTORS
330
1039
330
103A
330
1147
330
1148
330
1150
330
1151
330
1162
102
}
330
A
100
AcDbSymbolTableRecord
100
AcDbDimStyleTableRecord
  2
STANDARD
 70
     0
340
F
  0
DIMSTYLE
105
23
330
A
100
AcDbSymbolTableRecord
100
AcDbDimStyleTableRecord
  2
JIS
 70
     0
 41
2.5
 42
1.0
 43
7.0
 44
1.0
 73
     0
 74
     0
 77
     1
 78
     8
140
2.5
141
0.0
143
0.0394
147
0.0
172
     1
174
     1
175
     1
340
F
  0
ENDTAB
  0
TABLE
  2
BLOCK_RECORD
  5
1
330
0
100
AcDbSymbolTable
 70
    11
  0
BLOCK_RECORD
  5
18
330
1
100
AcDbSymbolTableRecord
100
AcDbBlockTableRecord
  2
*MODEL_SPACE
340
157A
  0
BLOCK_RECORD
  5
15
330
1
100
AcDbSymbolTableRecord
100
AcDbBlockTableRecord
  2
*PAPER_SPACE
340
157B
  0
BLOCK_RECORD
  5
24
330
1
100
AcDbSymbolTableRecord
100
AcDbBlockTableRecord
  2
JIS_A3
340
0
  0
BLOCK_RECORD
  5
FDE
330
1
100
AcDbSymbolTableRecord
100
AcDbBlockTableRecord
  2
*D1
340
0
  0
BLOCK_RECORD
  5
FEA
330
1
100
AcDbSymbolTableRecord
100
AcDbBlockTableRecord
  2
*D2
340
0
  0
BLOCK_RECORD
  5
FF6
330
1
100
AcDbSymbolTableRecord
100
AcDbBlockTableRecord
  2
*D3
340
0
  0
BLOCK_RECORD
  5
1002
330
1
100
AcDbSymbolTableRecord
100
AcDbBlockTableRecord
  2
*D4
340
0
  0
BLOCK_RECORD
  5
1010
330
1
100
AcDbSymbolTableRecord
100
AcDbBlockTableRecord
  2
*D5
340
0
  0
BLOCK_RECORD
  5
101E
330
1
100
AcDbSymbolTableRecord
100
AcDbBlockTableRecord
  2
*D6
340
0
  0
BLOCK_RECORD
  5
102A
330
1
100
AcDbSymbolTableRecord
100
AcDbBlockTableRecord
  2
*D7
340
0
  0
BLOCK_RECORD
  5
1036
330
1
100
AcDbSymbolTableRecord
100
AcDbBlockTableRecord
  2
A$C2CC912BE
340
0
  0
BLOCK_RECORD
  5
1466
330
1
100
AcDbSymbolTableRecord
100
AcDbBlockTableRecord
  2
A$C24F22DA8
340
0
  0
BLOCK_RECORD
  5
1556
330
1
100
AcDbSymbolTableRecord
100
AcDbBlockTableRecord
  2
A$C50025D0A
340
0
  0
ENDTAB
  0
ENDSEC
  0
SECTION
  2
BLOCKS
  0
BLOCK
  5
19
330
18
100
AcDbEntity
  8
0
100
AcDbBlockBegin
  2
*MODEL_SPACE
 70
     0
 10
0.0
 20
0.0
 30
0.0
  3
*MODEL_SPACE
  1

  0
ENDBLK
  5
1A
330
18
100
AcDbEntity
  8
0
100
AcDbBlockEnd
  0
BLOCK
  5
16
330
15
100
AcDbEntity
 67
     1
  8
0
100
AcDbBlockBegin
  2
*PAPER_SPACE
 70
     0
 10
0.0
 20
0.0
 30
0.0
  3
*PAPER_SPACE
  1

  0
ENDBLK
  5
17
330
15
100
AcDbEntity
 67
     1
  8
0
100
AcDbBlockEnd
  0
BLOCK
  5
B1
330
24
100
AcDbEntity
  8
0
100
AcDbBlockBegin
  2
JIS_A3
 70
     2
 10
0.0
 20
0.0
 30
0.0
  3
JIS_A3
  1

  0
LINE
  5
25
330
24
100
AcDbEntity
  8
0
100
AcDbLine
 10
0.0
 20
0.0
 30
0.0
 11
0.0
 21
10.0
 31
0.0
  0
LINE
  5
26
330
24
100
AcDbEntity
  8
0
100
AcDbLine
 10
0.0
 20
297.0
 30
0.0
 11
25.0
 21
297.0
 31
0.0
  0
LINE
  5
27
330
24
100
AcDbEntity
  8
0
100
AcDbLine
 10
420.0
 20
297.0
 30
0.0
 11
420.0
 21
287.0
 31
0.0
  0
LINE
  5
28
330
24
100
AcDbEntity
  8
0
100
AcDbLine
 10
420.0
 20
0.0
 30
0.0
 11
410.0
 21
0.0
 31
0.0
  0
LINE
  5
29
330
24
100
AcDbEntity
  8
0
100
AcDbLine
 10
25.0
 20
10.0
 30
0.0
 11
25.0
 21
287.0
 31
0.0
  0
LINE
  5
2A
330
24
100
AcDbEntity
  8
0
100
AcDbLine
 10
410.0
 20
10.0
 30
0.0
 11
25.0
 21
10.0
 31
0.0
  0
LINE
  5
2B
330
24
100
AcDbEntity
  8
0
100
AcDbLine
 10
410.0
 20
287.0
 30
0.0
 11
410.0
 21
10.0
 31
0.0
  0
LINE
  5
2C
330
24
100
AcDbEntity
  8
0
100
AcDbLine
 10
25.0
 20
287.0
 30
0.0
 11
410.0
 21
287.0
 31
0.0
  0
LINE
  5
2D
330
24
100
AcDbEntity
  8
0
100
AcDbLine
 10
0.0
 20
287.0
 30
0.0
 11
0.0
 21
297.0
 31
0.0
  0
LINE
  5
2E
330
24
100
AcDbEntity
  8
0
100
AcDbLine
 10
25.0
 20
0.0
 30
0.0
 11
0.0
 21
0.0
 31
0.0
  0
LINE
  5
2F
330
24
100
AcDbEntity
  8
0
100
AcDbLine
 10
420.0
 20
10.0
 30
0.0
 11
420.0
 21
0.0
 31
0.0
  0
LINE
  5
30
330
24
100
AcDbEntity
  8
0
100
AcDbLine
 10
410.0
 20
297.0
 30
0.0
 11
420.0
 21
297.0
 31
0.0
  0
ATTDEF
  5
31
330
24
100
AcDbEntity
  8
0
 62
     0
100
AcDbText
 10
19.0
 20
10.0
 30
0.0
 40
3.0
  1

 50
90.0
  7
ADESK1
100
AcDbAttributeDefinition
  3

  2
USER
 70
     8
  0
ATTDEF
  5
32
330
24
100
AcDbEntity
  8
0
 62
     0
100
AcDbText
 10
19.0
 20
70.0
 30
0.0
 40
3.0
  1

 50
90.0
  7
ADESK1
100
AcDbAttributeDefinition
  3

  2
REVDATE
 70
     8
  0
ATTDEF
  5
33
330
24
100
AcDbEntity
  8
0
 62
     0
100
AcDbText
 10
19.0
 20
118.0
 30
0.0
 40
3.0
  1

 50
90.0
  7
ADESK1
100
AcDbAttributeDefinition
  3

  2
FNAME
 70
     8
  0
LINE
  5
34
330
24
100
AcDbEntity
  8
OBJECT
100
AcDbLine
 10
130.0
 20
16.0
 30
0.0
 11
25.0
 21
16.0
 31
0.0
  0
LINE
  5
35
330
24
100
AcDbEntity
  8
OBJECT
100
AcDbLine
 10
130.0
 20
22.0
 30
0.0
 11
25.0
 21
22.0
 31
0.0
  0
LINE
  5
36
330
24
100
AcDbEntity
  8
OBJECT
100
AcDbLine
 10
130.0
 20
28.0
 30
0.0
 11
25.0
 21
28.0
 31
0.0
  0
LINE
  5
37
330
24
100
AcDbEntity
  8
OBJECT
100
AcDbLine
 10
130.0
 20
34.0
 30
0.0
 11
25.0
 21
34.0
 31
0.0
  0
LINE
  5
38
330
24
100
AcDbEntity
  8
OBJECT
100
AcDbLine
 10
130.0
 20
40.0
 30
0.0
 11
25.0
 21
40.0
 31
0.0
  0
LINE
  5
39
330
24
100
AcDbEntity
  8
OBJECT
100
AcDbLine
 10
28.0
 20
11.53589799999999
 30
0.0
 11
30.0
 21
15.0
 31
0.0
  0
LINE
  5
3A
330
24
100
AcDbEntity
  8
OBJECT
100
AcDbLine
 10
32.0
 20
11.53589799999999
 30
0.0
 11
30.0
 21
15.0
 31
0.0
  0
LINE
  5
3B
330
24
100
AcDbEntity
  8
OBJECT
100
AcDbLine
 10
35.0
 20
10.0
 30
0.0
 11
35.0
 21
40.0
 31
0.0
  0
LINE
  5
3C
330
24
100
AcDbEntity
  8
OBJECT
100
AcDbLine
 10
50.0
 20
10.0
 30
0.0
 11
50.0
 21
40.0
 31
0.0
  0
LINE
  5
3D
330
24
100
AcDbEntity
  8
OBJECT
100
AcDbLine
 10
80.0
 20
10.0
 30
0.0
 11
80.0
 21
40.0
 31
0.0
  0
LINE
  5
3E
330
24
100
AcDbEntity
  8
OBJECT
100
AcDbLine
 10
28.0
 20
11.53589799999999
 30
0.0
 11
32.0
 21
11.53589799999999
 31
0.0
  0
LINE
  5
3F
330
24
100
AcDbEntity
  8
OBJECT
100
AcDbLine
 10
39.5
 20
13.0
 30
0.0
 11
40.49999999999999
 21
13.0
 31
0.0
  0
LINE
  5
40
330
24
100
AcDbEntity
  8
OBJECT
100
AcDbLine
 10
44.5
 20
13.0
 30
0.0
 11
45.49999999999999
 21
13.0
 31
0.0
  0
LINE
  5
41
330
24
100
AcDbEntity
  8
OBJECT
100
AcDbLine
 10
32.0
 20
17.535898
 30
0.0
 11
30.0
 21
20.99999999999999
 31
0.0
  0
LINE
  5
42
330
24
100
AcDbEntity
  8
OBJECT
100
AcDbLine
 10
28.0
 20
17.535898
 30
0.0
 11
32.0
 21
17.535898
 31
0.0
  0
LINE
  5
43
330
24
100
AcDbEntity
  8
OBJECT
100
AcDbLine
 10
28.0
 20
17.535898
 30
0.0
 11
30.0
 21
20.99999999999999
 31
0.0
  0
LINE
  5
44
330
24
100
AcDbEntity
  8
OBJECT
100
AcDbLine
 10
32.0
 20
23.53589799999999
 30
0.0
 11
30.0
 21
26.99999999999999
 31
0.0
  0
LINE
  5
45
330
24
100
AcDbEntity
  8
OBJECT
100
AcDbLine
 10
28.0
 20
23.53589799999999
 30
0.0
 11
32.0
 21
23.53589799999999
 31
0.0
  0
LINE
  5
46
330
24
100
AcDbEntity
  8
OBJECT
100
AcDbLine
 10
28.0
 20
23.53589799999999
 30
0.0
 11
30.0
 21
26.99999999999999
 31
0.0
  0
LINE
  5
47
330
24
100
AcDbEntity
  8
OBJECT
100
AcDbLine
 10
28.0
 20
35.53589799999999
 30
0.0
 11
30.0
 21
39.0
 31
0.0
  0
LINE
  5
48
330
24
100
AcDbEntity
  8
OBJECT
100
AcDbLine
 10
32.0
 20
35.53589799999999
 30
0.0
 11
30.0
 21
39.0
 31
0.0
  0
LINE
  5
49
330
24
100
AcDbEntity
  8
OBJECT
100
AcDbLine
 10
28.0
 20
35.53589799999999
 30
0.0
 11
32.0
 21
35.53589799999999
 31
0.0
  0
LINE
  5
4A
330
24
100
AcDbEntity
  8
OBJECT
100
AcDbLine
 10
32.0
 20
29.535898
 30
0.0
 11
30.0
 21
33.0
 31
0.0
  0
LINE
  5
4B
330
24
100
AcDbEntity
  8
OBJECT
100
AcDbLine
 10
28.0
 20
29.535898
 30
0.0
 11
32.0
 21
29.535898
 31
0.0
  0
LINE
  5
4C
330
24
100
AcDbEntity
  8
OBJECT
100
AcDbLine
 10
28.0
 20
29.535898
 30
0.0
 11
30.0
 21
33.0
 31
0.0
  0
LINE
  5
4D
330
24
100
AcDbEntity
  8
OBJECT
100
AcDbLine
 10
39.5
 20
19.0
 30
0.0
 11
40.49999999999999
 21
19.0
 31
0.0
  0
LINE
  5
4E
330
24
100
AcDbEntity
  8
OBJECT
100
AcDbLine
 10
44.5
 20
19.0
 30
0.0
 11
45.49999999999999
 21
19.0
 31
0.0
  0
LINE
  5
4F
330
24
100
AcDbEntity
  8
OBJECT
100
AcDbLine
 10
39.5
 20
25.0
 30
0.0
 11
40.49999999999999
 21
25.0
 31
0.0
  0
LINE
  5
50
330
24
100
AcDbEntity
  8
OBJECT
100
AcDbLine
 10
44.5
 20
25.0
 30
0.0
 11
45.49999999999999
 21
25.0
 31
0.0
  0
LINE
  5
51
330
24
100
AcDbEntity
  8
OBJECT
100
AcDbLine
 10
39.5
 20
31.0
 30
0.0
 11
40.49999999999999
 21
31.0
 31
0.0
  0
LINE
  5
52
330
24
100
AcDbEntity
  8
OBJECT
100
AcDbLine
 10
39.5
 20
37.0
 30
0.0
 11
40.49999999999999
 21
37.0
 31
0.0
  0
LINE
  5
53
330
24
100
AcDbEntity
  8
OBJECT
100
AcDbLine
 10
44.5
 20
31.0
 30
0.0
 11
45.49999999999999
 21
31.0
 31
0.0
  0
LINE
  5
54
330
24
100
AcDbEntity
  8
OBJECT
100
AcDbLine
 10
44.5
 20
37.0
 30
0.0
 11
45.49999999999999
 21
37.0
 31
0.0
  0
LINE
  5
55
330
24
100
AcDbEntity
  8
OBJECT
100
AcDbLine
 10
120.0
 20
10.0
 30
0.0
 11
120.0
 21
40.0
 31
0.0
  0
LINE
  5
56
330
24
100
AcDbEntity
  8
OBJECT
100
AcDbLine
 10
130.0
 20
40.0
 30
0.0
 11
130.0
 21
10.0
 31
0.0
  0
LINE
  5
57
330
24
100
AcDbEntity
  8
0
100
AcDbLine
 10
217.5
 20
10.0
 30
0.0
 11
217.5
 21
0.0
 31
0.0
  0
LINE
  5
58
330
24
100
AcDbEntity
  8
0
100
AcDbLine
 10
217.5
 20
287.0
 30
0.0
 11
217.5
 21
297.0
 31
0.0
  0
LINE
  5
59
330
24
100
AcDbEntity
  8
0
100
AcDbLine
 10
410.0
 20
148.5
 30
0.0
 11
420.0
 21
148.5
 31
0.0
  0
LINE
  5
5A
330
24
100
AcDbEntity
  8
0
100
AcDbLine
 10
25.0
 20
148.5
 30
0.0
 11
0.0
 21
148.5
 31
0.0
  0
TEXT
  5
5B
330
24
100
AcDbEntity
  8
0
100
AcDbText
 10
1.0
 20
1.0
 30
0.0
 40
3.0
  1
この図枠はサンプルです。社内の規格やプロッタの出力範囲に合わせて適当に変更してご利用ください。
  7
ADESK1
100
AcDbText
  0
LINE
  5
5C
330
24
100
AcDbEntity
  8
0
100
AcDbLine
 10
25.0
 20
240.8333333333333
 30
0.0
 11
20.0
 21
240.8333333333333
 31
0.0
  0
LINE
  5
5D
330
24
100
AcDbEntity
  8
0
100
AcDbLine
 10
25.0
 20
194.6666666666666
 30
0.0
 11
20.0
 21
194.6666666666666
 31
0.0
  0
LINE
  5
5E
330
24
100
AcDbEntity
  8
0
100
AcDbLine
 10
25.0
 20
148.5
 30
0.0
 11
20.0
 21
148.5
 31
0.0
  0
LINE
  5
5F
330
24
100
AcDbEntity
  8
0
100
AcDbLine
 10
25.0
 20
102.3333333333333
 30
0.0
 11
20.0
 21
102.3333333333333
 31
0.0
  0
LINE
  5
60
330
24
100
AcDbEntity
  8
0
100
AcDbLine
 10
25.0
 20
56.16666666666667
 30
0.0
 11
20.0
 21
56.16666666666667
 31
0.0
  0
LINE
  5
61
330
24
100
AcDbEntity
  8
0
100
AcDbLine
 10
410.0
 20
56.16666666666668
 30
0.0
 11
415.0
 21
56.16666666666668
 31
0.0
  0
LINE
  5
62
330
24
100
AcDbEntity
  8
0
100
AcDbLine
 10
410.0
 20
102.3333333333333
 30
0.0
 11
415.0
 21
102.3333333333333
 31
0.0
  0
LINE
  5
63
330
24
100
AcDbEntity
  8
0
100
AcDbLine
 10
410.0
 20
148.5
 30
0.0
 11
415.0
 21
148.5
 31
0.0
  0
LINE
  5
64
330
24
100
AcDbEntity
  8
0
100
AcDbLine
 10
410.0
 20
194.6666666666667
 30
0.0
 11
415.0
 21
194.6666666666667
 31
0.0
  0
LINE
  5
65
330
24
100
AcDbEntity
  8
0
100
AcDbLine
 10
410.0
 20
240.8333333333333
 30
0.0
 11
415.0
 21
240.8333333333333
 31
0.0
  0
LINE
  5
66
330
24
100
AcDbEntity
  8
0
100
AcDbLine
 10
73.125
 20
10.0
 30
0.0
 11
73.125
 21
5.0
 31
0.0
  0
LINE
  5
67
330
24
100
AcDbEntity
  8
0
100
AcDbLine
 10
121.25
 20
10.0
 30
0.0
 11
121.25
 21
5.0
 31
0.0
  0
LINE
  5
68
330
24
100
AcDbEntity
  8
0
100
AcDbLine
 10
169.375
 20
10.0
 30
0.0
 11
169.375
 21
5.0
 31
0.0
  0
LINE
  5
69
330
24
100
AcDbEntity
  8
0
100
AcDbLine
 10
217.5
 20
10.0
 30
0.0
 11
217.5
 21
5.0
 31
0.0
  0
LINE
  5
6A
330
24
100
AcDbEntity
  8
0
100
AcDbLine
 10
265.625
 20
10.0
 30
0.0
 11
265.625
 21
5.0
 31
0.0
  0
LINE
  5
6B
330
24
100
AcDbEntity
  8
0
100
AcDbLine
 10
313.75
 20
10.0
 30
0.0
 11
313.75
 21
5.0
 31
0.0
  0
LINE
  5
6C
330
24
100
AcDbEntity
  8
0
100
AcDbLine
 10
361.8749999999999
 20
10.0
 30
0.0
 11
361.8749999999999
 21
5.0
 31
0.0
  0
LINE
  5
6D
330
24
100
AcDbEntity
  8
0
100
AcDbLine
 10
361.8749999999999
 20
287.0
 30
0.0
 11
361.8749999999999
 21
292.0
 31
0.0
  0
LINE
  5
6E
330
24
100
AcDbEntity
  8
0
100
AcDbLine
 10
313.75
 20
287.0
 30
0.0
 11
313.75
 21
292.0
 31
0.0
  0
LINE
  5
6F
330
24
100
AcDbEntity
  8
0
100
AcDbLine
 10
265.625
 20
287.0
 30
0.0
 11
265.625
 21
292.0
 31
0.0
  0
LINE
  5
70
330
24
100
AcDbEntity
  8
0
100
AcDbLine
 10
217.5
 20
287.0
 30
0.0
 11
217.5
 21
292.0
 31
0.0
  0
LINE
  5
71
330
24
100
AcDbEntity
  8
0
100
AcDbLine
 10
169.375
 20
287.0
 30
0.0
 11
169.375
 21
292.0
 31
0.0
  0
LINE
  5
72
330
24
100
AcDbEntity
  8
0
100
AcDbLine
 10
121.25
 20
287.0
 30
0.0
 11
121.25
 21
292.0
 31
0.0
  0
LINE
  5
73
330
24
100
AcDbEntity
  8
0
100
AcDbLine
 10
73.125
 20
287.0
 30
0.0
 11
73.125
 21
292.0
 31
0.0
  0
TEXT
  5
74
330
24
100
AcDbEntity
  8
0
100
AcDbText
 10
47.84821428571429
 20
288.0
 30
0.0
 40
3.0
  1
1
  7
ADESK1
 72
     1
 11
49.0625
 21
288.0
 31
0.0
100
AcDbText
  0
TEXT
  5
75
330
24
100
AcDbEntity
  8
0
100
AcDbText
 10
21.32144707381961
 20
263.9166666666666
 30
0.0
 40
3.0
  1
A
  7
ADESK1
 72
     1
 11
22.60716135953389
 21
263.9166666666666
 31
0.0
100
AcDbText
  0
TEXT
  5
76
330
24
100
AcDbEntity
  8
0
100
AcDbText
 10
95.75892857142857
 20
288.0
 30
0.0
 40
3.0
  1
2
  7
ADESK1
 72
     1
 11
97.1875
 21
288.0
 31
0.0
100
AcDbText
  0
TEXT
  5
77
330
24
100
AcDbEntity
  8
0
100
AcDbText
 10
143.8839285714285
 20
288.0
 30
0.0
 40
3.0
  1
3
  7
ADESK1
 72
     1
 11
145.3125
 21
288.0
 31
0.0
100
AcDbText
  0
TEXT
  5
78
330
24
100
AcDbEntity
  8
0
100
AcDbText
 10
191.9375
 20
288.0
 30
0.0
 40
3.0
  1
4
  7
ADESK1
 72
     1
 11
193.4375
 21
288.0
 31
0.0
100
AcDbText
  0
TEXT
  5
79
330
24
100
AcDbEntity
  8
0
100
AcDbText
 10
240.1339285714285
 20
288.0
 30
0.0
 40
3.0
  1
5
  7
ADESK1
 72
     1
 11
241.5624999999999
 21
288.0
 31
0.0
100
AcDbText
  0
TEXT
  5
7A
330
24
100
AcDbEntity
  8
0
100
AcDbText
 10
288.1874999999999
 20
288.0
 30
0.0
 40
3.0
  1
6
  7
ADESK1
 72
     1
 11
289.6875
 21
288.0
 31
0.0
100
AcDbText
  0
TEXT
  5
7B
330
24
100
AcDbEntity
  8
0
100
AcDbText
 10
336.3839285714285
 20
288.0
 30
0.0
 40
3.0
  1
7
  7
ADESK1
 72
     1
 11
337.8125
 21
288.0
 31
0.0
100
AcDbText
  0
TEXT
  5
7C
330
24
100
AcDbEntity
  8
0
100
AcDbText
 10
384.5089285714285
 20
288.0
 30
0.0
 40
3.0
  1
8
  7
ADESK1
 72
     1
 11
385.9375
 21
288.0
 31
0.0
100
AcDbText
  0
TEXT
  5
7D
330
24
100
AcDbEntity
  8
0
100
AcDbText
 10
21.03573278810532
 20
217.7499999999999
 30
0.0
 40
3.0
  1
B
  7
ADESK1
 72
     1
 11
22.60716135953389
 21
217.7499999999999
 31
0.0
100
AcDbText
  0
TEXT
  5
7E
330
24
100
AcDbEntity
  8
0
100
AcDbText
 10
21.10716135953389
 20
171.5833333333333
 30
0.0
 40
3.0
  1
C
  7
ADESK1
 72
     1
 11
22.60716135953389
 21
171.5833333333333
 31
0.0
100
AcDbText
  0
TEXT
  5
7F
330
24
100
AcDbEntity
  8
0
100
AcDbText
 10
21.03573278810532
 20
125.4166666666666
 30
0.0
 40
3.0
  1
D
  7
ADESK1
 72
     1
 11
22.60716135953389
 21
125.4166666666666
 31
0.0
100
AcDbText
  0
TEXT
  5
80
330
24
100
AcDbEntity
  8
0
100
AcDbText
 10
21.10716135953389
 20
79.25
 30
0.0
 40
3.0
  1
E
  7
ADESK1
 72
     1
 11
22.60716135953389
 21
79.25
 31
0.0
100
AcDbText
  0
TEXT
  5
81
330
24
100
AcDbEntity
  8
0
100
AcDbText
 10
21.10716135953389
 20
33.08333333333334
 30
0.0
 40
3.0
  1
F
  7
ADESK1
 72
     1
 11
22.60716135953389
 21
33.08333333333334
 31
0.0
100
AcDbText
  0
TEXT
  5
82
330
24
100
AcDbEntity
  8
0
100
AcDbText
 10
47.84821428571429
 20
6.019997240728748
 30
0.0
 40
3.0
  1
1
  7
ADESK1
 72
     1
 11
49.0625
 21
6.019997240728748
 31
0.0
100
AcDbText
  0
TEXT
  5
83
330
24
100
AcDbEntity
  8
0
100
AcDbText
 10
95.75892857142857
 20
6.019997240728748
 30
0.0
 40
3.0
  1
2
  7
ADESK1
 72
     1
 11
97.1875
 21
6.019997240728748
 31
0.0
100
AcDbText
  0
TEXT
  5
84
330
24
100
AcDbEntity
  8
0
100
AcDbText
 10
143.8839285714285
 20
6.019997240728748
 30
0.0
 40
3.0
  1
3
  7
ADESK1
 72
     1
 11
145.3125
 21
6.019997240728748
 31
0.0
100
AcDbText
  0
TEXT
  5
85
330
24
100
AcDbEntity
  8
0
100
AcDbText
 10
191.9375
 20
6.019997240728748
 30
0.0
 40
3.0
  1
4
  7
ADESK1
 72
     1
 11
193.4375
 21
6.019997240728748
 31
0.0
100
AcDbText
  0
TEXT
  5
86
330
24
100
AcDbEntity
  8
0
100
AcDbText
 10
240.1339285714285
 20
6.019997240728748
 30
0.0
 40
3.0
  1
5
  7
ADESK1
 72
     1
 11
241.5624999999999
 21
6.019997240728748
 31
0.0
100
AcDbText
  0
TEXT
  5
87
330
24
100
AcDbEntity
  8
0
100
AcDbText
 10
288.1874999999999
 20
6.019997240728748
 30
0.0
 40
3.0
  1
6
  7
ADESK1
 72
     1
 11
289.6875
 21
6.019997240728748
 31
0.0
100
AcDbText
  0
TEXT
  5
88
330
24
100
AcDbEntity
  8
0
100
AcDbText
 10
336.3839285714285
 20
6.019997240728748
 30
0.0
 40
3.0
  1
7
  7
ADESK1
 72
     1
 11
337.8125
 21
6.019997240728748
 31
0.0
100
AcDbText
  0
TEXT
  5
89
330
24
100
AcDbEntity
  8
0
100
AcDbText
 10
384.5089285714285
 20
6.019997240728748
 30
0.0
 40
3.0
  1
8
  7
ADESK1
 72
     1
 11
385.9375
 21
6.019997240728748
 31
0.0
100
AcDbText
  0
TEXT
  5
8A
330
24
100
AcDbEntity
  8
0
100
AcDbText
 10
411.5851108826324
 20
263.9166666666666
 30
0.0
 40
3.0
  1
A
  7
ADESK1
 72
     1
 11
412.8708251683468
 21
263.9166666666666
 31
0.0
100
AcDbText
  0
TEXT
  5
8B
330
24
100
AcDbEntity
  8
0
100
AcDbText
 10
411.2993965969182
 20
217.7499999999999
 30
0.0
 40
3.0
  1
B
  7
ADESK1
 72
     1
 11
412.8708251683468
 21
217.7499999999999
 31
0.0
100
AcDbText
  0
TEXT
  5
8C
330
24
100
AcDbEntity
  8
0
100
AcDbText
 10
411.3708251683467
 20
171.5833333333333
 30
0.0
 40
3.0
  1
C
  7
ADESK1
 72
     1
 11
412.8708251683468
 21
171.5833333333333
 31
0.0
100
AcDbText
  0
TEXT
  5
8D
330
24
100
AcDbEntity
  8
0
100
AcDbText
 10
411.2993965969182
 20
125.4166666666666
 30
0.0
 40
3.0
  1
D
  7
ADESK1
 72
     1
 11
412.8708251683468
 21
125.4166666666666
 31
0.0
100
AcDbText
  0
TEXT
  5
8E
330
24
100
AcDbEntity
  8
0
100
AcDbText
 10
411.3708251683467
 20
79.25
 30
0.0
 40
3.0
  1
E
  7
ADESK1
 72
     1
 11
412.8708251683468
 21
79.25
 31
0.0
100
AcDbText
  0
TEXT
  5
8F
330
24
100
AcDbEntity
  8
0
100
AcDbText
 10
411.3708251683467
 20
33.08333333333334
 30
0.0
 40
3.0
  1
F
  7
ADESK1
 72
     1
 11
412.8708251683468
 21
33.08333333333334
 31
0.0
100
AcDbText
  0
LINE
  5
90
330
24
100
AcDbEntity
  8
0
 62
     0
100
AcDbLine
 10
280.2978723404241
 20
49.00000000000036
 30
0.0
 11
410.0
 21
49.00000000000036
 31
0.0
  0
LINE
  5
91
330
24
100
AcDbEntity
  8
0
 62
     0
100
AcDbLine
 10
280.2978723404241
 20
13.00000000000004
 30
0.0
 11
410.0
 21
13.00000000000004
 31
0.0
  0
LINE
  5
92
330
24
100
AcDbEntity
  8
0
 62
     0
100
AcDbLine
 10
280.2978723404241
 20
37.00000000000024
 30
0.0
 11
410.0
 21
37.00000000000024
 31
0.0
  0
LINE
  5
93
330
24
100
AcDbEntity
  8
0
 62
     0
100
AcDbLine
 10
318.1276595744673
 20
22.00000000000012
 30
0.0
 11
410.0
 21
22.00000000000012
 31
0.0
  0
LINE
  5
94
330
24
100
AcDbEntity
  8
0
 62
     0
100
AcDbLine
 10
280.2978723404241
 20
10.0
 30
0.0
 11
410.0
 21
10.0
 31
0.0
  0
LINE
  5
95
330
24
100
AcDbEntity
  8
0
 62
     0
100
AcDbLine
 10
410.0
 20
49.00000000000036
 30
0.0
 11
280.2978723404241
 21
49.00000000000036
 31
0.0
  0
LINE
  5
96
330
24
100
AcDbEntity
  8
0
 62
     0
100
AcDbLine
 10
303.7163120567365
 20
37.00000000000024
 30
0.0
 11
303.7163120567365
 21
10.0
 31
0.0
  0
LINE
  5
97
330
24
100
AcDbEntity
  8
0
 62
     0
100
AcDbLine
 10
285.702127659573
 20
37.00000000000024
 30
0.0
 11
285.702127659573
 21
10.0
 31
0.0
  0
LINE
  5
98
330
24
100
AcDbEntity
  8
0
 62
     0
100
AcDbLine
 10
312.7234042553184
 20
37.00000000000024
 30
0.0
 11
312.7234042553184
 21
10.0
 31
0.0
  0
LINE
  5
99
330
24
100
AcDbEntity
  8
0
 62
     0
100
AcDbLine
 10
318.1276595744673
 20
25.00000000000012
 30
0.0
 11
318.1276595744673
 21
10.0
 31
0.0
  0
LINE
  5
9A
330
24
100
AcDbEntity
  8
0
 62
     0
100
AcDbLine
 10
280.2978723404241
 20
49.00000000000036
 30
0.0
 11
280.2978723404241
 21
10.0
 31
0.0
  0
LINE
  5
9B
330
24
100
AcDbEntity
  8
0
 62
     0
100
AcDbLine
 10
348.7517730496447
 20
49.00000000000036
 30
0.0
 11
348.7517730496447
 21
10.0
 31
0.0
  0
LINE
  5
9C
330
24
100
AcDbEntity
  8
0
 62
     0
100
AcDbLine
 10
328.7659574468077
 20
22.00000000000007
 30
0.0
 11
328.7659574468077
 21
10.0
 31
0.0
  0
LINE
  5
9D
330
24
100
AcDbEntity
  8
0
 62
     0
100
AcDbLine
 10
339.4042553191484
 20
22.00000000000007
 30
0.0
 11
339.4042553191484
 21
10.0
 31
0.0
  0
LINE
  5
9E
330
24
100
AcDbEntity
  8
0
 62
     0
100
AcDbLine
 10
280.2978723404241
 20
16.00000000000008
 30
0.0
 11
318.1276595744673
 21
16.00000000000008
 31
0.0
  0
LINE
  5
9F
330
24
100
AcDbEntity
  8
0
 62
     0
100
AcDbLine
 10
280.2978723404241
 20
10.0
 30
0.0
 11
280.2978723404241
 21
13.00000000000004
 31
0.0
  0
TEXT
  5
A0
330
24
100
AcDbEntity
  8
0
 62
     0
100
AcDbText
 10
321.7174935280942
 20
10.48329012996929
 30
0.0
 40
1.791674070777747
  1
製図
  7
ADESK1
 72
     1
 11
323.5688900678979
 21
10.48329012996929
 31
0.0
100
AcDbText
  0
TEXT
  5
A1
330
24
100
AcDbEntity
  8
0
 62
     0
100
AcDbText
 10
332.2960689314087
 20
10.48329012996929
 30
0.0
 40
1.791674070777747
  1
設計
  7
ADESK1
 72
     1
 11
334.2071879402383
 21
10.48329012996929
 31
0.0
100
AcDbText
  0
TEXT
  5
A2
330
24
100
AcDbEntity
  8
0
 62
     0
100
AcDbText
 10
342.2447163844405
 20
10.55220101068186
 30
0.0
 40
1.791674070777747
  1
照査
  7
ADESK1
 72
     1
 11
344.1558353932701
 21
10.55220101068186
 31
0.0
100
AcDbText
  0
LINE
  5
A3
330
24
100
AcDbEntity
  8
0
 62
     0
100
AcDbLine
 10
280.2978723404241
 20
25.00000000000012
 30
0.0
 11
318.1276595744673
 21
25.00000000000012
 31
0.0
  0
LINE
  5
A4
330
24
100
AcDbEntity
  8
0
 62
     0
100
AcDbLine
 10
280.2978723404241
 20
22.00000000000007
 30
0.0
 11
318.1276595744673
 21
22.00000000000012
 31
0.0
  0
LINE
  5
A5
330
24
100
AcDbEntity
  8
0
 62
     0
100
AcDbLine
 10
280.2978723404241
 20
19.00000000000007
 30
0.0
 11
318.1276595744673
 21
19.00000000000012
 31
0.0
  0
LINE
  5
A6
330
24
100
AcDbEntity
  8
0
 62
     0
100
AcDbLine
 10
280.2978723404241
 20
34.00000000000024
 30
0.0
 11
348.7517730496447
 21
34.00000000000024
 31
0.0
  0
LINE
  5
A7
330
24
100
AcDbEntity
  8
0
 62
     0
100
AcDbLine
 10
280.2978723404241
 20
31.0000000000002
 30
0.0
 11
348.7517730496447
 21
31.0000000000002
 31
0.0
  0
LINE
  5
A8
330
24
100
AcDbEntity
  8
0
 62
     0
100
AcDbLine
 10
280.2978723404241
 20
28.00000000000015
 30
0.0
 11
348.7517730496447
 21
28.00000000000015
 31
0.0
  0
LINE
  5
A9
330
24
100
AcDbEntity
  8
0
 62
     0
100
AcDbLine
 10
318.1276595744673
 20
25.00000000000012
 30
0.0
 11
348.7517730496447
 21
25.00000000000012
 31
0.0
  0
LINE
  5
AA
330
24
100
AcDbEntity
  8
0
 62
     0
100
AcDbLine
 10
318.1276595744673
 20
49.00000000000036
 30
0.0
 11
318.1276595744673
 21
25.00000000000012
 31
0.0
  0
LINE
  5
AB
330
24
100
AcDbEntity
  8
0
 62
     0
100
AcDbLine
 10
325.3333333333325
 20
37.00000000000024
 30
0.0
 11
325.3333333333325
 21
25.00000000000012
 31
0.0
  0
LINE
  5
AC
330
24
100
AcDbEntity
  8
0
 62
     0
100
AcDbLine
 10
336.1418439716306
 20
49.00000000000036
 30
0.0
 11
336.1418439716306
 21
22.00000000000012
 31
0.0
  0
LINE
  5
AD
330
24
100
AcDbEntity
  8
0
 62
     0
100
AcDbLine
 10
402.7943262411347
 20
22.00000000000012
 30
0.0
 11
402.7943262411347
 21
10.0
 31
0.0
  0
LINE
  5
AE
330
24
100
AcDbEntity
  8
0
 62
     0
100
AcDbLine
 10
410.0
 20
49.00000000000036
 30
0.0
 11
410.0
 21
10.0
 31
0.0
  0
LINE
  5
AF
330
24
100
AcDbEntity
  8
0
 62
     0
100
AcDbLine
 10
410.0
 20
10.0
 30
0.0
 11
410.0
 21
49.00000000000036
 31
0.0
  0
LINE
  5
B0
330
24
100
AcDbEntity
  8
0
 62
     0
100
AcDbLine
 10
402.7943262411347
 20
16.00000000000008
 30
0.0
 11
410.0
 21
16.00000000000008
 31
0.0
  0
ENDBLK
  5
B2
330
24
100
AcDbEntity
  8
0
100
AcDbBlockEnd
  0
BLOCK
  5
FE8
330
FDE
100
AcDbEntity
  8
0
100
AcDbBlockBegin
  2
*D1
 70
     1
 10
0.0
 20
0.0
 30
0.0
  3
*D1
  1

  0
LINE
  5
FDF
330
FDE
100
AcDbEntity
  8
0
  6
ByBlock
 62
     0
100
AcDbLine
 10
741.3379353483541
 20
1938.857652975097
 30
0.0
 11
540.4236224441501
 21
1938.857652975097
 31
0.0
  0
LINE
  5
FE0
330
FDE
100
AcDbEntity
  8
0
  6
ByBlock
 62
     0
100
AcDbLine
 10
741.3379353483541
 20
1238.857652975097
 30
0.0
 11
540.4236224441501
 21
1238.857652975097
 31
0.0
  0
LINE
  5
FE1
330
FDE
100
AcDbEntity
  8
0
  6
ByBlock
 62
     0
100
AcDbLine
 10
552.9236224441501
 20
1913.857652975097
 30
0.0
 11
552.9236224441501
 21
1263.857652975097
 31
0.0
  0
SOLID
  5
FE2
330
FDE
100
AcDbEntity
  8
0
  6
ByBlock
 62
     0
100
AcDbTrace
 10
548.7569557774835
 20
1913.857652975097
 30
0.0
 11
557.0902891108167
 21
1913.857652975097
 31
0.0
 12
552.9236224441501
 22
1938.857652975097
 32
0.0
 13
552.9236224441501
 23
1938.857652975097
 33
0.0
  0
SOLID
  5
FE3
330
FDE
100
AcDbEntity
  8
0
  6
ByBlock
 62
     0
100
AcDbTrace
 10
548.7569557774835
 20
1263.857652975097
 30
0.0
 11
557.0902891108167
 21
1263.857652975097
 31
0.0
 12
552.9236224441501
 22
1238.857652975097
 32
0.0
 13
552.9236224441501
 23
1238.857652975097
 33
0.0
  0
MTEXT
  5
FE4
330
FDE
100
AcDbEntity
  8
0
  6
ByBlock
 62
     0
100
AcDbMText
 10
534.1736224441501
 20
1588.857652975097
 30
0.0
 40
25.0
 41
0.0
 71
     5
 72
     1
  1
\A1;700
 11
0.0000000000000001
 21
1.0
 31
0.0
 73
     1
 44
1.0
  0
POINT
  5
FE5
330
FDE
100
AcDbEntity
  8
DEFPOINTS
  6
ByBlock
 62
     0
100
AcDbPoint
 10
747.5879353483541
 20
1938.857652975097
 30
0.0
  0
POINT
  5
FE6
330
FDE
100
AcDbEntity
  8
DEFPOINTS
  6
ByBlock
 62
     0
100
AcDbPoint
 10
747.5879353483541
 20
1238.857652975097
 30
0.0
  0
POINT
  5
FE7
330
FDE
100
AcDbEntity
  8
DEFPOINTS
  6
ByBlock
 62
     0
100
AcDbPoint
 10
552.9236224441501
 20
1238.857652975097
 30
0.0
  0
ENDBLK
  5
FE9
330
FDE
100
AcDbEntity
  8
0
100
AcDbBlockEnd
  0
BLOCK
  5
FF4
330
FEA
100
AcDbEntity
  8
0
100
AcDbBlockBegin
  2
*D2
 70
     1
 10
0.0
 20
0.0
 30
0.0
  3
*D2
  1

  0
LINE
  5
FEB
330
FEA
100
AcDbEntity
  8
0
  6
ByBlock
 62
     0
100
AcDbLine
 10
741.3379353483541
 20
1838.857652975097
 30
0.0
 11
634.0698577668099
 21
1838.857652975097
 31
0.0
  0
LINE
  5
FEC
330
FEA
100
AcDbEntity
  8
0
  6
ByBlock
 62
     0
100
AcDbLine
 10
741.3379353483543
 20
1338.857652975097
 30
0.0
 11
634.0698577668099
 21
1338.857652975097
 31
0.0
  0
LINE
  5
FED
330
FEA
100
AcDbEntity
  8
0
  6
ByBlock
 62
     0
100
AcDbLine
 10
646.5698577668099
 20
1813.857652975097
 30
0.0
 11
646.5698577668099
 21
1363.857652975097
 31
0.0
  0
SOLID
  5
FEE
330
FEA
100
AcDbEntity
  8
0
  6
ByBlock
 62
     0
100
AcDbTrace
 10
642.4031911001433
 20
1813.857652975097
 30
0.0
 11
650.7365244334765
 21
1813.857652975097
 31
0.0
 12
646.5698577668099
 22
1838.857652975097
 32
0.0
 13
646.5698577668099
 23
1838.857652975097
 33
0.0
  0
SOLID
  5
FEF
330
FEA
100
AcDbEntity
  8
0
  6
ByBlock
 62
     0
100
AcDbTrace
 10
642.4031911001433
 20
1363.857652975097
 30
0.0
 11
650.7365244334765
 21
1363.857652975097
 31
0.0
 12
646.5698577668099
 22
1338.857652975097
 32
0.0
 13
646.5698577668099
 23
1338.857652975097
 33
0.0
  0
MTEXT
  5
FF0
330
FEA
100
AcDbEntity
  8
0
  6
ByBlock
 62
     0
100
AcDbMText
 10
627.8198577668099
 20
1588.857652975097
 30
0.0
 40
25.0
 41
0.0
 71
     5
 72
     1
  1
\A1;500
 11
0.0000000000000001
 21
1.0
 31
0.0
 73
     1
 44
1.0
  0
POINT
  5
FF1
330
FEA
100
AcDbEntity
  8
DEFPOINTS
  6
ByBlock
 62
     0
100
AcDbPoint
 10
747.5879353483541
 20
1838.857652975097
 30
0.0
  0
POINT
  5
FF2
330
FEA
100
AcDbEntity
  8
DEFPOINTS
  6
ByBlock
 62
     0
100
AcDbPoint
 10
747.5879353483543
 20
1338.857652975097
 30
0.0
  0
POINT
  5
FF3
330
FEA
100
AcDbEntity
  8
DEFPOINTS
  6
ByBlock
 62
     0
100
AcDbPoint
 10
646.5698577668099
 20
1338.857652975097
 30
0.0
  0
ENDBLK
  5
FF5
330
FEA
100
AcDbEntity
  8
0
100
AcDbBlockEnd
  0
BLOCK
  5
1000
330
FF6
100
AcDbEntity
  8
0
100
AcDbBlockBegin
  2
*D3
 70
     1
 10
0.0
 20
0.0
 30
0.0
  3
*D3
  1

  0
LINE
  5
FF7
330
FF6
100
AcDbEntity
  8
0
  6
ByBlock
 62
     0
100
AcDbLine
 10
1979.648248636538
 20
1971.770067059548
 30
0.0
 11
1979.648248636538
 21
2171.240174754543
 31
0.0
  0
LINE
  5
FF8
330
FF6
100
AcDbEntity
  8
0
  6
ByBlock
 62
     0
100
AcDbLine
 10
2979.648248636539
 20
1971.770067059551
 30
0.0
 11
2979.648248636539
 21
2171.240174754543
 31
0.0
  0
LINE
  5
FF9
330
FF6
100
AcDbEntity
  8
0
  6
ByBlock
 62
     0
100
AcDbLine
 10
2004.648248636538
 20
2158.740174754544
 30
0.0
 11
2954.648248636539
 21
2158.740174754544
 31
0.0
  0
SOLID
  5
FFA
330
FF6
100
AcDbEntity
  8
0
  6
ByBlock
 62
     0
100
AcDbTrace
 10
2004.648248636538
 20
2162.90684142121
 30
0.0
 11
2004.648248636538
 21
2154.573508087877
 31
0.0
 12
1979.648248636538
 22
2158.740174754544
 32
0.0
 13
1979.648248636538
 23
2158.740174754544
 33
0.0
  0
SOLID
  5
FFB
330
FF6
100
AcDbEntity
  8
0
  6
ByBlock
 62
     0
100
AcDbTrace
 10
2954.648248636539
 20
2162.90684142121
 30
0.0
 11
2954.648248636539
 21
2154.573508087877
 31
0.0
 12
2979.648248636539
 22
2158.740174754544
 32
0.0
 13
2979.648248636539
 23
2158.740174754544
 33
0.0
  0
MTEXT
  5
FFC
330
FF6
100
AcDbEntity
  8
0
  6
ByBlock
 62
     0
100
AcDbMText
 10
2479.648248636538
 20
2179.667141046678
 30
0.0
 40
25.0
 41
0.0
 71
     5
 72
     1
  1
\A1;1,000
 73
     1
 44
1.0
  0
POINT
  5
FFD
330
FF6
100
AcDbEntity
  8
DEFPOINTS
  6
ByBlock
 62
     0
100
AcDbPoint
 10
1979.648248636538
 20
1965.520067059548
 30
0.0
  0
POINT
  5
FFE
330
FF6
100
AcDbEntity
  8
DEFPOINTS
  6
ByBlock
 62
     0
100
AcDbPoint
 10
2979.648248636539
 20
1965.52006705955
 30
0.0
  0
POINT
  5
FFF
330
FF6
100
AcDbEntity
  8
DEFPOINTS
  6
ByBlock
 62
     0
100
AcDbPoint
 10
2979.648248636539
 20
2158.740174754544
 30
0.0
  0
ENDBLK
  5
1001
330
FF6
100
AcDbEntity
  8
0
100
AcDbBlockEnd
  0
BLOCK
  5
100E
330
1002
100
AcDbEntity
  8
0
100
AcDbBlockBegin
  2
*D4
 70
     1
 10
0.0
 20
0.0
 30
0.0
  3
*D4
  1

  0
LINE
  5
1003
330
1002
100
AcDbEntity
  8
0
  6
ByBlock
 62
     0
100
AcDbLine
 10
1999.648248636538
 20
1971.770067059548
 30
0.0
 11
1999.648248636538
 21
2081.338119850384
 31
0.0
  0
LINE
  5
1004
330
1002
100
AcDbEntity
  8
0
  6
ByBlock
 62
     0
100
AcDbLine
 10
1979.648248636538
 20
1971.770067059548
 30
0.0
 11
1979.648248636538
 21
2081.338119850384
 31
0.0
  0
LINE
  5
1005
330
1002
100
AcDbEntity
  8
0
  6
ByBlock
 62
     0
100
AcDbLine
 10
2024.648248636538
 20
2068.838119850384
 30
0.0
 11
2049.648248636538
 21
2068.838119850384
 31
0.0
  0
LINE
  5
1006
330
1002
100
AcDbEntity
  8
0
  6
ByBlock
 62
     0
100
AcDbLine
 10
1954.648248636538
 20
2068.838119850384
 30
0.0
 11
1884.844877850021
 21
2068.838119850384
 31
0.0
  0
LINE
  5
1007
330
1002
100
AcDbEntity
  8
0
  6
ByBlock
 62
     0
100
AcDbLine
 10
1999.648248636538
 20
2068.838119850384
 30
0.0
 11
1979.648248636538
 21
2068.838119850384
 31
0.0
  0
SOLID
  5
1008
330
1002
100
AcDbEntity
  8
0
  6
ByBlock
 62
     0
100
AcDbTrace
 10
2024.648248636538
 20
2073.004786517051
 30
0.0
 11
2024.648248636538
 21
2064.671453183718
 31
0.0
 12
1999.648248636538
 22
2068.838119850384
 32
0.0
 13
1999.648248636538
 23
2068.838119850384
 33
0.0
  0
SOLID
  5
1009
330
1002
100
AcDbEntity
  8
0
  6
ByBlock
 62
     0
100
AcDbTrace
 10
1954.648248636538
 20
2073.004786517051
 30
0.0
 11
1954.648248636538
 21
2064.671453183718
 31
0.0
 12
1979.648248636538
 22
2068.838119850384
 32
0.0
 13
1979.648248636538
 23
2068.838119850384
 33
0.0
  0
MTEXT
  5
100A
330
1002
100
AcDbEntity
  8
0
  6
ByBlock
 62
     0
100
AcDbMText
 10
1907.24656324328
 20
2087.588119850384
 30
0.0
 40
25.0
 41
0.0
 71
     5
 72
     1
  1
\A1;20
 73
     1
 44
1.0
  0
POINT
  5
100B
330
1002
100
AcDbEntity
  8
DEFPOINTS
  6
ByBlock
 62
     0
100
AcDbPoint
 10
1999.648248636538
 20
1965.520067059548
 30
0.0
  0
POINT
  5
100C
330
1002
100
AcDbEntity
  8
DEFPOINTS
  6
ByBlock
 62
     0
100
AcDbPoint
 10
1979.648248636538
 20
1965.520067059548
 30
0.0
  0
POINT
  5
100D
330
1002
100
AcDbEntity
  8
DEFPOINTS
  6
ByBlock
 62
     0
100
AcDbPoint
 10
1979.648248636538
 20
2068.838119850384
 30
0.0
  0
ENDBLK
  5
100F
330
1002
100
AcDbEntity
  8
0
100
AcDbBlockEnd
  0
BLOCK
  5
101C
330
1010
100
AcDbEntity
  8
0
100
AcDbBlockBegin
  2
*D5
 70
     1
 10
0.0
 20
0.0
 30
0.0
  3
*D5
  1

  0
LINE
  5
1011
330
1010
100
AcDbEntity
  8
0
  6
ByBlock
 62
     0
100
AcDbLine
 10
2959.648248636538
 20
1971.770067059548
 30
0.0
 11
2959.648248636538
 21
2081.338119850384
 31
0.0
  0
LINE
  5
1012
330
1010
100
AcDbEntity
  8
0
  6
ByBlock
 62
     0
100
AcDbLine
 10
2979.648248636539
 20
1971.770067059548
 30
0.0
 11
2979.648248636539
 21
2081.338119850384
 31
0.0
  0
LINE
  5
1013
330
1010
100
AcDbEntity
  8
0
  6
ByBlock
 62
     0
100
AcDbLine
 10
2934.648248636538
 20
2068.838119850384
 30
0.0
 11
2909.648248636538
 21
2068.838119850384
 31
0.0
  0
LINE
  5
1014
330
1010
100
AcDbEntity
  8
0
  6
ByBlock
 62
     0
100
AcDbLine
 10
3004.648248636539
 20
2068.838119850384
 30
0.0
 11
3074.451619423056
 21
2068.838119850384
 31
0.0
  0
LINE
  5
1015
330
1010
100
AcDbEntity
  8
0
  6
ByBlock
 62
     0
100
AcDbLine
 10
2959.648248636538
 20
2068.838119850384
 30
0.0
 11
2979.648248636539
 21
2068.838119850384
 31
0.0
  0
SOLID
  5
1016
330
1010
100
AcDbEntity
  8
0
  6
ByBlock
 62
     0
100
AcDbTrace
 10
2934.648248636538
 20
2073.004786517051
 30
0.0
 11
2934.648248636538
 21
2064.671453183718
 31
0.0
 12
2959.648248636538
 22
2068.838119850384
 32
0.0
 13
2959.648248636538
 23
2068.838119850384
 33
0.0
  0
SOLID
  5
1017
330
1010
100
AcDbEntity
  8
0
  6
ByBlock
 62
     0
100
AcDbTrace
 10
3004.648248636539
 20
2073.004786517051
 30
0.0
 11
3004.648248636539
 21
2064.671453183718
 31
0.0
 12
2979.648248636539
 22
2068.838119850384
 32
0.0
 13
2979.648248636539
 23
2068.838119850384
 33
0.0
  0
MTEXT
  5
1018
330
1010
100
AcDbEntity
  8
0
  6
ByBlock
 62
     0
100
AcDbMText
 10
3052.049934029797
 20
2087.588119850384
 30
0.0
 40
25.0
 41
0.0
 71
     5
 72
     1
  1
\A1;20
 73
     1
 44
1.0
  0
POINT
  5
1019
330
1010
100
AcDbEntity
  8
DEFPOINTS
  6
ByBlock
 62
     0
100
AcDbPoint
 10
2959.648248636538
 20
1965.520067059548
 30
0.0
  0
POINT
  5
101A
330
1010
100
AcDbEntity
  8
DEFPOINTS
  6
ByBlock
 62
     0
100
AcDbPoint
 10
2979.648248636539
 20
1965.520067059548
 30
0.0
  0
POINT
  5
101B
330
1010
100
AcDbEntity
  8
DEFPOINTS
  6
ByBlock
 62
     0
100
AcDbPoint
 10
2979.648248636539
 20
2068.838119850384
 30
0.0
  0
ENDBLK
  5
101D
330
1010
100
AcDbEntity
  8
0
100
AcDbBlockEnd
  0
BLOCK
  5
1028
330
101E
100
AcDbEntity
  8
0
100
AcDbBlockBegin
  2
*D6
 70
     1
 10
0.0
 20
0.0
 30
0.0
  3
*D6
  1

  0
LINE
  5
101F
330
101E
100
AcDbEntity
  8
0
  6
ByBlock
 62
     0
100
AcDbLine
 10
1999.648248636538
 20
1971.770067059548
 30
0.0
 11
1999.648248636538
 21
2081.338119850384
 31
0.0
  0
LINE
  5
1020
330
101E
100
AcDbEntity
  8
0
  6
ByBlock
 62
     0
100
AcDbLine
 10
2734.648248636538
 20
1971.770067059548
 30
0.0
 11
2734.648248636538
 21
2081.338119850384
 31
0.0
  0
LINE
  5
1021
330
101E
100
AcDbEntity
  8
0
  6
ByBlock
 62
     0
100
AcDbLine
 10
2024.648248636538
 20
2068.838119850384
 30
0.0
 11
2709.648248636538
 21
2068.838119850384
 31
0.0
  0
SOLID
  5
1022
330
101E
100
AcDbEntity
  8
0
  6
ByBlock
 62
     0
100
AcDbTrace
 10
2024.648248636538
 20
2073.004786517051
 30
0.0
 11
2024.648248636538
 21
2064.671453183718
 31
0.0
 12
1999.648248636538
 22
2068.838119850384
 32
0.0
 13
1999.648248636538
 23
2068.838119850384
 33
0.0
  0
SOLID
  5
1023
330
101E
100
AcDbEntity
  8
0
  6
ByBlock
 62
     0
100
AcDbTrace
 10
2709.648248636538
 20
2073.004786517051
 30
0.0
 11
2709.648248636538
 21
2064.671453183718
 31
0.0
 12
2734.648248636538
 22
2068.838119850384
 32
0.0
 13
2734.648248636538
 23
2068.838119850384
 33
0.0
  0
MTEXT
  5
1024
330
101E
100
AcDbEntity
  8
0
  6
ByBlock
 62
     0
100
AcDbMText
 10
2367.148248636538
 20
2087.588119850384
 30
0.0
 40
25.0
 41
0.0
 71
     5
 72
     1
  1
\A1;3@245=735
 73
     1
 44
1.0
  0
POINT
  5
1025
330
101E
100
AcDbEntity
  8
DEFPOINTS
  6
ByBlock
 62
     0
100
AcDbPoint
 10
1999.648248636538
 20
1965.520067059548
 30
0.0
  0
POINT
  5
1026
330
101E
100
AcDbEntity
  8
DEFPOINTS
  6
ByBlock
 62
     0
100
AcDbPoint
 10
2734.648248636538
 20
1965.520067059548
 30
0.0
  0
POINT
  5
1027
330
101E
100
AcDbEntity
  8
DEFPOINTS
  6
ByBlock
 62
     0
100
AcDbPoint
 10
2734.648248636538
 20
2068.838119850384
 30
0.0
  0
ENDBLK
  5
1029
330
101E
100
AcDbEntity
  8
0
100
AcDbBlockEnd
  0
BLOCK
  5
1034
330
102A
100
AcDbEntity
  8
0
100
AcDbBlockBegin
  2
*D7
 70
     1
 10
0.0
 20
0.0
 30
0.0
  3
*D7
  1

  0
LINE
  5
102B
330
102A
100
AcDbEntity
  8
0
  6
ByBlock
 62
     0
100
AcDbLine
 10
2734.648248636538
 20
1971.770067059548
 30
0.0
 11
2734.648248636538
 21
2081.338119850384
 31
0.0
  0
LINE
  5
102C
330
102A
100
AcDbEntity
  8
0
  6
ByBlock
 62
     0
100
AcDbLine
 10
2959.648248636538
 20
1971.770067059548
 30
0.0
 11
2959.648248636538
 21
2081.338119850384
 31
0.0
  0
LINE
  5
102D
330
102A
100
AcDbEntity
  8
0
  6
ByBlock
 62
     0
100
AcDbLine
 10
2759.648248636538
 20
2068.838119850384
 30
0.0
 11
2934.648248636538
 21
2068.838119850384
 31
0.0
  0
SOLID
  5
102E
330
102A
100
AcDbEntity
  8
0
  6
ByBlock
 62
     0
100
AcDbTrace
 10
2759.648248636538
 20
2073.004786517051
 30
0.0
 11
2759.648248636538
 21
2064.671453183718
 31
0.0
 12
2734.648248636538
 22
2068.838119850384
 32
0.0
 13
2734.648248636538
 23
2068.838119850384
 33
0.0
  0
SOLID
  5
102F
330
102A
100
AcDbEntity
  8
0
  6
ByBlock
 62
     0
100
AcDbTrace
 10
2934.648248636538
 20
2073.004786517051
 30
0.0
 11
2934.648248636538
 21
2064.671453183718
 31
0.0
 12
2959.648248636538
 22
2068.838119850384
 32
0.0
 13
2959.648248636538
 23
2068.838119850384
 33
0.0
  0
MTEXT
  5
1030
330
102A
100
AcDbEntity
  8
0
  6
ByBlock
 62
     0
100
AcDbMText
 10
2847.148248636538
 20
2087.588119850384
 30
0.0
 40
25.0
 41
0.0
 71
     5
 72
     1
  1
\A1;225
 73
     1
 44
1.0
  0
POINT
  5
1031
330
102A
100
AcDbEntity
  8
DEFPOINTS
  6
ByBlock
 62
     0
100
AcDbPoint
 10
2734.648248636538
 20
1965.520067059548
 30
0.0
  0
POINT
  5
1032
330
102A
100
AcDbEntity
  8
DEFPOINTS
  6
ByBlock
 62
     0
100
AcDbPoint
 10
2959.648248636538
 20
1965.520067059548
 30
0.0
  0
POINT
  5
1033
330
102A
100
AcDbEntity
  8
DEFPOINTS
  6
ByBlock
 62
     0
100
AcDbPoint
 10
2959.648248636538
 20
2068.838119850384
 30
0.0
  0
ENDBLK
  5
1035
330
102A
100
AcDbEntity
  8
0
100
AcDbBlockEnd
  0
BLOCK
  5
1169
330
1036
100
AcDbEntity
  8
0
 48
10.0
100
AcDbBlockBegin
  2
A$C2CC912BE
 70
     0
 10
0.0
 20
0.0
 30
0.0
  3
A$C2CC912BE
  1

  0
LINE
  5
1037
330
1036
100
AcDbEntity
  8
上線
100
AcDbLine
 10
4177.218830816626
 20
2923.342524559054
 30
0.0
 11
0.0000029459370126
 21
2923.342524559053
 31
0.0
  0
LINE
  5
1038
330
1036
100
AcDbEntity
  8
上線
100
AcDbLine
 10
0.0000029459370126
 20
0.0000031509980563
 30
0.0
 11
4177.218830816626
 21
0.0000031509980545
 31
0.0
  0
DIMENSION
  5
1039
330
1036
100
AcDbEntity
  8
上線
100
AcDbDimension
  2
*D2
 10
718.4084222005512
 20
1038.964657320177
 30
0.0
 11
699.6584222005512
 21
1288.964657320177
 31
0.0
 12
71.83856443374134
 22
-299.89299565492
 32
0.0
 71
     5
 42
-1.0
  3
STANDARD
100
AcDbAlignedDimension
 13
819.4264997820955
 23
1538.964657320177
 33
0.0
 14
819.4264997820955
 24
1038.964657320177
 34
0.0
 50
90.0
100
AcDbRotatedDimension
1001
ACAD
1000
DSTYLE
1002
{
1070
    40
1040
10.0
1070
    41
1040
2.5
1070
    42
1040
0.625
1070
    43
1040
3.75
1070
    44
1040
1.25
1070
    73
1070
     0
1070
    74
1070
     0
1070
    77
1070
     1
1070
    78
1070
     8
1070
   140
1040
2.5
1070
   141
1040
2.5
1070
   143
1040
0.0394
1070
   147
1040
0.625
1070
   171
1070
     4
1070
   172
1070
     1
1070
   273
1070
     8
1070
   274
1070
     4
1070
   277
1070
     6
1002
}
  0
DIMENSION
  5
103A
330
1036
100
AcDbEntity
  8
上線
100
AcDbDimension
  2
*D1
 10
624.7621868778915
 20
938.9646573201771
 30
0.0
 11
606.0121868778915
 21
1288.964657320177
 31
0.0
 12
71.83856443374134
 22
-299.89299565492
 32
0.0
 71
     5
 42
-1.0
  3
STANDARD
100
AcDbAlignedDimension
 13
819.4264997820955
 23
1638.964657320177
 33
0.0
 14
819.4264997820955
 24
938.9646573201771
 34
0.0
 50
90.0
100
AcDbRotatedDimension
1001
ACAD
1000
DSTYLE
1002
{
1070
    40
1040
10.0
1070
    41
1040
2.5
1070
    42
1040
0.625
1070
    43
1040
3.75
1070
    44
1040
1.25
1070
    73
1070
     0
1070
    74
1070
     0
1070
    77
1070
     1
1070
    78
1070
     8
1070
   140
1040
2.5
1070
   141
1040
2.5
1070
   143
1040
0.0394
1070
   147
1040
0.625
1070
   171
1070
     4
1070
   172
1070
     1
1070
   273
1070
     8
1070
   274
1070
     4
1070
   277
1070
     6
1002
}
  0
LINE
  5
103B
330
1036
100
AcDbEntity
  8
上線
100
AcDbLine
 10
951.0619587375758
 20
1538.758452578436
 30
0.0
 11
960.3578760638493
 21
1088.044239739293
 31
0.0
  0
LINE
  5
103C
330
1036
100
AcDbEntity
  8
上線
100
AcDbLine
 10
961.0598324917537
 20
1538.964657320177
 30
0.0
 11
970.3557498180272
 21
1088.250444481034
 31
0.0
  0
LINE
  5
103D
330
1036
100
AcDbEntity
  8
上線
100
AcDbLine
 10
1201.059832491753
 20
1538.964657320176
 30
0.0
 11
1191.76391516548
 21
1088.250444481034
 31
0.0
  0
LINE
  5
103E
330
1036
100
AcDbEntity
  8
0
  6
ByBlock
 62
     0
 48
10.0
100
AcDbLine
 10
624.7621868778915
 20
1638.964657320177
 30
0.0
 11
624.7621868778915
 21
1223.964657320177
 31
0.0
  0
LINE
  5
103F
330
1036
100
AcDbEntity
  8
0
  6
ByBlock
 62
     0
 48
10.0
100
AcDbLine
 10
1458.04716628644
 20
1643.964657320177
 30
0.0
 11
1458.04716628644
 21
938.9646573201771
 31
0.0
  0
LINE
  5
1040
330
1036
100
AcDbEntity
  8
点線
100
AcDbLine
 10
871.0598324917537
 20
968.9646573201768
 30
0.0
 11
871.0598324917537
 21
1608.964657320177
 31
0.0
  0
LINE
  5
1041
330
1036
100
AcDbEntity
  8
上線
100
AcDbLine
 10
0.0000029459370126
 20
2923.342524559054
 30
0.0
 11
0.0000029459370126
 21
0.0000031509980545
 31
0.0
  0
LINE
  5
1042
330
1036
100
AcDbEntity
  8
0
  6
ByBlock
 62
     0
 48
10.0
100
AcDbLine
 10
718.4084222005512
 20
1573.964657320177
 30
0.0
 11
718.4084222005512
 21
1273.964657320177
 31
0.0
  0
LINE
  5
1043
330
1036
100
AcDbEntity
  8
上線
 48
10.0
100
AcDbLine
 10
1291.059832491753
 20
1608.964657320177
 30
0.0
 11
1291.059832491753
 21
968.9646573201772
 31
0.0
  0
LINE
  5
1044
330
1036
100
AcDbEntity
  8
上線
100
AcDbLine
 10
1321.059832491752
 20
1638.964657320177
 30
0.0
 11
1321.059832491753
 21
988.9646573201771
 31
0.0
  0
LINE
  5
1045
330
1036
100
AcDbEntity
  8
上線
100
AcDbLine
 10
841.0598324917536
 20
1638.964657320177
 30
0.0
 11
841.0598324917536
 21
988.9646573201771
 31
0.0
  0
LINE
  5
1046
330
1036
100
AcDbEntity
  8
0
  6
ByBlock
 62
     0
100
AcDbLine
 10
819.4264997820955
 20
1038.964657320177
 30
0.0
 11
705.9084222005512
 21
1038.964657320177
 31
0.0
  0
LINE
  5
1047
330
1036
100
AcDbEntity
  8
0
  6
ByBlock
 62
     0
100
AcDbLine
 10
819.4264997820955
 20
938.9646573201771
 30
0.0
 11
612.2621868778915
 21
938.9646573201771
 31
0.0
  0
LINE
  5
1048
330
1036
100
AcDbEntity
  8
0
  6
ByBlock
 62
     0
 48
10.0
100
AcDbLine
 10
804.8430315008172
 20
938.9646573201771
 30
0.0
 11
612.2621868778915
 21
938.9646573201771
 31
0.0
  0
MTEXT
  5
1049
330
1036
100
AcDbEntity
  8
0
  6
ByBlock
 62
     0
 48
10.0
100
AcDbMText
 10
766.0598324917536
 20
807.5230628928693
 30
0.0
 40
25.0
 41
0.0
 71
     5
 72
     1
  1
\A1;30
 73
     1
 44
1.0
  0
LINE
  5
104A
330
1036
100
AcDbEntity
  8
0
  6
ByBlock
 62
     0
 48
10.0
100
AcDbLine
 10
816.0598324917536
 20
788.7730628928693
 30
0.0
 11
741.0598324917536
 21
788.7730628928693
 31
0.0
  0
LINE
  5
104B
330
1036
100
AcDbEntity
  8
0
  6
ByBlock
 62
     0
 48
10.0
100
AcDbLine
 10
804.8430315008172
 20
938.9646573201771
 30
0.0
 11
705.9084222005512
 21
938.9646573201771
 31
0.0
  0
LINE
  5
104C
330
1036
100
AcDbEntity
  8
0
  6
ByBlock
 62
     0
 48
10.0
100
AcDbLine
 10
804.8430315008172
 20
1038.964657320177
 30
0.0
 11
705.9084222005512
 21
1038.964657320177
 31
0.0
  0
LINE
  5
104D
330
1036
100
AcDbEntity
  8
0
  6
ByBlock
 62
     0
 48
10.0
100
AcDbLine
 10
804.8430315008172
 20
1038.964657320177
 30
0.0
 11
705.9084222005512
 21
1038.964657320177
 31
0.0
  0
LINE
  5
104E
330
1036
100
AcDbEntity
  8
0
  6
ByBlock
 62
     0
100
AcDbLine
 10
624.7621868778915
 20
1353.964657320177
 30
0.0
 11
624.7621868778915
 21
963.9646573201771
 31
0.0
  0
MTEXT
  5
104F
330
1036
100
AcDbEntity
  8
0
  6
ByBlock
 62
     0
 48
10.0
100
AcDbMText
 10
699.6584222005512
 20
988.9646573201771
 30
0.0
 40
25.0
 41
0.0
 71
     5
 72
     1
  1
\A1;100
 11
0.0000000000000001
 21
1.0
 31
0.0
 73
     1
 44
1.0
  0
LINE
  5
1050
330
1036
100
AcDbEntity
  8
0
  6
ByBlock
 62
     0
 48
10.0
100
AcDbLine
 10
718.4084222005512
 20
1013.964657320177
 30
0.0
 11
718.4084222005512
 21
963.9646573201771
 31
0.0
  0
SOLID
  5
1051
330
1036
100
AcDbEntity
  8
0
  6
ByBlock
 62
     0
100
AcDbTrace
 10
620.5955202112254
 20
963.9646573201771
 30
0.0
 11
628.9288535445575
 21
963.9646573201771
 31
0.0
 12
624.7621868778915
 22
938.9646573201771
 32
0.0
 13
624.7621868778915
 23
938.9646573201771
 33
0.0
  0
SOLID
  5
1052
330
1036
100
AcDbEntity
  8
0
  6
ByBlock
 62
     0
 48
10.0
100
AcDbTrace
 10
620.5955202112245
 20
963.9646573201771
 30
0.0
 11
628.9288535445584
 21
963.9646573201771
 31
0.0
 12
624.7621868778915
 22
938.9646573201771
 32
0.0
 13
624.7621868778915
 23
938.9646573201771
 33
0.0
  0
POINT
  5
1053
330
1036
100
AcDbEntity
  8
DEFPOINTS
  6
ByBlock
 62
     0
100
AcDbPoint
 10
624.7621868778915
 20
938.9646573201771
 30
0.0
  0
POINT
  5
1054
330
1036
100
AcDbEntity
  8
DEFPOINTS
  6
ByBlock
 62
     0
 48
10.0
100
AcDbPoint
 10
624.7621868778915
 20
938.9646573201771
 30
0.0
  0
SOLID
  5
1055
330
1036
100
AcDbEntity
  8
0
  6
ByBlock
 62
     0
 48
10.0
100
AcDbTrace
 10
714.2417555338843
 20
963.9646573201771
 30
0.0
 11
722.5750888672173
 21
963.9646573201771
 31
0.0
 12
718.4084222005512
 22
938.9646573201771
 32
0.0
 13
718.4084222005512
 23
938.9646573201771
 33
0.0
  0
POINT
  5
1056
330
1036
100
AcDbEntity
  8
DEFPOINTS
  6
ByBlock
 62
     0
 48
10.0
100
AcDbPoint
 10
718.4084222005512
 20
938.9646573201771
 30
0.0
  0
POINT
  5
1057
330
1036
100
AcDbEntity
  8
DEFPOINTS
  6
ByBlock
 62
     0
 48
10.0
100
AcDbPoint
 10
718.4084222005512
 20
988.9646573201771
 30
0.0
  0
LINE
  5
1058
330
1036
100
AcDbEntity
  8
0
  6
ByBlock
 62
     0
100
AcDbLine
 10
718.4084222005512
 20
1253.964657320177
 30
0.0
 11
718.4084222005512
 21
1063.964657320177
 31
0.0
  0
SOLID
  5
1059
330
1036
100
AcDbEntity
  8
0
  6
ByBlock
 62
     0
100
AcDbTrace
 10
714.2417555338852
 20
1063.964657320177
 30
0.0
 11
722.5750888672173
 21
1063.964657320177
 31
0.0
 12
718.4084222005512
 22
1038.964657320177
 32
0.0
 13
718.4084222005512
 23
1038.964657320177
 33
0.0
  0
SOLID
  5
105A
330
1036
100
AcDbEntity
  8
0
  6
ByBlock
 62
     0
 48
10.0
100
AcDbTrace
 10
714.2417555338843
 20
1063.964657320177
 30
0.0
 11
722.5750888672173
 21
1063.964657320177
 31
0.0
 12
718.4084222005512
 22
1038.964657320177
 32
0.0
 13
718.4084222005512
 23
1038.964657320177
 33
0.0
  0
POINT
  5
105B
330
1036
100
AcDbEntity
  8
DEFPOINTS
  6
ByBlock
 62
     0
100
AcDbPoint
 10
718.4084222005512
 20
1038.964657320177
 30
0.0
  0
SOLID
  5
105C
330
1036
100
AcDbEntity
  8
0
  6
ByBlock
 62
     0
 48
10.0
100
AcDbTrace
 10
714.2417555338843
 20
1013.964657320177
 30
0.0
 11
722.5750888672173
 21
1013.964657320177
 31
0.0
 12
718.4084222005512
 22
1038.964657320177
 32
0.0
 13
718.4084222005512
 23
1038.964657320177
 33
0.0
  0
MTEXT
  5
105D
330
1036
100
AcDbEntity
  8
0
  6
ByBlock
 62
     0
 48
10.0
100
AcDbMText
 10
1439.296535086754
 20
1285.671968446544
 30
0.0
 40
25.0
 41
0.0
 71
     5
 72
     1
  1
3@213=640
 11
0.0000000000000001
 21
1.0
 31
0.0
 73
     1
 44
1.0
  0
LINE
  5
105E
330
1036
100
AcDbEntity
  8
0
  6
ByBlock
 62
     0
 48
10.0
100
AcDbLine
 10
1388.815407433618
 20
968.9646573201772
 30
0.0
 11
1470.91257887521
 21
968.9646573201772
 31
0.0
  0
MTEXT
  5
105F
330
1036
100
AcDbEntity
  8
0
  6
ByBlock
 62
     0
 48
10.0
100
AcDbMText
 10
1439.66257887521
 20
863.9646573201771
 30
0.0
 40
25.0
 41
0.0
 71
     5
 72
     1
  1
\A1;30
 11
0.0000000000000001
 21
1.0
 31
0.0
 73
     1
 44
1.0
  0
LINE
  5
1060
330
1036
100
AcDbEntity
  8
0
  6
ByBlock
 62
     0
 48
10.0
100
AcDbLine
 10
1345.635086818996
 20
938.9646573201771
 30
0.0
 11
1470.91257887521
 21
938.9646573201771
 31
0.0
  0
LINE
  5
1061
330
1036
100
AcDbEntity
  8
0
  6
ByBlock
 62
     0
 48
10.0
100
AcDbLine
 10
1345.635086818996
 20
968.9646573201772
 30
0.0
 11
1470.91257887521
 21
968.9646573201772
 31
0.0
  0
LINE
  5
1062
330
1036
100
AcDbEntity
  8
中心線
100
AcDbLine
 10
1080.643455106923
 20
1101.035218946393
 30
0.0
 11
1080.643455106923
 21
856.1224643816403
 31
0.0
  0
MTEXT
  5
1063
330
1036
100
AcDbEntity
  8
0
  6
ByBlock
 62
     0
 48
10.0
100
AcDbMText
 10
1082.534212577298
 20
807.3631516772639
 30
0.0
 40
25.0
 41
0.0
 71
     5
 72
     1
  1
2@210=420
 73
     1
 44
1.0
  0
LINE
  5
1064
330
1036
100
AcDbEntity
  8
0
  6
ByBlock
 62
     0
 48
10.0
100
AcDbLine
 10
811.0598324917537
 20
788.6131516772636
 30
0.0
 11
1296.059832491753
 21
788.6131516772638
 31
0.0
  0
LINE
  5
1065
330
1036
100
AcDbEntity
  8
上線
 48
10.0
100
AcDbLine
 10
1291.059832491753
 20
968.9646573201772
 30
0.0
 11
1080.643455106923
 21
968.9646573201768
 31
0.0
  0
LINE
  5
1066
330
1036
100
AcDbEntity
  8
上線
100
AcDbLine
 10
851.0598324917536
 20
938.9646573201771
 30
0.0
 11
1311.059832491753
 21
938.9646573201771
 31
0.0
  0
LINE
  5
1067
330
1036
100
AcDbEntity
  8
点線
100
AcDbLine
 10
1080.643455106923
 20
968.9646573201772
 30
0.0
 11
871.0598324917537
 21
968.9646573201768
 31
0.0
  0
LINE
  5
1068
330
1036
100
AcDbEntity
  8
0
  6
ByBlock
 62
     0
 48
10.0
100
AcDbLine
 10
841.0598324917536
 20
908.6050194096699
 30
0.0
 11
841.0598324917536
 21
776.2730628928693
 31
0.0
  0
LINE
  5
1069
330
1036
100
AcDbEntity
  8
0
  6
ByBlock
 62
     0
 48
10.0
100
AcDbLine
 10
871.0598324917537
 20
908.6050194096699
 30
0.0
 11
871.0598324917537
 21
776.2730628928693
 31
0.0
  0
LINE
  5
106A
330
1036
100
AcDbEntity
  8
0
  6
ByBlock
 62
     0
 48
10.0
100
AcDbLine
 10
871.0598324917537
 20
788.7730628928693
 30
0.0
 11
841.0598324917536
 21
788.7730628928693
 31
0.0
  0
POINT
  5
106B
330
1036
100
AcDbEntity
  8
DEFPOINTS
  6
ByBlock
 62
     0
 48
10.0
100
AcDbPoint
 10
781.0598324917537
 20
788.7730628928693
 30
0.0
  0
SOLID
  5
106C
330
1036
100
AcDbEntity
  8
0
  6
ByBlock
 62
     0
 48
10.0
100
AcDbTrace
 10
816.0598324917536
 20
792.9397295595361
 30
0.0
 11
816.0598324917536
 21
784.6063962262026
 31
0.0
 12
841.0598324917536
 22
788.7730628928693
 32
0.0
 13
841.0598324917536
 23
788.7730628928693
 33
0.0
  0
POINT
  5
106D
330
1036
100
AcDbEntity
  8
DEFPOINTS
  6
ByBlock
 62
     0
 48
10.0
100
AcDbPoint
 10
781.0598324917537
 20
870.7589060313731
 30
0.0
  0
POINT
  5
106E
330
1036
100
AcDbEntity
  8
DEFPOINTS
  6
ByBlock
 62
     0
 48
10.0
100
AcDbPoint
 10
781.0930315008172
 20
888.9646573201771
 30
0.0
  0
POINT
  5
106F
330
1036
100
AcDbEntity
  8
DEFPOINTS
  6
ByBlock
 62
     0
 48
10.0
100
AcDbPoint
 10
811.0598324917537
 20
870.7589060313731
 30
0.0
  0
SOLID
  5
1070
330
1036
100
AcDbEntity
  8
0
  6
ByBlock
 62
     0
 48
10.0
100
AcDbTrace
 10
896.0720600795085
 20
792.7798183439306
 30
0.0
 11
896.0720600795085
 21
784.4464850105971
 31
0.0
 12
871.0720600795085
 22
788.6131516772638
 32
0.0
 13
871.0720600795085
 23
788.6131516772638
 33
0.0
  0
POINT
  5
1071
330
1036
100
AcDbEntity
  8
DEFPOINTS
  6
ByBlock
 62
     0
 48
10.0
100
AcDbPoint
 10
871.0598324917537
 20
861.6901369721526
 30
0.0
  0
LINE
  5
1072
330
1036
100
AcDbEntity
  8
上線
100
AcDbLine
 10
841.0598324917536
 20
948.9646573201774
 30
0.0
 11
851.0598324917536
 21
938.9646573201773
 31
0.0
  0
POINT
  5
1073
330
1036
100
AcDbEntity
  8
DEFPOINTS
  6
ByBlock
 62
     0
100
AcDbPoint
 10
804.8430315008172
 20
938.9646573201771
 30
0.0
  0
POINT
  5
1074
330
1036
100
AcDbEntity
  8
DEFPOINTS
  6
ByBlock
 62
     0
 48
10.0
100
AcDbPoint
 10
811.0930315008172
 20
938.9646573201771
 30
0.0
  0
POINT
  5
1075
330
1036
100
AcDbEntity
  8
DEFPOINTS
  6
ByBlock
 62
     0
 48
10.0
100
AcDbPoint
 10
781.0930315008172
 20
988.9646573201771
 30
0.0
  0
POINT
  5
1076
330
1036
100
AcDbEntity
  8
DEFPOINTS
  6
ByBlock
 62
     0
 48
10.0
100
AcDbPoint
 10
781.0930315008172
 20
988.9646573201771
 30
0.0
  0
LINE
  5
1077
330
1036
100
AcDbEntity
  8
上線
100
AcDbLine
 10
841.0598324917536
 20
988.9646573201771
 30
0.0
 11
841.0598324917536
 21
948.9646573201774
 31
0.0
  0
LWPOLYLINE
  5
1078
330
1036
100
AcDbEntity
  8
上線
 48
10.0
100
AcDbPolyline
 90
        2
 70
     1
 43
5.0
 10
873.4668817344664
 20
973.8188473813316
 42
1.0
 10
878.4668817344664
 20
973.8188473813316
 42
1.0
  0
POINT
  5
1079
330
1036
100
AcDbEntity
  8
DEFPOINTS
  6
ByBlock
 62
     0
 48
10.0
100
AcDbPoint
 10
1000.643455106923
 20
908.6050194096699
 30
0.0
  0
POINT
  5
107A
330
1036
100
AcDbEntity
  8
DEFPOINTS
  6
ByBlock
 62
     0
 48
10.0
100
AcDbPoint
 10
986.0598324917537
 20
920.9855272310488
 30
0.0
  0
POINT
  5
107B
330
1036
100
AcDbEntity
  8
DEFPOINTS
  6
ByBlock
 62
     0
 48
10.0
100
AcDbPoint
 10
976.0598324917536
 20
920.9855272310488
 30
0.0
  0
LWPOLYLINE
  5
107C
330
1036
100
AcDbEntity
  8
上線
 48
10.0
100
AcDbPolyline
 90
        2
 70
     1
 43
5.0
 10
1077.695917606328
 20
973.8188473813316
 42
1.0
 10
1082.695917606328
 20
973.8188473813316
 42
1.0
  0
POINT
  5
107D
330
1036
100
AcDbEntity
  8
DEFPOINTS
  6
ByBlock
 62
     0
 48
10.0
100
AcDbPoint
 10
1176.033515220118
 20
609.6119554478855
 30
0.0
  0
POINT
  5
107E
330
1036
100
AcDbEntity
  8
DEFPOINTS
  6
ByBlock
 62
     0
 48
10.0
100
AcDbPoint
 10
1176.059832491753
 20
920.9855272310488
 30
0.0
  0
POINT
  5
107F
330
1036
100
AcDbEntity
  8
DEFPOINTS
  6
ByBlock
 62
     0
 48
10.0
100
AcDbPoint
 10
1186.059832491753
 20
920.9855272310488
 30
0.0
  0
LINE
  5
1080
330
1036
100
AcDbEntity
  8
0
  6
ByBlock
 62
     0
 48
10.0
100
AcDbLine
 10
1291.059832491753
 20
902.3550194096699
 30
0.0
 11
1291.059832491753
 21
776.1131516772638
 31
0.0
  0
LINE
  5
1081
330
1036
100
AcDbEntity
  8
0
  6
ByBlock
 62
     0
 48
10.0
100
AcDbLine
 10
1320.643455106923
 20
908.6050194096699
 30
0.0
 11
1320.643455106923
 21
776.1131516772638
 31
0.0
  0
LINE
  5
1082
330
1036
100
AcDbEntity
  8
0
  6
ByBlock
 62
     0
 48
10.0
100
AcDbLine
 10
1291.059832491753
 20
908.6050194096698
 30
0.0
 11
1291.059832491753
 21
776.0690866375853
 31
0.0
  0
SOLID
  5
1083
330
1036
100
AcDbEntity
  8
0
  6
ByBlock
 62
     0
 48
10.0
100
AcDbTrace
 10
1345.643455106923
 20
792.7798183439306
 30
0.0
 11
1345.643455106923
 21
784.4464850105971
 31
0.0
 12
1320.643455106923
 22
788.6131516772638
 32
0.0
 13
1320.643455106923
 23
788.6131516772638
 33
0.0
  0
LINE
  5
1084
330
1036
100
AcDbEntity
  8
0
  6
ByBlock
 62
     0
 48
10.0
100
AcDbLine
 10
1290.643455106923
 20
788.6131516772638
 30
0.0
 11
1320.643455106923
 21
788.6131516772638
 31
0.0
  0
SOLID
  5
1085
330
1036
100
AcDbEntity
  8
0
  6
ByBlock
 62
     0
 48
10.0
100
AcDbTrace
 10
1266.059832491753
 20
792.7798183439306
 30
0.0
 11
1266.059832491753
 21
784.4464850105971
 31
0.0
 12
1291.059832491753
 22
788.6131516772638
 32
0.0
 13
1291.059832491753
 23
788.6131516772638
 33
0.0
  0
POINT
  5
1086
330
1036
100
AcDbEntity
  8
DEFPOINTS
  6
ByBlock
 62
     0
 48
10.0
100
AcDbPoint
 10
1321.059832491753
 20
788.6131516772638
 30
0.0
  0
POINT
  5
1087
330
1036
100
AcDbEntity
  8
DEFPOINTS
  6
ByBlock
 62
     0
 48
10.0
100
AcDbPoint
 10
1321.059832491753
 20
788.5690866375853
 30
0.0
  0
POINT
  5
1088
330
1036
100
AcDbEntity
  8
DEFPOINTS
  6
ByBlock
 62
     0
 48
10.0
100
AcDbPoint
 10
1290.643455106923
 20
872.664836703575
 30
0.0
  0
POINT
  5
1089
330
1036
100
AcDbEntity
  8
DEFPOINTS
  6
ByBlock
 62
     0
 48
10.0
100
AcDbPoint
 10
1291.059832491753
 20
861.6901369721524
 30
0.0
  0
POINT
  5
108A
330
1036
100
AcDbEntity
  8
DEFPOINTS
  6
ByBlock
 62
     0
 48
10.0
100
AcDbPoint
 10
1320.643455106923
 20
872.664836703575
 30
0.0
  0
MTEXT
  5
108B
330
1036
100
AcDbEntity
  8
0
  6
ByBlock
 62
     0
 48
10.0
100
AcDbMText
 10
1395.643455106923
 20
807.3631516772639
 30
0.0
 40
25.0
 41
0.0
 71
     5
 72
     1
  1
\A1;30
 73
     1
 44
1.0
  0
LINE
  5
108C
330
1036
100
AcDbEntity
  8
0
  6
ByBlock
 62
     0
 48
10.0
100
AcDbLine
 10
1345.643455106923
 20
788.6131516772638
 30
0.0
 11
1420.643455106923
 21
788.6131516772638
 31
0.0
  0
POINT
  5
108D
330
1036
100
AcDbEntity
  8
DEFPOINTS
  6
ByBlock
 62
     0
 48
10.0
100
AcDbPoint
 10
1350.643455106923
 20
788.6131516772638
 30
0.0
  0
POINT
  5
108E
330
1036
100
AcDbEntity
  8
DEFPOINTS
  6
ByBlock
 62
     0
 48
10.0
100
AcDbPoint
 10
1412.565407433618
 20
888.9646573201771
 30
0.0
  0
LINE
  5
108F
330
1036
100
AcDbEntity
  8
上線
100
AcDbLine
 10
1321.059832491753
 20
948.9646573201769
 30
0.0
 11
1311.059832491753
 21
938.9646573201769
 31
0.0
  0
POINT
  5
1090
330
1036
100
AcDbEntity
  8
DEFPOINTS
  6
ByBlock
 62
     0
 48
10.0
100
AcDbPoint
 10
1321.059832491753
 20
908.6050194096699
 30
0.0
  0
LWPOLYLINE
  5
1091
330
1036
100
AcDbEntity
  8
上線
 48
10.0
100
AcDbPolyline
 90
        2
 70
     1
 43
5.0
 10
1283.502093408462
 20
973.8188473813316
 42
1.0
 10
1288.502093408462
 20
973.8188473813316
 42
1.0
  0
LINE
  5
1092
330
1036
100
AcDbEntity
  8
上線
100
AcDbLine
 10
1321.059832491753
 20
948.9646573201769
 30
0.0
 11
1321.059832491753
 21
988.9646573201771
 31
0.0
  0
POINT
  5
1093
330
1036
100
AcDbEntity
  8
DEFPOINTS
  6
ByBlock
 62
     0
 48
10.0
100
AcDbPoint
 10
1412.565407433618
 20
918.9646573201772
 30
0.0
  0
POINT
  5
1094
330
1036
100
AcDbEntity
  8
DEFPOINTS
  6
ByBlock
 62
     0
 48
10.0
100
AcDbPoint
 10
1412.565407433618
 20
918.9646573201772
 30
0.0
  0
POINT
  5
1095
330
1036
100
AcDbEntity
  8
DEFPOINTS
  6
ByBlock
 62
     0
 48
10.0
100
AcDbPoint
 10
1412.565407433618
 20
988.9646573201771
 30
0.0
  0
POINT
  5
1096
330
1036
100
AcDbEntity
  8
DEFPOINTS
  6
ByBlock
 62
     0
 48
10.0
100
AcDbPoint
 10
1412.565407433618
 20
958.9646573201772
 30
0.0
  0
POINT
  5
1097
330
1036
100
AcDbEntity
  8
DEFPOINTS
  6
ByBlock
 62
     0
 48
10.0
100
AcDbPoint
 10
1412.565407433618
 20
958.9646573201772
 30
0.0
  0
MTEXT
  5
1098
330
1036
100
AcDbEntity
  8
0
  6
ByBlock
 62
     0
 48
10.0
100
AcDbMText
 10
1081.059832491753
 20
1243.418451256772
 30
0.0
 40
25.0
 41
0.0
 71
     5
 72
     1
  1
\A1;220
 73
     1
 44
1.0
  0
LINE
  5
1099
330
1036
100
AcDbEntity
  8
0
  6
ByBlock
 62
     0
 48
10.0
100
AcDbLine
 10
971.0598324917537
 20
1224.668451256772
 30
0.0
 11
1191.059832491753
 21
1224.668451256772
 31
0.0
  0
MTEXT
  5
109A
102
{ACAD_REACTORS
330
109B
102
}
330
1036
100
AcDbEntity
  8
上線
 48
10.0
100
AcDbMText
 10
1073.559839960937
 20
1154.625060572671
 30
0.0
 40
25.0
 41
0.0
 71
     4
 72
     1
  1
\A1;\fＭＳ Ｐ明朝|b0|i0|c128|p18;R=50
 73
     1
 44
1.0
  0
LEADER
  5
109B
330
1036
100
AcDbEntity
  8
上線
 48
10.0
100
AcDbLeader
  3
STANDARD
 73
     0
 74
     0
 75
     1
 40
25.0
 41
72.0505617977528
 76
     3
 10
983.366473556147
 20
1053.356616578355
 30
0.0
 10
1042.309839960937
 20
1135.875060572671
 30
0.0
 10
1067.309839960937
 20
1135.875060572671
 30
0.0
340
109A
1001
ACAD
1000
DSTYLE
1002
{
1070
    78
1070
     8
1070
   270
1070
     8
1070
   140
1040
2.5
1070
    74
1070
     0
1070
   172
1070
     1
1070
    73
1070
     0
1070
    77
1070
     1
1070
    40
1040
10.0
1070
   147
1040
0.625
1070
    42
1040
0.625
1070
    44
1040
1.25
1070
    43
1040
3.75
1070
   141
1040
2.5
1070
    41
1040
2.5
1070
   273
1070
     8
1070
   274
1070
     4
1070
   143
1040
0.0394
1070
   171
1070
     4
1002
}
  0
LINE
  5
109C
330
1036
100
AcDbEntity
  8
上線
100
AcDbLine
 10
1146.769016425504
 20
1038.964657320177
 30
0.0
 11
1020.350648558002
 21
1038.964657320177
 31
0.0
  0
POINT
  5
109D
330
1036
100
AcDbEntity
  8
DEFPOINTS
  6
ByBlock
 62
     0
100
AcDbPoint
 10
804.8430315008172
 20
1038.964657320177
 30
0.0
  0
LWPOLYLINE
  5
109E
330
1036
100
AcDbEntity
  8
上線
 48
10.0
100
AcDbPolyline
 90
        2
 70
     1
 43
5.0
 10
873.8824718641499
 20
1182.565859125058
 42
1.0
 10
878.88247186415
 20
1182.565859125058
 42
1.0
  0
ARC
  5
109F
330
1036
100
AcDbEntity
  8
上線
100
AcDbCircle
 10
1020.350648558002
 20
1088.964657320176
 30
0.0
 40
60.0
100
AcDbArc
 50
180.8184554616886
 51
270.0
  0
ARC
  5
10A0
330
1036
100
AcDbEntity
  8
上線
100
AcDbCircle
 10
1020.350648558002
 20
1088.964657320176
 30
0.0
 40
50.0
100
AcDbArc
 50
180.8184554616886
 51
270.0
  0
LINE
  5
10A1
330
1036
100
AcDbEntity
  8
上線
100
AcDbLine
 10
1080.643455106923
 20
1028.964657320177
 30
0.0
 11
1020.350648558003
 21
1028.964657320176
 31
0.0
  0
LINE
  5
10A2
330
1036
100
AcDbEntity
  8
0
  6
ByBlock
 62
     0
 48
10.0
100
AcDbLine
 10
971.0598324917537
 20
1133.119381650933
 30
0.0
 11
971.0598324917537
 21
1237.168451256772
 31
0.0
  0
POINT
  5
10A3
330
1036
100
AcDbEntity
  8
DEFPOINTS
  6
ByBlock
 62
     0
 48
10.0
100
AcDbPoint
 10
936.0598324917537
 20
1129.232415311179
 30
0.0
  0
SOLID
  5
10A4
330
1036
100
AcDbEntity
  8
0
  6
ByBlock
 62
     0
 48
10.0
100
AcDbTrace
 10
996.0598324917537
 20
1228.835117923439
 30
0.0
 11
996.0598324917537
 21
1220.501784590105
 31
0.0
 12
971.0598324917537
 22
1224.668451256772
 32
0.0
 13
971.0598324917537
 23
1224.668451256772
 33
0.0
  0
POINT
  5
10A5
330
1036
100
AcDbEntity
  8
DEFPOINTS
  6
ByBlock
 62
     0
100
AcDbPoint
 10
804.8430315008172
 20
1278.964657320177
 30
0.0
  0
POINT
  5
10A6
330
1036
100
AcDbEntity
  8
DEFPOINTS
  6
ByBlock
 62
     0
 48
10.0
100
AcDbPoint
 10
781.0930315008172
 20
1338.964657320177
 30
0.0
  0
LINE
  5
10A7
330
1036
100
AcDbEntity
  8
上線
100
AcDbLine
 10
911.0598324917537
 20
1338.964657320177
 30
0.0
 11
911.0598324917537
 21
1338.964657320177
 31
0.0
  0
POINT
  5
10A8
330
1036
100
AcDbEntity
  8
DEFPOINTS
  6
ByBlock
 62
     0
100
AcDbPoint
 10
804.8430315008172
 20
1378.964657320177
 30
0.0
  0
POINT
  5
10A9
330
1036
100
AcDbEntity
  8
DEFPOINTS
  6
ByBlock
 62
     0
 48
10.0
100
AcDbPoint
 10
781.0930315008172
 20
1438.964657320177
 30
0.0
  0
POINT
  5
10AA
330
1036
100
AcDbEntity
  8
DEFPOINTS
  6
ByBlock
 62
     0
 48
10.0
100
AcDbPoint
 10
811.0930315008172
 20
1438.964657320177
 30
0.0
  0
POINT
  5
10AB
330
1036
100
AcDbEntity
  8
DEFPOINTS
  6
ByBlock
 62
     0
 48
10.0
100
AcDbPoint
 10
841.0598324917536
 20
1436.720543365062
 30
0.0
  0
POINT
  5
10AC
330
1036
100
AcDbEntity
  8
DEFPOINTS
  6
ByBlock
 62
     0
 48
10.0
100
AcDbPoint
 10
841.0598324917536
 20
1436.720543365062
 30
0.0
  0
LWPOLYLINE
  5
10AD
330
1036
100
AcDbEntity
  8
上線
 48
10.0
100
AcDbPolyline
 90
        2
 70
     1
 43
5.0
 10
873.8824718641499
 20
1395.899192125058
 42
1.0
 10
878.88247186415
 20
1395.899192125058
 42
1.0
  0
POINT
  5
10AE
330
1036
100
AcDbEntity
  8
DEFPOINTS
  6
ByBlock
 62
     0
 48
10.0
100
AcDbPoint
 10
911.0598324917537
 20
1436.720543365062
 30
0.0
  0
POINT
  5
10AF
330
1036
100
AcDbEntity
  8
DEFPOINTS
  6
ByBlock
 62
     0
 48
10.0
100
AcDbPoint
 10
911.0598324917537
 20
1436.720543365062
 30
0.0
  0
ARC
  5
10B0
330
1036
100
AcDbEntity
  8
上線
100
AcDbCircle
 10
1141.769016425504
 20
1088.964657320177
 30
0.0
 40
50.0
100
AcDbArc
 50
270.0
 51
359.1815445383113
  0
SOLID
  5
10B1
330
1036
100
AcDbEntity
  8
0
  6
ByBlock
 62
     0
 48
10.0
100
AcDbTrace
 10
1166.059832491753
 20
1228.835117923439
 30
0.0
 11
1166.059832491753
 21
1220.501784590105
 31
0.0
 12
1191.059832491753
 22
1224.668451256772
 32
0.0
 13
1191.059832491753
 23
1224.668451256772
 33
0.0
  0
LINE
  5
10B2
330
1036
100
AcDbEntity
  8
0
  6
ByBlock
 62
     0
 48
10.0
100
AcDbLine
 10
1191.059832491753
 20
1133.119381650933
 30
0.0
 11
1191.059832491753
 21
1237.168451256772
 31
0.0
  0
POINT
  5
10B3
330
1036
100
AcDbEntity
  8
DEFPOINTS
  6
ByBlock
 62
     0
 48
10.0
100
AcDbPoint
 10
1226.059832491753
 20
1129.232415311179
 30
0.0
  0
POINT
  5
10B4
330
1036
100
AcDbEntity
  8
DEFPOINTS
  6
ByBlock
 62
     0
 48
10.0
100
AcDbPoint
 10
1384.982134615931
 20
1008.964657320177
 30
0.0
  0
LWPOLYLINE
  5
10B5
330
1036
100
AcDbEntity
  8
上線
 48
10.0
100
AcDbPolyline
 90
        2
 70
     1
 43
5.0
 10
1283.502093408462
 20
1182.565859125058
 42
1.0
 10
1288.502093408462
 20
1182.565859125058
 42
1.0
  0
POINT
  5
10B6
330
1036
100
AcDbEntity
  8
DEFPOINTS
  6
ByBlock
 62
     0
 48
10.0
100
AcDbPoint
 10
1354.982134615931
 20
1188.964657320177
 30
0.0
  0
POINT
  5
10B7
330
1036
100
AcDbEntity
  8
DEFPOINTS
  6
ByBlock
 62
     0
 48
10.0
100
AcDbPoint
 10
1354.982134615931
 20
1188.964657320177
 30
0.0
  0
POINT
  5
10B8
330
1036
100
AcDbEntity
  8
DEFPOINTS
  6
ByBlock
 62
     0
 48
10.0
100
AcDbPoint
 10
1226.059832491753
 20
1279.676561582352
 30
0.0
  0
LINE
  5
10B9
330
1036
100
AcDbEntity
  8
上線
 48
10.0
100
AcDbLine
 10
1231.059832491753
 20
1273.964657320177
 30
0.0
 11
1230.988403920325
 21
1273.964657320177
 31
0.0
  0
LINE
  5
10BA
330
1036
100
AcDbEntity
  8
上線
100
AcDbLine
 10
1231.059832491753
 20
1278.964657320177
 30
0.0
 11
1231.059832491753
 21
1278.964657320177
 31
0.0
  0
POINT
  5
10BB
330
1036
100
AcDbEntity
  8
DEFPOINTS
  6
ByBlock
 62
     0
 48
10.0
100
AcDbPoint
 10
1251.059832491753
 20
1436.720543365062
 30
0.0
  0
POINT
  5
10BC
330
1036
100
AcDbEntity
  8
DEFPOINTS
  6
ByBlock
 62
     0
 48
10.0
100
AcDbPoint
 10
1251.059832491753
 20
1436.720543365062
 30
0.0
  0
LWPOLYLINE
  5
10BD
330
1036
100
AcDbEntity
  8
上線
 48
10.0
100
AcDbPolyline
 90
        2
 70
     1
 43
5.0
 10
1283.502093408462
 20
1395.899192125058
 42
1.0
 10
1288.502093408462
 20
1395.899192125058
 42
1.0
  0
POINT
  5
10BE
330
1036
100
AcDbEntity
  8
DEFPOINTS
  6
ByBlock
 62
     0
 48
10.0
100
AcDbPoint
 10
1321.059832491753
 20
1436.720543365062
 30
0.0
  0
POINT
  5
10BF
330
1036
100
AcDbEntity
  8
DEFPOINTS
  6
ByBlock
 62
     0
 48
10.0
100
AcDbPoint
 10
1321.059832491753
 20
1436.720543365062
 30
0.0
  0
POINT
  5
10C0
330
1036
100
AcDbEntity
  8
DEFPOINTS
  6
ByBlock
 62
     0
 48
10.0
100
AcDbPoint
 10
1384.425540646334
 20
1408.964657320177
 30
0.0
  0
POINT
  5
10C1
330
1036
100
AcDbEntity
  8
DEFPOINTS
  6
ByBlock
 62
     0
 48
10.0
100
AcDbPoint
 10
1384.982134615931
 20
1408.964657320177
 30
0.0
  0
POINT
  5
10C2
330
1036
100
AcDbEntity
  8
DEFPOINTS
  6
ByBlock
 62
     0
 48
10.0
100
AcDbPoint
 10
1384.425540646334
 20
1438.964657320177
 30
0.0
  0
LINE
  5
10C3
330
1036
100
AcDbEntity
  8
0
  6
ByBlock
 62
     0
 48
10.0
100
AcDbLine
 10
1458.41257887521
 20
913.9646573201771
 30
0.0
 11
1458.41257887521
 21
838.9646573201771
 31
0.0
  0
LINE
  5
10C4
330
1036
100
AcDbEntity
  8
0
  6
ByBlock
 62
     0
 48
10.0
100
AcDbLine
 10
1458.41257887521
 20
943.9646573201772
 30
0.0
 11
1458.41257887521
 21
918.9646573201772
 31
0.0
  0
POINT
  5
10C5
330
1036
100
AcDbEntity
  8
DEFPOINTS
  6
ByBlock
 62
     0
 48
10.0
100
AcDbPoint
 10
1458.41257887521
 20
938.9646573201771
 30
0.0
  0
SOLID
  5
10C6
330
1036
100
AcDbEntity
  8
0
  6
ByBlock
 62
     0
 48
10.0
100
AcDbTrace
 10
1454.245912208542
 20
913.9646573201771
 30
0.0
 11
1462.579245541876
 21
913.9646573201771
 31
0.0
 12
1458.41257887521
 22
938.9646573201771
 32
0.0
 13
1458.41257887521
 23
938.9646573201771
 33
0.0
  0
SOLID
  5
10C7
330
1036
100
AcDbEntity
  8
0
  6
ByBlock
 62
     0
 48
10.0
100
AcDbTrace
 10
1454.235060866499
 20
993.9063507388963
 30
0.0
 11
1462.568394199833
 21
993.9063507388963
 31
0.0
 12
1458.401727533166
 22
968.9063507388963
 32
0.0
 13
1458.401727533166
 23
968.9063507388963
 33
0.0
  0
LINE
  5
10C8
330
1036
100
AcDbEntity
  8
0
  6
ByBlock
 62
     0
 48
10.0
100
AcDbLine
 10
1458.41257887521
 20
983.9646573201772
 30
0.0
 11
1458.41257887521
 21
958.9646573201772
 31
0.0
  0
POINT
  5
10C9
330
1036
100
AcDbEntity
  8
DEFPOINTS
  6
ByBlock
 62
     0
 48
10.0
100
AcDbPoint
 10
1458.41257887521
 20
958.9646573201772
 30
0.0
  0
POINT
  5
10CA
330
1036
100
AcDbEntity
  8
DEFPOINTS
  6
ByBlock
 62
     0
 48
10.0
100
AcDbPoint
 10
1458.046535086754
 20
1008.964657320177
 30
0.0
  0
LINE
  5
10CB
330
1036
100
AcDbEntity
  8
0
  6
ByBlock
 62
     0
 48
10.0
100
AcDbLine
 10
1458.04716628644
 20
1348.964657320177
 30
0.0
 11
1458.04716628644
 21
1378.964657320177
 31
0.0
  0
LINE
  5
10CC
330
1036
100
AcDbEntity
  8
0
  6
ByBlock
 62
     0
100
AcDbLine
 10
819.4264997820955
 20
1538.964657320177
 30
0.0
 11
705.9084222005512
 21
1538.964657320177
 31
0.0
  0
LINE
  5
10CD
330
1036
100
AcDbEntity
  8
0
  6
ByBlock
 62
     0
100
AcDbLine
 10
819.4264997820955
 20
1638.964657320177
 30
0.0
 11
612.2621868778915
 21
1638.964657320177
 31
0.0
  0
LINE
  5
10CE
330
1036
100
AcDbEntity
  8
0
  6
ByBlock
 62
     0
 48
10.0
100
AcDbLine
 10
804.8430315008172
 20
1638.964657320177
 30
0.0
 11
612.2621868778915
 21
1638.964657320177
 31
0.0
  0
LINE
  5
10CF
330
1036
100
AcDbEntity
  8
0
  6
ByBlock
 62
     0
 48
10.0
100
AcDbLine
 10
804.8430315008172
 20
1538.964657320177
 30
0.0
 11
705.9084222005512
 21
1538.964657320177
 31
0.0
  0
LINE
  5
10D0
330
1036
100
AcDbEntity
  8
0
  6
ByBlock
 62
     0
 48
10.0
100
AcDbLine
 10
804.8430315008172
 20
1638.964657320177
 30
0.0
 11
705.9084222005512
 21
1638.964657320177
 31
0.0
  0
MTEXT
  5
10D1
330
1036
100
AcDbEntity
  8
0
  6
ByBlock
 62
     0
 48
10.0
100
AcDbMText
 10
699.6584222005512
 20
1588.964657320177
 30
0.0
 40
25.0
 41
0.0
 71
     5
 72
     1
  1
\A1;100
 11
0.0000000000000001
 21
1.0
 31
0.0
 73
     1
 44
1.0
  0
LINE
  5
10D2
330
1036
100
AcDbEntity
  8
0
  6
ByBlock
 62
     0
 48
10.0
100
AcDbLine
 10
718.4084222005512
 20
1538.964657320177
 30
0.0
 11
718.4084222005512
 21
1613.964657320177
 31
0.0
  0
SOLID
  5
10D3
330
1036
100
AcDbEntity
  8
0
  6
ByBlock
 62
     0
100
AcDbTrace
 10
714.2417555338852
 20
1513.964657320177
 30
0.0
 11
722.5750888672173
 21
1513.964657320177
 31
0.0
 12
718.4084222005512
 22
1538.964657320177
 32
0.0
 13
718.4084222005512
 23
1538.964657320177
 33
0.0
  0
SOLID
  5
10D4
330
1036
100
AcDbEntity
  8
0
  6
ByBlock
 62
     0
 48
10.0
100
AcDbTrace
 10
714.2417555338843
 20
1513.964657320177
 30
0.0
 11
722.5750888672173
 21
1513.964657320177
 31
0.0
 12
718.4084222005512
 22
1538.964657320177
 32
0.0
 13
718.4084222005512
 23
1538.964657320177
 33
0.0
  0
SOLID
  5
10D5
330
1036
100
AcDbEntity
  8
0
  6
ByBlock
 62
     0
 48
10.0
100
AcDbTrace
 10
714.2417555338843
 20
1563.964657320177
 30
0.0
 11
722.5750888672173
 21
1563.964657320177
 31
0.0
 12
718.4084222005512
 22
1538.964657320177
 32
0.0
 13
718.4084222005512
 23
1538.964657320177
 33
0.0
  0
SOLID
  5
10D6
330
1036
100
AcDbEntity
  8
0
  6
ByBlock
 62
     0
100
AcDbTrace
 10
620.5955202112254
 20
1613.964657320177
 30
0.0
 11
628.9288535445575
 21
1613.964657320177
 31
0.0
 12
624.7621868778915
 22
1638.964657320177
 32
0.0
 13
624.7621868778915
 23
1638.964657320177
 33
0.0
  0
SOLID
  5
10D7
330
1036
100
AcDbEntity
  8
0
  6
ByBlock
 62
     0
 48
10.0
100
AcDbTrace
 10
620.5955202112245
 20
1613.964657320177
 30
0.0
 11
628.9288535445584
 21
1613.964657320177
 31
0.0
 12
624.7621868778915
 22
1638.964657320177
 32
0.0
 13
624.7621868778915
 23
1638.964657320177
 33
0.0
  0
SOLID
  5
10D8
330
1036
100
AcDbEntity
  8
0
  6
ByBlock
 62
     0
 48
10.0
100
AcDbTrace
 10
714.2417555338843
 20
1613.964657320177
 30
0.0
 11
722.5750888672173
 21
1613.964657320177
 31
0.0
 12
718.4084222005512
 22
1638.964657320177
 32
0.0
 13
718.4084222005512
 23
1638.964657320177
 33
0.0
  0
LWPOLYLINE
  5
10D9
330
1036
100
AcDbEntity
  8
上線
100
AcDbPolyline
 90
        4
 70
     1
 43
0.0
 10
970.757315261304
 20
2309.962744548296
 10
1180.034251430328
 20
2309.962744548296
 10
1180.034251430328
 20
2409.667127294302
 10
970.757315261304
 20
2409.667127294302
  0
LWPOLYLINE
  5
10DA
330
1036
100
AcDbEntity
  8
上線
100
AcDbPolyline
 90
        4
 70
     1
 43
0.0
 10
973.7573152613039
 20
2312.962744548296
 10
1177.034251430328
 20
2312.962744548296
 10
1177.034251430328
 20
2406.667127294302
 10
973.7573152613039
 20
2406.667127294302
  0
MTEXT
  5
10DB
330
1036
100
AcDbEntity
  8
0
  6
ByBlock
 62
     0
 48
10.0
100
AcDbMText
 10
1439.29716628644
 20
1713.964657320177
 30
0.0
 40
25.0
 41
0.0
 71
     5
 72
     1
  1
\A1;30
 11
0.0000000000000001
 21
1.0
 31
0.0
 73
     1
 44
1.0
  0
LINE
  5
10DC
330
1036
100
AcDbEntity
  8
0
  6
ByBlock
 62
     0
 48
10.0
100
AcDbLine
 10
1345.635086818996
 20
1638.964657320177
 30
0.0
 11
1470.54716628644
 21
1638.964657320177
 31
0.0
  0
LINE
  5
10DD
330
1036
100
AcDbEntity
  8
0
  6
ByBlock
 62
     0
 48
10.0
100
AcDbLine
 10
1360.675540646334
 20
1608.964657320177
 30
0.0
 11
1470.54716628644
 21
1608.964657320177
 31
0.0
  0
LINE
  5
10DE
330
1036
100
AcDbEntity
  8
0
  6
ByBlock
 62
     0
 48
10.0
100
AcDbLine
 10
1345.635086818996
 20
1608.964657320177
 30
0.0
 11
1470.546535086754
 21
1608.964657320177
 31
0.0
  0
LINE
  5
10DF
330
1036
100
AcDbEntity
  8
0
  6
ByBlock
 62
     0
 48
10.0
100
AcDbLine
 10
841.0598324917536
 20
1867.830775733851
 30
0.0
 11
1321.059832491753
 21
1867.830775733851
 31
0.0
  0
MTEXT
  5
10E0
330
1036
100
AcDbEntity
  8
0
  6
ByBlock
 62
     0
 48
10.0
100
AcDbMText
 10
1081.059832491753
 20
1796.678603033884
 30
0.0
 40
25.0
 41
0.0
 71
     5
 72
     1
  1
\A1;240
 73
     1
 44
1.0
  0
LINE
  5
10E1
330
1036
100
AcDbEntity
  8
0
  6
ByBlock
 62
     0
 48
10.0
100
AcDbLine
 10
911.0598324917537
 20
1777.928603033884
 30
0.0
 11
1251.059832491753
 21
1777.928603033884
 31
0.0
  0
LINE
  5
10E2
330
1036
100
AcDbEntity
  8
0
  6
ByBlock
 62
     0
 48
10.0
100
AcDbLine
 10
841.0598324917536
 20
1674.628934033556
 30
0.0
 11
841.0598324917536
 21
1880.330775733851
 31
0.0
  0
LINE
  5
10E3
330
1036
100
AcDbEntity
  8
0
  6
ByBlock
 62
     0
 48
10.0
100
AcDbLine
 10
961.0598324917537
 20
1674.628934033556
 30
0.0
 11
961.0598324917537
 21
1790.428603033884
 31
0.0
  0
LINE
  5
10E4
330
1036
100
AcDbEntity
  8
0
  6
ByBlock
 62
     0
 48
10.0
100
AcDbLine
 10
911.0598324917537
 20
1674.628934033556
 30
0.0
 11
911.0598324917537
 21
1790.428603033884
 31
0.0
  0
LINE
  5
10E5
330
1036
100
AcDbEntity
  8
上線
100
AcDbLine
 10
911.0598324917537
 20
1538.964657320177
 30
0.0
 11
961.0598324917537
 21
1538.964657320177
 31
0.0
  0
LINE
  5
10E6
330
1036
100
AcDbEntity
  8
上線
100
AcDbLine
 10
911.0598324917537
 20
1638.964657320177
 30
0.0
 11
911.0598324917537
 21
1538.964657320177
 31
0.0
  0
LINE
  5
10E7
330
1036
100
AcDbEntity
  8
上線
100
AcDbLine
 10
911.0598324917537
 20
1638.964657320177
 30
0.0
 11
841.0598324917536
 21
1638.964657320177
 31
0.0
  0
POINT
  5
10E8
330
1036
100
AcDbEntity
  8
DEFPOINTS
  6
ByBlock
 62
     0
 48
10.0
100
AcDbPoint
 10
781.0930315008172
 20
1648.964657320177
 30
0.0
  0
LWPOLYLINE
  5
10E9
330
1036
100
AcDbEntity
  8
上線
 48
10.0
100
AcDbPolyline
 90
        2
 70
     1
 43
5.0
 10
873.8824718641499
 20
1609.232525125058
 42
1.0
 10
878.88247186415
 20
1609.232525125058
 42
1.0
  0
TEXT
  5
10EA
330
1036
100
AcDbEntity
  8
点線
 62
     0
100
AcDbText
 10
918.5522066080174
 20
1784.178603033884
 30
0.0
 40
25.0
  1
50
100
AcDbText
  0
SOLID
  5
10EB
330
1036
100
AcDbEntity
  8
0
  6
ByBlock
 62
     0
 48
10.0
100
AcDbTrace
 10
866.0598324917536
 20
1782.09526970055
 30
0.0
 11
866.0598324917536
 21
1773.761936367218
 31
0.0
 12
841.0598324917536
 22
1777.928603033884
 32
0.0
 13
841.0598324917536
 23
1777.928603033884
 33
0.0
  0
LINE
  5
10EC
330
1036
100
AcDbEntity
  8
0
  6
ByBlock
 62
     0
 48
10.0
100
AcDbLine
 10
886.0598324917537
 20
1777.928603033884
 30
0.0
 11
841.0598324917536
 21
1777.928603033884
 31
0.0
  0
POINT
  5
10ED
330
1036
100
AcDbEntity
  8
DEFPOINTS
  6
ByBlock
 62
     0
 48
10.0
100
AcDbPoint
 10
841.0598324917536
 20
1773.708952282359
 30
0.0
  0
LINE
  5
10EE
330
1036
100
AcDbEntity
  8
0
  6
ByBlock
 62
     0
 48
10.0
100
AcDbLine
 10
911.0598324917537
 20
1706.192056745515
 30
0.0
 11
911.0598324917537
 21
1790.428603033884
 31
0.0
  0
TEXT
  5
10EF
330
1036
100
AcDbEntity
  8
点線
 62
     0
100
AcDbText
 10
857.3398357005444
 20
1784.178603033884
 30
0.0
 40
25.0
  1
70
100
AcDbText
  0
SOLID
  5
10F0
330
1036
100
AcDbEntity
  8
0
  6
ByBlock
 62
     0
 48
10.0
100
AcDbTrace
 10
886.0598324917537
 20
1782.09526970055
 30
0.0
 11
886.0598324917537
 21
1773.761936367218
 31
0.0
 12
911.0598324917537
 22
1777.928603033884
 32
0.0
 13
911.0598324917537
 23
1777.928603033884
 33
0.0
  0
POINT
  5
10F1
330
1036
100
AcDbEntity
  8
DEFPOINTS
  6
ByBlock
 62
     0
 48
10.0
100
AcDbPoint
 10
931.0598324917537
 20
1773.708952282359
 30
0.0
  0
SOLID
  5
10F2
330
1036
100
AcDbEntity
  8
0
  6
ByBlock
 62
     0
 48
10.0
100
AcDbTrace
 10
866.0598324917536
 20
1871.997442400518
 30
0.0
 11
866.0598324917536
 21
1863.664109067185
 31
0.0
 12
841.0598324917536
 22
1867.830775733851
 32
0.0
 13
841.0598324917536
 23
1867.830775733851
 33
0.0
  0
LINE
  5
10F3
330
1036
100
AcDbEntity
  8
0
  6
ByBlock
 62
     0
 48
10.0
100
AcDbLine
 10
961.0598324917537
 20
1706.192056745515
 30
0.0
 11
961.0598324917537
 21
1790.428603033884
 31
0.0
  0
SOLID
  5
10F4
330
1036
100
AcDbEntity
  8
0
  6
ByBlock
 62
     0
 48
10.0
100
AcDbTrace
 10
986.0598324917537
 20
1782.09526970055
 30
0.0
 11
986.0598324917537
 21
1773.761936367218
 31
0.0
 12
961.0598324917537
 22
1777.928603033884
 32
0.0
 13
961.0598324917537
 23
1777.928603033884
 33
0.0
  0
MTEXT
  5
10F5
330
1036
100
AcDbEntity
  8
0
  6
ByBlock
 62
     0
 48
10.0
100
AcDbMText
 10
1066.059832491753
 20
1886.580775733851
 30
0.0
 40
25.0
 41
0.0
 71
     5
 72
     1
  1
\A1;480
 73
     1
 44
1.0
  0
LINE
  5
10F6
330
1036
100
AcDbEntity
  8
0
  6
ByBlock
 62
     0
 48
10.0
100
AcDbLine
 10
1251.059832491753
 20
1674.628934033556
 30
0.0
 11
1251.059832491753
 21
1790.428603033884
 31
0.0
  0
LINE
  5
10F7
330
1036
100
AcDbEntity
  8
0
  6
ByBlock
 62
     0
 48
10.0
100
AcDbLine
 10
1321.059832491753
 20
1674.628934033556
 30
0.0
 11
1321.059832491753
 21
1880.330775733851
 31
0.0
  0
LINE
  5
10F8
330
1036
100
AcDbEntity
  8
0
  6
ByBlock
 62
     0
 48
10.0
100
AcDbLine
 10
1201.059832491753
 20
1674.628934033556
 30
0.0
 11
1201.059832491753
 21
1790.428603033884
 31
0.0
  0
LINE
  5
10F9
330
1036
100
AcDbEntity
  8
上線
100
AcDbLine
 10
1251.059832491753
 20
1638.964657320177
 30
0.0
 11
1321.059832491753
 21
1638.964657320177
 31
0.0
  0
LINE
  5
10FA
330
1036
100
AcDbEntity
  8
上線
 48
10.0
100
AcDbLine
 10
1251.059832491753
 20
1638.964657320177
 30
0.0
 11
1251.059832491753
 21
1538.964657320177
 31
0.0
  0
LINE
  5
10FB
330
1036
100
AcDbEntity
  8
上線
100
AcDbLine
 10
1251.059832491753
 20
1538.964657320177
 30
0.0
 11
1201.059832491753
 21
1538.964657320176
 31
0.0
  0
LWPOLYLINE
  5
10FC
330
1036
100
AcDbEntity
  8
上線
 48
10.0
100
AcDbPolyline
 90
        2
 70
     1
 43
5.0
 10
1283.502093408462
 20
1609.232525125058
 42
1.0
 10
1288.502093408462
 20
1609.232525125058
 42
1.0
  0
SOLID
  5
10FD
330
1036
100
AcDbEntity
  8
0
  6
ByBlock
 62
     0
 48
10.0
100
AcDbTrace
 10
1276.059832491753
 20
1782.24455372186
 30
0.0
 11
1276.059832491753
 21
1773.911220388527
 31
0.0
 12
1251.059832491753
 22
1778.077887055194
 32
0.0
 13
1251.059832491753
 23
1778.077887055194
 33
0.0
  0
LINE
  5
10FE
330
1036
100
AcDbEntity
  8
0
  6
ByBlock
 62
     0
 48
10.0
100
AcDbLine
 10
1251.059832491753
 20
1777.928603033884
 30
0.0
 11
1321.059832491753
 21
1777.928603033884
 31
0.0
  0
SOLID
  5
10FF
330
1036
100
AcDbEntity
  8
0
  6
ByBlock
 62
     0
 48
10.0
100
AcDbTrace
 10
1176.059832491753
 20
1782.09526970055
 30
0.0
 11
1176.059832491753
 21
1773.761936367218
 31
0.0
 12
1201.059832491753
 22
1777.928603033884
 32
0.0
 13
1201.059832491753
 23
1777.928603033884
 33
0.0
  0
LINE
  5
1100
330
1036
100
AcDbEntity
  8
0
  6
ByBlock
 62
     0
 48
10.0
100
AcDbLine
 10
1251.059832491753
 20
1706.192056745515
 30
0.0
 11
1251.059832491753
 21
1792.075352507032
 31
0.0
  0
LINE
  5
1101
330
1036
100
AcDbEntity
  8
0
  6
ByBlock
 62
     0
 48
10.0
100
AcDbLine
 10
1201.059832491753
 20
1706.192056745515
 30
0.0
 11
1201.059832491753
 21
1790.428603033884
 31
0.0
  0
MTEXT
  5
1102
330
1036
100
AcDbEntity
  8
0
  6
ByBlock
 62
     0
 48
10.0
100
AcDbMText
 10
1227.068481498736
 20
1796.678603033884
 30
0.0
 40
25.0
 41
0.0
 71
     5
 72
     1
  1
\A1;50
 73
     1
 44
1.0
  0
POINT
  5
1103
330
1036
100
AcDbEntity
  8
DEFPOINTS
  6
ByBlock
 62
     0
 48
10.0
100
AcDbPoint
 10
1231.059832491753
 20
1773.708952282359
 30
0.0
  0
LINE
  5
1104
330
1036
100
AcDbEntity
  8
0
  6
ByBlock
 62
     0
 48
10.0
100
AcDbLine
 10
1321.059832491753
 20
1701.97240599399
 30
0.0
 11
1321.059832491753
 21
1787.855701755506
 31
0.0
  0
MTEXT
  5
1105
330
1036
100
AcDbEntity
  8
0
  6
ByBlock
 62
     0
 48
10.0
100
AcDbMText
 10
1286.059832491753
 20
1796.827887055194
 30
0.0
 40
25.0
 41
0.0
 71
     5
 72
     1
  1
\A1;70
 73
     1
 44
1.0
  0
SOLID
  5
1106
330
1036
100
AcDbEntity
  8
0
  6
ByBlock
 62
     0
 48
10.0
100
AcDbTrace
 10
1296.059832491753
 20
1782.24455372186
 30
0.0
 11
1296.059832491753
 21
1773.911220388527
 31
0.0
 12
1321.059832491753
 22
1778.077887055194
 32
0.0
 13
1321.059832491753
 23
1778.077887055194
 33
0.0
  0
POINT
  5
1107
330
1036
100
AcDbEntity
  8
DEFPOINTS
  6
ByBlock
 62
     0
 48
10.0
100
AcDbPoint
 10
1281.059832491753
 20
1773.708952282359
 30
0.0
  0
POINT
  5
1108
330
1036
100
AcDbEntity
  8
DEFPOINTS
  6
ByBlock
 62
     0
 48
10.0
100
AcDbPoint
 10
1351.059832491753
 20
1775.355701755506
 30
0.0
  0
SOLID
  5
1109
330
1036
100
AcDbEntity
  8
0
  6
ByBlock
 62
     0
 48
10.0
100
AcDbTrace
 10
1296.059832491753
 20
1871.997442400518
 30
0.0
 11
1296.059832491753
 21
1863.664109067185
 31
0.0
 12
1321.059832491753
 22
1867.830775733851
 32
0.0
 13
1321.059832491753
 23
1867.830775733851
 33
0.0
  0
POINT
  5
110A
330
1036
100
AcDbEntity
  8
DEFPOINTS
  6
ByBlock
 62
     0
 48
10.0
100
AcDbPoint
 10
1351.059832491753
 20
1861.501299606561
 30
0.0
  0
MTEXT
  5
110B
330
1036
100
AcDbEntity
  8
上線
 48
10.0
100
AcDbMText
 10
994.8121846863815
 20
2380.645027545337
 30
0.0
 40
40.0
 41
558.2059
 71
     1
 72
     5
  1
\fＭＳ Ｐ明朝|b0|i0|c128|p18;正面図
 73
     1
 44
1.0
  0
LINE
  5
110C
330
1036
100
AcDbEntity
  8
0
  6
ByBlock
 62
     0
 48
10.0
100
AcDbLine
 10
1458.04716628644
 20
1663.964657320177
 30
0.0
 11
1458.04716628644
 21
1738.964657320177
 31
0.0
  0
SOLID
  5
110D
330
1036
100
AcDbEntity
  8
0
  6
ByBlock
 62
     0
 48
10.0
100
AcDbTrace
 10
1453.879868420087
 20
1583.964657320177
 30
0.0
 11
1462.213201753421
 21
1583.964657320177
 31
0.0
 12
1458.046535086754
 22
1608.964657320177
 32
0.0
 13
1458.046535086754
 23
1608.964657320177
 33
0.0
  0
SOLID
  5
110E
330
1036
100
AcDbEntity
  8
0
  6
ByBlock
 62
     0
 48
10.0
100
AcDbTrace
 10
1453.880499619773
 20
1663.964657320177
 30
0.0
 11
1462.213832953107
 21
1663.964657320177
 31
0.0
 12
1458.04716628644
 22
1638.964657320177
 32
0.0
 13
1458.04716628644
 23
1638.964657320177
 33
0.0
  0
POINT
  5
110F
330
1036
100
AcDbEntity
  8
DEFPOINTS
  6
ByBlock
 62
     0
 48
10.0
100
AcDbPoint
 10
1458.04716628644
 20
1698.964657320177
 30
0.0
  0
LINE
  5
1110
330
1036
100
AcDbEntity
  8
0
  6
ByBlock
 62
     0
100
AcDbLine
 10
2861.807994990762
 20
1583.964657320177
 30
0.0
 11
2861.807994990762
 21
775.101194473832
 31
0.0
  0
LINE
  5
1111
330
1036
100
AcDbEntity
  8
上線
 48
10.0
100
AcDbLine
 10
3474.307994990762
 20
1608.964657320177
 30
0.0
 11
3474.307994990762
 21
968.9646573201773
 31
0.0
  0
LINE
  5
1112
330
1036
100
AcDbEntity
  8
上線
 48
10.0
100
AcDbLine
 10
3229.307994990762
 20
1608.964657320177
 30
0.0
 11
3229.307994990762
 21
968.9646573201773
 31
0.0
  0
LINE
  5
1113
330
1036
100
AcDbEntity
  8
上線
 48
10.0
100
AcDbLine
 10
2984.307994990762
 20
1608.964657320177
 30
0.0
 11
2984.307994990762
 21
968.9646573201773
 31
0.0
  0
LINE
  5
1114
330
1036
100
AcDbEntity
  8
上線
 48
10.0
100
AcDbLine
 10
2739.307994990762
 20
1608.964657320177
 30
0.0
 11
2739.307994990762
 21
968.9646573201773
 31
0.0
  0
LINE
  5
1115
330
1036
100
AcDbEntity
  8
上線
100
AcDbLine
 10
3454.307994990763
 20
1608.964657320177
 30
0.0
 11
3454.307994990762
 21
968.9646573201773
 31
0.0
  0
LINE
  5
1116
330
1036
100
AcDbEntity
  8
上線
100
AcDbLine
 10
3474.307994990762
 20
1638.964657320177
 30
0.0
 11
3474.307994990762
 21
938.9646573201776
 31
0.0
  0
LINE
  5
1117
330
1036
100
AcDbEntity
  8
上線
100
AcDbLine
 10
4177.218830816626
 20
0.0000031509980545
 30
0.0
 11
4177.218830816626
 21
2923.342524559054
 31
0.0
  0
LINE
  5
1118
330
1036
100
AcDbEntity
  8
上線
 48
10.0
100
AcDbLine
 10
2494.307994990762
 20
1608.964657320177
 30
0.0
 11
2494.307994990762
 21
968.9646573201773
 31
0.0
  0
LINE
  5
1119
330
1036
100
AcDbEntity
  8
上線
 48
10.0
100
AcDbLine
 10
2474.307994990762
 20
1638.964657320177
 30
0.0
 11
2474.307994990762
 21
938.9646573201773
 31
0.0
  0
LINE
  5
111A
330
1036
100
AcDbEntity
  8
上線
 48
10.0
100
AcDbLine
 10
2494.307994990762
 20
1182.297991320176
 30
0.0
 11
3454.307994990762
 21
1182.297991320177
 31
0.0
  0
LINE
  5
111B
330
1036
100
AcDbEntity
  8
上線
 48
10.0
100
AcDbLine
 10
2494.307994990762
 20
1395.631324320177
 30
0.0
 11
3454.307994990762
 21
1395.631324320177
 31
0.0
  0
LINE
  5
111C
330
1036
100
AcDbEntity
  8
点線
100
AcDbLine
 10
3474.307994990761
 20
1038.964657320177
 30
0.0
 11
2474.307994990762
 21
1038.964657320177
 31
0.0
  0
LINE
  5
111D
330
1036
100
AcDbEntity
  8
上線
100
AcDbLine
 10
4136.204185353559
 20
51.27467674447507
 30
0.0
 11
3221.72944325387
 21
51.27467674447507
 31
0.0
  0
LINE
  5
111E
330
1036
100
AcDbEntity
  8
上線
100
AcDbLine
 10
4136.204185353559
 20
134.5368362888175
 30
0.0
 11
3221.72944325387
 21
134.5368362888175
 31
0.0
  0
LINE
  5
111F
330
1036
100
AcDbEntity
  8
上線
100
AcDbLine
 10
4136.204185353559
 20
217.557114927059
 30
0.0
 11
3221.72944325387
 21
217.557114927059
 31
0.0
  0
LINE
  5
1120
330
1036
100
AcDbEntity
  8
上線
100
AcDbLine
 10
4136.204185353559
 20
300.5773869860131
 30
0.0
 11
3221.72944325387
 21
300.5773869860131
 31
0.0
  0
LINE
  5
1121
330
1036
100
AcDbEntity
  8
上線
100
AcDbLine
 10
4136.204185353559
 20
391.8996862508629
 30
0.0
 11
3221.72944325387
 21
391.8996862508629
 31
0.0
  0
LINE
  5
1122
330
1036
100
AcDbEntity
  8
上線
 48
10.0
100
AcDbLine
 10
2494.307994990762
 20
968.9646573201773
 30
0.0
 11
3454.307994990762
 21
968.9646573201773
 31
0.0
  0
LINE
  5
1123
330
1036
100
AcDbEntity
  8
上線
 48
10.0
100
AcDbLine
 10
2474.307994990762
 20
938.9646573201773
 30
0.0
 11
3474.307994990762
 21
938.9646573201776
 31
0.0
  0
LINE
  5
1124
330
1036
100
AcDbEntity
  8
上線
100
AcDbLine
 10
3221.729443253869
 20
391.8996862508629
 30
0.0
 11
3221.729443253869
 21
51.27467674447507
 31
0.0
  0
MTEXT
  5
1125
330
1036
100
AcDbEntity
  8
上線
 48
10.0
100
AcDbMText
 10
3260.480913839487
 20
197.9069032832576
 30
0.0
 40
30.0
 41
241.0562
 71
     1
 72
     5
  1
\fＭＳ Ｐ明朝|b0|i0|c128|p18;ｓ；1/10
 73
     1
 44
1.0
  0
MTEXT
  5
1126
330
1036
100
AcDbEntity
  8
上線
 48
10.0
100
AcDbMText
 10
3242.635540913962
 20
275.3924949244737
 30
0.0
 40
30.0
 41
241.0562
 71
     1
 72
     5
  1
\fＭＳ Ｐ明朝|b0|i0|c128|p18;寸　法
 73
     1
 44
1.0
  0
MTEXT
  5
1127
330
1036
100
AcDbEntity
  8
上線
 48
10.0
100
AcDbMText
 10
3242.635540913962
 20
363.9474539804541
 30
0.0
 40
30.0
 41
241.0562
 71
     1
 72
     5
  1
\fＭＳ Ｐ明朝|b0|i0|c128|p18;呼び名
 73
     1
 44
1.0
  0
LINE
  5
1128
330
1036
100
AcDbEntity
  8
上線
 48
10.0
100
AcDbLine
 10
2474.307994990762
 20
1378.964657320177
 30
0.0
 11
2474.307994990762
 21
938.9646573201773
 31
0.0
  0
POINT
  5
1129
330
1036
100
AcDbEntity
  8
DEFPOINTS
  6
ByBlock
 62
     0
 48
10.0
100
AcDbPoint
 10
2464.281677719127
 20
693.6063304182134
 30
0.0
  0
POINT
  5
112A
330
1036
100
AcDbEntity
  8
DEFPOINTS
  6
ByBlock
 62
     0
 48
10.0
100
AcDbPoint
 10
2484.281677719127
 20
865.5970742888323
 30
0.0
  0
POINT
  5
112B
330
1036
100
AcDbEntity
  8
DEFPOINTS
  6
ByBlock
 62
     0
 48
10.0
100
AcDbPoint
 10
2474.307994990762
 20
905.0362228259258
 30
0.0
  0
POINT
  5
112C
330
1036
100
AcDbEntity
  8
DEFPOINTS
  6
ByBlock
 62
     0
 48
10.0
100
AcDbPoint
 10
2494.307994990762
 20
905.0362228259258
 30
0.0
  0
POINT
  5
112D
330
1036
100
AcDbEntity
  8
DEFPOINTS
  6
ByBlock
 62
     0
 48
10.0
100
AcDbPoint
 10
2494.307994990762
 20
905.0362228259258
 30
0.0
  0
POINT
  5
112E
330
1036
100
AcDbEntity
  8
DEFPOINTS
  6
ByBlock
 62
     0
100
AcDbPoint
 10
2861.807994990762
 20
766.1445560973679
 30
0.0
  0
POINT
  5
112F
330
1036
100
AcDbEntity
  8
DEFPOINTS
  6
ByBlock
 62
     0
100
AcDbPoint
 10
2861.807994990762
 20
766.1445560973679
 30
0.0
  0
LINE
  5
1130
330
1036
100
AcDbEntity
  8
上線
100
AcDbLine
 10
2861.807994990762
 20
775.1011944738323
 30
0.0
 11
2995.322301752183
 21
775.101194473832
 31
0.0
  0
MTEXT
  5
1131
330
1036
100
AcDbEntity
  8
上線
 48
10.0
100
AcDbMText
 10
2898.986245048007
 20
798.7307496554121
 30
0.0
 40
25.0
 41
0.0
 71
     4
 72
     1
  1
9-Φ5
 73
     1
 44
1.0
  0
MTEXT
  5
1132
330
1036
100
AcDbEntity
  8
上線
 48
10.0
100
AcDbMText
 10
2898.986245048007
 20
834.8770635341734
 30
0.0
 40
25.0
 41
0.0
 71
     4
 72
     1
  1
\fＭＳ Ｐ明朝|b0|i0|c128|p18;横筋
 73
     1
 44
1.0
  0
POINT
  5
1133
330
1036
100
AcDbEntity
  8
DEFPOINTS
  6
ByBlock
 62
     0
 48
10.0
100
AcDbPoint
 10
2748.281677719127
 20
865.5970742888323
 30
0.0
  0
POINT
  5
1134
330
1036
100
AcDbEntity
  8
DEFPOINTS
  6
ByBlock
 62
     0
 48
10.0
100
AcDbPoint
 10
2758.307994990762
 20
905.0362228259258
 30
0.0
  0
SOLID
  5
1135
330
1036
100
AcDbEntity
  8
0
  6
ByBlock
 62
     0
100
AcDbTrace
 10
2857.641328324096
 20
944.7084097746747
 30
0.0
 11
2865.974661657428
 21
944.7084097746747
 31
0.0
 12
2861.807994990762
 22
969.7084097746747
 32
0.0
 13
2861.807994990762
 23
969.7084097746747
 33
0.0
  0
SOLID
  5
1136
330
1036
100
AcDbEntity
  8
0
  6
ByBlock
 62
     0
100
AcDbTrace
 10
2857.641328324096
 20
1158.216496298986
 30
0.0
 11
2865.974661657428
 21
1158.216496298986
 31
0.0
 12
2861.807994990762
 22
1183.216496298986
 32
0.0
 13
2861.807994990762
 23
1183.216496298986
 33
0.0
  0
SOLID
  5
1137
330
1036
100
AcDbEntity
  8
0
  6
ByBlock
 62
     0
100
AcDbTrace
 10
2857.641328324096
 20
1369.070895888296
 30
0.0
 11
2865.974661657428
 21
1369.070895888296
 31
0.0
 12
2861.807994990762
 22
1394.070895888296
 32
0.0
 13
2861.807994990762
 23
1394.070895888296
 33
0.0
  0
MTEXT
  5
1138
330
1036
100
AcDbEntity
  8
上線
 48
10.0
100
AcDbMText
 10
3974.12811941933
 20
189.3255129734025
 30
0.0
 40
30.0
 41
241.0562
 71
     1
 72
     5
  1
S=2.7㎏
 73
     1
 44
1.0
  0
MTEXT
  5
1139
330
1036
100
AcDbEntity
  8
上線
 48
10.0
100
AcDbMText
 10
3436.018857692868
 20
283.6945155510811
 30
0.0
 40
40.0
 41
1003.0154
 71
     1
 72
     5
  1
240×500×120/120×1000
 73
     1
 44
1.0
  0
MTEXT
  5
113A
330
1036
100
AcDbEntity
  8
上線
 48
10.0
100
AcDbMText
 10
3472.627703486923
 20
372.0708450121355
 30
0.0
 40
40.0
 41
1003.0154
 71
     1
 72
     5
  1
長尺U字溝　（H1-24-50）
 73
     1
 44
1.0
  0
MTEXT
  5
113B
330
1036
100
AcDbEntity
  8
上線
 48
10.0
100
AcDbMText
 10
3457.901265728765
 20
118.7463304485136
 30
0.0
 40
40.0
 41
1003.0154
 71
     1
 72
     5
  1
\fＭＳ Ｐ明朝|b0|i0|c128|p18;㈱　ウ　チ　コ　ン
 73
     1
 44
1.0
  0
LINE
  5
113C
330
1036
100
AcDbEntity
  8
上線
100
AcDbLine
 10
3396.287379150888
 20
391.8996862508629
 30
0.0
 11
3396.287379150888
 21
217.557114927059
 31
0.0
  0
MTEXT
  5
113D
330
1036
100
AcDbEntity
  8
上線
 48
10.0
100
AcDbMText
 10
3476.491660869515
 20
197.9069032832576
 30
0.0
 40
30.0
 41
241.0562
 71
     1
 72
     5
  1
\fＭＳ Ｐ明朝|b0|i0|c128|p18;単位；㎜
 73
     1
 44
1.0
  0
LINE
  5
113E
330
1036
100
AcDbEntity
  8
上線
 48
10.0
100
AcDbLine
 10
3434.708821764319
 20
217.557114927059
 30
0.0
 11
3434.708821764319
 21
134.5368362888175
 31
0.0
  0
LINE
  5
113F
330
1036
100
AcDbEntity
  8
上線
 48
10.0
100
AcDbLine
 10
3678.966814303714
 20
217.557114927059
 30
0.0
 11
3678.966814303714
 21
134.5368362888175
 31
0.0
  0
MTEXT
  5
1140
330
1036
100
AcDbEntity
  8
上線
 48
10.0
100
AcDbMText
 10
3724.502504880174
 20
189.3255129734025
 30
0.0
 40
30.0
 41
241.0562
 71
     1
 72
     5
  1
W=455㎏
 73
     1
 44
1.0
  0
LINE
  5
1141
330
1036
100
AcDbEntity
  8
上線
 48
10.0
100
AcDbLine
 10
3945.318493311339
 20
217.557114927059
 30
0.0
 11
3945.318493311339
 21
134.5368362888175
 31
0.0
  0
LINE
  5
1142
330
1036
100
AcDbEntity
  8
上線
100
AcDbLine
 10
4136.204185353559
 20
51.27467674447507
 30
0.0
 11
4136.204185353559
 21
391.8996862508629
 31
0.0
  0
POINT
  5
1143
330
1036
100
AcDbEntity
  8
DEFPOINTS
  6
ByBlock
 62
     0
 48
10.0
100
AcDbPoint
 10
3561.210156791708
 20
938.9646573201773
 30
0.0
  0
POINT
  5
1144
330
1036
100
AcDbEntity
  8
DEFPOINTS
  6
ByBlock
 62
     0
 48
10.0
100
AcDbPoint
 10
3959.569139520073
 20
911.5460169293083
 30
0.0
  0
POINT
  5
1145
330
1036
100
AcDbEntity
  8
DEFPOINTS
  6
ByBlock
 62
     0
 48
10.0
100
AcDbPoint
 10
3901.183856791709
 20
1223.678545063395
 30
0.0
  0
LINE
  5
1146
330
1036
100
AcDbEntity
  8
0
  6
ByBlock
 62
     0
100
AcDbLine
 10
3429.307994990762
 20
1502.297990820177
 30
0.0
 11
2225.72421651126
 21
1502.297990820177
 31
0.0
  0
DIMENSION
  5
1147
330
1036
100
AcDbEntity
  8
上線
100
AcDbDimension
  2
*D7
 10
3454.307994990762
 20
1768.945124195465
 30
0.0
 11
3341.807994990762
 21
1787.695124195465
 31
0.0
 12
494.6597463542238
 22
-299.89299565492
 32
0.0
 71
     5
 42
-1.0
  3
STANDARD
100
AcDbAlignedDimension
 13
3229.307994990762
 23
1665.627071404628
 33
0.0
 14
3454.307994990762
 24
1665.627071404628
 34
0.0
100
AcDbRotatedDimension
1001
ACAD
1000
DSTYLE
1002
{
1070
    40
1040
10.0
1070
    41
1040
2.5
1070
    42
1040
0.625
1070
    43
1040
3.75
1070
    44
1040
1.25
1070
    73
1070
     0
1070
    74
1070
     0
1070
    77
1070
     1
1070
    78
1070
     8
1070
   140
1040
2.5
1070
   141
1040
2.5
1070
   143
1040
0.0394
1070
   147
1040
0.625
1070
   171
1070
     4
1070
   172
1070
     1
1070
   273
1070
     8
1070
   274
1070
     4
1070
   277
1070
     6
1002
}
  0
DIMENSION
  5
1148
330
1036
100
AcDbEntity
  8
上線
100
AcDbDimension
  2
*D3
 10
3474.307994990763
 20
1858.847179099623
 30
0.0
 11
2974.307994990762
 21
1879.774145391758
 31
0.0
 12
494.6597463542238
 22
-299.89299565492
 32
0.0
 71
     5
 42
-1.0
  3
STANDARD
100
AcDbAlignedDimension
 13
2474.307994990762
 23
1665.627071404628
 33
0.0
 14
3474.307994990763
 24
1665.62707140463
 34
0.0
100
AcDbRotatedDimension
1001
ACAD
1000
DSTYLE
1002
{
1070
    40
1040
10.0
1070
    41
1040
2.5
1070
    42
1040
0.625
1070
    43
1040
3.75
1070
    44
1040
1.25
1070
    73
1070
     0
1070
    74
1070
     0
1070
    77
1070
     1
1070
    78
1070
     8
1070
   140
1040
2.5
1070
   141
1040
2.5
1070
   143
1040
0.0394
1070
   147
1040
0.625
1070
   171
1070
     4
1070
   172
1070
     1
1070
   273
1070
     8
1070
   274
1070
     4
1070
   277
1070
     6
1002
}
  0
LINE
  5
1149
330
1036
100
AcDbEntity
  8
0
  6
ByBlock
 62
     0
 48
10.0
100
AcDbLine
 10
2499.307994990762
 20
1768.945124195465
 30
0.0
 11
3474.307994990762
 21
1768.945124195465
 31
0.0
  0
LINE
  5
114A
330
1036
100
AcDbEntity
  8
点線
100
AcDbLine
 10
3474.307994990762
 20
1538.964657320176
 30
0.0
 11
2474.307994990762
 21
1538.964657320177
 31
0.0
  0
LINE
  5
114B
330
1036
100
AcDbEntity
  8
上線
 48
10.0
100
AcDbLine
 10
2494.307994990762
 20
1608.964657320177
 30
0.0
 11
3454.307994990762
 21
1608.964657320177
 31
0.0
  0
LINE
  5
114C
330
1036
100
AcDbEntity
  8
上線
 48
10.0
100
AcDbLine
 10
2474.307994990762
 20
1638.964657320177
 30
0.0
 11
3474.307994990761
 21
1638.964657320177
 31
0.0
  0
LWPOLYLINE
  5
114D
330
1036
100
AcDbEntity
  8
上線
100
AcDbPolyline
 90
        4
 70
     1
 43
0.0
 10
2866.766913390213
 20
2312.962744548296
 10
3070.043849559237
 20
2312.962744548296
 10
3070.043849559237
 20
2406.667127294302
 10
2866.766913390213
 20
2406.667127294302
  0
LWPOLYLINE
  5
114E
330
1036
100
AcDbEntity
  8
上線
100
AcDbPolyline
 90
        4
 70
     1
 43
0.0
 10
2863.766913390213
 20
2309.962744548296
 10
3073.043849559237
 20
2309.962744548296
 10
3073.043849559237
 20
2409.667127294302
 10
2863.766913390213
 20
2409.667127294302
  0
SOLID
  5
114F
330
1036
100
AcDbEntity
  8
0
  6
ByBlock
 62
     0
100
AcDbTrace
 10
2714.307994990762
 20
1506.464657486844
 30
0.0
 11
2714.307994990762
 21
1498.13132415351
 31
0.0
 12
2739.307994990762
 22
1502.297990820177
 32
0.0
 13
2739.307994990762
 23
1502.297990820177
 33
0.0
  0
DIMENSION
  5
1150
330
1036
100
AcDbEntity
  8
上線
100
AcDbDimension
  2
*D6
 10
3229.307994990762
 20
1768.945124195465
 30
0.0
 11
2861.807994990762
 21
1787.695124195465
 31
0.0
 12
494.6597463542238
 22
-299.89299565492
 32
0.0
  1
3@245=735
 71
     5
 42
-1.0
  3
STANDARD
100
AcDbAlignedDimension
 13
2494.307994990762
 23
1665.627071404628
 33
0.0
 14
3229.307994990762
 24
1665.627071404628
 34
0.0
100
AcDbRotatedDimension
1001
ACAD
1000
DSTYLE
1002
{
1070
    40
1040
10.0
1070
    41
1040
2.5
1070
    42
1040
0.625
1070
    43
1040
3.75
1070
    44
1040
1.25
1070
    73
1070
     0
1070
    74
1070
     0
1070
    77
1070
     1
1070
    78
1070
     8
1070
   140
1040
2.5
1070
   141
1040
2.5
1070
   143
1040
0.0394
1070
   147
1040
0.625
1070
   171
1070
     4
1070
   172
1070
     1
1070
   273
1070
     8
1070
   274
1070
     4
1070
   277
1070
     6
1002
}
  0
DIMENSION
  5
1151
330
1036
100
AcDbEntity
  8
上線
100
AcDbDimension
  2
*D4
 10
2474.307994990762
 20
1768.945124195465
 30
0.0
 11
2401.906309597503
 21
1787.695124195465
 31
0.0
 12
494.6597463542238
 22
-299.89299565492
 32
0.0
 71
     5
 42
-1.0
  3
STANDARD
100
AcDbAlignedDimension
 13
2494.307994990762
 23
1665.627071404628
 33
0.0
 14
2474.307994990762
 24
1665.627071404628
 34
0.0
100
AcDbRotatedDimension
1001
ACAD
1000
DSTYLE
1002
{
1070
    40
1040
10.0
1070
    41
1040
2.5
1070
    42
1040
0.625
1070
    43
1040
3.75
1070
    44
1040
1.25
1070
    73
1070
     0
1070
    74
1070
     0
1070
    77
1070
     1
1070
    78
1070
     8
1070
   140
1040
2.5
1070
   141
1040
2.5
1070
   143
1040
0.0394
1070
   147
1040
0.625
1070
   171
1070
     4
1070
   172
1070
     1
1070
   273
1070
     8
1070
   274
1070
     4
1070
   277
1070
     6
1002
}
  0
MTEXT
  5
1152
330
1036
100
AcDbEntity
  8
上線
 48
10.0
100
AcDbMText
 10
2231.81164565352
 20
1565.083800776146
 30
0.0
 40
25.0
 41
0.0
 71
     4
 72
     1
  1
\fＭＳ Ｐ明朝|b0|i0|c128|p18;縦筋
 73
     1
 44
1.0
  0
MTEXT
  5
1153
330
1036
100
AcDbEntity
  8
上線
 48
10.0
100
AcDbMText
 10
2231.81164565352
 20
1525.983604928847
 30
0.0
 40
25.0
 41
0.0
 71
     4
 72
     1
  1
5-Φ5
 73
     1
 44
1.0
  0
POINT
  5
1154
330
1036
100
AcDbEntity
  8
DEFPOINTS
  6
ByBlock
 62
     0
100
AcDbPoint
 10
2128.281140492929
 20
1502.297990820177
 30
0.0
  0
POINT
  5
1155
330
1036
100
AcDbEntity
  8
DEFPOINTS
  6
ByBlock
 62
     0
100
AcDbPoint
 10
2128.281140492929
 20
1502.297990820177
 30
0.0
  0
LINE
  5
1156
330
1036
100
AcDbEntity
  8
0
  6
ByBlock
 62
     0
 48
10.0
100
AcDbLine
 10
2474.307994990762
 20
1689.943433168825
 30
0.0
 11
2474.307994990762
 21
1781.445124195465
 31
0.0
  0
LINE
  5
1157
330
1036
100
AcDbEntity
  8
0
  6
ByBlock
 62
     0
 48
10.0
100
AcDbLine
 10
2474.307994990762
 20
1665.627071404628
 30
0.0
 11
2474.307994990762
 21
1871.347179099623
 31
0.0
  0
SOLID
  5
1158
330
1036
100
AcDbEntity
  8
0
  6
ByBlock
 62
     0
100
AcDbTrace
 10
2469.307994990762
 20
1506.464657486844
 30
0.0
 11
2469.307994990762
 21
1498.13132415351
 31
0.0
 12
2494.307994990762
 22
1502.297990820177
 32
0.0
 13
2494.307994990762
 23
1502.297990820177
 33
0.0
  0
POINT
  5
1159
330
1036
100
AcDbEntity
  8
DEFPOINTS
  6
ByBlock
 62
     0
 48
10.0
100
AcDbPoint
 10
2474.307994990762
 20
1743.693433168825
 30
0.0
  0
POINT
  5
115A
330
1036
100
AcDbEntity
  8
DEFPOINTS
  6
ByBlock
 62
     0
 48
10.0
100
AcDbPoint
 10
2474.307994990762
 20
1743.693433168825
 30
0.0
  0
SOLID
  5
115B
330
1036
100
AcDbEntity
  8
0
  6
ByBlock
 62
     0
 48
10.0
100
AcDbTrace
 10
2499.307994990762
 20
1863.01384576629
 30
0.0
 11
2499.307994990762
 21
1854.680512432957
 31
0.0
 12
2474.307994990762
 22
1858.847179099623
 32
0.0
 13
2474.307994990762
 23
1858.847179099623
 33
0.0
  0
SOLID
  5
115C
330
1036
100
AcDbEntity
  8
0
  6
ByBlock
 62
     0
100
AcDbTrace
 10
2857.641328324096
 20
1583.964657320177
 30
0.0
 11
2865.974661657428
 21
1583.964657320177
 31
0.0
 12
2861.807994990762
 22
1608.964657320177
 32
0.0
 13
2861.807994990762
 23
1608.964657320177
 33
0.0
  0
LINE
  5
115D
330
1036
100
AcDbEntity
  8
0
  6
ByBlock
 62
     0
100
AcDbLine
 10
2855.557994990762
 20
1608.964657320177
 30
0.0
 11
2849.307994990762
 21
1608.964657320177
 31
0.0
  0
POINT
  5
115E
330
1036
100
AcDbEntity
  8
DEFPOINTS
  6
ByBlock
 62
     0
100
AcDbPoint
 10
2861.807994990762
 20
1608.964657320177
 30
0.0
  0
SOLID
  5
115F
330
1036
100
AcDbEntity
  8
0
  6
ByBlock
 62
     0
100
AcDbTrace
 10
2959.307994990762
 20
1506.464657486844
 30
0.0
 11
2959.307994990762
 21
1498.13132415351
 31
0.0
 12
2984.307994990762
 22
1502.297990820177
 32
0.0
 13
2984.307994990762
 23
1502.297990820177
 33
0.0
  0
SOLID
  5
1160
330
1036
100
AcDbEntity
  8
0
  6
ByBlock
 62
     0
100
AcDbTrace
 10
3204.307994990762
 20
1506.464657486844
 30
0.0
 11
3204.307994990762
 21
1498.13132415351
 31
0.0
 12
3229.307994990762
 22
1502.297990820177
 32
0.0
 13
3229.307994990762
 23
1502.297990820177
 33
0.0
  0
MTEXT
  5
1161
330
1036
100
AcDbEntity
  8
上線
 48
10.0
100
AcDbMText
 10
2887.82178281529
 20
2380.645027545337
 30
0.0
 40
40.0
 41
558.2059
 71
     1
 72
     5
  1
\fＭＳ Ｐ明朝|b0|i0|c128|p18;側面図
 73
     1
 44
1.0
  0
DIMENSION
  5
1162
330
1036
100
AcDbEntity
  8
上線
100
AcDbDimension
  2
*D5
 10
3474.307994990763
 20
1768.945124195465
 30
0.0
 11
3546.709680384021
 21
1787.695124195465
 31
0.0
 12
494.6597463542238
 22
-299.89299565492
 32
0.0
 71
     5
 42
-1.0
  3
STANDARD
100
AcDbAlignedDimension
 13
3454.307994990762
 23
1665.627071404628
 33
0.0
 14
3474.307994990763
 24
1665.627071404628
 34
0.0
100
AcDbRotatedDimension
1001
ACAD
1000
DSTYLE
1002
{
1070
    40
1040
10.0
1070
    41
1040
2.5
1070
    42
1040
0.625
1070
    43
1040
3.75
1070
    44
1040
1.25
1070
    73
1070
     0
1070
    74
1070
     0
1070
    77
1070
     1
1070
    78
1070
     8
1070
   140
1040
2.5
1070
   141
1040
2.5
1070
   143
1040
0.0394
1070
   147
1040
0.625
1070
   171
1070
     4
1070
   172
1070
     1
1070
   273
1070
     8
1070
   274
1070
     4
1070
   277
1070
     6
1002
}
  0
LINE
  5
1163
330
1036
100
AcDbEntity
  8
0
  6
ByBlock
 62
     0
 48
10.0
100
AcDbLine
 10
3474.307994990763
 20
1665.627071404628
 30
0.0
 11
3474.307994990762
 21
1841.445124195464
 31
0.0
  0
SOLID
  5
1164
330
1036
100
AcDbEntity
  8
0
  6
ByBlock
 62
     0
100
AcDbTrace
 10
3429.307994990762
 20
1506.464657486844
 30
0.0
 11
3429.307994990762
 21
1498.13132415351
 31
0.0
 12
3454.307994990762
 22
1502.297990820177
 32
0.0
 13
3454.307994990762
 23
1502.297990820177
 33
0.0
  0
POINT
  5
1165
330
1036
100
AcDbEntity
  8
DEFPOINTS
  6
ByBlock
 62
     0
100
AcDbPoint
 10
3454.307994990762
 20
1502.297990820177
 30
0.0
  0
LINE
  5
1166
330
1036
100
AcDbEntity
  8
0
  6
ByBlock
 62
     0
100
AcDbLine
 10
3454.307994990762
 20
1508.547990820177
 30
0.0
 11
3454.307994990762
 21
1514.797990820177
 31
0.0
  0
POINT
  5
1167
330
1036
100
AcDbEntity
  8
DEFPOINTS
  6
ByBlock
 62
     0
 48
10.0
100
AcDbPoint
 10
3474.307994990762
 20
1743.693433168825
 30
0.0
  0
POINT
  5
1168
330
1036
100
AcDbEntity
  8
DEFPOINTS
  6
ByBlock
 62
     0
 48
10.0
100
AcDbPoint
 10
3474.307994990762
 20
1828.945124195464
 30
0.0
  0
ENDBLK
  5
116A
330
1036
100
AcDbEntity
  8
0
 48
10.0
100
AcDbBlockEnd
  0
BLOCK
  5
147C
330
1466
100
AcDbEntity
  8
0
 48
10.0
100
AcDbBlockBegin
  2
A$C24F22DA8
 70
     0
 10
0.0
 20
0.0
 30
0.0
  3
A$C24F22DA8
  1

  0
MTEXT
  5
1467
330
1466
100
AcDbEntity
  8
上線
 48
10.0
100
AcDbMText
 10
253.6646320438412
 20
391.6112710049801
 30
0.0
 40
55.0
 41
1003.0154
 71
     1
 72
     5
  1
長 尺 U 字 溝  （H4-24B）
 73
     1
 44
1.0
  0
MTEXT
  5
1468
330
1466
100
AcDbEntity
  8
上線
 48
10.0
100
AcDbMText
 10
257.0896225503074
 20
281.5684104756637
 30
0.0
 40
50.0
 41
1003.0154
 71
     1
 72
     5
  1
240×300×120/120×4000
 73
     1
 44
1.0
  0
MTEXT
  5
1469
330
1466
100
AcDbEntity
  8
上線
 48
10.0
100
AcDbMText
 10
280.4253554880178
 20
185.9977917874157
 30
0.0
 40
45.0
 41
241.0562
 71
     1
 72
     5
  1
\fＭＳ Ｐ明朝|b0|i0|c128|p18;単位；㎜
 73
     1
 44
1.0
  0
LINE
  5
146A
330
1466
100
AcDbEntity
  8
上線
100
AcDbLine
 10
1146.954615825921
 20
-0.0000019153676476
 30
0.0
 11
-0.0000047803073357
 21
-0.0000019153676476
 31
0.0
  0
MTEXT
  5
146B
330
1466
100
AcDbEntity
  8
上線
 48
10.0
100
AcDbMText
 10
287.2898765138724
 20
90.42100085113544
 30
0.0
 40
55.0
 41
1003.0154
 71
     1
 72
     5
  1
\fＭＳ Ｐ明朝|b0|i0|c128|p18;㈱　ウ　チ　コ　ン
 73
     1
 44
1.0
  0
LINE
  5
146C
330
1466
100
AcDbEntity
  8
上線
100
AcDbLine
 10
1146.954615825921
 20
109.9999980846323
 30
0.0
 11
-0.0000047803073357
 21
109.9999980846323
 31
0.0
  0
LINE
  5
146D
330
1466
100
AcDbEntity
  8
上線
100
AcDbLine
 10
1146.954615825921
 20
199.9999980846322
 30
0.0
 11
-0.0000047803073357
 21
199.9999980846323
 31
0.0
  0
LINE
  5
146E
330
1466
100
AcDbEntity
  8
上線
100
AcDbLine
 10
1146.95461582592
 20
299.9999980846323
 30
0.0
 11
-0.0000047803073357
 21
299.9999980846323
 31
0.0
  0
LINE
  5
146F
330
1466
100
AcDbEntity
  8
上線
100
AcDbLine
 10
1146.95461582592
 20
409.9999980846323
 30
0.0
 11
-0.0000047803073357
 21
409.9999980846323
 31
0.0
  0
LINE
  5
1470
330
1466
100
AcDbEntity
  8
上線
100
AcDbLine
 10
-0.0000047803082452
 20
409.9999980846323
 30
0.0
 11
-0.0000047803077905
 21
-0.0000019153676476
 31
0.0
  0
MTEXT
  5
1471
330
1466
100
AcDbEntity
  8
上線
 48
10.0
100
AcDbMText
 10
33.28331656377486
 20
375.5257022065679
 30
0.0
 40
30.0
 41
241.0562
 71
     1
 72
     5
  1
\fＭＳ Ｐ明朝|b0|i0|c128|p18;呼び名
 73
     1
 44
1.0
  0
MTEXT
  5
1472
330
1466
100
AcDbEntity
  8
上線
 48
10.0
100
AcDbMText
 10
33.28331656377486
 20
270.9650400917789
 30
0.0
 40
30.0
 41
241.0562
 71
     1
 72
     5
  1
\fＭＳ Ｐ明朝|b0|i0|c128|p18;寸　法
 73
     1
 44
1.0
  0
MTEXT
  5
1473
330
1466
100
AcDbEntity
  8
上線
 48
10.0
100
AcDbMText
 10
40.40026206756192
 20
185.9977917874157
 30
0.0
 40
45.0
 41
241.0562
 71
     1
 72
     5
  1
\fＭＳ Ｐ明朝|b0|i0|c128|p18;ｓ；1/15
 73
     1
 44
1.0
  0
LINE
  5
1474
330
1466
100
AcDbEntity
  8
上線
100
AcDbLine
 10
197.7705490538191
 20
409.9999980846324
 30
0.0
 11
197.7705490538196
 21
199.9999980846323
 31
0.0
  0
LINE
  5
1475
330
1466
100
AcDbEntity
  8
上線
100
AcDbLine
 10
267.957860344245
 20
199.9999980846323
 30
0.0
 11
267.957860344245
 21
109.9999980846323
 31
0.0
  0
MTEXT
  5
1476
330
1466
100
AcDbEntity
  8
上線
 48
10.0
100
AcDbMText
 10
879.5388234230868
 20
177.4164014775606
 30
0.0
 40
45.0
 41
241.0562
 71
     1
 72
     5
  1
S=11.1㎏
 73
     1
 44
1.0
  0
MTEXT
  5
1477
330
1466
100
AcDbEntity
  8
上線
100
AcDbMText
 10
559.7665845839729
 20
179.3156682661265
 30
0.0
 40
45.0
 41
364.4508999999999
 71
     1
 72
     5
  1
W=1280㎏
 73
     1
 44
1.0
  0
LINE
  5
1478
330
1466
100
AcDbEntity
  8
上線
100
AcDbLine
 10
535.9157254687979
 20
199.9999980846323
 30
0.0
 11
535.9157254687979
 21
109.9999980846323
 31
0.0
  0
POINT
  5
1479
330
1466
100
AcDbEntity
  8
DEFPOINTS
  6
ByBlock
 62
     0
 48
10.0
100
AcDbPoint
 10
682.7996971777501
 20
338.0351495319318
 30
0.0
  0
LINE
  5
147A
330
1466
100
AcDbEntity
  8
上線
100
AcDbLine
 10
852.6502760680623
 20
199.9999980846323
 30
0.0
 11
852.6502760680623
 21
109.9999980846323
 31
0.0
  0
LINE
  5
147B
330
1466
100
AcDbEntity
  8
上線
100
AcDbLine
 10
1146.954615825921
 20
-0.0000019153676476
 30
0.0
 11
1146.95461582592
 21
409.9999980846323
 31
0.0
  0
ENDBLK
  5
147D
330
1466
100
AcDbEntity
  8
0
 48
10.0
100
AcDbBlockEnd
  0
BLOCK
  5
155B
330
1556
100
AcDbEntity
  8
0
 48
10.0
100
AcDbBlockBegin
  2
A$C50025D0A
 70
     0
 10
0.0
 20
0.0
 30
0.0
  3
A$C50025D0A
  1

  0
MTEXT
  5
1557
102
{ACAD_REACTORS
330
1558
102
}
330
1556
100
AcDbEntity
  8
上線
100
AcDbMText
 10
634.3575581107507
 20
81.49598591341236
 30
0.0
 40
37.5
 41
0.0
 71
     4
 72
     1
  1
横　筋\P7-φ5
 73
     1
 44
1.0
  0
LEADER
  5
1558
330
1556
100
AcDbEntity
  8
上線
100
AcDbLeader
  3
STANDARD
 73
     0
 74
     0
 75
     1
 40
119.0308988764044
 41
137.7808988764044
 76
     3
 10
395.5180590213062
 20
511.4329888991742
 30
0.0
 10
587.4825581107507
 20
12.60553647521011
 30
0.0
 10
624.9825581107507
 20
12.60553647521011
 30
0.0
340
1557
1001
ACAD
1000
DSTYLE
1002
{
1070
    78
1070
     8
1070
   270
1070
     8
1070
   140
1040
2.5
1070
    74
1070
     0
1070
   172
1070
     1
1070
    73
1070
     0
1070
    77
1070
     1
1070
    40
1040
15.0
1070
   147
1040
0.625
1070
    42
1040
0.625
1070
    44
1040
1.25
1070
    43
1040
3.75
1070
   141
1040
2.5
1070
    41
1040
2.5
1070
   273
1070
     8
1070
   274
1070
     4
1070
   143
1040
0.0394
1070
   171
1070
     4
1002
}
  0
MTEXT
  5
1559
102
{ACAD_REACTORS
330
155A
102
}
330
1556
100
AcDbEntity
  8
上線
100
AcDbMText
 10
238.8394963465507
 20
68.7851062590089
 30
0.0
 40
37.5
 41
0.0
 71
     4
 72
     1
  1
\A1;縦　筋\P16-φ5
 73
     1
 44
1.0
  0
LEADER
  5
155A
330
1556
100
AcDbEntity
  8
上線
100
AcDbLeader
  3
STANDARD
 73
     0
 74
     0
 75
     1
 40
118.8202247191011
 41
152.317415730337
 76
     3
 10
-0.0000027428936846
 20
452.5234344760083
 30
0.0
 10
191.9644963465507
 20
-0.0000061005416541
 30
0.0
 10
229.4644963465507
 20
-0.0000061005416541
 30
0.0
340
1559
1001
ACAD
1000
DSTYLE
1002
{
1070
    78
1070
     8
1070
   270
1070
     8
1070
   140
1040
2.5
1070
    74
1070
     0
1070
   172
1070
     1
1070
    73
1070
     0
1070
    77
1070
     1
1070
    40
1040
15.0
1070
   147
1040
0.625
1070
    42
1040
0.625
1070
    44
1040
1.25
1070
    43
1040
3.75
1070
   141
1040
2.5
1070
    41
1040
2.5
1070
   273
1070
     8
1070
   274
1070
     4
1070
   143
1040
0.0394
1070
   171
1070
     4
1002
}
  0
ENDBLK
  5
155C
330
1556
100
AcDbEntity
  8
0
 48
10.0
100
AcDbBlockEnd
  0
ENDSEC
  0
SECTION
  2
ENTITIES
  0
MTEXT
  5
479
330
18
100
AcDbEntity
  8
上線
 48
10.0
100
AcDbMText
 10
2253.72144281457
 20
1430.035937614872
 30
0.0
 40
25.0
 41
0.0
 71
     4
 72
     1
  1
\A1;
 73
     1
 44
1.0
  0
MTEXT
  5
482
330
18
100
AcDbEntity
  8
上線
 48
10.0
100
AcDbMText
 10
2528.397580071227
 20
1457.117940756564
 30
0.0
 40
25.0
 41
0.0
 71
     4
 72
     1
  1
\A1;
 73
     1
 44
1.0
  0
LINE
  5
134B
330
18
100
AcDbEntity
  8
基準線
 48
10.0
100
AcDbLine
 10
727.5996649892367
 20
1010.043289130485
 30
0.0
 11
727.5996649892367
 21
688.1308572243433
 31
0.0
  0
LINE
  5
143C
330
18
100
AcDbEntity
  8
基準線
 48
10.0
100
AcDbLine
 10
3191.971055449617
 20
233.8429829975566
 30
0.0
 11
3665.634254548308
 21
233.8429829975566
 31
0.0
  0
LINE
  5
143D
330
18
100
AcDbEntity
  8
基準線
 48
10.0
100
AcDbLine
 10
3665.634254548308
 20
233.8429829975566
 30
0.0
 11
4139.297453646997
 21
233.8429829975566
 31
0.0
  0
LINE
  5
14A4
330
18
100
AcDbEntity
  8
基準線
 48
10.0
100
AcDbLine
 10
812.1951908916816
 20
1185.803872085971
 30
0.0
 11
812.1951908916816
 21
1379.693736427421
 31
0.0
  0
LINE
  5
14A5
330
18
100
AcDbEntity
  8
基準線
 48
10.0
100
AcDbLine
 10
1032.195190891681
 20
1185.803872085971
 30
0.0
 11
1032.195190891681
 21
1379.693736427421
 31
0.0
  0
LINE
  5
14C1
330
18
100
AcDbEntity
  8
基準線
 48
10.0
100
AcDbLine
 10
682.1951908916816
 20
1800.043289130485
 30
0.0
 11
-23.11410122749475
 21
1800.043289130485
 31
0.0
  0
LINE
  5
14CD
330
18
100
AcDbEntity
  8
基準線
 48
10.0
100
AcDbLine
 10
752.1951908916816
 20
1700.043289130485
 30
0.0
 11
-52.19747824804108
 21
1700.043289130485
 31
0.0
  0
LINE
  5
14DB
330
18
100
AcDbEntity
  8
基準線
 48
10.0
100
AcDbLine
 10
1188.445190891681
 20
1770.043289130485
 30
0.0
 11
1188.445190891681
 21
1852.240673559204
 31
0.0
  0
LINE
  5
150B
330
18
100
AcDbEntity
  8
基準線
 48
10.0
100
AcDbLine
 10
1192.195190891681
 20
1000.043289130485
 30
0.0
 11
1192.195190891681
 21
1901.867561902343
 31
0.0
  0
LINE
  5
1554
330
18
100
AcDbEntity
  8
基準線
 48
10.0
100
AcDbLine
 10
2264.536418993173
 20
1400.043289130485
 30
0.0
 11
2264.536418993173
 21
1030.043289130485
 31
0.0
  0
LINE
  5
1555
330
18
100
AcDbEntity
  8
基準線
 48
10.0
100
AcDbLine
 10
2264.536418993173
 20
1215.043289130485
 30
0.0
 11
2344.803557268669
 21
1215.043289130485
 31
0.0
  0
LINE
  5
1562
330
18
100
AcDbEntity
  8
基準線
 48
10.0
100
AcDbLine
 10
2540.536418993173
 20
1400.043289130485
 30
0.0
 11
2816.536418993173
 21
1400.043289130485
 31
0.0
  0
LINE
  5
1784
330
18
100
AcDbEntity
  8
OBJECT
100
AcDbLine
 10
6151.297136701561
 20
-521.3637549911454
 30
0.0
 11
6151.297136701561
 21
-1311.363754991145
 31
0.0
  0
LINE
  5
1785
330
18
100
AcDbEntity
  8
OBJECT
100
AcDbLine
 10
5671.297136701561
 20
-521.3637549911454
 30
0.0
 11
5671.29713670156
 21
-1311.363754991145
 31
0.0
  0
SOLID
  5
1786
330
18
100
AcDbEntity
  8
0
  6
ByBlock
 62
     0
 48
10.0
100
AcDbTrace
 10
5499.047136741097
 20
-1258.863754991195
 30
0.0
 11
5486.547136741098
 21
-1258.863754991195
 31
0.0
 12
5492.797136741095
 22
-1221.363754991195
 32
0.0
 13
5492.797136741095
 23
-1221.363754991195
 33
0.0
  0
MTEXT
  5
1787
330
18
100
AcDbEntity
  8
0
  6
ByBlock
 62
     0
 48
10.0
100
AcDbMText
 10
5462.797152291406
 20
-1271.363754991189
 30
0.0
 40
37.5
 41
0.0
 71
     5
 72
     1
  1
100
 11
0.0000000000000001
 21
1.0
 31
0.0
 73
     1
 44
1.0
  0
LINE
  5
1788
330
18
100
AcDbEntity
  8
OBJECT
 48
10.0
100
AcDbLine
 10
5492.79715426794
 20
-1321.363754991189
 30
0.0
 11
5492.797154267938
 21
-521.3637549911454
 31
0.0
  0
LINE
  5
1789
330
18
100
AcDbEntity
  8
OBJECT
 48
10.0
100
AcDbLine
 10
5342.797145504516
 20
-1321.363754991189
 30
0.0
 11
5342.797145504516
 21
-521.3637549911454
 31
0.0
  0
LINE
  5
1790
330
18
100
AcDbEntity
  8
0
 48
10.0
100
AcDbLine
 10
5642.79714550452
 20
-1321.363754991189
 30
0.0
 11
5312.79714550452
 21
-1321.363754991189
 31
0.0
  0
SOLID
  5
1791
330
18
100
AcDbEntity
  8
0
  6
ByBlock
 62
     0
 48
10.0
100
AcDbTrace
 10
5349.047145504515
 20
-1283.863754991167
 30
0.0
 11
5336.547145504515
 21
-1283.863754991167
 31
0.0
 12
5342.797145504516
 22
-1321.363754991167
 32
0.0
 13
5342.797145504516
 23
-1321.363754991167
 33
0.0
  0
SOLID
  5
1792
330
18
100
AcDbEntity
  8
0
  6
ByBlock
 62
     0
 48
10.0
100
AcDbTrace
 10
5486.547154267941
 20
-1283.863743132035
 30
0.0
 11
5499.047154267941
 21
-1283.863743132035
 31
0.0
 12
5492.797154267941
 22
-1321.363743132035
 32
0.0
 13
5492.797154267941
 23
-1321.363743132035
 33
0.0
  0
LINE
  5
1793
330
18
100
AcDbEntity
  8
OBJECT
100
AcDbLine
 10
5681.29713670156
 20
-1321.363754991145
 30
0.0
 11
6141.29713670156
 21
-1321.363754991145
 31
0.0
  0
LINE
  5
1794
330
18
100
AcDbEntity
  8
上線
100
AcDbLine
 10
5671.29713670156
 20
-1311.363754991145
 30
0.0
 11
5681.29713670156
 21
-1321.363754991145
 31
0.0
  0
LINE
  5
1795
330
18
100
AcDbEntity
  8
上線
100
AcDbLine
 10
6151.297136701561
 20
-1311.363754991145
 30
0.0
 11
6141.29713670156
 21
-1321.363754991145
 31
0.0
  0
TEXT
  5
179D
330
18
100
AcDbEntity
  8
WUWAGAKI
100
AcDbText
 10
8229.79510015725
 20
-1770.22952246219
 30
0.0
 40
47.25
  1
240×600×120/120×4000
100
AcDbText
  0
TEXT
  5
17AA
330
18
100
AcDbEntity
  8
WUWAGAKI
100
AcDbText
 10
8229.79510015725
 20
-1672.214280203207
 30
0.0
 40
45.0
  1
長尺Ｕ字溝（H2-24E）
100
AcDbText
  0
LINE
  5
17B6
330
18
100
AcDbEntity
  8
OBJECT
 48
10.0
100
AcDbLine
 10
6151.297148560725
 20
-342.8637725575244
 30
0.0
 11
6263.797148560726
 21
-342.8637725575244
 31
0.0
  0
LINE
  5
17B7
330
18
100
AcDbEntity
  8
上線
100
AcDbLine
 10
6081.115559335782
 20
-521.3534924825808
 30
0.0
 11
6081.115559335782
 21
-621.3534924825808
 31
0.0
  0
LINE
  5
17B8
330
18
100
AcDbEntity
  8
上線
100
AcDbLine
 10
5741.478775756855
 20
-521.3534924825808
 30
0.0
 11
5741.478775756855
 21
-621.3534924825808
 31
0.0
  0
MTEXT
  5
17B9
330
18
100
AcDbEntity
  8
0
  6
ByBlock
 62
     0
 48
10.0
100
AcDbMText
 10
5462.797154267938
 20
-571.3637549911454
 30
0.0
 40
37.5
 41
0.0
 71
     5
 72
     1
  1
100
 11
0.0000000000000001
 21
1.0
 31
0.0
 73
     1
 44
1.0
  0
SOLID
  5
17BA
330
18
100
AcDbEntity
  8
0
  6
ByBlock
 62
     0
 48
10.0
100
AcDbTrace
 10
5349.047145504517
 20
-558.8637549911677
 30
0.0
 11
5336.547145504517
 21
-558.8637549911677
 31
0.0
 12
5342.797145504516
 22
-521.3637549911677
 32
0.0
 13
5342.797145504516
 23
-521.3637549911677
 33
0.0
  0
SOLID
  5
17BB
330
18
100
AcDbEntity
  8
0
  6
ByBlock
 62
     0
 48
10.0
100
AcDbTrace
 10
5486.547154267942
 20
-558.8637668502783
 30
0.0
 11
5499.047154267941
 21
-558.8637668502783
 31
0.0
 12
5492.797154267941
 22
-521.3637668502783
 32
0.0
 13
5492.797154267941
 23
-521.3637668502783
 33
0.0
  0
LINE
  5
17BC
330
18
100
AcDbEntity
  8
0
 48
10.0
100
AcDbLine
 10
5642.797155599711
 20
-1221.363754991189
 30
0.0
 11
5462.797155599711
 21
-1221.363754991189
 31
0.0
  0
LINE
  5
17BD
330
18
100
AcDbEntity
  8
0
 48
10.0
100
AcDbLine
 10
5642.797155599711
 20
-621.3637549911454
 30
0.0
 11
5462.797155599711
 21
-621.3637549911454
 31
0.0
  0
MTEXT
  5
17BE
330
18
100
AcDbEntity
  8
0
  6
ByBlock
 62
     0
 48
10.0
100
AcDbMText
 10
5312.797145504516
 20
-921.3637549911455
 30
0.0
 40
37.5
 41
0.0
 71
     5
 72
     1
  1
800
 11
0.0000000000000001
 21
1.0
 31
0.0
 73
     1
 44
1.0
  0
MTEXT
  5
17BF
330
18
100
AcDbEntity
  8
0
  6
ByBlock
 62
     0
 48
10.0
100
AcDbMText
 10
5462.79714550452
 20
-921.3637549911455
 30
0.0
 40
37.5
 41
0.0
 71
     5
 72
     1
  1
600
 11
0.0000000000000001
 21
1.0
 31
0.0
 73
     1
 44
1.0
  0
SOLID
  5
17C0
330
18
100
AcDbEntity
  8
0
  6
ByBlock
 62
     0
 48
10.0
100
AcDbTrace
 10
5499.047136741097
 20
-1183.863754991184
 30
0.0
 11
5486.547136741098
 21
-1183.863754991184
 31
0.0
 12
5492.797136741095
 22
-1221.363754991184
 32
0.0
 13
5492.797136741095
 23
-1221.363754991184
 33
0.0
  0
SOLID
  5
17C1
330
18
100
AcDbEntity
  8
0
  6
ByBlock
 62
     0
 48
10.0
100
AcDbTrace
 10
5486.547154267942
 20
-583.8637431320135
 30
0.0
 11
5499.047154267941
 21
-583.8637431320135
 31
0.0
 12
5492.797154267941
 22
-621.3637431320135
 32
0.0
 13
5492.797154267941
 23
-621.3637431320135
 33
0.0
  0
SOLID
  5
17C2
330
18
100
AcDbEntity
  8
0
  6
ByBlock
 62
     0
 48
10.0
100
AcDbTrace
 10
5499.047145504516
 20
-658.8636498301006
 30
0.0
 11
5486.54714550452
 21
-658.8636498301006
 31
0.0
 12
5492.797145504517
 22
-621.3636498301006
 32
0.0
 13
5492.797145504517
 23
-621.3636498301006
 33
0.0
  0
LINE
  5
17C3
330
18
100
AcDbEntity
  8
上線
 48
10.0
100
AcDbLine
 10
5791.478775756854
 20
-621.3534924825808
 30
0.0
 11
5796.191070467958
 21
-1172.067705321728
 31
0.0
  0
LINE
  5
17C4
330
18
100
AcDbEntity
  8
上線
 48
10.0
100
AcDbLine
 10
5781.478775756855
 20
-621.3534924825808
 30
0.0
 11
5786.192090719964
 21
-1172.210547889558
 31
0.0
  0
LINE
  5
17C5
330
18
100
AcDbEntity
  8
上線
 48
10.0
100
AcDbLine
 10
6031.115559335782
 20
-621.3534924825808
 30
0.0
 11
6026.766481045751
 21
-1172.067705321728
 31
0.0
  0
LINE
  5
17C6
330
18
100
AcDbEntity
  8
上線
 48
10.0
100
AcDbLine
 10
6041.115559335782
 20
-621.3534924825808
 30
0.0
 11
6036.765460793746
 21
-1172.210547889558
 31
0.0
  0
LINE
  5
17C7
330
18
100
AcDbEntity
  8
上線
100
AcDbLine
 10
5846.185969207934
 20
-1221.35349248258
 30
0.0
 11
5976.771582305776
 21
-1221.35349248258
 31
0.0
  0
LINE
  5
17C8
330
18
100
AcDbEntity
  8
上線
 48
10.0
100
AcDbLine
 10
5976.771582305776
 20
-1231.35349248258
 30
0.0
 11
5846.185969207934
 21
-1231.35349248258
 31
0.0
  0
MTEXT
  5
17C9
330
18
100
AcDbEntity
  8
0
  6
ByBlock
 62
     0
 48
10.0
100
AcDbMText
 10
5924.658269107743
 20
-1131.356869359253
 30
0.0
 40
30.0
 41
0.0
 71
     5
 72
     1
  1
50R
 73
     1
 44
1.0
  0
LINE
  5
17CA
330
18
100
AcDbEntity
  8
OBJECT
 48
10.0
100
AcDbLine
 10
5872.158269107742
 20
-1161.356869359253
 30
0.0
 11
5977.158269107743
 21
-1161.356869359253
 31
0.0
  0
SOLID
  5
17CB
330
18
100
AcDbEntity
  8
0
  6
ByBlock
 62
     0
 48
10.0
100
AcDbTrace
 10
5837.487791656274
 20
-1179.504709552057
 30
0.0
 11
5844.879161655555
 21
-1189.585267549197
 31
0.0
 12
5810.941802664498
 22
-1206.719098548482
 32
0.0
 13
5810.941802664498
 23
-1206.719098548482
 33
0.0
  0
LINE
  5
17CC
330
18
100
AcDbEntity
  8
WUWAGAKI
 48
10.0
100
AcDbLine
 10
5826.006534319063
 20
-1195.555928739865
 30
0.0
 11
5872.158269107742
 21
-1161.356869359253
 31
0.0
210
0.0
220
0.0
230
-1.0
1001
ACAD
1000
DSTYLE
1002
{
1070
    78
1070
     8
1070
   270
1070
     8
1070
   140
1040
2.5
1070
    74
1070
     0
1070
   172
1070
     1
1070
    73
1070
     0
1070
    77
1070
     1
1070
    40
1040
10.0
1070
   147
1040
0.625
1070
    42
1040
0.625
1070
    44
1040
1.25
1070
    43
1040
3.75
1070
   141
1040
2.5
1070
    41
1040
2.5
1070
   273
1070
     8
1070
   274
1070
     4
1070
   143
1040
0.0394
1070
   171
1070
     4
1002
}
  0
ARC
  5
17CD
330
18
100
AcDbEntity
  8
上線
100
AcDbCircle
 10
5846.185969207934
 20
-1171.35349248258
 30
0.0
 40
60.0
100
AcDbArc
 50
180.8184554616945
 51
270.0
  0
ARC
  5
17CE
330
18
100
AcDbEntity
  8
上線
100
AcDbCircle
 10
5846.185969207934
 20
-1171.35349248258
 30
0.0
 40
50.0
100
AcDbArc
 50
180.8184554616945
 51
270.0
  0
ARC
  5
17CF
330
18
100
AcDbEntity
  8
上線
100
AcDbCircle
 10
5976.771582305776
 20
-1171.35349248258
 30
0.0
 40
60.0
100
AcDbArc
 50
270.0
 51
359.1815445383053
  0
ARC
  5
17D0
330
18
100
AcDbEntity
  8
上線
100
AcDbCircle
 10
5976.771582305776
 20
-1171.35349248258
 30
0.0
 40
50.0
100
AcDbArc
 50
270.0
 51
359.1815445383053
  0
MTEXT
  5
17D1
330
18
100
AcDbEntity
  8
0
  6
ByBlock
 62
     0
 48
10.0
100
AcDbMText
 10
5911.29716754634
 20
-657.3637594891525
 30
0.0
 40
37.5
 41
0.0
 71
     5
 72
     1
  1
230
 73
     1
 44
1.0
  0
LINE
  5
17D2
330
18
100
AcDbEntity
  8
OBJECT
 48
10.0
100
AcDbLine
 10
5796.297167546296
 20
-687.3637682525723
 30
0.0
 11
6026.29716754634
 21
-687.3637682525704
 31
0.0
  0
SOLID
  5
17D3
330
18
100
AcDbEntity
  8
0
  6
ByBlock
 62
     0
 48
10.0
100
AcDbTrace
 10
5833.797167546304
 20
-693.6137507257299
 30
0.0
 11
5833.797167546304
 21
-681.1137507257317
 31
0.0
 12
5796.297167546304
 22
-687.3637507257281
 32
0.0
 13
5796.297167546304
 23
-687.3637507257281
 33
0.0
  0
LINE
  5
17D4
330
18
100
AcDbEntity
  8
0
 48
10.0
100
AcDbLine
 10
5796.297167546296
 20
-777.3637695843453
 30
0.0
 11
5796.297167546296
 21
-657.3637695843453
 31
0.0
  0
LINE
  5
17D5
330
18
100
AcDbEntity
  8
上線
100
AcDbLine
 10
5741.478775756855
 20
-621.3534924825808
 30
0.0
 11
5791.478775756854
 21
-621.3534924825808
 31
0.0
  0
SOLID
  5
17D6
330
18
100
AcDbEntity
  8
0
  6
ByBlock
 62
     0
 48
10.0
100
AcDbTrace
 10
5988.797272707386
 20
-693.6137594891506
 30
0.0
 11
5988.797272707386
 21
-681.1137594891524
 31
0.0
 12
6026.297272707386
 22
-687.3637594891488
 32
0.0
 13
6026.297272707386
 23
-687.3637594891488
 33
0.0
  0
LINE
  5
17D7
330
18
100
AcDbEntity
  8
0
 48
10.0
100
AcDbLine
 10
6026.29716754634
 20
-777.3637695843453
 30
0.0
 11
6026.29716754634
 21
-657.3637695843453
 31
0.0
  0
LINE
  5
17D8
330
18
100
AcDbEntity
  8
上線
100
AcDbLine
 10
6081.115559335782
 20
-621.3534924825808
 30
0.0
 11
6031.115559335782
 21
-621.3534924825808
 31
0.0
  0
LINE
  5
17D9
330
18
100
AcDbEntity
  8
OBJECT
 48
10.0
100
AcDbLine
 10
5671.297124842418
 20
-342.8637725575244
 30
0.0
 11
5558.797124842417
 21
-342.8637725575244
 31
0.0
  0
LINE
  5
17DA
330
18
100
AcDbEntity
  8
0
 48
10.0
100
AcDbLine
 10
5642.797145504516
 20
-521.3637549911454
 30
0.0
 11
5312.797145504516
 21
-521.3637549911454
 31
0.0
  0
LINE
  5
17DB
330
18
100
AcDbEntity
  8
0
 48
10.0
100
AcDbLine
 10
6151.297136701593
 20
-492.863763794101
 30
0.0
 11
6151.297136701593
 21
-162.863763794101
 31
0.0
  0
LINE
  5
17DC
330
18
100
AcDbEntity
  8
0
 48
10.0
100
AcDbLine
 10
5671.29713670155
 20
-492.8637637941046
 30
0.0
 11
5671.29713670155
 21
-162.8637637941046
 31
0.0
  0
LINE
  5
17DD
330
18
100
AcDbEntity
  8
OBJECT
 48
10.0
100
AcDbLine
 10
5671.29713670155
 20
-342.8637725575244
 30
0.0
 11
6151.297136701593
 21
-342.8637725575226
 31
0.0
  0
MTEXT
  5
17DE
330
18
100
AcDbEntity
  8
0
  6
ByBlock
 62
     0
 48
10.0
100
AcDbMText
 10
5911.297136701594
 20
-312.8637637941046
 30
0.0
 40
37.5
 41
0.0
 71
     5
 72
     1
  1
240
 73
     1
 44
1.0
  0
LINE
  5
17DF
330
18
100
AcDbEntity
  8
0
 48
10.0
100
AcDbLine
 10
5791.29713670155
 20
-492.8637738892957
 30
0.0
 11
5791.29713670155
 21
-312.8637738892957
 31
0.0
  0
LINE
  5
17E0
330
18
100
AcDbEntity
  8
0
 48
10.0
100
AcDbLine
 10
5741.297129988454
 20
-492.8637798528593
 30
0.0
 11
5741.297129988454
 21
-312.8637798528593
 31
0.0
  0
LINE
  5
17E1
330
18
100
AcDbEntity
  8
上線
100
AcDbLine
 10
5741.297136701561
 20
-521.3637549911454
 30
0.0
 11
5671.297136701561
 21
-521.3637549911454
 31
0.0
  0
LWPOLYLINE
  5
17E2
330
18
100
AcDbEntity
  8
上書線
100
AcDbPolyline
 90
        2
 70
     1
 43
3.75
 10
5739.422129988454
 20
-342.8637725575244
 42
1.0
 10
5743.172129988455
 20
-342.8637725575244
 42
1.0
  0
MTEXT
  5
17E3
330
18
100
AcDbEntity
  8
0
  6
ByBlock
 62
     0
 48
10.0
100
AcDbMText
 10
5766.29713670155
 20
-282.8637725575226
 30
0.0
 40
37.5
 41
0.0
 71
     5
 72
     1
  1
50
 73
     1
 44
1.0
  0
MTEXT
  5
17E4
330
18
100
AcDbEntity
  8
0
  6
ByBlock
 62
     0
 48
10.0
100
AcDbMText
 10
5706.29713670155
 20
-312.8637705809905
 30
0.0
 40
37.5
 41
0.0
 71
     5
 72
     1
  1
70
 73
     1
 44
1.0
  0
SOLID
  5
17E5
330
18
100
AcDbEntity
  8
0
  6
ByBlock
 62
     0
 48
10.0
100
AcDbTrace
 10
5633.797112983263
 20
-336.6137725575281
 30
0.0
 11
5633.797112983263
 21
-349.1137725575281
 31
0.0
 12
5671.297112983263
 22
-342.8637725575281
 32
0.0
 13
5671.297112983263
 23
-342.8637725575281
 33
0.0
  0
SOLID
  5
17E6
330
18
100
AcDbEntity
  8
0
  6
ByBlock
 62
     0
 48
10.0
100
AcDbTrace
 10
5828.797136701555
 20
-349.1137550306812
 30
0.0
 11
5828.797136701555
 21
-336.613755030683
 31
0.0
 12
5791.297136701555
 22
-342.8637550306794
 32
0.0
 13
5791.297136701555
 23
-342.8637550306794
 33
0.0
  0
LINE
  5
17E7
330
18
100
AcDbEntity
  8
0
 48
10.0
100
AcDbLine
 10
6031.297136701593
 20
-492.8637738892957
 30
0.0
 11
6031.297136701593
 21
-312.8637738892957
 31
0.0
  0
LINE
  5
17E8
330
18
100
AcDbEntity
  8
0
 48
10.0
100
AcDbLine
 10
6081.297143414689
 20
-492.8637798528593
 30
0.0
 11
6081.297143414689
 21
-312.8637798528593
 31
0.0
  0
LINE
  5
17E9
330
18
100
AcDbEntity
  8
上線
100
AcDbLine
 10
6081.297136701561
 20
-521.3637549911454
 30
0.0
 11
6151.297136701561
 21
-521.3637549911454
 31
0.0
  0
MTEXT
  5
17EA
330
18
100
AcDbEntity
  8
0
  6
ByBlock
 62
     0
 48
10.0
100
AcDbMText
 10
6056.297136701593
 20
-282.8637725575226
 30
0.0
 40
37.5
 41
0.0
 71
     5
 72
     1
  1
50
 73
     1
 44
1.0
  0
SOLID
  5
17EB
330
18
100
AcDbEntity
  8
0
  6
ByBlock
 62
     0
 48
10.0
100
AcDbTrace
 10
5993.797241862639
 20
-349.113763794101
 30
0.0
 11
5993.797241862639
 21
-336.6137637941046
 31
0.0
 12
6031.297241862638
 22
-342.863763794101
 32
0.0
 13
6031.297241862638
 23
-342.863763794101
 33
0.0
  0
LWPOLYLINE
  5
17EC
330
18
100
AcDbEntity
  8
上書線
100
AcDbPolyline
 90
        2
 70
     1
 43
3.75
 10
6083.172143414689
 20
-342.8637725575244
 42
-1.0
 10
6079.422143414689
 20
-342.8637725575244
 42
-1.0
  0
MTEXT
  5
17ED
330
18
100
AcDbEntity
  8
0
  6
ByBlock
 62
     0
 48
10.0
100
AcDbMText
 10
6116.297136701593
 20
-312.8637725575226
 30
0.0
 40
37.5
 41
0.0
 71
     5
 72
     1
  1
70
 73
     1
 44
1.0
  0
SOLID
  5
17EE
330
18
100
AcDbEntity
  8
0
  6
ByBlock
 62
     0
 48
10.0
100
AcDbTrace
 10
6188.797160419881
 20
-336.6137725575281
 30
0.0
 11
6188.797160419881
 21
-349.1137725575281
 31
0.0
 12
6151.29716041988
 22
-342.8637725575281
 32
0.0
 13
6151.29716041988
 23
-342.8637725575281
 33
0.0
  0
MTEXT
  5
17EF
330
18
100
AcDbEntity
  8
0
  6
ByBlock
 62
     0
 48
10.0
100
AcDbMText
 10
5911.297136701594
 20
-162.863763794101
 30
0.0
 40
37.5
 41
0.0
 71
     5
 72
     1
  1
480
 73
     1
 44
1.0
  0
LINE
  5
17F0
330
18
100
AcDbEntity
  8
OBJECT
 48
10.0
100
AcDbLine
 10
5671.29713670155
 20
-192.863763794101
 30
0.0
 11
6151.297136701593
 21
-192.863763794101
 31
0.0
  0
SOLID
  5
17F1
330
18
100
AcDbEntity
  8
0
  6
ByBlock
 62
     0
 48
10.0
100
AcDbTrace
 10
5708.797136701572
 20
-199.113763794101
 30
0.0
 11
5708.797136701572
 21
-186.613763794101
 31
0.0
 12
5671.297136701571
 22
-192.863763794101
 32
0.0
 13
5671.297136701571
 23
-192.863763794101
 33
0.0
  0
SOLID
  5
17F2
330
18
100
AcDbEntity
  8
0
  6
ByBlock
 62
     0
 48
10.0
100
AcDbTrace
 10
6113.797136701571
 20
-199.113763794101
 30
0.0
 11
6113.797136701571
 21
-186.613763794101
 31
0.0
 12
6151.297136701572
 22
-192.863763794101
 32
0.0
 13
6151.297136701572
 23
-192.863763794101
 33
0.0
  0
LINE
  5
1893
330
18
100
AcDbEntity
  8
WUWAGAKI
100
AcDbLine
 10
9111.978216497123
 20
-2089.870686350898
 30
0.0
 11
9111.978216497123
 21
836.2791654452248
 31
0.0
  0
LINE
  5
1894
330
18
100
AcDbEntity
  8
OBJECT
100
AcDbLine
 10
8526.297105856814
 20
-521.3637549911459
 30
0.0
 11
8526.297105856814
 21
-1321.363754991143
 31
0.0
  0
LINE
  5
1897
330
18
100
AcDbEntity
  8
WUWAGAKI
100
AcDbLine
 10
4841.259297870204
 20
836.2791654452248
 30
0.0
 11
4841.259297870204
 21
-2089.870686350898
 31
0.0
  0
LINE
  5
18A0
330
18
100
AcDbEntity
  8
OBJECT
100
AcDbLine
 10
6526.297105856814
 20
-521.3637549911454
 30
0.0
 11
6526.297105856814
 21
-1321.363754991146
 31
0.0
  0
LINE
  5
18A1
330
18
100
AcDbEntity
  8
WUWAGAKI
100
AcDbLine
 10
4841.259297870204
 20
-2089.870686350898
 30
0.0
 11
9111.978216497123
 21
-2089.870686350898
 31
0.0
  0
LINE
  5
18A2
330
18
100
AcDbEntity
  8
点線
 48
3.0
100
AcDbLine
 10
8526.297105856814
 20
-1221.363754991145
 30
0.0
 11
6526.297105856814
 21
-1221.363754991145
 31
0.0
  0
LINE
  5
18A3
330
18
100
AcDbEntity
  8
上線
 48
10.0
100
AcDbLine
 10
6526.297105856814
 20
-1321.363754991146
 30
0.0
 11
8526.297105856814
 21
-1321.363754991143
 31
0.0
  0
LINE
  5
18A4
330
18
100
AcDbEntity
  8
上線
 48
10.0
100
AcDbLine
 10
6526.297105856814
 20
-1311.363754991145
 30
0.0
 11
8526.297105856814
 21
-1311.363754991145
 31
0.0
  0
LINE
  5
18BB
330
18
100
AcDbEntity
  8
WUWAGAKI
100
AcDbLine
 10
9045.475203689166
 20
-2021.371151909096
 30
0.0
 11
9045.475203689166
 21
-1601.390719279526
 31
0.0
  0
LINE
  5
18BC
330
18
100
AcDbEntity
  8
WUWAGAKI
100
AcDbLine
 10
8204.79510015725
 20
-1601.390719279526
 30
0.0
 11
8204.79510015725
 21
-1890.342456353884
 31
0.0
  0
TEXT
  5
18BE
330
18
100
AcDbEntity
  8
WUWAGAKI
100
AcDbText
 10
8000.212284237443
 20
-1669.635120007148
 30
0.0
 40
45.0
  1
種　別
100
AcDbText
  0
LINE
  5
18BF
330
18
100
AcDbEntity
  8
WUWAGAKI
100
AcDbLine
 10
7952.678628588742
 20
-1601.390719279526
 30
0.0
 11
7952.678628588742
 21
-2021.371151909096
 31
0.0
  0
LINE
  5
18C0
330
18
100
AcDbEntity
  8
WUWAGAKI
100
AcDbLine
 10
7952.678628588742
 20
-1890.342456353884
 30
0.0
 11
9045.475203689163
 21
-1890.342456353884
 31
0.0
  0
LINE
  5
18C1
330
18
100
AcDbEntity
  8
WUWAGAKI
100
AcDbLine
 10
7952.678628588742
 20
-2021.371151909096
 30
0.0
 11
9045.475203689166
 21
-2021.371151909096
 31
0.0
  0
TEXT
  5
18C2
330
18
100
AcDbEntity
  8
WUWAGAKI
100
AcDbText
 10
8823.193013103479
 20
-1867.858945571176
 30
0.0
 40
45.0
  1
 990㎏
100
AcDbText
  0
LINE
  5
18C4
330
18
100
AcDbEntity
  8
WUWAGAKI
100
AcDbLine
 10
7952.678628588742
 20
-1695.921007224663
 30
0.0
 11
9042.843381353403
 21
-1695.921007224663
 31
0.0
  0
LINE
  5
18C5
330
18
100
AcDbEntity
  8
WUWAGAKI
100
AcDbLine
 10
7952.678628588742
 20
-1791.827392189278
 30
0.0
 11
9045.475203689163
 21
-1791.827392189278
 31
0.0
  0
LINE
  5
18C6
330
18
100
AcDbEntity
  8
WUWAGAKI
100
AcDbLine
 10
7952.678628588742
 20
-1695.921007224663
 30
0.0
 11
9042.843381353403
 21
-1695.921007224663
 31
0.0
  0
TEXT
  5
18C7
330
18
100
AcDbEntity
  8
WUWAGAKI
100
AcDbText
 10
7997.557072351023
 20
-1770.77396004413
 30
0.0
 40
45.0
  1
寸　法
100
AcDbText
  0
TEXT
  5
18C8
330
18
100
AcDbEntity
  8
WUWAGAKI
100
AcDbText
 10
8025.204830112103
 20
-1867.271913035611
 30
0.0
 40
45.0
  1
縮尺
100
AcDbText
  0
TEXT
  5
18C9
330
18
100
AcDbEntity
  8
WUWAGAKI
100
AcDbText
 10
8191.384061488218
 20
-1989.76358510271
 30
0.0
 40
60.0
  1
㈱　ウ　チ　コ　ン
100
AcDbText
  0
TEXT
  5
18CA
330
18
100
AcDbEntity
  8
WUWAGAKI
100
AcDbText
 10
8270.487372902799
 20
-1865.969997606154
 30
0.0
 40
45.0
  1
S＝　1：15
100
AcDbText
  0
TEXT
  5
18CB
330
18
100
AcDbEntity
  8
WUWAGAKI
100
AcDbText
 10
8625.892362093306
 20
-1865.920560094613
 30
0.0
 40
45.0
  1
重量
100
AcDbText
  0
LINE
  5
18CC
330
18
100
AcDbEntity
  8
WUWAGAKI
100
AcDbLine
 10
8598.964586341159
 20
-1791.827392189278
 30
0.0
 11
8598.964586341159
 21
-1890.342456353884
 31
0.0
  0
LINE
  5
18CD
330
18
100
AcDbEntity
  8
WUWAGAKI
100
AcDbLine
 10
8783.193013103476
 20
-1791.827392189278
 30
0.0
 11
8783.193013103476
 21
-1890.342456353884
 31
0.0
  0
LINE
  5
18CE
330
18
100
AcDbEntity
  8
WUWAGAKI
100
AcDbLine
 10
7952.678628588742
 20
-1601.390719279526
 30
0.0
 11
9045.475203689166
 21
-1601.390719279526
 31
0.0
  0
LINE
  5
18CF
330
18
100
AcDbEntity
  8
上線
100
AcDbLine
 10
7395.789998020372
 20
365.7456797802264
 30
0.0
 11
7656.804213693257
 21
365.7456797802264
 31
0.0
  0
LINE
  5
18D0
330
18
100
AcDbEntity
  8
上線
100
AcDbLine
 10
7656.804213693257
 20
465.4500625262325
 30
0.0
 11
7395.789998020372
 21
465.4500625262325
 31
0.0
  0
LINE
  5
18D1
330
18
100
AcDbEntity
  8
上線
100
AcDbLine
 10
7398.789998020372
 20
368.7456797802265
 30
0.0
 11
7653.804213693256
 21
368.7456797802265
 31
0.0
  0
LINE
  5
18D2
330
18
100
AcDbEntity
  8
上線
100
AcDbLine
 10
7653.804213693256
 20
462.4500625262321
 30
0.0
 11
7398.789998020372
 21
462.4500625262321
 31
0.0
  0
LINE
  5
18D3
330
18
100
AcDbEntity
  8
上線
 48
10.0
100
AcDbLine
 10
6526.297105856814
 20
-521.3637549911454
 30
0.0
 11
8526.297105856814
 21
-521.3637549911459
 31
0.0
  0
LINE
  5
18D4
330
18
100
AcDbEntity
  8
点線
 48
3.0
100
AcDbLine
 10
8526.297105856814
 20
-621.3637575832881
 30
0.0
 11
6526.297105856814
 21
-621.3637575832881
 31
0.0
  0
LINE
  5
18D5
330
18
100
AcDbEntity
  8
WUWAGAKI
100
AcDbLine
 10
9111.978216497123
 20
836.2791654452248
 30
0.0
 11
4841.259297870204
 21
836.2791654452248
 31
0.0
  0
LINE
  5
18D6
330
18
100
AcDbEntity
  8
OBJECT
 48
10.0
100
AcDbLine
 10
8526.297105856814
 20
-191.3637637545671
 30
0.0
 11
6526.297105856814
 21
-191.3637637545653
 31
0.0
  0
MTEXT
  5
18D7
330
18
100
AcDbEntity
  8
上線
 48
10.0
100
AcDbMText
 10
7419.84486744545
 20
447.8917317915188
 30
0.0
 40
50.0
 41
558.2059
 71
     1
 72
     5
  1
\fＭＳ Ｐ明朝|b0|i0|c128|p18;側面図
 73
     1
 44
1.0
  0
LINE
  5
18FF
330
18
100
AcDbEntity
  8
0
 48
10.0
100
AcDbLine
 10
6526.297105856814
 20
-491.3637549911454
 30
0.0
 11
6526.297105856814
 21
-161.3637549911454
 31
0.0
  0
SOLID
  5
1909
330
18
100
AcDbEntity
  8
0
  6
ByBlock
 62
     0
 48
10.0
100
AcDbTrace
 10
6563.797105856837
 20
-197.6137549911436
 30
0.0
 11
6563.797105856837
 21
-185.1137549911427
 31
0.0
 12
6526.297105856837
 22
-191.3637549911418
 32
0.0
 13
6526.297105856837
 23
-191.3637549911418
 33
0.0
  0
LINE
  5
190A
330
18
100
AcDbEntity
  8
上線
100
AcDbLine
 10
6039.052351831637
 20
368.745679780226
 30
0.0
 11
6039.052351831637
 21
462.4500625262316
 31
0.0
  0
LINE
  5
190B
330
18
100
AcDbEntity
  8
上線
100
AcDbLine
 10
6042.052351831637
 20
365.745679780226
 30
0.0
 11
6042.052351831637
 21
465.4500625262321
 31
0.0
  0
LINE
  5
190C
330
18
100
AcDbEntity
  8
上線
100
AcDbLine
 10
5783.541921571506
 20
462.4500625262316
 30
0.0
 11
5783.541921571506
 21
368.745679780226
 31
0.0
  0
LINE
  5
190D
330
18
100
AcDbEntity
  8
上線
100
AcDbLine
 10
5780.541921571506
 20
465.4500625262321
 30
0.0
 11
5780.541921571506
 21
365.745679780226
 31
0.0
  0
LINE
  5
190E
330
18
100
AcDbEntity
  8
上線
100
AcDbLine
 10
5783.541921571506
 20
368.745679780226
 30
0.0
 11
6039.052351831637
 21
368.745679780226
 31
0.0
  0
LINE
  5
190F
330
18
100
AcDbEntity
  8
上線
100
AcDbLine
 10
5780.541921571506
 20
365.745679780226
 30
0.0
 11
6042.052351831637
 21
365.745679780226
 31
0.0
  0
MTEXT
  5
1910
330
18
100
AcDbEntity
  8
上線
 48
10.0
100
AcDbMText
 10
5804.596790996583
 20
447.8917317915183
 30
0.0
 40
50.0
 41
558.2059
 71
     1
 72
     5
  1
\fＭＳ Ｐ明朝|b0|i0|c128|p18;正面図
 73
     1
 44
1.0
  0
LINE
  5
1911
330
18
100
AcDbEntity
  8
上線
100
AcDbLine
 10
6039.052351831637
 20
462.4500625262316
 30
0.0
 11
5783.541921571506
 21
462.4500625262316
 31
0.0
  0
LINE
  5
1912
330
18
100
AcDbEntity
  8
上線
100
AcDbLine
 10
6042.052351831637
 20
465.4500625262321
 30
0.0
 11
5780.541921571506
 21
465.4500625262321
 31
0.0
  0
LINE
  5
1913
330
18
100
AcDbEntity
  8
上線
100
AcDbLine
 10
7395.789998020372
 20
465.4500625262325
 30
0.0
 11
7395.789998020372
 21
365.7456797802264
 31
0.0
  0
LINE
  5
1914
330
18
100
AcDbEntity
  8
上線
100
AcDbLine
 10
7398.789998020372
 20
462.4500625262321
 30
0.0
 11
7398.789998020372
 21
368.7456797802265
 31
0.0
  0
LINE
  5
1915
330
18
100
AcDbEntity
  8
0
 48
10.0
100
AcDbLine
 10
8526.297105856814
 20
-491.3637549911454
 30
0.0
 11
8526.297105856814
 21
-161.3637549911454
 31
0.0
  0
MTEXT
  5
1916
330
18
100
AcDbEntity
  8
0
  6
ByBlock
 62
     0
 48
10.0
100
AcDbMText
 10
7526.297105856814
 20
-161.3637549911445
 30
0.0
 40
37.5
 41
0.0
 71
     5
 72
     1
  1
2000
 73
     1
 44
1.0
  0
SOLID
  5
1917
330
18
100
AcDbEntity
  8
0
  6
ByBlock
 62
     0
 48
10.0
100
AcDbTrace
 10
8488.797105856793
 20
-197.6137549911436
 30
0.0
 11
8488.797105856793
 21
-185.1137549911427
 31
0.0
 12
8526.297105856793
 22
-191.3637549911418
 32
0.0
 13
8526.297105856793
 23
-191.3637549911418
 33
0.0
  0
LINE
  5
1918
330
18
100
AcDbEntity
  8
上線
100
AcDbLine
 10
7656.804213693257
 20
365.7456797802264
 30
0.0
 11
7656.804213693257
 21
465.4500625262325
 31
0.0
  0
LINE
  5
1919
330
18
100
AcDbEntity
  8
上線
100
AcDbLine
 10
7653.804213693257
 20
368.7456797802265
 30
0.0
 11
7653.804213693257
 21
462.4500625262321
 31
0.0
  0
ENDSEC
  0
SECTION
  2
OBJECTS
  0
DICTIONARY
  5
C
330
0
100
AcDbDictionary
281
     1
  3
ACAD_GROUP
350
D
  3
ACAD_LAYOUT
350
1578
  3
ACAD_MLINESTYLE
350
1B
  3
ACAD_PLOTSETTINGS
350
1579
  3
ACAD_PLOTSTYLENAME
350
1576
  0
DICTIONARY
  5
D
102
{ACAD_REACTORS
330
C
102
}
330
C
100
AcDbDictionary
281
     1
  0
DICTIONARY
  5
1578
102
{ACAD_REACTORS
330
C
102
}
330
C
100
AcDbDictionary
281
     1
  3
Model
350
157A
  3
ﾚｲｱｳﾄ1
350
157B
  0
DICTIONARY
  5
1B
102
{ACAD_REACTORS
330
C
102
}
330
C
100
AcDbDictionary
281
     1
  3
STANDARD
350
1C
  0
DICTIONARY
  5
1579
102
{ACAD_REACTORS
330
C
102
}
330
C
100
AcDbDictionary
281
     1
  0
ACDBDICTIONARYWDFLT
  5
1576
102
{ACAD_REACTORS
330
C
102
}
330
C
100
AcDbDictionary
281
     1
  3
Normal
350
1577
100
AcDbDictionaryWithDefault
340
1577
  0
LAYOUT
  5
157A
102
{ACAD_REACTORS
330
1578
102
}
330
1578
100
AcDbPlotSettings
  1

  2
Canon LBP3800 LIPSLX
  4
A4
  6

 40
5.873749732971191
 41
5.873747825622558
 42
5.873748779296875
 43
5.873748779296875
 44
209.9733276367187
 45
296.9259948730469
 46
0.0
 47
0.0
 48
0.0
 49
0.0
140
0.0
141
0.0
142
1.0
143
1.0
 70
 11952
 72
     1
 73
     1
 74
     0
  7

 75
     0
147
1.0
148
-548.6641264026286
149
-794.7408951640727
100
AcDbLayout
  1
Model
 70
     1
 71
     0
 10
0.0
 20
0.0
 11
12.0
 21
9.0
 12
0.0
 22
0.0
 32
0.0
 14
0.0
 24
0.0
 34
0.0
 15
0.0
 25
0.0
 35
0.0
146
0.0
 13
0.0
 23
0.0
 33
0.0
 16
1.0
 26
0.0
 36
0.0
 17
0.0
 27
1.0
 37
0.0
 76
     0
330
18
  0
LAYOUT
  5
157B
102
{ACAD_REACTORS
330
1578
102
}
330
1578
100
AcDbPlotSettings
  1

  2
Canon LBP3800 LIPSLX
  4

  6

 40
0.0
 41
0.0
 42
0.0
 43
0.0
 44
0.0
 45
0.0
 46
0.0
 47
0.0
 48
0.0
 49
0.0
140
0.0
141
0.0
142
1.0
143
1.0
 70
   688
 72
     0
 73
     0
 74
     5
  7

 75
    16
147
1.0
148
0.0
149
0.0
100
AcDbLayout
  1
ﾚｲｱｳﾄ1
 70
     1
 71
     1
 10
0.0
 20
0.0
 11
420.0
 21
297.0
 12
0.0
 22
0.0
 32
0.0
 14
1.000000000000000E+20
 24
1.000000000000000E+20
 34
1.000000000000000E+20
 15
-1.000000000000000E+20
 25
-1.000000000000000E+20
 35
-1.000000000000000E+20
146
0.0
 13
0.0
 23
0.0
 33
0.0
 16
1.0
 26
0.0
 36
0.0
 17
0.0
 27
1.0
 37
0.0
 76
     0
330
15
  0
MLINESTYLE
  5
1C
102
{ACAD_REACTORS
330
1B
102
}
330
1B
100
AcDbMlineStyle
  2
STANDARD
 70
     0
  3

 62
   256
 51
90.0
 52
90.0
 71
     2
 49
0.5
 62
   256
  6
BYLAYER
 49
-0.5
 62
   256
  6
BYLAYER
  0
ACDBPLACEHOLDER
  5
1577
102
{ACAD_REACTORS
330
1576
102
}
330
1576
  0
ENDSEC
  0
EOF
