  0
SECTION
  2
HEADER
  9
$ACADVER
  1
AC1015
  9
$ACADMAINTVER
 70
     6
  9
$DWGCODEPAGE
  3
ANSI_932
  9
$INSBASE
 10
0.0
 20
0.0
 30
0.0
  9
$EXTMIN
 10
239.7956909450949
 20
233.8429829975566
 30
-0.00000001
  9
$EXTMAX
 10
8955.600135938164
 20
4207.774255871014
 30
0.00000001
  9
$LIMMIN
 10
0.0
 20
0.0
  9
$LIMMAX
 10
4200.0
 20
2970.0
  9
$ORTHOMODE
 70
     0
  9
$REGENMODE
 70
     1
  9
$FILLMODE
 70
     1
  9
$QTEXTMODE
 70
     0
  9
$MIRRTEXT
 70
     1
  9
$LTSCALE
 40
1.0
  9
$ATTMODE
 70
     1
  9
$TEXTSIZE
 40
2.5
  9
$TRACEWID
 40
1.0
  9
$TEXTSTYLE
  7
STANDARD
  9
$CLAYER
  8
OBJECT
  9
$CELTYPE
  6
BYLAYER
  9
$CECOLOR
 62
   256
  9
$CELTSCALE
 40
10.0
  9
$DISPSILH
 70
     0
  9
$DIMSCALE
 40
15.0
  9
$DIMASZ
 40
2.5
  9
$DIMEXO
 40
0.625
  9
$DIMDLI
 40
3.75
  9
$DIMRND
 40
0.0
  9
$DIMDLE
 40
0.0
  9
$DIMEXE
 40
1.25
  9
$DIMTP
 40
0.0
  9
$DIMTM
 40
0.0
  9
$DIMTXT
 40
2.5
  9
$DIMCEN
 40
2.5
  9
$DIMTSZ
 40
0.0
  9
$DIMTOL
 70
     0
  9
$DIMLIM
 70
     0
  9
$DIMTIH
 70
     0
  9
$DIMTOH
 70
     0
  9
$DIMSE1
 70
     0
  9
$DIMSE2
 70
     0
  9
$DIMTAD
 70
     1
  9
$DIMZIN
 70
     8
  9
$DIMBLK
  1

  9
$DIMASO
 70
     1
  9
$DIMSHO
 70
     1
  9
$DIMPOST
  1

  9
$DIMAPOST
  1

  9
$DIMALT
 70
     0
  9
$DIMALTD
 70
     4
  9
$DIMALTF
 40
0.0394
  9
$DIMLFAC
 40
1.0
  9
$DIMTOFL
 70
     1
  9
$DIMTVP
 40
0.0
  9
$DIMTIX
 70
     0
  9
$DIMSOXD
 70
     0
  9
$DIMSAH
 70
     0
  9
$DIMBLK1
  1

  9
$DIMBLK2
  1

  9
$DIMSTYLE
  2
STANDARD
  9
$DIMCLRD
 70
     0
  9
$DIMCLRE
 70
     0
  9
$DIMCLRT
 70
     0
  9
$DIMTFAC
 40
1.0
  9
$DIMGAP
 40
0.625
  9
$DIMJUST
 70
     0
  9
$DIMSD1
 70
     0
  9
$DIMSD2
 70
     0
  9
$DIMTOLJ
 70
     1
  9
$DIMTZIN
 70
     0
  9
$DIMALTZ
 70
     0
  9
$DIMALTTZ
 70
     0
  9
$DIMUPT
 70
     0
  9
$DIMDEC
 70
     4
  9
$DIMTDEC
 70
     4
  9
$DIMALTU
 70
     8
  9
$DIMALTTD
 70
     4
  9
$DIMTXSTY
  7
STANDARD
  9
$DIMAUNIT
 70
     0
  9
$DIMADEC
 70
     0
  9
$DIMALTRND
 40
0.0
  9
$DIMAZIN
 70
     0
  9
$DIMDSEP
 70
    46
  9
$DIMATFIT
 70
     3
  9
$DIMFRAC
 70
     0
  9
$DIMLDRBLK
  1

  9
$DIMLUNIT
 70
     6
  9
$DIMLWD
 70
    -2
  9
$DIMLWE
 70
    -2
  9
$DIMTMOVE
 70
     0
  9
$LUNITS
 70
     2
  9
$LUPREC
 70
     4
  9
$SKETCHINC
 40
1.0
  9
$FILLETRAD
 40
50.0
  9
$AUNITS
 70
     0
  9
$AUPREC
 70
     0
  9
$MENU
  1
acad
  9
$ELEVATION
 40
0.0
  9
$PELEVATION
 40
0.0
  9
$THICKNESS
 40
0.0
  9
$LIMCHECK
 70
     0
  9
$CHAMFERA
 40
10.0
  9
$CHAMFERB
 40
10.0
  9
$CHAMFERC
 40
20.0
  9
$CHAMFERD
 40
0.0
  9
$SKPOLY
 70
     0
  9
$TDCREATE
 40
2452179.387794213
  9
$TDUCREATE
 40
2452179.012794213
  9
$TDUPDATE
 40
2454544.751762407
  9
$TDUUPDATE
 40
2454544.376762407
  9
$TDINDWG
 40
1.0912626157
  9
$TDUSRTIMER
 40
1.0912626157
  9
$USRTIMER
 70
     1
  9
$ANGBASE
 50
0.0
  9
$ANGDIR
 70
     0
  9
$PDMODE
 70
     0
  9
$PDSIZE
 40
0.0
  9
$PLINEWID
 40
0.0
  9
$SPLFRAME
 70
     0
  9
$SPLINETYPE
 70
     6
  9
$SPLINESEGS
 70
     8
  9
$HANDSEED
  5
18D7
  9
$SURFTAB1
 70
     6
  9
$SURFTAB2
 70
     6
  9
$SURFTYPE
 70
     6
  9
$SURFU
 70
     6
  9
$SURFV
 70
     6
  9
$UCSBASE
  2

  9
$UCSNAME
  2

  9
$UCSORG
 10
0.0
 20
0.0
 30
0.0
  9
$UCSXDIR
 10
1.0
 20
0.0
 30
0.0
  9
$UCSYDIR
 10
0.0
 20
1.0
 30
0.0
  9
$UCSORTHOREF
  2

  9
$UCSORTHOVIEW
 70
     0
  9
$UCSORGTOP
 10
0.0
 20
0.0
 30
0.0
  9
$UCSORGBOTTOM
 10
0.0
 20
0.0
 30
0.0
  9
$UCSORGLEFT
 10
0.0
 20
0.0
 30
0.0
  9
$UCSORGRIGHT
 10
0.0
 20
0.0
 30
0.0
  9
$UCSORGFRONT
 10
0.0
 20
0.0
 30
0.0
  9
$UCSORGBACK
 10
0.0
 20
0.0
 30
0.0
  9
$PUCSBASE
  2

  9
$PUCSNAME
  2

  9
$PUCSORG
 10
0.0
 20
0.0
 30
0.0
  9
$PUCSXDIR
 10
1.0
 20
0.0
 30
0.0
  9
$PUCSYDIR
 10
0.0
 20
1.0
 30
0.0
  9
$PUCSORTHOREF
  2

  9
$PUCSORTHOVIEW
 70
     0
  9
$PUCSORGTOP
 10
0.0
 20
0.0
 30
0.0
  9
$PUCSORGBOTTOM
 10
0.0
 20
0.0
 30
0.0
  9
$PUCSORGLEFT
 10
0.0
 20
0.0
 30
0.0
  9
$PUCSORGRIGHT
 10
0.0
 20
0.0
 30
0.0
  9
$PUCSORGFRONT
 10
0.0
 20
0.0
 30
0.0
  9
$PUCSORGBACK
 10
0.0
 20
0.0
 30
0.0
  9
$USERI1
 70
     0
  9
$USERI2
 70
     0
  9
$USERI3
 70
     0
  9
$USERI4
 70
     0
  9
$USERI5
 70
     0
  9
$USERR1
 40
0.0
  9
$USERR2
 40
0.0
  9
$USERR3
 40
0.0
  9
$USERR4
 40
0.0
  9
$USERR5
 40
0.0
  9
$WORLDVIEW
 70
     1
  9
$SHADEDGE
 70
     3
  9
$SHADEDIF
 70
    70
  9
$TILEMODE
 70
     1
  9
$MAXACTVP
 70
    48
  9
$PINSBASE
 10
0.0
 20
0.0
 30
0.0
  9
$PLIMCHECK
 70
     0
  9
$PEXTMIN
 10
1.000000000000000E+20
 20
1.000000000000000E+20
 30
1.000000000000000E+20
  9
$PEXTMAX
 10
-1.000000000000000E+20
 20
-1.000000000000000E+20
 30
-1.000000000000000E+20
  9
$PLIMMIN
 10
0.0
 20
0.0
  9
$PLIMMAX
 10
420.0
 20
297.0
  9
$UNITMODE
 70
     0
  9
$VISRETAIN
 70
     1
  9
$PLINEGEN
 70
     0
  9
$PSLTSCALE
 70
     1
  9
$TREEDEPTH
 70
  3020
  9
$CMLSTYLE
  2
STANDARD
  9
$CMLJUST
 70
     0
  9
$CMLSCALE
 40
20.0
  9
$PROXYGRAPHICS
 70
     1
  9
$MEASUREMENT
 70
     1
  9
$CELWEIGHT
370
    -1
  9
$ENDCAPS
280
     0
  9
$JOINSTYLE
280
     0
  9
$LWDISPLAY
290
     0
  9
$INSUNITS
 70
     0
  9
$HYPERLINKBASE
  1

  9
$STYLESHEET
  1

  9
$XEDIT
290
     1
  9
$CEPSNTYPE
380
     0
  9
$PSTYLEMODE
290
     1
  9
$FINGERPRINTGUID
  2
{1008DD30-4EA1-4B86-B7F1-E8DFA49D1667}
  9
$VERSIONGUID
  2
{3C1FACCB-6A5C-4E76-82D1-88DCA1F4BDDB}
  9
$EXTNAMES
290
     1
  9
$PSVPSCALE
 40
0.0
  9
$OLESTARTUP
290
     0
  0
ENDSEC
  0
SECTION
  2
CLASSES
  0
CLASS
  1
LWPOLYLINE
  2
AcDbPolyline
  3
AutoCAD 2000
 90
    32768
280
     0
281
     1
  0
CLASS
  1
ACDBDICTIONARYWDFLT
  2
AcDbDictionaryWithDefault
  3
AutoCAD 2000
 90
        0
280
     0
281
     0
  0
CLASS
  1
ACDBPLACEHOLDER
  2
AcDbPlaceHolder
  3
AutoCAD 2000
 90
        0
280
     0
281
     0
  0
CLASS
  1
LAYOUT
  2
AcDbLayout
  3
AutoCAD 2000
 90
        0
280
     0
281
     0
  0
ENDSEC
  0
SECTION
  2
TABLES
  0
TABLE
  2
VPORT
  5
8
330
0
100
AcDbSymbolTable
 70
     2
  0
VPORT
  5
18D6
330
8
100
AcDbSymbolTableRecord
100
AcDbViewportTableRecord
  2
*Active
 70
     0
 10
0.0
 20
0.0
 11
1.0
 21
1.0
 12
6882.156518282385
 22
2700.175268949072
 13
0.0
 23
0.0
 14
10.0
 24
10.0
 15
10.0
 25
10.0
 16
0.0
 26
0.0
 36
1.0
 17
0.0
 27
0.0
 37
0.0
 40
3248.603639313884
 41
1.731203007518796
 42
50.0
 43
0.0
 44
0.0
 50
0.0
 51
0.0
 71
     0
 72
   100
 73
     1
 74
     1
 75
     0
 76
     0
 77
     0
 78
     0
281
     0
 65
     1
110
0.0
120
0.0
130
0.0
111
1.0
121
0.0
131
0.0
112
0.0
122
1.0
132
0.0
 79
     0
146
0.0
  0
ENDTAB
  0
TABLE
  2
LTYPE
  5
5
330
0
100
AcDbSymbolTable
 70
    46
  0
LTYPE
  5
12
330
5
100
AcDbSymbolTableRecord
100
AcDbLinetypeTableRecord
  2
BYBLOCK
 70
     0
  3

 72
    65
 73
     0
 40
0.0
  0
LTYPE
  5
13
330
5
100
AcDbSymbolTableRecord
100
AcDbLinetypeTableRecord
  2
BYLAYER
 70
     0
  3

 72
    65
 73
     0
 40
0.0
  0
LTYPE
  5
14
330
5
100
AcDbSymbolTableRecord
100
AcDbLinetypeTableRecord
  2
CONTINUOUS
 70
     0
  3
Solid line
 72
    65
 73
     0
 40
0.0
  0
LTYPE
  5
BC
330
5
100
AcDbSymbolTableRecord
100
AcDbLinetypeTableRecord
  2
ACAD_ISO02W100
 70
     0
  3
ISO dash __ __ __ __ __ __ __ __ __ __ __ __ __
 72
    65
 73
     2
 40
15.0
 49
12.0
 74
     0
 49
-3.0
 74
     0
  0
LTYPE
  5
BD
330
5
100
AcDbSymbolTableRecord
100
AcDbLinetypeTableRecord
  2
ACAD_ISO03W100
 70
     0
  3
ISO dash space __    __    __    __    __    __
 72
    65
 73
     2
 40
30.0
 49
12.0
 74
     0
 49
-18.0
 74
     0
  0
LTYPE
  5
BE
330
5
100
AcDbSymbolTableRecord
100
AcDbLinetypeTableRecord
  2
ACAD_ISO04W100
 70
     0
  3
ISO long-dash dot ____ . ____ . ____ . ____ . _
 72
    65
 73
     4
 40
30.5
 49
24.0
 74
     0
 49
-3.0
 74
     0
 49
0.5
 74
     0
 49
-3.0
 74
     0
  0
LTYPE
  5
BF
330
5
100
AcDbSymbolTableRecord
100
AcDbLinetypeTableRecord
  2
ACAD_ISO05W100
 70
     0
  3
ISO long-dash double-dot ____ .. ____ .. ____ .
 72
    65
 73
     8
 40
37.5
 49
24.0
 74
     0
 49
-3.0
 74
     0
 49
0.5
 74
     0
 49
-3.0
 74
     0
 49
0.5
 74
     0
 49
-3.0
 74
     0
 49
0.5
 74
     0
 49
-3.0
 74
     0
  0
LTYPE
  5
C0
330
5
100
AcDbSymbolTableRecord
100
AcDbLinetypeTableRecord
  2
ACAD_ISO06W100
 70
     0
  3
ISO long-dash triple-dot ____ ... ____ ... ____
 72
    65
 73
     8
 40
37.5
 49
24.0
 74
     0
 49
-3.0
 74
     0
 49
0.5
 74
     0
 49
-3.0
 74
     0
 49
0.5
 74
     0
 49
-3.0
 74
     0
 49
0.5
 74
     0
 49
-3.0
 74
     0
  0
LTYPE
  5
C1
330
5
100
AcDbSymbolTableRecord
100
AcDbLinetypeTableRecord
  2
ACAD_ISO07W100
 70
     0
  3
ISO dot . . . . . . . . . . . . . . . . . . . .
 72
    65
 73
     2
 40
3.5
 49
0.5
 74
     0
 49
-3.0
 74
     0
  0
LTYPE
  5
C2
330
5
100
AcDbSymbolTableRecord
100
AcDbLinetypeTableRecord
  2
ACAD_ISO08W100
 70
     0
  3
ISO long-dash short-dash ____ __ ____ __ ____ _
 72
    65
 73
     4
 40
36.0
 49
24.0
 74
     0
 49
-3.0
 74
     0
 49
6.0
 74
     0
 49
-3.0
 74
     0
  0
LTYPE
  5
C3
330
5
100
AcDbSymbolTableRecord
100
AcDbLinetypeTableRecord
  2
ACAD_ISO09W100
 70
     0
  3
ISO long-dash double-short-dash ____ __ __ ____
 72
    65
 73
     6
 40
45.0
 49
24.0
 74
     0
 49
-3.0
 74
     0
 49
6.0
 74
     0
 49
-3.0
 74
     0
 49
6.0
 74
     0
 49
-3.0
 74
     0
  0
LTYPE
  5
C4
330
5
100
AcDbSymbolTableRecord
100
AcDbLinetypeTableRecord
  2
ACAD_ISO10W100
 70
     0
  3
ISO dash dot __ . __ . __ . __ . __ . __ . __ .
 72
    65
 73
     4
 40
18.5
 49
12.0
 74
     0
 49
-3.0
 74
     0
 49
0.5
 74
     0
 49
-3.0
 74
     0
  0
LTYPE
  5
C5
330
5
100
AcDbSymbolTableRecord
100
AcDbLinetypeTableRecord
  2
ACAD_ISO11W100
 70
     0
  3
ISO double-dash dot __ __ . __ __ . __ __ . __ 
 72
    65
 73
     6
 40
33.5
 49
12.0
 74
     0
 49
-3.0
 74
     0
 49
12.0
 74
     0
 49
-3.0
 74
     0
 49
0.5
 74
     0
 49
-3.0
 74
     0
  0
LTYPE
  5
C6
330
5
100
AcDbSymbolTableRecord
100
AcDbLinetypeTableRecord
  2
ACAD_ISO12W100
 70
     0
  3
ISO dash double-dot __ . . __ . . __ . . __ . .
 72
    65
 73
     6
 40
22.0
 49
12.0
 74
     0
 49
-3.0
 74
     0
 49
0.5
 74
     0
 49
-3.0
 74
     0
 49
0.5
 74
     0
 49
-3.0
 74
     0
  0
LTYPE
  5
C7
330
5
100
AcDbSymbolTableRecord
100
AcDbLinetypeTableRecord
  2
ACAD_ISO13W100
 70
     0
  3
ISO double-dash double-dot __ __ . . __ __ . . 
 72
    65
 73
     8
 40
37.0
 49
12.0
 74
     0
 49
-3.0
 74
     0
 49
12.0
 74
     0
 49
-3.0
 74
     0
 49
0.5
 74
     0
 49
-3.0
 74
     0
 49
0.5
 74
     0
 49
-3.0
 74
     0
  0
LTYPE
  5
C8
330
5
100
AcDbSymbolTableRecord
100
AcDbLinetypeTableRecord
  2
ACAD_ISO14W100
 70
     0
  3
ISO dash triple-dot __ . . . __ . . . __ . . . 
 72
    65
 73
     8
 40
25.5
 49
12.0
 74
     0
 49
-3.0
 74
     0
 49
0.5
 74
     0
 49
-3.0
 74
     0
 49
0.5
 74
     0
 49
-3.0
 74
     0
 49
0.5
 74
     0
 49
-3.0
 74
     0
  0
LTYPE
  5
C9
330
5
100
AcDbSymbolTableRecord
100
AcDbLinetypeTableRecord
  2
ACAD_ISO15W100
 70
     0
  3
ISO double-dash triple-dot __ __ . . . __ __ . 
 72
    65
 73
    10
 40
40.49999999999999
 49
12.0
 74
     0
 49
-3.0
 74
     0
 49
12.0
 74
     0
 49
-3.0
 74
     0
 49
0.5
 74
     0
 49
-3.0
 74
     0
 49
0.5
 74
     0
 49
-3.0
 74
     0
 49
0.5
 74
     0
 49
-3.0
 74
     0
  0
LTYPE
  5
CA
330
5
100
AcDbSymbolTableRecord
100
AcDbLinetypeTableRecord
  2
BATTING
 70
     0
  3
Batting SSSSSSSSSSSSSSSSSSSSSSSSSSSSSSSSSSSSSSS
 72
    65
 73
     4
 40
10.16253999999999
 49
0.00254
 74
     0
 49
-2.54
 74
     4
 75
   134
340
BB
 46
2.54
 50
0.0
 44
-2.54
 45
0.0
 49
-5.08
 74
     4
 75
   134
340
BB
 46
2.54
 50
180.0
 44
2.54
 45
0.0
 49
-2.54
 74
     0
  0
LTYPE
  5
CB
330
5
100
AcDbSymbolTableRecord
100
AcDbLinetypeTableRecord
  2
BORDER
 70
     0
  3
Border __ __ . __ __ . __ __ . __ __ . __ __ .
 72
    65
 73
     6
 40
44.45
 49
12.7
 74
     0
 49
-6.349999999999999
 74
     0
 49
12.7
 74
     0
 49
-6.349999999999999
 74
     0
 49
0.0
 74
     0
 49
-6.349999999999999
 74
     0
  0
LTYPE
  5
CC
330
5
100
AcDbSymbolTableRecord
100
AcDbLinetypeTableRecord
  2
BORDER2
 70
     0
  3
Border (.5x) __.__.__.__.__.__.__.__.__.__.__.
 72
    65
 73
     6
 40
22.225
 49
6.349999999999999
 74
     0
 49
-3.174999999999999
 74
     0
 49
6.349999999999999
 74
     0
 49
-3.174999999999999
 74
     0
 49
0.0
 74
     0
 49
-3.174999999999999
 74
     0
  0
LTYPE
  5
CD
330
5
100
AcDbSymbolTableRecord
100
AcDbLinetypeTableRecord
  2
BORDERX2
 70
     0
  3
Border (2x) ____  ____  .  ____  ____  .  ___
 72
    65
 73
     6
 40
88.9
 49
25.4
 74
     0
 49
-12.7
 74
     0
 49
25.4
 74
     0
 49
-12.7
 74
     0
 49
0.0
 74
     0
 49
-12.7
 74
     0
  0
LTYPE
  5
CE
330
5
100
AcDbSymbolTableRecord
100
AcDbLinetypeTableRecord
  2
CENTER
 70
     0
  3
Center ____ _ ____ _ ____ _ ____ _ ____ _ ____
 72
    65
 73
     4
 40
50.8
 49
31.75
 74
     0
 49
-6.349999999999999
 74
     0
 49
6.349999999999999
 74
     0
 49
-6.349999999999999
 74
     0
  0
LTYPE
  5
CF
330
5
100
AcDbSymbolTableRecord
100
AcDbLinetypeTableRecord
  2
CENTER2
 70
     0
  3
Center (.5x) ___ _ ___ _ ___ _ ___ _ ___ _ ___
 72
    65
 73
     4
 40
28.57499999999999
 49
19.05
 74
     0
 49
-3.174999999999999
 74
     0
 49
3.174999999999999
 74
     0
 49
-3.174999999999999
 74
     0
  0
LTYPE
  5
D0
330
5
100
AcDbSymbolTableRecord
100
AcDbLinetypeTableRecord
  2
CENTERX2
 70
     0
  3
Center (2x) ________  __  ________  __  _____
 72
    65
 73
     4
 40
101.6
 49
63.5
 74
     0
 49
-12.7
 74
     0
 49
12.7
 74
     0
 49
-12.7
 74
     0
  0
LTYPE
  5
D1
330
5
100
AcDbSymbolTableRecord
100
AcDbLinetypeTableRecord
  2
DASHDOT
 70
     0
  3
Dash dot __ . __ . __ . __ . __ . __ . __ . __
 72
    65
 73
     4
 40
25.4
 49
12.7
 74
     0
 49
-6.349999999999999
 74
     0
 49
0.0
 74
     0
 49
-6.349999999999999
 74
     0
  0
LTYPE
  5
D2
330
5
100
AcDbSymbolTableRecord
100
AcDbLinetypeTableRecord
  2
DASHDOT2
 70
     0
  3
Dash dot (.5x) _._._._._._._._._._._._._._._.
 72
    65
 73
     4
 40
12.7
 49
6.349999999999999
 74
     0
 49
-3.174999999999999
 74
     0
 49
0.0
 74
     0
 49
-3.174999999999999
 74
     0
  0
LTYPE
  5
D3
330
5
100
AcDbSymbolTableRecord
100
AcDbLinetypeTableRecord
  2
DASHDOTX2
 70
     0
  3
Dash dot (2x) ____  .  ____  .  ____  .  ___
 72
    65
 73
     4
 40
50.8
 49
25.4
 74
     0
 49
-12.7
 74
     0
 49
0.0
 74
     0
 49
-12.7
 74
     0
  0
LTYPE
  5
D4
330
5
100
AcDbSymbolTableRecord
100
AcDbLinetypeTableRecord
  2
DASHED
 70
     0
  3
Dashed __ __ __ __ __ __ __ __ __ __ __ __ __ _
 72
    65
 73
     2
 40
19.04999999999999
 49
12.7
 74
     0
 49
-6.349999999999999
 74
     0
  0
LTYPE
  5
D5
330
5
100
AcDbSymbolTableRecord
100
AcDbLinetypeTableRecord
  2
DASHED2
 70
     0
  3
Dashed (.5x) _ _ _ _ _ _ _ _ _ _ _ _ _ _ _ _ _
 72
    65
 73
     2
 40
9.524999999999998
 49
6.349999999999999
 74
     0
 49
-3.174999999999999
 74
     0
  0
LTYPE
  5
D6
330
5
100
AcDbSymbolTableRecord
100
AcDbLinetypeTableRecord
  2
DASHEDX2
 70
     0
  3
Dashed (2x) ____  ____  ____  ____  ____  ___
 72
    65
 73
     2
 40
38.09999999999999
 49
25.4
 74
     0
 49
-12.7
 74
     0
  0
LTYPE
  5
D7
330
5
100
AcDbSymbolTableRecord
100
AcDbLinetypeTableRecord
  2
DIVIDE
 70
     0
  3
Divide ____ . . ____ . . ____ . . ____ . . ____
 72
    65
 73
     6
 40
31.74999999999999
 49
12.7
 74
     0
 49
-6.349999999999999
 74
     0
 49
0.0
 74
     0
 49
-6.349999999999999
 74
     0
 49
0.0
 74
     0
 49
-6.349999999999999
 74
     0
  0
LTYPE
  5
D8
330
5
100
AcDbSymbolTableRecord
100
AcDbLinetypeTableRecord
  2
DIVIDE2
 70
     0
  3
Divide (.5x) __..__..__..__..__..__..__..__.._
 72
    65
 73
     6
 40
15.87499999999999
 49
6.349999999999999
 74
     0
 49
-3.174999999999999
 74
     0
 49
0.0
 74
     0
 49
-3.174999999999999
 74
     0
 49
0.0
 74
     0
 49
-3.174999999999999
 74
     0
  0
LTYPE
  5
D9
330
5
100
AcDbSymbolTableRecord
100
AcDbLinetypeTableRecord
  2
DIVIDEX2
 70
     0
  3
Divide (2x) ________  .  .  ________  .  .  _
 72
    65
 73
     6
 40
63.49999999999999
 49
25.4
 74
     0
 49
-12.7
 74
     0
 49
0.0
 74
     0
 49
-12.7
 74
     0
 49
0.0
 74
     0
 49
-12.7
 74
     0
  0
LTYPE
  5
DA
330
5
100
AcDbSymbolTableRecord
100
AcDbLinetypeTableRecord
  2
DOT
 70
     0
  3
Dot . . . . . . . . . . . . . . . . . . . . . .
 72
    65
 73
     2
 40
6.349999999999999
 49
0.0
 74
     0
 49
-6.349999999999999
 74
     0
  0
LTYPE
  5
DB
330
5
100
AcDbSymbolTableRecord
100
AcDbLinetypeTableRecord
  2
DOT2
 70
     0
  3
Dot (.5x) .....................................
 72
    65
 73
     2
 40
3.174999999999999
 49
0.0
 74
     0
 49
-3.174999999999999
 74
     0
  0
LTYPE
  5
DC
330
5
100
AcDbSymbolTableRecord
100
AcDbLinetypeTableRecord
  2
DOTX2
 70
     0
  3
Dot (2x) .  .  .  .  .  .  .  .  .  .  .  .  . 
 72
    65
 73
     2
 40
12.7
 49
0.0
 74
     0
 49
-12.7
 74
     0
  0
LTYPE
  5
DD
330
5
100
AcDbSymbolTableRecord
100
AcDbLinetypeTableRecord
  2
FENCELINE1
 70
     0
  3
Fenceline circle ----0-----0----0-----0----0---
 72
    65
 73
     4
 40
36.82999999999999
 49
6.349999999999999
 74
     0
 49
-2.54
 74
     4
 75
   133
340
BB
 46
2.54
 50
0.0
 44
-2.54
 45
0.0
 49
-2.54
 74
     0
 49
25.4
 74
     0
  0
LTYPE
  5
DE
330
5
100
AcDbSymbolTableRecord
100
AcDbLinetypeTableRecord
  2
FENCELINE2
 70
     0
  3
Fenceline square ----[]-----[]----[]-----[]----
 72
    65
 73
     4
 40
36.82999999999999
 49
6.349999999999999
 74
     0
 49
-2.54
 74
     4
 75
   132
340
BB
 46
2.54
 50
0.0
 44
-2.54
 45
0.0
 49
-2.54
 74
     0
 49
25.4
 74
     0
  0
LTYPE
  5
DF
330
5
100
AcDbSymbolTableRecord
100
AcDbLinetypeTableRecord
  2
GAS_LINE
 70
     0
  3
Gas line ----GAS----GAS----GAS----GAS----GAS---
 72
    65
 73
     3
 40
24.13
 49
12.7
 74
     0
 49
-5.08
 74
     2
 75
     0
340
F
 46
2.54
 50
0.0
 44
-2.54
 45
-1.27
  9
GAS
 49
-6.349999999999999
 74
     0
  0
LTYPE
  5
E0
330
5
100
AcDbSymbolTableRecord
100
AcDbLinetypeTableRecord
  2
HIDDEN
 70
     0
  3
Hidden __ __ __ __ __ __ __ __ __ __ __ __ __ _
 72
    65
 73
     2
 40
9.524999999999998
 49
6.349999999999999
 74
     0
 49
-3.174999999999999
 74
     0
  0
LTYPE
  5
E1
330
5
100
AcDbSymbolTableRecord
100
AcDbLinetypeTableRecord
  2
HIDDEN2
 70
     0
  3
Hidden (.5x) _ _ _ _ _ _ _ _ _ _ _ _ _ _ _ _ _
 72
    65
 73
     2
 40
4.762499999999999
 49
3.174999999999999
 74
     0
 49
-1.587499999999999
 74
     0
  0
LTYPE
  5
E2
330
5
100
AcDbSymbolTableRecord
100
AcDbLinetypeTableRecord
  2
HIDDENX2
 70
     0
  3
Hidden (2x) ____ ____ ____ ____ ____ ____ ____
 72
    65
 73
     2
 40
19.04999999999999
 49
12.7
 74
     0
 49
-6.349999999999999
 74
     0
  0
LTYPE
  5
E3
330
5
100
AcDbSymbolTableRecord
100
AcDbLinetypeTableRecord
  2
HOT_WATER_SUPPLY
 70
     0
  3
Hot water supply ---- HW ---- HW ---- HW ----
 72
    65
 73
     3
 40
22.86
 49
12.7
 74
     0
 49
-5.08
 74
     2
 75
     0
340
F
 46
2.54
 50
0.0
 44
-2.54
 45
-1.27
  9
HW
 49
-5.08
 74
     0
  0
LTYPE
  5
E4
330
5
100
AcDbSymbolTableRecord
100
AcDbLinetypeTableRecord
  2
PHANTOM
 70
     0
  3
Phantom ______  __  __  ______  __  __  ______
 72
    65
 73
     6
 40
63.5
 49
31.75
 74
     0
 49
-6.349999999999999
 74
     0
 49
6.349999999999999
 74
     0
 49
-6.349999999999999
 74
     0
 49
6.349999999999999
 74
     0
 49
-6.349999999999999
 74
     0
  0
LTYPE
  5
E5
330
5
100
AcDbSymbolTableRecord
100
AcDbLinetypeTableRecord
  2
PHANTOM2
 70
     0
  3
Phantom (.5x) ___ _ _ ___ _ _ ___ _ _ ___ _ _
 72
    65
 73
     6
 40
31.75
 49
15.875
 74
     0
 49
-3.174999999999999
 74
     0
 49
3.174999999999999
 74
     0
 49
-3.174999999999999
 74
     0
 49
3.174999999999999
 74
     0
 49
-3.174999999999999
 74
     0
  0
LTYPE
  5
E6
330
5
100
AcDbSymbolTableRecord
100
AcDbLinetypeTableRecord
  2
PHANTOMX2
 70
     0
  3
Phantom (2x) ____________    ____    ____   _
 72
    65
 73
     6
 40
127.0
 49
63.5
 74
     0
 49
-12.7
 74
     0
 49
12.7
 74
     0
 49
-12.7
 74
     0
 49
12.7
 74
     0
 49
-12.7
 74
     0
  0
LTYPE
  5
E7
330
5
100
AcDbSymbolTableRecord
100
AcDbLinetypeTableRecord
  2
TRACKS
 70
     0
  3
Tracks -|-|-|-|-|-|-|-|-|-|-|-|-|-|-|-|-|-|-|-|
 72
    65
 73
     2
 40
7.62
 49
3.81
 74
     4
 75
   130
340
BB
 46
6.349999999999999
 50
0.0
 44
0.0
 45
0.0
 49
3.81
 74
     0
  0
LTYPE
  5
E8
330
5
100
AcDbSymbolTableRecord
100
AcDbLinetypeTableRecord
  2
ZIGZAG
 70
     0
  3
Zig zag /\/\/\/\/\/\/\/\/\/\/\/\/\/\/\/\/\/\/\/
 72
    65
 73
     4
 40
20.32254
 49
0.00254
 74
     0
 49
-5.08
 74
     4
 75
   131
340
BB
 46
5.08
 50
0.0
 44
-5.08
 45
0.0
 49
-10.16
 74
     4
 75
   131
340
BB
 46
5.08
 50
180.0
 44
5.08
 45
0.0
 49
-5.08
 74
     0
  0
ENDTAB
  0
TABLE
  2
LAYER
  5
2
330
0
100
AcDbSymbolTable
 70
     9
  0
LAYER
  5
E
330
2
100
AcDbSymbolTableRecord
100
AcDbLayerTableRecord
  2
0
 70
     0
 62
     7
  6
CONTINUOUS
370
    -3
390
15C4
  0
LAYER
  5
20
330
2
100
AcDbSymbolTableRecord
100
AcDbLayerTableRecord
  2
DEFPOINTS
 70
     0
 62
     7
  6
CONTINUOUS
290
     0
370
    -3
390
15C4
  0
LAYER
  5
21
330
2
100
AcDbSymbolTableRecord
100
AcDbLayerTableRecord
  2
OBJECT
 70
     0
 62
     7
  6
CONTINUOUS
370
    -3
390
15C4
  0
LAYER
  5
E9
330
2
100
AcDbSymbolTableRecord
100
AcDbLayerTableRecord
  2
基準線
 70
     0
 62
    -1
  6
CONTINUOUS
370
    -3
390
15C4
  0
LAYER
  5
EA
330
2
100
AcDbSymbolTableRecord
100
AcDbLayerTableRecord
  2
上線
 70
     0
 62
     7
  6
CONTINUOUS
370
    -3
390
15C4
  0
LAYER
  5
EB
330
2
100
AcDbSymbolTableRecord
100
AcDbLayerTableRecord
  2
点線
 70
     0
 62
     5
  6
HIDDEN
370
    -3
390
15C4
  0
LAYER
  5
EC
330
2
100
AcDbSymbolTableRecord
100
AcDbLayerTableRecord
  2
中心線
 70
     0
 62
     6
  6
CENTER
370
    -3
390
15C4
  0
LAYER
  5
1694
330
2
100
AcDbSymbolTableRecord
100
AcDbLayerTableRecord
  2
上書線
 70
     0
 62
     7
  6
CONTINUOUS
370
    -3
390
15C4
  0
LAYER
  5
1695
330
2
100
AcDbSymbolTableRecord
100
AcDbLayerTableRecord
  2
WUWAGAKI
 70
     0
 62
     7
  6
CONTINUOUS
370
    -3
390
15C4
  0
ENDTAB
  0
TABLE
  2
STYLE
  5
3
330
0
100
AcDbSymbolTable
 70
     3
  0
STYLE
  5
F
330
3
100
AcDbSymbolTableRecord
100
AcDbTextStyleTableRecord
  2
STANDARD
 70
     0
 40
0.0
 41
1.0
 50
0.0
 71
     0
 42
2.5
  3
MS PMincho.ttf
  4

1001
ACAD
1000
MS PMincho
1071
    32786
  0
STYLE
  5
22
330
3
100
AcDbSymbolTableRecord
100
AcDbTextStyleTableRecord
  2
ADESK1
 70
     0
 40
0.0
 41
1.0
 50
0.0
 71
     0
 42
5.0
  3
romans
  4
bigfont
  0
STYLE
  5
BB
330
3
100
AcDbSymbolTableRecord
100
AcDbTextStyleTableRecord
  2

 70
     1
 40
0.0
 41
1.0
 50
0.0
 71
     0
 42
2.5
  3
ltypeshp.shx
  4

  0
ENDTAB
  0
TABLE
  2
VIEW
  5
6
330
0
100
AcDbSymbolTable
 70
     0
  0
ENDTAB
  0
TABLE
  2
UCS
  5
7
330
0
100
AcDbSymbolTable
 70
     0
  0
ENDTAB
  0
TABLE
  2
APPID
  5
9
330
0
100
AcDbSymbolTable
 70
     1
  0
APPID
  5
10
330
9
100
AcDbSymbolTableRecord
100
AcDbRegAppTableRecord
  2
ACAD
 70
     0
  0
ENDTAB
  0
TABLE
  2
DIMSTYLE
  5
A
330
0
100
AcDbSymbolTable
 70
     2
100
AcDbDimStyleTable
 71
     0
  0
DIMSTYLE
105
1D
102
{ACAD_REACTORS
330
1039
330
103A
330
1147
330
1148
330
1150
330
1151
330
1162
330
1599
102
}
330
A
100
AcDbSymbolTableRecord
100
AcDbDimStyleTableRecord
  2
STANDARD
 70
     0
340
F
  0
DIMSTYLE
105
23
330
A
100
AcDbSymbolTableRecord
100
AcDbDimStyleTableRecord
  2
JIS
 70
     0
 41
2.5
 42
1.0
 43
7.0
 44
1.0
 73
     0
 74
     0
 77
     1
 78
     8
140
2.5
141
0.0
143
0.0394
147
0.0
172
     1
174
     1
175
     1
340
F
  0
ENDTAB
  0
TABLE
  2
BLOCK_RECORD
  5
1
330
0
100
AcDbSymbolTable
 70
    13
  0
BLOCK_RECORD
  5
18
330
1
100
AcDbSymbolTableRecord
100
AcDbBlockTableRecord
  2
*MODEL_SPACE
340
15C7
  0
BLOCK_RECORD
  5
15
330
1
100
AcDbSymbolTableRecord
100
AcDbBlockTableRecord
  2
*PAPER_SPACE
340
15C8
  0
BLOCK_RECORD
  5
24
330
1
100
AcDbSymbolTableRecord
100
AcDbBlockTableRecord
  2
JIS_A3
340
0
  0
BLOCK_RECORD
  5
FDE
330
1
100
AcDbSymbolTableRecord
100
AcDbBlockTableRecord
  2
*D1
340
0
  0
BLOCK_RECORD
  5
FEA
330
1
100
AcDbSymbolTableRecord
100
AcDbBlockTableRecord
  2
*D2
340
0
  0
BLOCK_RECORD
  5
FF6
330
1
100
AcDbSymbolTableRecord
100
AcDbBlockTableRecord
  2
*D3
340
0
  0
BLOCK_RECORD
  5
1002
330
1
100
AcDbSymbolTableRecord
100
AcDbBlockTableRecord
  2
*D4
340
0
  0
BLOCK_RECORD
  5
1010
330
1
100
AcDbSymbolTableRecord
100
AcDbBlockTableRecord
  2
*D5
340
0
  0
BLOCK_RECORD
  5
101E
330
1
100
AcDbSymbolTableRecord
100
AcDbBlockTableRecord
  2
*D6
340
0
  0
BLOCK_RECORD
  5
102A
330
1
100
AcDbSymbolTableRecord
100
AcDbBlockTableRecord
  2
*D7
340
0
  0
BLOCK_RECORD
  5
1036
330
1
100
AcDbSymbolTableRecord
100
AcDbBlockTableRecord
  2
A$C2CC912BE
340
0
  0
BLOCK_RECORD
  5
144C
330
1
100
AcDbSymbolTableRecord
100
AcDbBlockTableRecord
  2
A$C116E6D52
340
0
  0
BLOCK_RECORD
  5
14A9
330
1
100
AcDbSymbolTableRecord
100
AcDbBlockTableRecord
  2
A$C08AE7DE9
340
0
  0
BLOCK_RECORD
  5
14DE
330
1
100
AcDbSymbolTableRecord
100
AcDbBlockTableRecord
  2
*D11
340
0
  0
BLOCK_RECORD
  5
14EC
330
1
100
AcDbSymbolTableRecord
100
AcDbBlockTableRecord
  2
A$C50DF7553
340
0
  0
ENDTAB
  0
ENDSEC
  0
SECTION
  2
BLOCKS
  0
BLOCK
  5
19
330
18
100
AcDbEntity
  8
0
100
AcDbBlockBegin
  2
*MODEL_SPACE
 70
     0
 10
0.0
 20
0.0
 30
0.0
  3
*MODEL_SPACE
  1

  0
ENDBLK
  5
1A
330
18
100
AcDbEntity
  8
0
100
AcDbBlockEnd
  0
BLOCK
  5
16
330
15
100
AcDbEntity
 67
     1
  8
0
100
AcDbBlockBegin
  2
*PAPER_SPACE
 70
     0
 10
0.0
 20
0.0
 30
0.0
  3
*PAPER_SPACE
  1

  0
ENDBLK
  5
17
330
15
100
AcDbEntity
 67
     1
  8
0
100
AcDbBlockEnd
  0
BLOCK
  5
B1
330
24
100
AcDbEntity
  8
0
100
AcDbBlockBegin
  2
JIS_A3
 70
     2
 10
0.0
 20
0.0
 30
0.0
  3
JIS_A3
  1

  0
LINE
  5
25
330
24
100
AcDbEntity
  8
0
100
AcDbLine
 10
0.0
 20
0.0
 30
0.0
 11
0.0
 21
10.0
 31
0.0
  0
LINE
  5
26
330
24
100
AcDbEntity
  8
0
100
AcDbLine
 10
0.0
 20
297.0
 30
0.0
 11
25.0
 21
297.0
 31
0.0
  0
LINE
  5
27
330
24
100
AcDbEntity
  8
0
100
AcDbLine
 10
420.0
 20
297.0
 30
0.0
 11
420.0
 21
287.0
 31
0.0
  0
LINE
  5
28
330
24
100
AcDbEntity
  8
0
100
AcDbLine
 10
420.0
 20
0.0
 30
0.0
 11
410.0
 21
0.0
 31
0.0
  0
LINE
  5
29
330
24
100
AcDbEntity
  8
0
100
AcDbLine
 10
25.0
 20
10.0
 30
0.0
 11
25.0
 21
287.0
 31
0.0
  0
LINE
  5
2A
330
24
100
AcDbEntity
  8
0
100
AcDbLine
 10
410.0
 20
10.0
 30
0.0
 11
25.0
 21
10.0
 31
0.0
  0
LINE
  5
2B
330
24
100
AcDbEntity
  8
0
100
AcDbLine
 10
410.0
 20
287.0
 30
0.0
 11
410.0
 21
10.0
 31
0.0
  0
LINE
  5
2C
330
24
100
AcDbEntity
  8
0
100
AcDbLine
 10
25.0
 20
287.0
 30
0.0
 11
410.0
 21
287.0
 31
0.0
  0
LINE
  5
2D
330
24
100
AcDbEntity
  8
0
100
AcDbLine
 10
0.0
 20
287.0
 30
0.0
 11
0.0
 21
297.0
 31
0.0
  0
LINE
  5
2E
330
24
100
AcDbEntity
  8
0
100
AcDbLine
 10
25.0
 20
0.0
 30
0.0
 11
0.0
 21
0.0
 31
0.0
  0
LINE
  5
2F
330
24
100
AcDbEntity
  8
0
100
AcDbLine
 10
420.0
 20
10.0
 30
0.0
 11
420.0
 21
0.0
 31
0.0
  0
LINE
  5
30
330
24
100
AcDbEntity
  8
0
100
AcDbLine
 10
410.0
 20
297.0
 30
0.0
 11
420.0
 21
297.0
 31
0.0
  0
ATTDEF
  5
31
330
24
100
AcDbEntity
  8
0
 62
     0
100
AcDbText
 10
19.0
 20
10.0
 30
0.0
 40
3.0
  1

 50
90.0
  7
ADESK1
100
AcDbAttributeDefinition
  3

  2
USER
 70
     8
  0
ATTDEF
  5
32
330
24
100
AcDbEntity
  8
0
 62
     0
100
AcDbText
 10
19.0
 20
70.0
 30
0.0
 40
3.0
  1

 50
90.0
  7
ADESK1
100
AcDbAttributeDefinition
  3

  2
REVDATE
 70
     8
  0
ATTDEF
  5
33
330
24
100
AcDbEntity
  8
0
 62
     0
100
AcDbText
 10
19.0
 20
118.0
 30
0.0
 40
3.0
  1

 50
90.0
  7
ADESK1
100
AcDbAttributeDefinition
  3

  2
FNAME
 70
     8
  0
LINE
  5
34
330
24
100
AcDbEntity
  8
OBJECT
100
AcDbLine
 10
130.0
 20
16.0
 30
0.0
 11
25.0
 21
16.0
 31
0.0
  0
LINE
  5
35
330
24
100
AcDbEntity
  8
OBJECT
100
AcDbLine
 10
130.0
 20
22.0
 30
0.0
 11
25.0
 21
22.0
 31
0.0
  0
LINE
  5
36
330
24
100
AcDbEntity
  8
OBJECT
100
AcDbLine
 10
130.0
 20
28.0
 30
0.0
 11
25.0
 21
28.0
 31
0.0
  0
LINE
  5
37
330
24
100
AcDbEntity
  8
OBJECT
100
AcDbLine
 10
130.0
 20
34.0
 30
0.0
 11
25.0
 21
34.0
 31
0.0
  0
LINE
  5
38
330
24
100
AcDbEntity
  8
OBJECT
100
AcDbLine
 10
130.0
 20
40.0
 30
0.0
 11
25.0
 21
40.0
 31
0.0
  0
LINE
  5
39
330
24
100
AcDbEntity
  8
OBJECT
100
AcDbLine
 10
28.0
 20
11.53589799999999
 30
0.0
 11
30.0
 21
15.0
 31
0.0
  0
LINE
  5
3A
330
24
100
AcDbEntity
  8
OBJECT
100
AcDbLine
 10
32.0
 20
11.53589799999999
 30
0.0
 11
30.0
 21
15.0
 31
0.0
  0
LINE
  5
3B
330
24
100
AcDbEntity
  8
OBJECT
100
AcDbLine
 10
35.0
 20
10.0
 30
0.0
 11
35.0
 21
40.0
 31
0.0
  0
LINE
  5
3C
330
24
100
AcDbEntity
  8
OBJECT
100
AcDbLine
 10
50.0
 20
10.0
 30
0.0
 11
50.0
 21
40.0
 31
0.0
  0
LINE
  5
3D
330
24
100
AcDbEntity
  8
OBJECT
100
AcDbLine
 10
80.0
 20
10.0
 30
0.0
 11
80.0
 21
40.0
 31
0.0
  0
LINE
  5
3E
330
24
100
AcDbEntity
  8
OBJECT
100
AcDbLine
 10
28.0
 20
11.53589799999999
 30
0.0
 11
32.0
 21
11.53589799999999
 31
0.0
  0
LINE
  5
3F
330
24
100
AcDbEntity
  8
OBJECT
100
AcDbLine
 10
39.5
 20
13.0
 30
0.0
 11
40.49999999999999
 21
13.0
 31
0.0
  0
LINE
  5
40
330
24
100
AcDbEntity
  8
OBJECT
100
AcDbLine
 10
44.5
 20
13.0
 30
0.0
 11
45.49999999999999
 21
13.0
 31
0.0
  0
LINE
  5
41
330
24
100
AcDbEntity
  8
OBJECT
100
AcDbLine
 10
32.0
 20
17.535898
 30
0.0
 11
30.0
 21
20.99999999999999
 31
0.0
  0
LINE
  5
42
330
24
100
AcDbEntity
  8
OBJECT
100
AcDbLine
 10
28.0
 20
17.535898
 30
0.0
 11
32.0
 21
17.535898
 31
0.0
  0
LINE
  5
43
330
24
100
AcDbEntity
  8
OBJECT
100
AcDbLine
 10
28.0
 20
17.535898
 30
0.0
 11
30.0
 21
20.99999999999999
 31
0.0
  0
LINE
  5
44
330
24
100
AcDbEntity
  8
OBJECT
100
AcDbLine
 10
32.0
 20
23.53589799999999
 30
0.0
 11
30.0
 21
26.99999999999999
 31
0.0
  0
LINE
  5
45
330
24
100
AcDbEntity
  8
OBJECT
100
AcDbLine
 10
28.0
 20
23.53589799999999
 30
0.0
 11
32.0
 21
23.53589799999999
 31
0.0
  0
LINE
  5
46
330
24
100
AcDbEntity
  8
OBJECT
100
AcDbLine
 10
28.0
 20
23.53589799999999
 30
0.0
 11
30.0
 21
26.99999999999999
 31
0.0
  0
LINE
  5
47
330
24
100
AcDbEntity
  8
OBJECT
100
AcDbLine
 10
28.0
 20
35.53589799999999
 30
0.0
 11
30.0
 21
39.0
 31
0.0
  0
LINE
  5
48
330
24
100
AcDbEntity
  8
OBJECT
100
AcDbLine
 10
32.0
 20
35.53589799999999
 30
0.0
 11
30.0
 21
39.0
 31
0.0
  0
LINE
  5
49
330
24
100
AcDbEntity
  8
OBJECT
100
AcDbLine
 10
28.0
 20
35.53589799999999
 30
0.0
 11
32.0
 21
35.53589799999999
 31
0.0
  0
LINE
  5
4A
330
24
100
AcDbEntity
  8
OBJECT
100
AcDbLine
 10
32.0
 20
29.535898
 30
0.0
 11
30.0
 21
33.0
 31
0.0
  0
LINE
  5
4B
330
24
100
AcDbEntity
  8
OBJECT
100
AcDbLine
 10
28.0
 20
29.535898
 30
0.0
 11
32.0
 21
29.535898
 31
0.0
  0
LINE
  5
4C
330
24
100
AcDbEntity
  8
OBJECT
100
AcDbLine
 10
28.0
 20
29.535898
 30
0.0
 11
30.0
 21
33.0
 31
0.0
  0
LINE
  5
4D
330
24
100
AcDbEntity
  8
OBJECT
100
AcDbLine
 10
39.5
 20
19.0
 30
0.0
 11
40.49999999999999
 21
19.0
 31
0.0
  0
LINE
  5
4E
330
24
100
AcDbEntity
  8
OBJECT
100
AcDbLine
 10
44.5
 20
19.0
 30
0.0
 11
45.49999999999999
 21
19.0
 31
0.0
  0
LINE
  5
4F
330
24
100
AcDbEntity
  8
OBJECT
100
AcDbLine
 10
39.5
 20
25.0
 30
0.0
 11
40.49999999999999
 21
25.0
 31
0.0
  0
LINE
  5
50
330
24
100
AcDbEntity
  8
OBJECT
100
AcDbLine
 10
44.5
 20
25.0
 30
0.0
 11
45.49999999999999
 21
25.0
 31
0.0
  0
LINE
  5
51
330
24
100
AcDbEntity
  8
OBJECT
100
AcDbLine
 10
39.5
 20
31.0
 30
0.0
 11
40.49999999999999
 21
31.0
 31
0.0
  0
LINE
  5
52
330
24
100
AcDbEntity
  8
OBJECT
100
AcDbLine
 10
39.5
 20
37.0
 30
0.0
 11
40.49999999999999
 21
37.0
 31
0.0
  0
LINE
  5
53
330
24
100
AcDbEntity
  8
OBJECT
100
AcDbLine
 10
44.5
 20
31.0
 30
0.0
 11
45.49999999999999
 21
31.0
 31
0.0
  0
LINE
  5
54
330
24
100
AcDbEntity
  8
OBJECT
100
AcDbLine
 10
44.5
 20
37.0
 30
0.0
 11
45.49999999999999
 21
37.0
 31
0.0
  0
LINE
  5
55
330
24
100
AcDbEntity
  8
OBJECT
100
AcDbLine
 10
120.0
 20
10.0
 30
0.0
 11
120.0
 21
40.0
 31
0.0
  0
LINE
  5
56
330
24
100
AcDbEntity
  8
OBJECT
100
AcDbLine
 10
130.0
 20
40.0
 30
0.0
 11
130.0
 21
10.0
 31
0.0
  0
LINE
  5
57
330
24
100
AcDbEntity
  8
0
100
AcDbLine
 10
217.5
 20
10.0
 30
0.0
 11
217.5
 21
0.0
 31
0.0
  0
LINE
  5
58
330
24
100
AcDbEntity
  8
0
100
AcDbLine
 10
217.5
 20
287.0
 30
0.0
 11
217.5
 21
297.0
 31
0.0
  0
LINE
  5
59
330
24
100
AcDbEntity
  8
0
100
AcDbLine
 10
410.0
 20
148.5
 30
0.0
 11
420.0
 21
148.5
 31
0.0
  0
LINE
  5
5A
330
24
100
AcDbEntity
  8
0
100
AcDbLine
 10
25.0
 20
148.5
 30
0.0
 11
0.0
 21
148.5
 31
0.0
  0
TEXT
  5
5B
330
24
100
AcDbEntity
  8
0
100
AcDbText
 10
1.0
 20
1.0
 30
0.0
 40
3.0
  1
この図枠はサンプルです。社内の規格やプロッタの出力範囲に合わせて適当に変更してご利用ください。
  7
ADESK1
100
AcDbText
  0
LINE
  5
5C
330
24
100
AcDbEntity
  8
0
100
AcDbLine
 10
25.0
 20
240.8333333333333
 30
0.0
 11
20.0
 21
240.8333333333333
 31
0.0
  0
LINE
  5
5D
330
24
100
AcDbEntity
  8
0
100
AcDbLine
 10
25.0
 20
194.6666666666666
 30
0.0
 11
20.0
 21
194.6666666666666
 31
0.0
  0
LINE
  5
5E
330
24
100
AcDbEntity
  8
0
100
AcDbLine
 10
25.0
 20
148.5
 30
0.0
 11
20.0
 21
148.5
 31
0.0
  0
LINE
  5
5F
330
24
100
AcDbEntity
  8
0
100
AcDbLine
 10
25.0
 20
102.3333333333333
 30
0.0
 11
20.0
 21
102.3333333333333
 31
0.0
  0
LINE
  5
60
330
24
100
AcDbEntity
  8
0
100
AcDbLine
 10
25.0
 20
56.16666666666667
 30
0.0
 11
20.0
 21
56.16666666666667
 31
0.0
  0
LINE
  5
61
330
24
100
AcDbEntity
  8
0
100
AcDbLine
 10
410.0
 20
56.16666666666668
 30
0.0
 11
415.0
 21
56.16666666666668
 31
0.0
  0
LINE
  5
62
330
24
100
AcDbEntity
  8
0
100
AcDbLine
 10
410.0
 20
102.3333333333333
 30
0.0
 11
415.0
 21
102.3333333333333
 31
0.0
  0
LINE
  5
63
330
24
100
AcDbEntity
  8
0
100
AcDbLine
 10
410.0
 20
148.5
 30
0.0
 11
415.0
 21
148.5
 31
0.0
  0
LINE
  5
64
330
24
100
AcDbEntity
  8
0
100
AcDbLine
 10
410.0
 20
194.6666666666667
 30
0.0
 11
415.0
 21
194.6666666666667
 31
0.0
  0
LINE
  5
65
330
24
100
AcDbEntity
  8
0
100
AcDbLine
 10
410.0
 20
240.8333333333333
 30
0.0
 11
415.0
 21
240.8333333333333
 31
0.0
  0
LINE
  5
66
330
24
100
AcDbEntity
  8
0
100
AcDbLine
 10
73.125
 20
10.0
 30
0.0
 11
73.125
 21
5.0
 31
0.0
  0
LINE
  5
67
330
24
100
AcDbEntity
  8
0
100
AcDbLine
 10
121.25
 20
10.0
 30
0.0
 11
121.25
 21
5.0
 31
0.0
  0
LINE
  5
68
330
24
100
AcDbEntity
  8
0
100
AcDbLine
 10
169.375
 20
10.0
 30
0.0
 11
169.375
 21
5.0
 31
0.0
  0
LINE
  5
69
330
24
100
AcDbEntity
  8
0
100
AcDbLine
 10
217.5
 20
10.0
 30
0.0
 11
217.5
 21
5.0
 31
0.0
  0
LINE
  5
6A
330
24
100
AcDbEntity
  8
0
100
AcDbLine
 10
265.625
 20
10.0
 30
0.0
 11
265.625
 21
5.0
 31
0.0
  0
LINE
  5
6B
330
24
100
AcDbEntity
  8
0
100
AcDbLine
 10
313.75
 20
10.0
 30
0.0
 11
313.75
 21
5.0
 31
0.0
  0
LINE
  5
6C
330
24
100
AcDbEntity
  8
0
100
AcDbLine
 10
361.8749999999999
 20
10.0
 30
0.0
 11
361.8749999999999
 21
5.0
 31
0.0
  0
LINE
  5
6D
330
24
100
AcDbEntity
  8
0
100
AcDbLine
 10
361.8749999999999
 20
287.0
 30
0.0
 11
361.8749999999999
 21
292.0
 31
0.0
  0
LINE
  5
6E
330
24
100
AcDbEntity
  8
0
100
AcDbLine
 10
313.75
 20
287.0
 30
0.0
 11
313.75
 21
292.0
 31
0.0
  0
LINE
  5
6F
330
24
100
AcDbEntity
  8
0
100
AcDbLine
 10
265.625
 20
287.0
 30
0.0
 11
265.625
 21
292.0
 31
0.0
  0
LINE
  5
70
330
24
100
AcDbEntity
  8
0
100
AcDbLine
 10
217.5
 20
287.0
 30
0.0
 11
217.5
 21
292.0
 31
0.0
  0
LINE
  5
71
330
24
100
AcDbEntity
  8
0
100
AcDbLine
 10
169.375
 20
287.0
 30
0.0
 11
169.375
 21
292.0
 31
0.0
  0
LINE
  5
72
330
24
100
AcDbEntity
  8
0
100
AcDbLine
 10
121.25
 20
287.0
 30
0.0
 11
121.25
 21
292.0
 31
0.0
  0
LINE
  5
73
330
24
100
AcDbEntity
  8
0
100
AcDbLine
 10
73.125
 20
287.0
 30
0.0
 11
73.125
 21
292.0
 31
0.0
  0
TEXT
  5
74
330
24
100
AcDbEntity
  8
0
100
AcDbText
 10
47.84821428571429
 20
288.0
 30
0.0
 40
3.0
  1
1
  7
ADESK1
 72
     1
 11
49.0625
 21
288.0
 31
0.0
100
AcDbText
  0
TEXT
  5
75
330
24
100
AcDbEntity
  8
0
100
AcDbText
 10
21.32144707381961
 20
263.9166666666666
 30
0.0
 40
3.0
  1
A
  7
ADESK1
 72
     1
 11
22.60716135953389
 21
263.9166666666666
 31
0.0
100
AcDbText
  0
TEXT
  5
76
330
24
100
AcDbEntity
  8
0
100
AcDbText
 10
95.75892857142857
 20
288.0
 30
0.0
 40
3.0
  1
2
  7
ADESK1
 72
     1
 11
97.1875
 21
288.0
 31
0.0
100
AcDbText
  0
TEXT
  5
77
330
24
100
AcDbEntity
  8
0
100
AcDbText
 10
143.8839285714285
 20
288.0
 30
0.0
 40
3.0
  1
3
  7
ADESK1
 72
     1
 11
145.3125
 21
288.0
 31
0.0
100
AcDbText
  0
TEXT
  5
78
330
24
100
AcDbEntity
  8
0
100
AcDbText
 10
191.9375
 20
288.0
 30
0.0
 40
3.0
  1
4
  7
ADESK1
 72
     1
 11
193.4375
 21
288.0
 31
0.0
100
AcDbText
  0
TEXT
  5
79
330
24
100
AcDbEntity
  8
0
100
AcDbText
 10
240.1339285714285
 20
288.0
 30
0.0
 40
3.0
  1
5
  7
ADESK1
 72
     1
 11
241.5624999999999
 21
288.0
 31
0.0
100
AcDbText
  0
TEXT
  5
7A
330
24
100
AcDbEntity
  8
0
100
AcDbText
 10
288.1874999999999
 20
288.0
 30
0.0
 40
3.0
  1
6
  7
ADESK1
 72
     1
 11
289.6875
 21
288.0
 31
0.0
100
AcDbText
  0
TEXT
  5
7B
330
24
100
AcDbEntity
  8
0
100
AcDbText
 10
336.3839285714285
 20
288.0
 30
0.0
 40
3.0
  1
7
  7
ADESK1
 72
     1
 11
337.8125
 21
288.0
 31
0.0
100
AcDbText
  0
TEXT
  5
7C
330
24
100
AcDbEntity
  8
0
100
AcDbText
 10
384.5089285714285
 20
288.0
 30
0.0
 40
3.0
  1
8
  7
ADESK1
 72
     1
 11
385.9375
 21
288.0
 31
0.0
100
AcDbText
  0
TEXT
  5
7D
330
24
100
AcDbEntity
  8
0
100
AcDbText
 10
21.03573278810532
 20
217.7499999999999
 30
0.0
 40
3.0
  1
B
  7
ADESK1
 72
     1
 11
22.60716135953389
 21
217.7499999999999
 31
0.0
100
AcDbText
  0
TEXT
  5
7E
330
24
100
AcDbEntity
  8
0
100
AcDbText
 10
21.10716135953389
 20
171.5833333333333
 30
0.0
 40
3.0
  1
C
  7
ADESK1
 72
     1
 11
22.60716135953389
 21
171.5833333333333
 31
0.0
100
AcDbText
  0
TEXT
  5
7F
330
24
100
AcDbEntity
  8
0
100
AcDbText
 10
21.03573278810532
 20
125.4166666666666
 30
0.0
 40
3.0
  1
D
  7
ADESK1
 72
     1
 11
22.60716135953389
 21
125.4166666666666
 31
0.0
100
AcDbText
  0
TEXT
  5
80
330
24
100
AcDbEntity
  8
0
100
AcDbText
 10
21.10716135953389
 20
79.25
 30
0.0
 40
3.0
  1
E
  7
ADESK1
 72
     1
 11
22.60716135953389
 21
79.25
 31
0.0
100
AcDbText
  0
TEXT
  5
81
330
24
100
AcDbEntity
  8
0
100
AcDbText
 10
21.10716135953389
 20
33.08333333333334
 30
0.0
 40
3.0
  1
F
  7
ADESK1
 72
     1
 11
22.60716135953389
 21
33.08333333333334
 31
0.0
100
AcDbText
  0
TEXT
  5
82
330
24
100
AcDbEntity
  8
0
100
AcDbText
 10
47.84821428571429
 20
6.019997240728748
 30
0.0
 40
3.0
  1
1
  7
ADESK1
 72
     1
 11
49.0625
 21
6.019997240728748
 31
0.0
100
AcDbText
  0
TEXT
  5
83
330
24
100
AcDbEntity
  8
0
100
AcDbText
 10
95.75892857142857
 20
6.019997240728748
 30
0.0
 40
3.0
  1
2
  7
ADESK1
 72
     1
 11
97.1875
 21
6.019997240728748
 31
0.0
100
AcDbText
  0
TEXT
  5
84
330
24
100
AcDbEntity
  8
0
100
AcDbText
 10
143.8839285714285
 20
6.019997240728748
 30
0.0
 40
3.0
  1
3
  7
ADESK1
 72
     1
 11
145.3125
 21
6.019997240728748
 31
0.0
100
AcDbText
  0
TEXT
  5
85
330
24
100
AcDbEntity
  8
0
100
AcDbText
 10
191.9375
 20
6.019997240728748
 30
0.0
 40
3.0
  1
4
  7
ADESK1
 72
     1
 11
193.4375
 21
6.019997240728748
 31
0.0
100
AcDbText
  0
TEXT
  5
86
330
24
100
AcDbEntity
  8
0
100
AcDbText
 10
240.1339285714285
 20
6.019997240728748
 30
0.0
 40
3.0
  1
5
  7
ADESK1
 72
     1
 11
241.5624999999999
 21
6.019997240728748
 31
0.0
100
AcDbText
  0
TEXT
  5
87
330
24
100
AcDbEntity
  8
0
100
AcDbText
 10
288.1874999999999
 20
6.019997240728748
 30
0.0
 40
3.0
  1
6
  7
ADESK1
 72
     1
 11
289.6875
 21
6.019997240728748
 31
0.0
100
AcDbText
  0
TEXT
  5
88
330
24
100
AcDbEntity
  8
0
100
AcDbText
 10
336.3839285714285
 20
6.019997240728748
 30
0.0
 40
3.0
  1
7
  7
ADESK1
 72
     1
 11
337.8125
 21
6.019997240728748
 31
0.0
100
AcDbText
  0
TEXT
  5
89
330
24
100
AcDbEntity
  8
0
100
AcDbText
 10
384.5089285714285
 20
6.019997240728748
 30
0.0
 40
3.0
  1
8
  7
ADESK1
 72
     1
 11
385.9375
 21
6.019997240728748
 31
0.0
100
AcDbText
  0
TEXT
  5
8A
330
24
100
AcDbEntity
  8
0
100
AcDbText
 10
411.5851108826324
 20
263.9166666666666
 30
0.0
 40
3.0
  1
A
  7
ADESK1
 72
     1
 11
412.8708251683468
 21
263.9166666666666
 31
0.0
100
AcDbText
  0
TEXT
  5
8B
330
24
100
AcDbEntity
  8
0
100
AcDbText
 10
411.2993965969182
 20
217.7499999999999
 30
0.0
 40
3.0
  1
B
  7
ADESK1
 72
     1
 11
412.8708251683468
 21
217.7499999999999
 31
0.0
100
AcDbText
  0
TEXT
  5
8C
330
24
100
AcDbEntity
  8
0
100
AcDbText
 10
411.3708251683467
 20
171.5833333333333
 30
0.0
 40
3.0
  1
C
  7
ADESK1
 72
     1
 11
412.8708251683468
 21
171.5833333333333
 31
0.0
100
AcDbText
  0
TEXT
  5
8D
330
24
100
AcDbEntity
  8
0
100
AcDbText
 10
411.2993965969182
 20
125.4166666666666
 30
0.0
 40
3.0
  1
D
  7
ADESK1
 72
     1
 11
412.8708251683468
 21
125.4166666666666
 31
0.0
100
AcDbText
  0
TEXT
  5
8E
330
24
100
AcDbEntity
  8
0
100
AcDbText
 10
411.3708251683467
 20
79.25
 30
0.0
 40
3.0
  1
E
  7
ADESK1
 72
     1
 11
412.8708251683468
 21
79.25
 31
0.0
100
AcDbText
  0
TEXT
  5
8F
330
24
100
AcDbEntity
  8
0
100
AcDbText
 10
411.3708251683467
 20
33.08333333333334
 30
0.0
 40
3.0
  1
F
  7
ADESK1
 72
     1
 11
412.8708251683468
 21
33.08333333333334
 31
0.0
100
AcDbText
  0
LINE
  5
90
330
24
100
AcDbEntity
  8
0
 62
     0
100
AcDbLine
 10
280.2978723404241
 20
49.00000000000036
 30
0.0
 11
410.0
 21
49.00000000000036
 31
0.0
  0
LINE
  5
91
330
24
100
AcDbEntity
  8
0
 62
     0
100
AcDbLine
 10
280.2978723404241
 20
13.00000000000004
 30
0.0
 11
410.0
 21
13.00000000000004
 31
0.0
  0
LINE
  5
92
330
24
100
AcDbEntity
  8
0
 62
     0
100
AcDbLine
 10
280.2978723404241
 20
37.00000000000024
 30
0.0
 11
410.0
 21
37.00000000000024
 31
0.0
  0
LINE
  5
93
330
24
100
AcDbEntity
  8
0
 62
     0
100
AcDbLine
 10
318.1276595744673
 20
22.00000000000012
 30
0.0
 11
410.0
 21
22.00000000000012
 31
0.0
  0
LINE
  5
94
330
24
100
AcDbEntity
  8
0
 62
     0
100
AcDbLine
 10
280.2978723404241
 20
10.0
 30
0.0
 11
410.0
 21
10.0
 31
0.0
  0
LINE
  5
95
330
24
100
AcDbEntity
  8
0
 62
     0
100
AcDbLine
 10
410.0
 20
49.00000000000036
 30
0.0
 11
280.2978723404241
 21
49.00000000000036
 31
0.0
  0
LINE
  5
96
330
24
100
AcDbEntity
  8
0
 62
     0
100
AcDbLine
 10
303.7163120567365
 20
37.00000000000024
 30
0.0
 11
303.7163120567365
 21
10.0
 31
0.0
  0
LINE
  5
97
330
24
100
AcDbEntity
  8
0
 62
     0
100
AcDbLine
 10
285.702127659573
 20
37.00000000000024
 30
0.0
 11
285.702127659573
 21
10.0
 31
0.0
  0
LINE
  5
98
330
24
100
AcDbEntity
  8
0
 62
     0
100
AcDbLine
 10
312.7234042553184
 20
37.00000000000024
 30
0.0
 11
312.7234042553184
 21
10.0
 31
0.0
  0
LINE
  5
99
330
24
100
AcDbEntity
  8
0
 62
     0
100
AcDbLine
 10
318.1276595744673
 20
25.00000000000012
 30
0.0
 11
318.1276595744673
 21
10.0
 31
0.0
  0
LINE
  5
9A
330
24
100
AcDbEntity
  8
0
 62
     0
100
AcDbLine
 10
280.2978723404241
 20
49.00000000000036
 30
0.0
 11
280.2978723404241
 21
10.0
 31
0.0
  0
LINE
  5
9B
330
24
100
AcDbEntity
  8
0
 62
     0
100
AcDbLine
 10
348.7517730496447
 20
49.00000000000036
 30
0.0
 11
348.7517730496447
 21
10.0
 31
0.0
  0
LINE
  5
9C
330
24
100
AcDbEntity
  8
0
 62
     0
100
AcDbLine
 10
328.7659574468077
 20
22.00000000000007
 30
0.0
 11
328.7659574468077
 21
10.0
 31
0.0
  0
LINE
  5
9D
330
24
100
AcDbEntity
  8
0
 62
     0
100
AcDbLine
 10
339.4042553191484
 20
22.00000000000007
 30
0.0
 11
339.4042553191484
 21
10.0
 31
0.0
  0
LINE
  5
9E
330
24
100
AcDbEntity
  8
0
 62
     0
100
AcDbLine
 10
280.2978723404241
 20
16.00000000000008
 30
0.0
 11
318.1276595744673
 21
16.00000000000008
 31
0.0
  0
LINE
  5
9F
330
24
100
AcDbEntity
  8
0
 62
     0
100
AcDbLine
 10
280.2978723404241
 20
10.0
 30
0.0
 11
280.2978723404241
 21
13.00000000000004
 31
0.0
  0
TEXT
  5
A0
330
24
100
AcDbEntity
  8
0
 62
     0
100
AcDbText
 10
321.7174935280942
 20
10.48329012996929
 30
0.0
 40
1.791674070777747
  1
製図
  7
ADESK1
 72
     1
 11
323.5688900678979
 21
10.48329012996929
 31
0.0
100
AcDbText
  0
TEXT
  5
A1
330
24
100
AcDbEntity
  8
0
 62
     0
100
AcDbText
 10
332.2960689314087
 20
10.48329012996929
 30
0.0
 40
1.791674070777747
  1
設計
  7
ADESK1
 72
     1
 11
334.2071879402383
 21
10.48329012996929
 31
0.0
100
AcDbText
  0
TEXT
  5
A2
330
24
100
AcDbEntity
  8
0
 62
     0
100
AcDbText
 10
342.2447163844405
 20
10.55220101068186
 30
0.0
 40
1.791674070777747
  1
照査
  7
ADESK1
 72
     1
 11
344.1558353932701
 21
10.55220101068186
 31
0.0
100
AcDbText
  0
LINE
  5
A3
330
24
100
AcDbEntity
  8
0
 62
     0
100
AcDbLine
 10
280.2978723404241
 20
25.00000000000012
 30
0.0
 11
318.1276595744673
 21
25.00000000000012
 31
0.0
  0
LINE
  5
A4
330
24
100
AcDbEntity
  8
0
 62
     0
100
AcDbLine
 10
280.2978723404241
 20
22.00000000000007
 30
0.0
 11
318.1276595744673
 21
22.00000000000012
 31
0.0
  0
LINE
  5
A5
330
24
100
AcDbEntity
  8
0
 62
     0
100
AcDbLine
 10
280.2978723404241
 20
19.00000000000007
 30
0.0
 11
318.1276595744673
 21
19.00000000000012
 31
0.0
  0
LINE
  5
A6
330
24
100
AcDbEntity
  8
0
 62
     0
100
AcDbLine
 10
280.2978723404241
 20
34.00000000000024
 30
0.0
 11
348.7517730496447
 21
34.00000000000024
 31
0.0
  0
LINE
  5
A7
330
24
100
AcDbEntity
  8
0
 62
     0
100
AcDbLine
 10
280.2978723404241
 20
31.0000000000002
 30
0.0
 11
348.7517730496447
 21
31.0000000000002
 31
0.0
  0
LINE
  5
A8
330
24
100
AcDbEntity
  8
0
 62
     0
100
AcDbLine
 10
280.2978723404241
 20
28.00000000000015
 30
0.0
 11
348.7517730496447
 21
28.00000000000015
 31
0.0
  0
LINE
  5
A9
330
24
100
AcDbEntity
  8
0
 62
     0
100
AcDbLine
 10
318.1276595744673
 20
25.00000000000012
 30
0.0
 11
348.7517730496447
 21
25.00000000000012
 31
0.0
  0
LINE
  5
AA
330
24
100
AcDbEntity
  8
0
 62
     0
100
AcDbLine
 10
318.1276595744673
 20
49.00000000000036
 30
0.0
 11
318.1276595744673
 21
25.00000000000012
 31
0.0
  0
LINE
  5
AB
330
24
100
AcDbEntity
  8
0
 62
     0
100
AcDbLine
 10
325.3333333333325
 20
37.00000000000024
 30
0.0
 11
325.3333333333325
 21
25.00000000000012
 31
0.0
  0
LINE
  5
AC
330
24
100
AcDbEntity
  8
0
 62
     0
100
AcDbLine
 10
336.1418439716306
 20
49.00000000000036
 30
0.0
 11
336.1418439716306
 21
22.00000000000012
 31
0.0
  0
LINE
  5
AD
330
24
100
AcDbEntity
  8
0
 62
     0
100
AcDbLine
 10
402.7943262411347
 20
22.00000000000012
 30
0.0
 11
402.7943262411347
 21
10.0
 31
0.0
  0
LINE
  5
AE
330
24
100
AcDbEntity
  8
0
 62
     0
100
AcDbLine
 10
410.0
 20
49.00000000000036
 30
0.0
 11
410.0
 21
10.0
 31
0.0
  0
LINE
  5
AF
330
24
100
AcDbEntity
  8
0
 62
     0
100
AcDbLine
 10
410.0
 20
10.0
 30
0.0
 11
410.0
 21
49.00000000000036
 31
0.0
  0
LINE
  5
B0
330
24
100
AcDbEntity
  8
0
 62
     0
100
AcDbLine
 10
402.7943262411347
 20
16.00000000000008
 30
0.0
 11
410.0
 21
16.00000000000008
 31
0.0
  0
ENDBLK
  5
B2
330
24
100
AcDbEntity
  8
0
100
AcDbBlockEnd
  0
BLOCK
  5
FE8
330
FDE
100
AcDbEntity
  8
0
100
AcDbBlockBegin
  2
*D1
 70
     1
 10
0.0
 20
0.0
 30
0.0
  3
*D1
  1

  0
LINE
  5
FDF
330
FDE
100
AcDbEntity
  8
0
  6
ByBlock
 62
     0
100
AcDbLine
 10
741.3379353483541
 20
1938.857652975097
 30
0.0
 11
540.4236224441501
 21
1938.857652975097
 31
0.0
  0
LINE
  5
FE0
330
FDE
100
AcDbEntity
  8
0
  6
ByBlock
 62
     0
100
AcDbLine
 10
741.3379353483541
 20
1238.857652975097
 30
0.0
 11
540.4236224441501
 21
1238.857652975097
 31
0.0
  0
LINE
  5
FE1
330
FDE
100
AcDbEntity
  8
0
  6
ByBlock
 62
     0
100
AcDbLine
 10
552.9236224441501
 20
1913.857652975097
 30
0.0
 11
552.9236224441501
 21
1263.857652975097
 31
0.0
  0
SOLID
  5
FE2
330
FDE
100
AcDbEntity
  8
0
  6
ByBlock
 62
     0
100
AcDbTrace
 10
548.7569557774835
 20
1913.857652975097
 30
0.0
 11
557.0902891108167
 21
1913.857652975097
 31
0.0
 12
552.9236224441501
 22
1938.857652975097
 32
0.0
 13
552.9236224441501
 23
1938.857652975097
 33
0.0
  0
SOLID
  5
FE3
330
FDE
100
AcDbEntity
  8
0
  6
ByBlock
 62
     0
100
AcDbTrace
 10
548.7569557774835
 20
1263.857652975097
 30
0.0
 11
557.0902891108167
 21
1263.857652975097
 31
0.0
 12
552.9236224441501
 22
1238.857652975097
 32
0.0
 13
552.9236224441501
 23
1238.857652975097
 33
0.0
  0
MTEXT
  5
FE4
330
FDE
100
AcDbEntity
  8
0
  6
ByBlock
 62
     0
100
AcDbMText
 10
534.1736224441501
 20
1588.857652975097
 30
0.0
 40
25.0
 41
0.0
 71
     5
 72
     1
  1
\A1;700
 11
0.0000000000000001
 21
1.0
 31
0.0
 73
     1
 44
1.0
  0
POINT
  5
FE5
330
FDE
100
AcDbEntity
  8
DEFPOINTS
  6
ByBlock
 62
     0
100
AcDbPoint
 10
747.5879353483541
 20
1938.857652975097
 30
0.0
  0
POINT
  5
FE6
330
FDE
100
AcDbEntity
  8
DEFPOINTS
  6
ByBlock
 62
     0
100
AcDbPoint
 10
747.5879353483541
 20
1238.857652975097
 30
0.0
  0
POINT
  5
FE7
330
FDE
100
AcDbEntity
  8
DEFPOINTS
  6
ByBlock
 62
     0
100
AcDbPoint
 10
552.9236224441501
 20
1238.857652975097
 30
0.0
  0
ENDBLK
  5
FE9
330
FDE
100
AcDbEntity
  8
0
100
AcDbBlockEnd
  0
BLOCK
  5
FF4
330
FEA
100
AcDbEntity
  8
0
100
AcDbBlockBegin
  2
*D2
 70
     1
 10
0.0
 20
0.0
 30
0.0
  3
*D2
  1

  0
LINE
  5
FEB
330
FEA
100
AcDbEntity
  8
0
  6
ByBlock
 62
     0
100
AcDbLine
 10
741.3379353483541
 20
1838.857652975097
 30
0.0
 11
634.0698577668099
 21
1838.857652975097
 31
0.0
  0
LINE
  5
FEC
330
FEA
100
AcDbEntity
  8
0
  6
ByBlock
 62
     0
100
AcDbLine
 10
741.3379353483543
 20
1338.857652975097
 30
0.0
 11
634.0698577668099
 21
1338.857652975097
 31
0.0
  0
LINE
  5
FED
330
FEA
100
AcDbEntity
  8
0
  6
ByBlock
 62
     0
100
AcDbLine
 10
646.5698577668099
 20
1813.857652975097
 30
0.0
 11
646.5698577668099
 21
1363.857652975097
 31
0.0
  0
SOLID
  5
FEE
330
FEA
100
AcDbEntity
  8
0
  6
ByBlock
 62
     0
100
AcDbTrace
 10
642.4031911001433
 20
1813.857652975097
 30
0.0
 11
650.7365244334765
 21
1813.857652975097
 31
0.0
 12
646.5698577668099
 22
1838.857652975097
 32
0.0
 13
646.5698577668099
 23
1838.857652975097
 33
0.0
  0
SOLID
  5
FEF
330
FEA
100
AcDbEntity
  8
0
  6
ByBlock
 62
     0
100
AcDbTrace
 10
642.4031911001433
 20
1363.857652975097
 30
0.0
 11
650.7365244334765
 21
1363.857652975097
 31
0.0
 12
646.5698577668099
 22
1338.857652975097
 32
0.0
 13
646.5698577668099
 23
1338.857652975097
 33
0.0
  0
MTEXT
  5
FF0
330
FEA
100
AcDbEntity
  8
0
  6
ByBlock
 62
     0
100
AcDbMText
 10
627.8198577668099
 20
1588.857652975097
 30
0.0
 40
25.0
 41
0.0
 71
     5
 72
     1
  1
\A1;500
 11
0.0000000000000001
 21
1.0
 31
0.0
 73
     1
 44
1.0
  0
POINT
  5
FF1
330
FEA
100
AcDbEntity
  8
DEFPOINTS
  6
ByBlock
 62
     0
100
AcDbPoint
 10
747.5879353483541
 20
1838.857652975097
 30
0.0
  0
POINT
  5
FF2
330
FEA
100
AcDbEntity
  8
DEFPOINTS
  6
ByBlock
 62
     0
100
AcDbPoint
 10
747.5879353483543
 20
1338.857652975097
 30
0.0
  0
POINT
  5
FF3
330
FEA
100
AcDbEntity
  8
DEFPOINTS
  6
ByBlock
 62
     0
100
AcDbPoint
 10
646.5698577668099
 20
1338.857652975097
 30
0.0
  0
ENDBLK
  5
FF5
330
FEA
100
AcDbEntity
  8
0
100
AcDbBlockEnd
  0
BLOCK
  5
1000
330
FF6
100
AcDbEntity
  8
0
100
AcDbBlockBegin
  2
*D3
 70
     1
 10
0.0
 20
0.0
 30
0.0
  3
*D3
  1

  0
LINE
  5
FF7
330
FF6
100
AcDbEntity
  8
0
  6
ByBlock
 62
     0
100
AcDbLine
 10
1979.648248636538
 20
1971.770067059548
 30
0.0
 11
1979.648248636538
 21
2171.240174754543
 31
0.0
  0
LINE
  5
FF8
330
FF6
100
AcDbEntity
  8
0
  6
ByBlock
 62
     0
100
AcDbLine
 10
2979.648248636539
 20
1971.770067059551
 30
0.0
 11
2979.648248636539
 21
2171.240174754543
 31
0.0
  0
LINE
  5
FF9
330
FF6
100
AcDbEntity
  8
0
  6
ByBlock
 62
     0
100
AcDbLine
 10
2004.648248636538
 20
2158.740174754544
 30
0.0
 11
2954.648248636539
 21
2158.740174754544
 31
0.0
  0
SOLID
  5
FFA
330
FF6
100
AcDbEntity
  8
0
  6
ByBlock
 62
     0
100
AcDbTrace
 10
2004.648248636538
 20
2162.90684142121
 30
0.0
 11
2004.648248636538
 21
2154.573508087877
 31
0.0
 12
1979.648248636538
 22
2158.740174754544
 32
0.0
 13
1979.648248636538
 23
2158.740174754544
 33
0.0
  0
SOLID
  5
FFB
330
FF6
100
AcDbEntity
  8
0
  6
ByBlock
 62
     0
100
AcDbTrace
 10
2954.648248636539
 20
2162.90684142121
 30
0.0
 11
2954.648248636539
 21
2154.573508087877
 31
0.0
 12
2979.648248636539
 22
2158.740174754544
 32
0.0
 13
2979.648248636539
 23
2158.740174754544
 33
0.0
  0
MTEXT
  5
FFC
330
FF6
100
AcDbEntity
  8
0
  6
ByBlock
 62
     0
100
AcDbMText
 10
2479.648248636538
 20
2179.667141046678
 30
0.0
 40
25.0
 41
0.0
 71
     5
 72
     1
  1
\A1;1,000
 73
     1
 44
1.0
  0
POINT
  5
FFD
330
FF6
100
AcDbEntity
  8
DEFPOINTS
  6
ByBlock
 62
     0
100
AcDbPoint
 10
1979.648248636538
 20
1965.520067059548
 30
0.0
  0
POINT
  5
FFE
330
FF6
100
AcDbEntity
  8
DEFPOINTS
  6
ByBlock
 62
     0
100
AcDbPoint
 10
2979.648248636539
 20
1965.52006705955
 30
0.0
  0
POINT
  5
FFF
330
FF6
100
AcDbEntity
  8
DEFPOINTS
  6
ByBlock
 62
     0
100
AcDbPoint
 10
2979.648248636539
 20
2158.740174754544
 30
0.0
  0
ENDBLK
  5
1001
330
FF6
100
AcDbEntity
  8
0
100
AcDbBlockEnd
  0
BLOCK
  5
100E
330
1002
100
AcDbEntity
  8
0
100
AcDbBlockBegin
  2
*D4
 70
     1
 10
0.0
 20
0.0
 30
0.0
  3
*D4
  1

  0
LINE
  5
1003
330
1002
100
AcDbEntity
  8
0
  6
ByBlock
 62
     0
100
AcDbLine
 10
1999.648248636538
 20
1971.770067059548
 30
0.0
 11
1999.648248636538
 21
2081.338119850384
 31
0.0
  0
LINE
  5
1004
330
1002
100
AcDbEntity
  8
0
  6
ByBlock
 62
     0
100
AcDbLine
 10
1979.648248636538
 20
1971.770067059548
 30
0.0
 11
1979.648248636538
 21
2081.338119850384
 31
0.0
  0
LINE
  5
1005
330
1002
100
AcDbEntity
  8
0
  6
ByBlock
 62
     0
100
AcDbLine
 10
2024.648248636538
 20
2068.838119850384
 30
0.0
 11
2049.648248636538
 21
2068.838119850384
 31
0.0
  0
LINE
  5
1006
330
1002
100
AcDbEntity
  8
0
  6
ByBlock
 62
     0
100
AcDbLine
 10
1954.648248636538
 20
2068.838119850384
 30
0.0
 11
1884.844877850021
 21
2068.838119850384
 31
0.0
  0
LINE
  5
1007
330
1002
100
AcDbEntity
  8
0
  6
ByBlock
 62
     0
100
AcDbLine
 10
1999.648248636538
 20
2068.838119850384
 30
0.0
 11
1979.648248636538
 21
2068.838119850384
 31
0.0
  0
SOLID
  5
1008
330
1002
100
AcDbEntity
  8
0
  6
ByBlock
 62
     0
100
AcDbTrace
 10
2024.648248636538
 20
2073.004786517051
 30
0.0
 11
2024.648248636538
 21
2064.671453183718
 31
0.0
 12
1999.648248636538
 22
2068.838119850384
 32
0.0
 13
1999.648248636538
 23
2068.838119850384
 33
0.0
  0
SOLID
  5
1009
330
1002
100
AcDbEntity
  8
0
  6
ByBlock
 62
     0
100
AcDbTrace
 10
1954.648248636538
 20
2073.004786517051
 30
0.0
 11
1954.648248636538
 21
2064.671453183718
 31
0.0
 12
1979.648248636538
 22
2068.838119850384
 32
0.0
 13
1979.648248636538
 23
2068.838119850384
 33
0.0
  0
MTEXT
  5
100A
330
1002
100
AcDbEntity
  8
0
  6
ByBlock
 62
     0
100
AcDbMText
 10
1907.24656324328
 20
2087.588119850384
 30
0.0
 40
25.0
 41
0.0
 71
     5
 72
     1
  1
\A1;20
 73
     1
 44
1.0
  0
POINT
  5
100B
330
1002
100
AcDbEntity
  8
DEFPOINTS
  6
ByBlock
 62
     0
100
AcDbPoint
 10
1999.648248636538
 20
1965.520067059548
 30
0.0
  0
POINT
  5
100C
330
1002
100
AcDbEntity
  8
DEFPOINTS
  6
ByBlock
 62
     0
100
AcDbPoint
 10
1979.648248636538
 20
1965.520067059548
 30
0.0
  0
POINT
  5
100D
330
1002
100
AcDbEntity
  8
DEFPOINTS
  6
ByBlock
 62
     0
100
AcDbPoint
 10
1979.648248636538
 20
2068.838119850384
 30
0.0
  0
ENDBLK
  5
100F
330
1002
100
AcDbEntity
  8
0
100
AcDbBlockEnd
  0
BLOCK
  5
101C
330
1010
100
AcDbEntity
  8
0
100
AcDbBlockBegin
  2
*D5
 70
     1
 10
0.0
 20
0.0
 30
0.0
  3
*D5
  1

  0
LINE
  5
1011
330
1010
100
AcDbEntity
  8
0
  6
ByBlock
 62
     0
100
AcDbLine
 10
2959.648248636538
 20
1971.770067059548
 30
0.0
 11
2959.648248636538
 21
2081.338119850384
 31
0.0
  0
LINE
  5
1012
330
1010
100
AcDbEntity
  8
0
  6
ByBlock
 62
     0
100
AcDbLine
 10
2979.648248636539
 20
1971.770067059548
 30
0.0
 11
2979.648248636539
 21
2081.338119850384
 31
0.0
  0
LINE
  5
1013
330
1010
100
AcDbEntity
  8
0
  6
ByBlock
 62
     0
100
AcDbLine
 10
2934.648248636538
 20
2068.838119850384
 30
0.0
 11
2909.648248636538
 21
2068.838119850384
 31
0.0
  0
LINE
  5
1014
330
1010
100
AcDbEntity
  8
0
  6
ByBlock
 62
     0
100
AcDbLine
 10
3004.648248636539
 20
2068.838119850384
 30
0.0
 11
3074.451619423056
 21
2068.838119850384
 31
0.0
  0
LINE
  5
1015
330
1010
100
AcDbEntity
  8
0
  6
ByBlock
 62
     0
100
AcDbLine
 10
2959.648248636538
 20
2068.838119850384
 30
0.0
 11
2979.648248636539
 21
2068.838119850384
 31
0.0
  0
SOLID
  5
1016
330
1010
100
AcDbEntity
  8
0
  6
ByBlock
 62
     0
100
AcDbTrace
 10
2934.648248636538
 20
2073.004786517051
 30
0.0
 11
2934.648248636538
 21
2064.671453183718
 31
0.0
 12
2959.648248636538
 22
2068.838119850384
 32
0.0
 13
2959.648248636538
 23
2068.838119850384
 33
0.0
  0
SOLID
  5
1017
330
1010
100
AcDbEntity
  8
0
  6
ByBlock
 62
     0
100
AcDbTrace
 10
3004.648248636539
 20
2073.004786517051
 30
0.0
 11
3004.648248636539
 21
2064.671453183718
 31
0.0
 12
2979.648248636539
 22
2068.838119850384
 32
0.0
 13
2979.648248636539
 23
2068.838119850384
 33
0.0
  0
MTEXT
  5
1018
330
1010
100
AcDbEntity
  8
0
  6
ByBlock
 62
     0
100
AcDbMText
 10
3052.049934029797
 20
2087.588119850384
 30
0.0
 40
25.0
 41
0.0
 71
     5
 72
     1
  1
\A1;20
 73
     1
 44
1.0
  0
POINT
  5
1019
330
1010
100
AcDbEntity
  8
DEFPOINTS
  6
ByBlock
 62
     0
100
AcDbPoint
 10
2959.648248636538
 20
1965.520067059548
 30
0.0
  0
POINT
  5
101A
330
1010
100
AcDbEntity
  8
DEFPOINTS
  6
ByBlock
 62
     0
100
AcDbPoint
 10
2979.648248636539
 20
1965.520067059548
 30
0.0
  0
POINT
  5
101B
330
1010
100
AcDbEntity
  8
DEFPOINTS
  6
ByBlock
 62
     0
100
AcDbPoint
 10
2979.648248636539
 20
2068.838119850384
 30
0.0
  0
ENDBLK
  5
101D
330
1010
100
AcDbEntity
  8
0
100
AcDbBlockEnd
  0
BLOCK
  5
1028
330
101E
100
AcDbEntity
  8
0
100
AcDbBlockBegin
  2
*D6
 70
     1
 10
0.0
 20
0.0
 30
0.0
  3
*D6
  1

  0
LINE
  5
101F
330
101E
100
AcDbEntity
  8
0
  6
ByBlock
 62
     0
100
AcDbLine
 10
1999.648248636538
 20
1971.770067059548
 30
0.0
 11
1999.648248636538
 21
2081.338119850384
 31
0.0
  0
LINE
  5
1020
330
101E
100
AcDbEntity
  8
0
  6
ByBlock
 62
     0
100
AcDbLine
 10
2734.648248636538
 20
1971.770067059548
 30
0.0
 11
2734.648248636538
 21
2081.338119850384
 31
0.0
  0
LINE
  5
1021
330
101E
100
AcDbEntity
  8
0
  6
ByBlock
 62
     0
100
AcDbLine
 10
2024.648248636538
 20
2068.838119850384
 30
0.0
 11
2709.648248636538
 21
2068.838119850384
 31
0.0
  0
SOLID
  5
1022
330
101E
100
AcDbEntity
  8
0
  6
ByBlock
 62
     0
100
AcDbTrace
 10
2024.648248636538
 20
2073.004786517051
 30
0.0
 11
2024.648248636538
 21
2064.671453183718
 31
0.0
 12
1999.648248636538
 22
2068.838119850384
 32
0.0
 13
1999.648248636538
 23
2068.838119850384
 33
0.0
  0
SOLID
  5
1023
330
101E
100
AcDbEntity
  8
0
  6
ByBlock
 62
     0
100
AcDbTrace
 10
2709.648248636538
 20
2073.004786517051
 30
0.0
 11
2709.648248636538
 21
2064.671453183718
 31
0.0
 12
2734.648248636538
 22
2068.838119850384
 32
0.0
 13
2734.648248636538
 23
2068.838119850384
 33
0.0
  0
MTEXT
  5
1024
330
101E
100
AcDbEntity
  8
0
  6
ByBlock
 62
     0
100
AcDbMText
 10
2367.148248636538
 20
2087.588119850384
 30
0.0
 40
25.0
 41
0.0
 71
     5
 72
     1
  1
\A1;3@245=735
 73
     1
 44
1.0
  0
POINT
  5
1025
330
101E
100
AcDbEntity
  8
DEFPOINTS
  6
ByBlock
 62
     0
100
AcDbPoint
 10
1999.648248636538
 20
1965.520067059548
 30
0.0
  0
POINT
  5
1026
330
101E
100
AcDbEntity
  8
DEFPOINTS
  6
ByBlock
 62
     0
100
AcDbPoint
 10
2734.648248636538
 20
1965.520067059548
 30
0.0
  0
POINT
  5
1027
330
101E
100
AcDbEntity
  8
DEFPOINTS
  6
ByBlock
 62
     0
100
AcDbPoint
 10
2734.648248636538
 20
2068.838119850384
 30
0.0
  0
ENDBLK
  5
1029
330
101E
100
AcDbEntity
  8
0
100
AcDbBlockEnd
  0
BLOCK
  5
1034
330
102A
100
AcDbEntity
  8
0
100
AcDbBlockBegin
  2
*D7
 70
     1
 10
0.0
 20
0.0
 30
0.0
  3
*D7
  1

  0
LINE
  5
102B
330
102A
100
AcDbEntity
  8
0
  6
ByBlock
 62
     0
100
AcDbLine
 10
2734.648248636538
 20
1971.770067059548
 30
0.0
 11
2734.648248636538
 21
2081.338119850384
 31
0.0
  0
LINE
  5
102C
330
102A
100
AcDbEntity
  8
0
  6
ByBlock
 62
     0
100
AcDbLine
 10
2959.648248636538
 20
1971.770067059548
 30
0.0
 11
2959.648248636538
 21
2081.338119850384
 31
0.0
  0
LINE
  5
102D
330
102A
100
AcDbEntity
  8
0
  6
ByBlock
 62
     0
100
AcDbLine
 10
2759.648248636538
 20
2068.838119850384
 30
0.0
 11
2934.648248636538
 21
2068.838119850384
 31
0.0
  0
SOLID
  5
102E
330
102A
100
AcDbEntity
  8
0
  6
ByBlock
 62
     0
100
AcDbTrace
 10
2759.648248636538
 20
2073.004786517051
 30
0.0
 11
2759.648248636538
 21
2064.671453183718
 31
0.0
 12
2734.648248636538
 22
2068.838119850384
 32
0.0
 13
2734.648248636538
 23
2068.838119850384
 33
0.0
  0
SOLID
  5
102F
330
102A
100
AcDbEntity
  8
0
  6
ByBlock
 62
     0
100
AcDbTrace
 10
2934.648248636538
 20
2073.004786517051
 30
0.0
 11
2934.648248636538
 21
2064.671453183718
 31
0.0
 12
2959.648248636538
 22
2068.838119850384
 32
0.0
 13
2959.648248636538
 23
2068.838119850384
 33
0.0
  0
MTEXT
  5
1030
330
102A
100
AcDbEntity
  8
0
  6
ByBlock
 62
     0
100
AcDbMText
 10
2847.148248636538
 20
2087.588119850384
 30
0.0
 40
25.0
 41
0.0
 71
     5
 72
     1
  1
\A1;225
 73
     1
 44
1.0
  0
POINT
  5
1031
330
102A
100
AcDbEntity
  8
DEFPOINTS
  6
ByBlock
 62
     0
100
AcDbPoint
 10
2734.648248636538
 20
1965.520067059548
 30
0.0
  0
POINT
  5
1032
330
102A
100
AcDbEntity
  8
DEFPOINTS
  6
ByBlock
 62
     0
100
AcDbPoint
 10
2959.648248636538
 20
1965.520067059548
 30
0.0
  0
POINT
  5
1033
330
102A
100
AcDbEntity
  8
DEFPOINTS
  6
ByBlock
 62
     0
100
AcDbPoint
 10
2959.648248636538
 20
2068.838119850384
 30
0.0
  0
ENDBLK
  5
1035
330
102A
100
AcDbEntity
  8
0
100
AcDbBlockEnd
  0
BLOCK
  5
1169
330
1036
100
AcDbEntity
  8
0
 48
10.0
100
AcDbBlockBegin
  2
A$C2CC912BE
 70
     0
 10
0.0
 20
0.0
 30
0.0
  3
A$C2CC912BE
  1

  0
LINE
  5
1037
330
1036
100
AcDbEntity
  8
上線
100
AcDbLine
 10
4177.218830816626
 20
2923.342524559054
 30
0.0
 11
0.0000029459370126
 21
2923.342524559053
 31
0.0
  0
LINE
  5
1038
330
1036
100
AcDbEntity
  8
上線
100
AcDbLine
 10
0.0000029459370126
 20
0.0000031509980563
 30
0.0
 11
4177.218830816626
 21
0.0000031509980545
 31
0.0
  0
DIMENSION
  5
1039
330
1036
100
AcDbEntity
  8
上線
100
AcDbDimension
  2
*D2
 10
718.4084222005512
 20
1038.964657320177
 30
0.0
 11
699.6584222005512
 21
1288.964657320177
 31
0.0
 12
71.83856443374134
 22
-299.89299565492
 32
0.0
 71
     5
 42
-1.0
  3
STANDARD
100
AcDbAlignedDimension
 13
819.4264997820955
 23
1538.964657320177
 33
0.0
 14
819.4264997820955
 24
1038.964657320177
 34
0.0
 50
90.0
100
AcDbRotatedDimension
1001
ACAD
1000
DSTYLE
1002
{
1070
    40
1040
10.0
1070
    41
1040
2.5
1070
    42
1040
0.625
1070
    43
1040
3.75
1070
    44
1040
1.25
1070
    73
1070
     0
1070
    74
1070
     0
1070
    77
1070
     1
1070
    78
1070
     8
1070
   140
1040
2.5
1070
   141
1040
2.5
1070
   143
1040
0.0394
1070
   147
1040
0.625
1070
   171
1070
     4
1070
   172
1070
     1
1070
   273
1070
     8
1070
   274
1070
     4
1070
   277
1070
     6
1002
}
  0
DIMENSION
  5
103A
330
1036
100
AcDbEntity
  8
上線
100
AcDbDimension
  2
*D1
 10
624.7621868778915
 20
938.9646573201771
 30
0.0
 11
606.0121868778915
 21
1288.964657320177
 31
0.0
 12
71.83856443374134
 22
-299.89299565492
 32
0.0
 71
     5
 42
-1.0
  3
STANDARD
100
AcDbAlignedDimension
 13
819.4264997820955
 23
1638.964657320177
 33
0.0
 14
819.4264997820955
 24
938.9646573201771
 34
0.0
 50
90.0
100
AcDbRotatedDimension
1001
ACAD
1000
DSTYLE
1002
{
1070
    40
1040
10.0
1070
    41
1040
2.5
1070
    42
1040
0.625
1070
    43
1040
3.75
1070
    44
1040
1.25
1070
    73
1070
     0
1070
    74
1070
     0
1070
    77
1070
     1
1070
    78
1070
     8
1070
   140
1040
2.5
1070
   141
1040
2.5
1070
   143
1040
0.0394
1070
   147
1040
0.625
1070
   171
1070
     4
1070
   172
1070
     1
1070
   273
1070
     8
1070
   274
1070
     4
1070
   277
1070
     6
1002
}
  0
LINE
  5
103B
330
1036
100
AcDbEntity
  8
上線
100
AcDbLine
 10
951.0619587375758
 20
1538.758452578436
 30
0.0
 11
960.3578760638493
 21
1088.044239739293
 31
0.0
  0
LINE
  5
103C
330
1036
100
AcDbEntity
  8
上線
100
AcDbLine
 10
961.0598324917537
 20
1538.964657320177
 30
0.0
 11
970.3557498180272
 21
1088.250444481034
 31
0.0
  0
LINE
  5
103D
330
1036
100
AcDbEntity
  8
上線
100
AcDbLine
 10
1201.059832491753
 20
1538.964657320176
 30
0.0
 11
1191.76391516548
 21
1088.250444481034
 31
0.0
  0
LINE
  5
103E
330
1036
100
AcDbEntity
  8
0
  6
ByBlock
 62
     0
 48
10.0
100
AcDbLine
 10
624.7621868778915
 20
1638.964657320177
 30
0.0
 11
624.7621868778915
 21
1223.964657320177
 31
0.0
  0
LINE
  5
103F
330
1036
100
AcDbEntity
  8
0
  6
ByBlock
 62
     0
 48
10.0
100
AcDbLine
 10
1458.04716628644
 20
1643.964657320177
 30
0.0
 11
1458.04716628644
 21
938.9646573201771
 31
0.0
  0
LINE
  5
1040
330
1036
100
AcDbEntity
  8
点線
100
AcDbLine
 10
871.0598324917537
 20
968.9646573201768
 30
0.0
 11
871.0598324917537
 21
1608.964657320177
 31
0.0
  0
LINE
  5
1041
330
1036
100
AcDbEntity
  8
上線
100
AcDbLine
 10
0.0000029459370126
 20
2923.342524559054
 30
0.0
 11
0.0000029459370126
 21
0.0000031509980545
 31
0.0
  0
LINE
  5
1042
330
1036
100
AcDbEntity
  8
0
  6
ByBlock
 62
     0
 48
10.0
100
AcDbLine
 10
718.4084222005512
 20
1573.964657320177
 30
0.0
 11
718.4084222005512
 21
1273.964657320177
 31
0.0
  0
LINE
  5
1043
330
1036
100
AcDbEntity
  8
上線
 48
10.0
100
AcDbLine
 10
1291.059832491753
 20
1608.964657320177
 30
0.0
 11
1291.059832491753
 21
968.9646573201772
 31
0.0
  0
LINE
  5
1044
330
1036
100
AcDbEntity
  8
上線
100
AcDbLine
 10
1321.059832491752
 20
1638.964657320177
 30
0.0
 11
1321.059832491753
 21
988.9646573201771
 31
0.0
  0
LINE
  5
1045
330
1036
100
AcDbEntity
  8
上線
100
AcDbLine
 10
841.0598324917536
 20
1638.964657320177
 30
0.0
 11
841.0598324917536
 21
988.9646573201771
 31
0.0
  0
LINE
  5
1046
330
1036
100
AcDbEntity
  8
0
  6
ByBlock
 62
     0
100
AcDbLine
 10
819.4264997820955
 20
1038.964657320177
 30
0.0
 11
705.9084222005512
 21
1038.964657320177
 31
0.0
  0
LINE
  5
1047
330
1036
100
AcDbEntity
  8
0
  6
ByBlock
 62
     0
100
AcDbLine
 10
819.4264997820955
 20
938.9646573201771
 30
0.0
 11
612.2621868778915
 21
938.9646573201771
 31
0.0
  0
LINE
  5
1048
330
1036
100
AcDbEntity
  8
0
  6
ByBlock
 62
     0
 48
10.0
100
AcDbLine
 10
804.8430315008172
 20
938.9646573201771
 30
0.0
 11
612.2621868778915
 21
938.9646573201771
 31
0.0
  0
MTEXT
  5
1049
330
1036
100
AcDbEntity
  8
0
  6
ByBlock
 62
     0
 48
10.0
100
AcDbMText
 10
766.0598324917536
 20
807.5230628928693
 30
0.0
 40
25.0
 41
0.0
 71
     5
 72
     1
  1
\A1;30
 73
     1
 44
1.0
  0
LINE
  5
104A
330
1036
100
AcDbEntity
  8
0
  6
ByBlock
 62
     0
 48
10.0
100
AcDbLine
 10
816.0598324917536
 20
788.7730628928693
 30
0.0
 11
741.0598324917536
 21
788.7730628928693
 31
0.0
  0
LINE
  5
104B
330
1036
100
AcDbEntity
  8
0
  6
ByBlock
 62
     0
 48
10.0
100
AcDbLine
 10
804.8430315008172
 20
938.9646573201771
 30
0.0
 11
705.9084222005512
 21
938.9646573201771
 31
0.0
  0
LINE
  5
104C
330
1036
100
AcDbEntity
  8
0
  6
ByBlock
 62
     0
 48
10.0
100
AcDbLine
 10
804.8430315008172
 20
1038.964657320177
 30
0.0
 11
705.9084222005512
 21
1038.964657320177
 31
0.0
  0
LINE
  5
104D
330
1036
100
AcDbEntity
  8
0
  6
ByBlock
 62
     0
 48
10.0
100
AcDbLine
 10
804.8430315008172
 20
1038.964657320177
 30
0.0
 11
705.9084222005512
 21
1038.964657320177
 31
0.0
  0
LINE
  5
104E
330
1036
100
AcDbEntity
  8
0
  6
ByBlock
 62
     0
100
AcDbLine
 10
624.7621868778915
 20
1353.964657320177
 30
0.0
 11
624.7621868778915
 21
963.9646573201771
 31
0.0
  0
MTEXT
  5
104F
330
1036
100
AcDbEntity
  8
0
  6
ByBlock
 62
     0
 48
10.0
100
AcDbMText
 10
699.6584222005512
 20
988.9646573201771
 30
0.0
 40
25.0
 41
0.0
 71
     5
 72
     1
  1
\A1;100
 11
0.0000000000000001
 21
1.0
 31
0.0
 73
     1
 44
1.0
  0
LINE
  5
1050
330
1036
100
AcDbEntity
  8
0
  6
ByBlock
 62
     0
 48
10.0
100
AcDbLine
 10
718.4084222005512
 20
1013.964657320177
 30
0.0
 11
718.4084222005512
 21
963.9646573201771
 31
0.0
  0
SOLID
  5
1051
330
1036
100
AcDbEntity
  8
0
  6
ByBlock
 62
     0
100
AcDbTrace
 10
620.5955202112254
 20
963.9646573201771
 30
0.0
 11
628.9288535445575
 21
963.9646573201771
 31
0.0
 12
624.7621868778915
 22
938.9646573201771
 32
0.0
 13
624.7621868778915
 23
938.9646573201771
 33
0.0
  0
SOLID
  5
1052
330
1036
100
AcDbEntity
  8
0
  6
ByBlock
 62
     0
 48
10.0
100
AcDbTrace
 10
620.5955202112245
 20
963.9646573201771
 30
0.0
 11
628.9288535445584
 21
963.9646573201771
 31
0.0
 12
624.7621868778915
 22
938.9646573201771
 32
0.0
 13
624.7621868778915
 23
938.9646573201771
 33
0.0
  0
POINT
  5
1053
330
1036
100
AcDbEntity
  8
DEFPOINTS
  6
ByBlock
 62
     0
100
AcDbPoint
 10
624.7621868778915
 20
938.9646573201771
 30
0.0
  0
POINT
  5
1054
330
1036
100
AcDbEntity
  8
DEFPOINTS
  6
ByBlock
 62
     0
 48
10.0
100
AcDbPoint
 10
624.7621868778915
 20
938.9646573201771
 30
0.0
  0
SOLID
  5
1055
330
1036
100
AcDbEntity
  8
0
  6
ByBlock
 62
     0
 48
10.0
100
AcDbTrace
 10
714.2417555338843
 20
963.9646573201771
 30
0.0
 11
722.5750888672173
 21
963.9646573201771
 31
0.0
 12
718.4084222005512
 22
938.9646573201771
 32
0.0
 13
718.4084222005512
 23
938.9646573201771
 33
0.0
  0
POINT
  5
1056
330
1036
100
AcDbEntity
  8
DEFPOINTS
  6
ByBlock
 62
     0
 48
10.0
100
AcDbPoint
 10
718.4084222005512
 20
938.9646573201771
 30
0.0
  0
POINT
  5
1057
330
1036
100
AcDbEntity
  8
DEFPOINTS
  6
ByBlock
 62
     0
 48
10.0
100
AcDbPoint
 10
718.4084222005512
 20
988.9646573201771
 30
0.0
  0
LINE
  5
1058
330
1036
100
AcDbEntity
  8
0
  6
ByBlock
 62
     0
100
AcDbLine
 10
718.4084222005512
 20
1253.964657320177
 30
0.0
 11
718.4084222005512
 21
1063.964657320177
 31
0.0
  0
SOLID
  5
1059
330
1036
100
AcDbEntity
  8
0
  6
ByBlock
 62
     0
100
AcDbTrace
 10
714.2417555338852
 20
1063.964657320177
 30
0.0
 11
722.5750888672173
 21
1063.964657320177
 31
0.0
 12
718.4084222005512
 22
1038.964657320177
 32
0.0
 13
718.4084222005512
 23
1038.964657320177
 33
0.0
  0
SOLID
  5
105A
330
1036
100
AcDbEntity
  8
0
  6
ByBlock
 62
     0
 48
10.0
100
AcDbTrace
 10
714.2417555338843
 20
1063.964657320177
 30
0.0
 11
722.5750888672173
 21
1063.964657320177
 31
0.0
 12
718.4084222005512
 22
1038.964657320177
 32
0.0
 13
718.4084222005512
 23
1038.964657320177
 33
0.0
  0
POINT
  5
105B
330
1036
100
AcDbEntity
  8
DEFPOINTS
  6
ByBlock
 62
     0
100
AcDbPoint
 10
718.4084222005512
 20
1038.964657320177
 30
0.0
  0
SOLID
  5
105C
330
1036
100
AcDbEntity
  8
0
  6
ByBlock
 62
     0
 48
10.0
100
AcDbTrace
 10
714.2417555338843
 20
1013.964657320177
 30
0.0
 11
722.5750888672173
 21
1013.964657320177
 31
0.0
 12
718.4084222005512
 22
1038.964657320177
 32
0.0
 13
718.4084222005512
 23
1038.964657320177
 33
0.0
  0
MTEXT
  5
105D
330
1036
100
AcDbEntity
  8
0
  6
ByBlock
 62
     0
 48
10.0
100
AcDbMText
 10
1439.296535086754
 20
1285.671968446544
 30
0.0
 40
25.0
 41
0.0
 71
     5
 72
     1
  1
3@213=640
 11
0.0000000000000001
 21
1.0
 31
0.0
 73
     1
 44
1.0
  0
LINE
  5
105E
330
1036
100
AcDbEntity
  8
0
  6
ByBlock
 62
     0
 48
10.0
100
AcDbLine
 10
1388.815407433618
 20
968.9646573201772
 30
0.0
 11
1470.91257887521
 21
968.9646573201772
 31
0.0
  0
MTEXT
  5
105F
330
1036
100
AcDbEntity
  8
0
  6
ByBlock
 62
     0
 48
10.0
100
AcDbMText
 10
1439.66257887521
 20
863.9646573201771
 30
0.0
 40
25.0
 41
0.0
 71
     5
 72
     1
  1
\A1;30
 11
0.0000000000000001
 21
1.0
 31
0.0
 73
     1
 44
1.0
  0
LINE
  5
1060
330
1036
100
AcDbEntity
  8
0
  6
ByBlock
 62
     0
 48
10.0
100
AcDbLine
 10
1345.635086818996
 20
938.9646573201771
 30
0.0
 11
1470.91257887521
 21
938.9646573201771
 31
0.0
  0
LINE
  5
1061
330
1036
100
AcDbEntity
  8
0
  6
ByBlock
 62
     0
 48
10.0
100
AcDbLine
 10
1345.635086818996
 20
968.9646573201772
 30
0.0
 11
1470.91257887521
 21
968.9646573201772
 31
0.0
  0
LINE
  5
1062
330
1036
100
AcDbEntity
  8
中心線
100
AcDbLine
 10
1080.643455106923
 20
1101.035218946393
 30
0.0
 11
1080.643455106923
 21
856.1224643816403
 31
0.0
  0
MTEXT
  5
1063
330
1036
100
AcDbEntity
  8
0
  6
ByBlock
 62
     0
 48
10.0
100
AcDbMText
 10
1082.534212577298
 20
807.3631516772639
 30
0.0
 40
25.0
 41
0.0
 71
     5
 72
     1
  1
2@210=420
 73
     1
 44
1.0
  0
LINE
  5
1064
330
1036
100
AcDbEntity
  8
0
  6
ByBlock
 62
     0
 48
10.0
100
AcDbLine
 10
811.0598324917537
 20
788.6131516772636
 30
0.0
 11
1296.059832491753
 21
788.6131516772638
 31
0.0
  0
LINE
  5
1065
330
1036
100
AcDbEntity
  8
上線
 48
10.0
100
AcDbLine
 10
1291.059832491753
 20
968.9646573201772
 30
0.0
 11
1080.643455106923
 21
968.9646573201768
 31
0.0
  0
LINE
  5
1066
330
1036
100
AcDbEntity
  8
上線
100
AcDbLine
 10
851.0598324917536
 20
938.9646573201771
 30
0.0
 11
1311.059832491753
 21
938.9646573201771
 31
0.0
  0
LINE
  5
1067
330
1036
100
AcDbEntity
  8
点線
100
AcDbLine
 10
1080.643455106923
 20
968.9646573201772
 30
0.0
 11
871.0598324917537
 21
968.9646573201768
 31
0.0
  0
LINE
  5
1068
330
1036
100
AcDbEntity
  8
0
  6
ByBlock
 62
     0
 48
10.0
100
AcDbLine
 10
841.0598324917536
 20
908.6050194096699
 30
0.0
 11
841.0598324917536
 21
776.2730628928693
 31
0.0
  0
LINE
  5
1069
330
1036
100
AcDbEntity
  8
0
  6
ByBlock
 62
     0
 48
10.0
100
AcDbLine
 10
871.0598324917537
 20
908.6050194096699
 30
0.0
 11
871.0598324917537
 21
776.2730628928693
 31
0.0
  0
LINE
  5
106A
330
1036
100
AcDbEntity
  8
0
  6
ByBlock
 62
     0
 48
10.0
100
AcDbLine
 10
871.0598324917537
 20
788.7730628928693
 30
0.0
 11
841.0598324917536
 21
788.7730628928693
 31
0.0
  0
POINT
  5
106B
330
1036
100
AcDbEntity
  8
DEFPOINTS
  6
ByBlock
 62
     0
 48
10.0
100
AcDbPoint
 10
781.0598324917537
 20
788.7730628928693
 30
0.0
  0
SOLID
  5
106C
330
1036
100
AcDbEntity
  8
0
  6
ByBlock
 62
     0
 48
10.0
100
AcDbTrace
 10
816.0598324917536
 20
792.9397295595361
 30
0.0
 11
816.0598324917536
 21
784.6063962262026
 31
0.0
 12
841.0598324917536
 22
788.7730628928693
 32
0.0
 13
841.0598324917536
 23
788.7730628928693
 33
0.0
  0
POINT
  5
106D
330
1036
100
AcDbEntity
  8
DEFPOINTS
  6
ByBlock
 62
     0
 48
10.0
100
AcDbPoint
 10
781.0598324917537
 20
870.7589060313731
 30
0.0
  0
POINT
  5
106E
330
1036
100
AcDbEntity
  8
DEFPOINTS
  6
ByBlock
 62
     0
 48
10.0
100
AcDbPoint
 10
781.0930315008172
 20
888.9646573201771
 30
0.0
  0
POINT
  5
106F
330
1036
100
AcDbEntity
  8
DEFPOINTS
  6
ByBlock
 62
     0
 48
10.0
100
AcDbPoint
 10
811.0598324917537
 20
870.7589060313731
 30
0.0
  0
SOLID
  5
1070
330
1036
100
AcDbEntity
  8
0
  6
ByBlock
 62
     0
 48
10.0
100
AcDbTrace
 10
896.0720600795085
 20
792.7798183439306
 30
0.0
 11
896.0720600795085
 21
784.4464850105971
 31
0.0
 12
871.0720600795085
 22
788.6131516772638
 32
0.0
 13
871.0720600795085
 23
788.6131516772638
 33
0.0
  0
POINT
  5
1071
330
1036
100
AcDbEntity
  8
DEFPOINTS
  6
ByBlock
 62
     0
 48
10.0
100
AcDbPoint
 10
871.0598324917537
 20
861.6901369721526
 30
0.0
  0
LINE
  5
1072
330
1036
100
AcDbEntity
  8
上線
100
AcDbLine
 10
841.0598324917536
 20
948.9646573201774
 30
0.0
 11
851.0598324917536
 21
938.9646573201773
 31
0.0
  0
POINT
  5
1073
330
1036
100
AcDbEntity
  8
DEFPOINTS
  6
ByBlock
 62
     0
100
AcDbPoint
 10
804.8430315008172
 20
938.9646573201771
 30
0.0
  0
POINT
  5
1074
330
1036
100
AcDbEntity
  8
DEFPOINTS
  6
ByBlock
 62
     0
 48
10.0
100
AcDbPoint
 10
811.0930315008172
 20
938.9646573201771
 30
0.0
  0
POINT
  5
1075
330
1036
100
AcDbEntity
  8
DEFPOINTS
  6
ByBlock
 62
     0
 48
10.0
100
AcDbPoint
 10
781.0930315008172
 20
988.9646573201771
 30
0.0
  0
POINT
  5
1076
330
1036
100
AcDbEntity
  8
DEFPOINTS
  6
ByBlock
 62
     0
 48
10.0
100
AcDbPoint
 10
781.0930315008172
 20
988.9646573201771
 30
0.0
  0
LINE
  5
1077
330
1036
100
AcDbEntity
  8
上線
100
AcDbLine
 10
841.0598324917536
 20
988.9646573201771
 30
0.0
 11
841.0598324917536
 21
948.9646573201774
 31
0.0
  0
LWPOLYLINE
  5
1078
330
1036
100
AcDbEntity
  8
上線
 48
10.0
100
AcDbPolyline
 90
        2
 70
     1
 43
5.0
 10
873.4668817344664
 20
973.8188473813316
 42
1.0
 10
878.4668817344664
 20
973.8188473813316
 42
1.0
  0
POINT
  5
1079
330
1036
100
AcDbEntity
  8
DEFPOINTS
  6
ByBlock
 62
     0
 48
10.0
100
AcDbPoint
 10
1000.643455106923
 20
908.6050194096699
 30
0.0
  0
POINT
  5
107A
330
1036
100
AcDbEntity
  8
DEFPOINTS
  6
ByBlock
 62
     0
 48
10.0
100
AcDbPoint
 10
986.0598324917537
 20
920.9855272310488
 30
0.0
  0
POINT
  5
107B
330
1036
100
AcDbEntity
  8
DEFPOINTS
  6
ByBlock
 62
     0
 48
10.0
100
AcDbPoint
 10
976.0598324917536
 20
920.9855272310488
 30
0.0
  0
LWPOLYLINE
  5
107C
330
1036
100
AcDbEntity
  8
上線
 48
10.0
100
AcDbPolyline
 90
        2
 70
     1
 43
5.0
 10
1077.695917606328
 20
973.8188473813316
 42
1.0
 10
1082.695917606328
 20
973.8188473813316
 42
1.0
  0
POINT
  5
107D
330
1036
100
AcDbEntity
  8
DEFPOINTS
  6
ByBlock
 62
     0
 48
10.0
100
AcDbPoint
 10
1176.033515220118
 20
609.6119554478855
 30
0.0
  0
POINT
  5
107E
330
1036
100
AcDbEntity
  8
DEFPOINTS
  6
ByBlock
 62
     0
 48
10.0
100
AcDbPoint
 10
1176.059832491753
 20
920.9855272310488
 30
0.0
  0
POINT
  5
107F
330
1036
100
AcDbEntity
  8
DEFPOINTS
  6
ByBlock
 62
     0
 48
10.0
100
AcDbPoint
 10
1186.059832491753
 20
920.9855272310488
 30
0.0
  0
LINE
  5
1080
330
1036
100
AcDbEntity
  8
0
  6
ByBlock
 62
     0
 48
10.0
100
AcDbLine
 10
1291.059832491753
 20
902.3550194096699
 30
0.0
 11
1291.059832491753
 21
776.1131516772638
 31
0.0
  0
LINE
  5
1081
330
1036
100
AcDbEntity
  8
0
  6
ByBlock
 62
     0
 48
10.0
100
AcDbLine
 10
1320.643455106923
 20
908.6050194096699
 30
0.0
 11
1320.643455106923
 21
776.1131516772638
 31
0.0
  0
LINE
  5
1082
330
1036
100
AcDbEntity
  8
0
  6
ByBlock
 62
     0
 48
10.0
100
AcDbLine
 10
1291.059832491753
 20
908.6050194096698
 30
0.0
 11
1291.059832491753
 21
776.0690866375853
 31
0.0
  0
SOLID
  5
1083
330
1036
100
AcDbEntity
  8
0
  6
ByBlock
 62
     0
 48
10.0
100
AcDbTrace
 10
1345.643455106923
 20
792.7798183439306
 30
0.0
 11
1345.643455106923
 21
784.4464850105971
 31
0.0
 12
1320.643455106923
 22
788.6131516772638
 32
0.0
 13
1320.643455106923
 23
788.6131516772638
 33
0.0
  0
LINE
  5
1084
330
1036
100
AcDbEntity
  8
0
  6
ByBlock
 62
     0
 48
10.0
100
AcDbLine
 10
1290.643455106923
 20
788.6131516772638
 30
0.0
 11
1320.643455106923
 21
788.6131516772638
 31
0.0
  0
SOLID
  5
1085
330
1036
100
AcDbEntity
  8
0
  6
ByBlock
 62
     0
 48
10.0
100
AcDbTrace
 10
1266.059832491753
 20
792.7798183439306
 30
0.0
 11
1266.059832491753
 21
784.4464850105971
 31
0.0
 12
1291.059832491753
 22
788.6131516772638
 32
0.0
 13
1291.059832491753
 23
788.6131516772638
 33
0.0
  0
POINT
  5
1086
330
1036
100
AcDbEntity
  8
DEFPOINTS
  6
ByBlock
 62
     0
 48
10.0
100
AcDbPoint
 10
1321.059832491753
 20
788.6131516772638
 30
0.0
  0
POINT
  5
1087
330
1036
100
AcDbEntity
  8
DEFPOINTS
  6
ByBlock
 62
     0
 48
10.0
100
AcDbPoint
 10
1321.059832491753
 20
788.5690866375853
 30
0.0
  0
POINT
  5
1088
330
1036
100
AcDbEntity
  8
DEFPOINTS
  6
ByBlock
 62
     0
 48
10.0
100
AcDbPoint
 10
1290.643455106923
 20
872.664836703575
 30
0.0
  0
POINT
  5
1089
330
1036
100
AcDbEntity
  8
DEFPOINTS
  6
ByBlock
 62
     0
 48
10.0
100
AcDbPoint
 10
1291.059832491753
 20
861.6901369721524
 30
0.0
  0
POINT
  5
108A
330
1036
100
AcDbEntity
  8
DEFPOINTS
  6
ByBlock
 62
     0
 48
10.0
100
AcDbPoint
 10
1320.643455106923
 20
872.664836703575
 30
0.0
  0
MTEXT
  5
108B
330
1036
100
AcDbEntity
  8
0
  6
ByBlock
 62
     0
 48
10.0
100
AcDbMText
 10
1395.643455106923
 20
807.3631516772639
 30
0.0
 40
25.0
 41
0.0
 71
     5
 72
     1
  1
\A1;30
 73
     1
 44
1.0
  0
LINE
  5
108C
330
1036
100
AcDbEntity
  8
0
  6
ByBlock
 62
     0
 48
10.0
100
AcDbLine
 10
1345.643455106923
 20
788.6131516772638
 30
0.0
 11
1420.643455106923
 21
788.6131516772638
 31
0.0
  0
POINT
  5
108D
330
1036
100
AcDbEntity
  8
DEFPOINTS
  6
ByBlock
 62
     0
 48
10.0
100
AcDbPoint
 10
1350.643455106923
 20
788.6131516772638
 30
0.0
  0
POINT
  5
108E
330
1036
100
AcDbEntity
  8
DEFPOINTS
  6
ByBlock
 62
     0
 48
10.0
100
AcDbPoint
 10
1412.565407433618
 20
888.9646573201771
 30
0.0
  0
LINE
  5
108F
330
1036
100
AcDbEntity
  8
上線
100
AcDbLine
 10
1321.059832491753
 20
948.9646573201769
 30
0.0
 11
1311.059832491753
 21
938.9646573201769
 31
0.0
  0
POINT
  5
1090
330
1036
100
AcDbEntity
  8
DEFPOINTS
  6
ByBlock
 62
     0
 48
10.0
100
AcDbPoint
 10
1321.059832491753
 20
908.6050194096699
 30
0.0
  0
LWPOLYLINE
  5
1091
330
1036
100
AcDbEntity
  8
上線
 48
10.0
100
AcDbPolyline
 90
        2
 70
     1
 43
5.0
 10
1283.502093408462
 20
973.8188473813316
 42
1.0
 10
1288.502093408462
 20
973.8188473813316
 42
1.0
  0
LINE
  5
1092
330
1036
100
AcDbEntity
  8
上線
100
AcDbLine
 10
1321.059832491753
 20
948.9646573201769
 30
0.0
 11
1321.059832491753
 21
988.9646573201771
 31
0.0
  0
POINT
  5
1093
330
1036
100
AcDbEntity
  8
DEFPOINTS
  6
ByBlock
 62
     0
 48
10.0
100
AcDbPoint
 10
1412.565407433618
 20
918.9646573201772
 30
0.0
  0
POINT
  5
1094
330
1036
100
AcDbEntity
  8
DEFPOINTS
  6
ByBlock
 62
     0
 48
10.0
100
AcDbPoint
 10
1412.565407433618
 20
918.9646573201772
 30
0.0
  0
POINT
  5
1095
330
1036
100
AcDbEntity
  8
DEFPOINTS
  6
ByBlock
 62
     0
 48
10.0
100
AcDbPoint
 10
1412.565407433618
 20
988.9646573201771
 30
0.0
  0
POINT
  5
1096
330
1036
100
AcDbEntity
  8
DEFPOINTS
  6
ByBlock
 62
     0
 48
10.0
100
AcDbPoint
 10
1412.565407433618
 20
958.9646573201772
 30
0.0
  0
POINT
  5
1097
330
1036
100
AcDbEntity
  8
DEFPOINTS
  6
ByBlock
 62
     0
 48
10.0
100
AcDbPoint
 10
1412.565407433618
 20
958.9646573201772
 30
0.0
  0
MTEXT
  5
1098
330
1036
100
AcDbEntity
  8
0
  6
ByBlock
 62
     0
 48
10.0
100
AcDbMText
 10
1081.059832491753
 20
1243.418451256772
 30
0.0
 40
25.0
 41
0.0
 71
     5
 72
     1
  1
\A1;220
 73
     1
 44
1.0
  0
LINE
  5
1099
330
1036
100
AcDbEntity
  8
0
  6
ByBlock
 62
     0
 48
10.0
100
AcDbLine
 10
971.0598324917537
 20
1224.668451256772
 30
0.0
 11
1191.059832491753
 21
1224.668451256772
 31
0.0
  0
MTEXT
  5
109A
102
{ACAD_REACTORS
330
109B
102
}
330
1036
100
AcDbEntity
  8
上線
 48
10.0
100
AcDbMText
 10
1073.559839960937
 20
1154.625060572671
 30
0.0
 40
25.0
 41
0.0
 71
     4
 72
     1
  1
\A1;\fＭＳ Ｐ明朝|b0|i0|c128|p18;R=50
 73
     1
 44
1.0
  0
LEADER
  5
109B
330
1036
100
AcDbEntity
  8
上線
 48
10.0
100
AcDbLeader
  3
STANDARD
 73
     0
 74
     0
 75
     1
 40
25.0
 41
72.0505617977528
 76
     3
 10
983.366473556147
 20
1053.356616578355
 30
0.0
 10
1042.309839960937
 20
1135.875060572671
 30
0.0
 10
1067.309839960937
 20
1135.875060572671
 30
0.0
340
109A
1001
ACAD
1000
DSTYLE
1002
{
1070
    78
1070
     8
1070
   270
1070
     8
1070
   140
1040
2.5
1070
    74
1070
     0
1070
   172
1070
     1
1070
    73
1070
     0
1070
    77
1070
     1
1070
    40
1040
10.0
1070
   147
1040
0.625
1070
    42
1040
0.625
1070
    44
1040
1.25
1070
    43
1040
3.75
1070
   141
1040
2.5
1070
    41
1040
2.5
1070
   273
1070
     8
1070
   274
1070
     4
1070
   143
1040
0.0394
1070
   171
1070
     4
1002
}
  0
LINE
  5
109C
330
1036
100
AcDbEntity
  8
上線
100
AcDbLine
 10
1146.769016425504
 20
1038.964657320177
 30
0.0
 11
1020.350648558002
 21
1038.964657320177
 31
0.0
  0
POINT
  5
109D
330
1036
100
AcDbEntity
  8
DEFPOINTS
  6
ByBlock
 62
     0
100
AcDbPoint
 10
804.8430315008172
 20
1038.964657320177
 30
0.0
  0
LWPOLYLINE
  5
109E
330
1036
100
AcDbEntity
  8
上線
 48
10.0
100
AcDbPolyline
 90
        2
 70
     1
 43
5.0
 10
873.8824718641499
 20
1182.565859125058
 42
1.0
 10
878.88247186415
 20
1182.565859125058
 42
1.0
  0
ARC
  5
109F
330
1036
100
AcDbEntity
  8
上線
100
AcDbCircle
 10
1020.350648558002
 20
1088.964657320176
 30
0.0
 40
60.0
100
AcDbArc
 50
180.8184554616886
 51
270.0
  0
ARC
  5
10A0
330
1036
100
AcDbEntity
  8
上線
100
AcDbCircle
 10
1020.350648558002
 20
1088.964657320176
 30
0.0
 40
50.0
100
AcDbArc
 50
180.8184554616886
 51
270.0
  0
LINE
  5
10A1
330
1036
100
AcDbEntity
  8
上線
100
AcDbLine
 10
1080.643455106923
 20
1028.964657320177
 30
0.0
 11
1020.350648558003
 21
1028.964657320176
 31
0.0
  0
LINE
  5
10A2
330
1036
100
AcDbEntity
  8
0
  6
ByBlock
 62
     0
 48
10.0
100
AcDbLine
 10
971.0598324917537
 20
1133.119381650933
 30
0.0
 11
971.0598324917537
 21
1237.168451256772
 31
0.0
  0
POINT
  5
10A3
330
1036
100
AcDbEntity
  8
DEFPOINTS
  6
ByBlock
 62
     0
 48
10.0
100
AcDbPoint
 10
936.0598324917537
 20
1129.232415311179
 30
0.0
  0
SOLID
  5
10A4
330
1036
100
AcDbEntity
  8
0
  6
ByBlock
 62
     0
 48
10.0
100
AcDbTrace
 10
996.0598324917537
 20
1228.835117923439
 30
0.0
 11
996.0598324917537
 21
1220.501784590105
 31
0.0
 12
971.0598324917537
 22
1224.668451256772
 32
0.0
 13
971.0598324917537
 23
1224.668451256772
 33
0.0
  0
POINT
  5
10A5
330
1036
100
AcDbEntity
  8
DEFPOINTS
  6
ByBlock
 62
     0
100
AcDbPoint
 10
804.8430315008172
 20
1278.964657320177
 30
0.0
  0
POINT
  5
10A6
330
1036
100
AcDbEntity
  8
DEFPOINTS
  6
ByBlock
 62
     0
 48
10.0
100
AcDbPoint
 10
781.0930315008172
 20
1338.964657320177
 30
0.0
  0
LINE
  5
10A7
330
1036
100
AcDbEntity
  8
上線
100
AcDbLine
 10
911.0598324917537
 20
1338.964657320177
 30
0.0
 11
911.0598324917537
 21
1338.964657320177
 31
0.0
  0
POINT
  5
10A8
330
1036
100
AcDbEntity
  8
DEFPOINTS
  6
ByBlock
 62
     0
100
AcDbPoint
 10
804.8430315008172
 20
1378.964657320177
 30
0.0
  0
POINT
  5
10A9
330
1036
100
AcDbEntity
  8
DEFPOINTS
  6
ByBlock
 62
     0
 48
10.0
100
AcDbPoint
 10
781.0930315008172
 20
1438.964657320177
 30
0.0
  0
POINT
  5
10AA
330
1036
100
AcDbEntity
  8
DEFPOINTS
  6
ByBlock
 62
     0
 48
10.0
100
AcDbPoint
 10
811.0930315008172
 20
1438.964657320177
 30
0.0
  0
POINT
  5
10AB
330
1036
100
AcDbEntity
  8
DEFPOINTS
  6
ByBlock
 62
     0
 48
10.0
100
AcDbPoint
 10
841.0598324917536
 20
1436.720543365062
 30
0.0
  0
POINT
  5
10AC
330
1036
100
AcDbEntity
  8
DEFPOINTS
  6
ByBlock
 62
     0
 48
10.0
100
AcDbPoint
 10
841.0598324917536
 20
1436.720543365062
 30
0.0
  0
LWPOLYLINE
  5
10AD
330
1036
100
AcDbEntity
  8
上線
 48
10.0
100
AcDbPolyline
 90
        2
 70
     1
 43
5.0
 10
873.8824718641499
 20
1395.899192125058
 42
1.0
 10
878.88247186415
 20
1395.899192125058
 42
1.0
  0
POINT
  5
10AE
330
1036
100
AcDbEntity
  8
DEFPOINTS
  6
ByBlock
 62
     0
 48
10.0
100
AcDbPoint
 10
911.0598324917537
 20
1436.720543365062
 30
0.0
  0
POINT
  5
10AF
330
1036
100
AcDbEntity
  8
DEFPOINTS
  6
ByBlock
 62
     0
 48
10.0
100
AcDbPoint
 10
911.0598324917537
 20
1436.720543365062
 30
0.0
  0
ARC
  5
10B0
330
1036
100
AcDbEntity
  8
上線
100
AcDbCircle
 10
1141.769016425504
 20
1088.964657320177
 30
0.0
 40
50.0
100
AcDbArc
 50
270.0
 51
359.1815445383113
  0
SOLID
  5
10B1
330
1036
100
AcDbEntity
  8
0
  6
ByBlock
 62
     0
 48
10.0
100
AcDbTrace
 10
1166.059832491753
 20
1228.835117923439
 30
0.0
 11
1166.059832491753
 21
1220.501784590105
 31
0.0
 12
1191.059832491753
 22
1224.668451256772
 32
0.0
 13
1191.059832491753
 23
1224.668451256772
 33
0.0
  0
LINE
  5
10B2
330
1036
100
AcDbEntity
  8
0
  6
ByBlock
 62
     0
 48
10.0
100
AcDbLine
 10
1191.059832491753
 20
1133.119381650933
 30
0.0
 11
1191.059832491753
 21
1237.168451256772
 31
0.0
  0
POINT
  5
10B3
330
1036
100
AcDbEntity
  8
DEFPOINTS
  6
ByBlock
 62
     0
 48
10.0
100
AcDbPoint
 10
1226.059832491753
 20
1129.232415311179
 30
0.0
  0
POINT
  5
10B4
330
1036
100
AcDbEntity
  8
DEFPOINTS
  6
ByBlock
 62
     0
 48
10.0
100
AcDbPoint
 10
1384.982134615931
 20
1008.964657320177
 30
0.0
  0
LWPOLYLINE
  5
10B5
330
1036
100
AcDbEntity
  8
上線
 48
10.0
100
AcDbPolyline
 90
        2
 70
     1
 43
5.0
 10
1283.502093408462
 20
1182.565859125058
 42
1.0
 10
1288.502093408462
 20
1182.565859125058
 42
1.0
  0
POINT
  5
10B6
330
1036
100
AcDbEntity
  8
DEFPOINTS
  6
ByBlock
 62
     0
 48
10.0
100
AcDbPoint
 10
1354.982134615931
 20
1188.964657320177
 30
0.0
  0
POINT
  5
10B7
330
1036
100
AcDbEntity
  8
DEFPOINTS
  6
ByBlock
 62
     0
 48
10.0
100
AcDbPoint
 10
1354.982134615931
 20
1188.964657320177
 30
0.0
  0
POINT
  5
10B8
330
1036
100
AcDbEntity
  8
DEFPOINTS
  6
ByBlock
 62
     0
 48
10.0
100
AcDbPoint
 10
1226.059832491753
 20
1279.676561582352
 30
0.0
  0
LINE
  5
10B9
330
1036
100
AcDbEntity
  8
上線
 48
10.0
100
AcDbLine
 10
1231.059832491753
 20
1273.964657320177
 30
0.0
 11
1230.988403920325
 21
1273.964657320177
 31
0.0
  0
LINE
  5
10BA
330
1036
100
AcDbEntity
  8
上線
100
AcDbLine
 10
1231.059832491753
 20
1278.964657320177
 30
0.0
 11
1231.059832491753
 21
1278.964657320177
 31
0.0
  0
POINT
  5
10BB
330
1036
100
AcDbEntity
  8
DEFPOINTS
  6
ByBlock
 62
     0
 48
10.0
100
AcDbPoint
 10
1251.059832491753
 20
1436.720543365062
 30
0.0
  0
POINT
  5
10BC
330
1036
100
AcDbEntity
  8
DEFPOINTS
  6
ByBlock
 62
     0
 48
10.0
100
AcDbPoint
 10
1251.059832491753
 20
1436.720543365062
 30
0.0
  0
LWPOLYLINE
  5
10BD
330
1036
100
AcDbEntity
  8
上線
 48
10.0
100
AcDbPolyline
 90
        2
 70
     1
 43
5.0
 10
1283.502093408462
 20
1395.899192125058
 42
1.0
 10
1288.502093408462
 20
1395.899192125058
 42
1.0
  0
POINT
  5
10BE
330
1036
100
AcDbEntity
  8
DEFPOINTS
  6
ByBlock
 62
     0
 48
10.0
100
AcDbPoint
 10
1321.059832491753
 20
1436.720543365062
 30
0.0
  0
POINT
  5
10BF
330
1036
100
AcDbEntity
  8
DEFPOINTS
  6
ByBlock
 62
     0
 48
10.0
100
AcDbPoint
 10
1321.059832491753
 20
1436.720543365062
 30
0.0
  0
POINT
  5
10C0
330
1036
100
AcDbEntity
  8
DEFPOINTS
  6
ByBlock
 62
     0
 48
10.0
100
AcDbPoint
 10
1384.425540646334
 20
1408.964657320177
 30
0.0
  0
POINT
  5
10C1
330
1036
100
AcDbEntity
  8
DEFPOINTS
  6
ByBlock
 62
     0
 48
10.0
100
AcDbPoint
 10
1384.982134615931
 20
1408.964657320177
 30
0.0
  0
POINT
  5
10C2
330
1036
100
AcDbEntity
  8
DEFPOINTS
  6
ByBlock
 62
     0
 48
10.0
100
AcDbPoint
 10
1384.425540646334
 20
1438.964657320177
 30
0.0
  0
LINE
  5
10C3
330
1036
100
AcDbEntity
  8
0
  6
ByBlock
 62
     0
 48
10.0
100
AcDbLine
 10
1458.41257887521
 20
913.9646573201771
 30
0.0
 11
1458.41257887521
 21
838.9646573201771
 31
0.0
  0
LINE
  5
10C4
330
1036
100
AcDbEntity
  8
0
  6
ByBlock
 62
     0
 48
10.0
100
AcDbLine
 10
1458.41257887521
 20
943.9646573201772
 30
0.0
 11
1458.41257887521
 21
918.9646573201772
 31
0.0
  0
POINT
  5
10C5
330
1036
100
AcDbEntity
  8
DEFPOINTS
  6
ByBlock
 62
     0
 48
10.0
100
AcDbPoint
 10
1458.41257887521
 20
938.9646573201771
 30
0.0
  0
SOLID
  5
10C6
330
1036
100
AcDbEntity
  8
0
  6
ByBlock
 62
     0
 48
10.0
100
AcDbTrace
 10
1454.245912208542
 20
913.9646573201771
 30
0.0
 11
1462.579245541876
 21
913.9646573201771
 31
0.0
 12
1458.41257887521
 22
938.9646573201771
 32
0.0
 13
1458.41257887521
 23
938.9646573201771
 33
0.0
  0
SOLID
  5
10C7
330
1036
100
AcDbEntity
  8
0
  6
ByBlock
 62
     0
 48
10.0
100
AcDbTrace
 10
1454.235060866499
 20
993.9063507388963
 30
0.0
 11
1462.568394199833
 21
993.9063507388963
 31
0.0
 12
1458.401727533166
 22
968.9063507388963
 32
0.0
 13
1458.401727533166
 23
968.9063507388963
 33
0.0
  0
LINE
  5
10C8
330
1036
100
AcDbEntity
  8
0
  6
ByBlock
 62
     0
 48
10.0
100
AcDbLine
 10
1458.41257887521
 20
983.9646573201772
 30
0.0
 11
1458.41257887521
 21
958.9646573201772
 31
0.0
  0
POINT
  5
10C9
330
1036
100
AcDbEntity
  8
DEFPOINTS
  6
ByBlock
 62
     0
 48
10.0
100
AcDbPoint
 10
1458.41257887521
 20
958.9646573201772
 30
0.0
  0
POINT
  5
10CA
330
1036
100
AcDbEntity
  8
DEFPOINTS
  6
ByBlock
 62
     0
 48
10.0
100
AcDbPoint
 10
1458.046535086754
 20
1008.964657320177
 30
0.0
  0
LINE
  5
10CB
330
1036
100
AcDbEntity
  8
0
  6
ByBlock
 62
     0
 48
10.0
100
AcDbLine
 10
1458.04716628644
 20
1348.964657320177
 30
0.0
 11
1458.04716628644
 21
1378.964657320177
 31
0.0
  0
LINE
  5
10CC
330
1036
100
AcDbEntity
  8
0
  6
ByBlock
 62
     0
100
AcDbLine
 10
819.4264997820955
 20
1538.964657320177
 30
0.0
 11
705.9084222005512
 21
1538.964657320177
 31
0.0
  0
LINE
  5
10CD
330
1036
100
AcDbEntity
  8
0
  6
ByBlock
 62
     0
100
AcDbLine
 10
819.4264997820955
 20
1638.964657320177
 30
0.0
 11
612.2621868778915
 21
1638.964657320177
 31
0.0
  0
LINE
  5
10CE
330
1036
100
AcDbEntity
  8
0
  6
ByBlock
 62
     0
 48
10.0
100
AcDbLine
 10
804.8430315008172
 20
1638.964657320177
 30
0.0
 11
612.2621868778915
 21
1638.964657320177
 31
0.0
  0
LINE
  5
10CF
330
1036
100
AcDbEntity
  8
0
  6
ByBlock
 62
     0
 48
10.0
100
AcDbLine
 10
804.8430315008172
 20
1538.964657320177
 30
0.0
 11
705.9084222005512
 21
1538.964657320177
 31
0.0
  0
LINE
  5
10D0
330
1036
100
AcDbEntity
  8
0
  6
ByBlock
 62
     0
 48
10.0
100
AcDbLine
 10
804.8430315008172
 20
1638.964657320177
 30
0.0
 11
705.9084222005512
 21
1638.964657320177
 31
0.0
  0
MTEXT
  5
10D1
330
1036
100
AcDbEntity
  8
0
  6
ByBlock
 62
     0
 48
10.0
100
AcDbMText
 10
699.6584222005512
 20
1588.964657320177
 30
0.0
 40
25.0
 41
0.0
 71
     5
 72
     1
  1
\A1;100
 11
0.0000000000000001
 21
1.0
 31
0.0
 73
     1
 44
1.0
  0
LINE
  5
10D2
330
1036
100
AcDbEntity
  8
0
  6
ByBlock
 62
     0
 48
10.0
100
AcDbLine
 10
718.4084222005512
 20
1538.964657320177
 30
0.0
 11
718.4084222005512
 21
1613.964657320177
 31
0.0
  0
SOLID
  5
10D3
330
1036
100
AcDbEntity
  8
0
  6
ByBlock
 62
     0
100
AcDbTrace
 10
714.2417555338852
 20
1513.964657320177
 30
0.0
 11
722.5750888672173
 21
1513.964657320177
 31
0.0
 12
718.4084222005512
 22
1538.964657320177
 32
0.0
 13
718.4084222005512
 23
1538.964657320177
 33
0.0
  0
SOLID
  5
10D4
330
1036
100
AcDbEntity
  8
0
  6
ByBlock
 62
     0
 48
10.0
100
AcDbTrace
 10
714.2417555338843
 20
1513.964657320177
 30
0.0
 11
722.5750888672173
 21
1513.964657320177
 31
0.0
 12
718.4084222005512
 22
1538.964657320177
 32
0.0
 13
718.4084222005512
 23
1538.964657320177
 33
0.0
  0
SOLID
  5
10D5
330
1036
100
AcDbEntity
  8
0
  6
ByBlock
 62
     0
 48
10.0
100
AcDbTrace
 10
714.2417555338843
 20
1563.964657320177
 30
0.0
 11
722.5750888672173
 21
1563.964657320177
 31
0.0
 12
718.4084222005512
 22
1538.964657320177
 32
0.0
 13
718.4084222005512
 23
1538.964657320177
 33
0.0
  0
SOLID
  5
10D6
330
1036
100
AcDbEntity
  8
0
  6
ByBlock
 62
     0
100
AcDbTrace
 10
620.5955202112254
 20
1613.964657320177
 30
0.0
 11
628.9288535445575
 21
1613.964657320177
 31
0.0
 12
624.7621868778915
 22
1638.964657320177
 32
0.0
 13
624.7621868778915
 23
1638.964657320177
 33
0.0
  0
SOLID
  5
10D7
330
1036
100
AcDbEntity
  8
0
  6
ByBlock
 62
     0
 48
10.0
100
AcDbTrace
 10
620.5955202112245
 20
1613.964657320177
 30
0.0
 11
628.9288535445584
 21
1613.964657320177
 31
0.0
 12
624.7621868778915
 22
1638.964657320177
 32
0.0
 13
624.7621868778915
 23
1638.964657320177
 33
0.0
  0
SOLID
  5
10D8
330
1036
100
AcDbEntity
  8
0
  6
ByBlock
 62
     0
 48
10.0
100
AcDbTrace
 10
714.2417555338843
 20
1613.964657320177
 30
0.0
 11
722.5750888672173
 21
1613.964657320177
 31
0.0
 12
718.4084222005512
 22
1638.964657320177
 32
0.0
 13
718.4084222005512
 23
1638.964657320177
 33
0.0
  0
LWPOLYLINE
  5
10D9
330
1036
100
AcDbEntity
  8
上線
100
AcDbPolyline
 90
        4
 70
     1
 43
0.0
 10
970.757315261304
 20
2309.962744548296
 10
1180.034251430328
 20
2309.962744548296
 10
1180.034251430328
 20
2409.667127294302
 10
970.757315261304
 20
2409.667127294302
  0
LWPOLYLINE
  5
10DA
330
1036
100
AcDbEntity
  8
上線
100
AcDbPolyline
 90
        4
 70
     1
 43
0.0
 10
973.7573152613039
 20
2312.962744548296
 10
1177.034251430328
 20
2312.962744548296
 10
1177.034251430328
 20
2406.667127294302
 10
973.7573152613039
 20
2406.667127294302
  0
MTEXT
  5
10DB
330
1036
100
AcDbEntity
  8
0
  6
ByBlock
 62
     0
 48
10.0
100
AcDbMText
 10
1439.29716628644
 20
1713.964657320177
 30
0.0
 40
25.0
 41
0.0
 71
     5
 72
     1
  1
\A1;30
 11
0.0000000000000001
 21
1.0
 31
0.0
 73
     1
 44
1.0
  0
LINE
  5
10DC
330
1036
100
AcDbEntity
  8
0
  6
ByBlock
 62
     0
 48
10.0
100
AcDbLine
 10
1345.635086818996
 20
1638.964657320177
 30
0.0
 11
1470.54716628644
 21
1638.964657320177
 31
0.0
  0
LINE
  5
10DD
330
1036
100
AcDbEntity
  8
0
  6
ByBlock
 62
     0
 48
10.0
100
AcDbLine
 10
1360.675540646334
 20
1608.964657320177
 30
0.0
 11
1470.54716628644
 21
1608.964657320177
 31
0.0
  0
LINE
  5
10DE
330
1036
100
AcDbEntity
  8
0
  6
ByBlock
 62
     0
 48
10.0
100
AcDbLine
 10
1345.635086818996
 20
1608.964657320177
 30
0.0
 11
1470.546535086754
 21
1608.964657320177
 31
0.0
  0
LINE
  5
10DF
330
1036
100
AcDbEntity
  8
0
  6
ByBlock
 62
     0
 48
10.0
100
AcDbLine
 10
841.0598324917536
 20
1867.830775733851
 30
0.0
 11
1321.059832491753
 21
1867.830775733851
 31
0.0
  0
MTEXT
  5
10E0
330
1036
100
AcDbEntity
  8
0
  6
ByBlock
 62
     0
 48
10.0
100
AcDbMText
 10
1081.059832491753
 20
1796.678603033884
 30
0.0
 40
25.0
 41
0.0
 71
     5
 72
     1
  1
\A1;240
 73
     1
 44
1.0
  0
LINE
  5
10E1
330
1036
100
AcDbEntity
  8
0
  6
ByBlock
 62
     0
 48
10.0
100
AcDbLine
 10
911.0598324917537
 20
1777.928603033884
 30
0.0
 11
1251.059832491753
 21
1777.928603033884
 31
0.0
  0
LINE
  5
10E2
330
1036
100
AcDbEntity
  8
0
  6
ByBlock
 62
     0
 48
10.0
100
AcDbLine
 10
841.0598324917536
 20
1674.628934033556
 30
0.0
 11
841.0598324917536
 21
1880.330775733851
 31
0.0
  0
LINE
  5
10E3
330
1036
100
AcDbEntity
  8
0
  6
ByBlock
 62
     0
 48
10.0
100
AcDbLine
 10
961.0598324917537
 20
1674.628934033556
 30
0.0
 11
961.0598324917537
 21
1790.428603033884
 31
0.0
  0
LINE
  5
10E4
330
1036
100
AcDbEntity
  8
0
  6
ByBlock
 62
     0
 48
10.0
100
AcDbLine
 10
911.0598324917537
 20
1674.628934033556
 30
0.0
 11
911.0598324917537
 21
1790.428603033884
 31
0.0
  0
LINE
  5
10E5
330
1036
100
AcDbEntity
  8
上線
100
AcDbLine
 10
911.0598324917537
 20
1538.964657320177
 30
0.0
 11
961.0598324917537
 21
1538.964657320177
 31
0.0
  0
LINE
  5
10E6
330
1036
100
AcDbEntity
  8
上線
100
AcDbLine
 10
911.0598324917537
 20
1638.964657320177
 30
0.0
 11
911.0598324917537
 21
1538.964657320177
 31
0.0
  0
LINE
  5
10E7
330
1036
100
AcDbEntity
  8
上線
100
AcDbLine
 10
911.0598324917537
 20
1638.964657320177
 30
0.0
 11
841.0598324917536
 21
1638.964657320177
 31
0.0
  0
POINT
  5
10E8
330
1036
100
AcDbEntity
  8
DEFPOINTS
  6
ByBlock
 62
     0
 48
10.0
100
AcDbPoint
 10
781.0930315008172
 20
1648.964657320177
 30
0.0
  0
LWPOLYLINE
  5
10E9
330
1036
100
AcDbEntity
  8
上線
 48
10.0
100
AcDbPolyline
 90
        2
 70
     1
 43
5.0
 10
873.8824718641499
 20
1609.232525125058
 42
1.0
 10
878.88247186415
 20
1609.232525125058
 42
1.0
  0
TEXT
  5
10EA
330
1036
100
AcDbEntity
  8
点線
 62
     0
100
AcDbText
 10
918.5522066080174
 20
1784.178603033884
 30
0.0
 40
25.0
  1
50
100
AcDbText
  0
SOLID
  5
10EB
330
1036
100
AcDbEntity
  8
0
  6
ByBlock
 62
     0
 48
10.0
100
AcDbTrace
 10
866.0598324917536
 20
1782.09526970055
 30
0.0
 11
866.0598324917536
 21
1773.761936367218
 31
0.0
 12
841.0598324917536
 22
1777.928603033884
 32
0.0
 13
841.0598324917536
 23
1777.928603033884
 33
0.0
  0
LINE
  5
10EC
330
1036
100
AcDbEntity
  8
0
  6
ByBlock
 62
     0
 48
10.0
100
AcDbLine
 10
886.0598324917537
 20
1777.928603033884
 30
0.0
 11
841.0598324917536
 21
1777.928603033884
 31
0.0
  0
POINT
  5
10ED
330
1036
100
AcDbEntity
  8
DEFPOINTS
  6
ByBlock
 62
     0
 48
10.0
100
AcDbPoint
 10
841.0598324917536
 20
1773.708952282359
 30
0.0
  0
LINE
  5
10EE
330
1036
100
AcDbEntity
  8
0
  6
ByBlock
 62
     0
 48
10.0
100
AcDbLine
 10
911.0598324917537
 20
1706.192056745515
 30
0.0
 11
911.0598324917537
 21
1790.428603033884
 31
0.0
  0
TEXT
  5
10EF
330
1036
100
AcDbEntity
  8
点線
 62
     0
100
AcDbText
 10
857.3398357005444
 20
1784.178603033884
 30
0.0
 40
25.0
  1
70
100
AcDbText
  0
SOLID
  5
10F0
330
1036
100
AcDbEntity
  8
0
  6
ByBlock
 62
     0
 48
10.0
100
AcDbTrace
 10
886.0598324917537
 20
1782.09526970055
 30
0.0
 11
886.0598324917537
 21
1773.761936367218
 31
0.0
 12
911.0598324917537
 22
1777.928603033884
 32
0.0
 13
911.0598324917537
 23
1777.928603033884
 33
0.0
  0
POINT
  5
10F1
330
1036
100
AcDbEntity
  8
DEFPOINTS
  6
ByBlock
 62
     0
 48
10.0
100
AcDbPoint
 10
931.0598324917537
 20
1773.708952282359
 30
0.0
  0
SOLID
  5
10F2
330
1036
100
AcDbEntity
  8
0
  6
ByBlock
 62
     0
 48
10.0
100
AcDbTrace
 10
866.0598324917536
 20
1871.997442400518
 30
0.0
 11
866.0598324917536
 21
1863.664109067185
 31
0.0
 12
841.0598324917536
 22
1867.830775733851
 32
0.0
 13
841.0598324917536
 23
1867.830775733851
 33
0.0
  0
LINE
  5
10F3
330
1036
100
AcDbEntity
  8
0
  6
ByBlock
 62
     0
 48
10.0
100
AcDbLine
 10
961.0598324917537
 20
1706.192056745515
 30
0.0
 11
961.0598324917537
 21
1790.428603033884
 31
0.0
  0
SOLID
  5
10F4
330
1036
100
AcDbEntity
  8
0
  6
ByBlock
 62
     0
 48
10.0
100
AcDbTrace
 10
986.0598324917537
 20
1782.09526970055
 30
0.0
 11
986.0598324917537
 21
1773.761936367218
 31
0.0
 12
961.0598324917537
 22
1777.928603033884
 32
0.0
 13
961.0598324917537
 23
1777.928603033884
 33
0.0
  0
MTEXT
  5
10F5
330
1036
100
AcDbEntity
  8
0
  6
ByBlock
 62
     0
 48
10.0
100
AcDbMText
 10
1066.059832491753
 20
1886.580775733851
 30
0.0
 40
25.0
 41
0.0
 71
     5
 72
     1
  1
\A1;480
 73
     1
 44
1.0
  0
LINE
  5
10F6
330
1036
100
AcDbEntity
  8
0
  6
ByBlock
 62
     0
 48
10.0
100
AcDbLine
 10
1251.059832491753
 20
1674.628934033556
 30
0.0
 11
1251.059832491753
 21
1790.428603033884
 31
0.0
  0
LINE
  5
10F7
330
1036
100
AcDbEntity
  8
0
  6
ByBlock
 62
     0
 48
10.0
100
AcDbLine
 10
1321.059832491753
 20
1674.628934033556
 30
0.0
 11
1321.059832491753
 21
1880.330775733851
 31
0.0
  0
LINE
  5
10F8
330
1036
100
AcDbEntity
  8
0
  6
ByBlock
 62
     0
 48
10.0
100
AcDbLine
 10
1201.059832491753
 20
1674.628934033556
 30
0.0
 11
1201.059832491753
 21
1790.428603033884
 31
0.0
  0
LINE
  5
10F9
330
1036
100
AcDbEntity
  8
上線
100
AcDbLine
 10
1251.059832491753
 20
1638.964657320177
 30
0.0
 11
1321.059832491753
 21
1638.964657320177
 31
0.0
  0
LINE
  5
10FA
330
1036
100
AcDbEntity
  8
上線
 48
10.0
100
AcDbLine
 10
1251.059832491753
 20
1638.964657320177
 30
0.0
 11
1251.059832491753
 21
1538.964657320177
 31
0.0
  0
LINE
  5
10FB
330
1036
100
AcDbEntity
  8
上線
100
AcDbLine
 10
1251.059832491753
 20
1538.964657320177
 30
0.0
 11
1201.059832491753
 21
1538.964657320176
 31
0.0
  0
LWPOLYLINE
  5
10FC
330
1036
100
AcDbEntity
  8
上線
 48
10.0
100
AcDbPolyline
 90
        2
 70
     1
 43
5.0
 10
1283.502093408462
 20
1609.232525125058
 42
1.0
 10
1288.502093408462
 20
1609.232525125058
 42
1.0
  0
SOLID
  5
10FD
330
1036
100
AcDbEntity
  8
0
  6
ByBlock
 62
     0
 48
10.0
100
AcDbTrace
 10
1276.059832491753
 20
1782.24455372186
 30
0.0
 11
1276.059832491753
 21
1773.911220388527
 31
0.0
 12
1251.059832491753
 22
1778.077887055194
 32
0.0
 13
1251.059832491753
 23
1778.077887055194
 33
0.0
  0
LINE
  5
10FE
330
1036
100
AcDbEntity
  8
0
  6
ByBlock
 62
     0
 48
10.0
100
AcDbLine
 10
1251.059832491753
 20
1777.928603033884
 30
0.0
 11
1321.059832491753
 21
1777.928603033884
 31
0.0
  0
SOLID
  5
10FF
330
1036
100
AcDbEntity
  8
0
  6
ByBlock
 62
     0
 48
10.0
100
AcDbTrace
 10
1176.059832491753
 20
1782.09526970055
 30
0.0
 11
1176.059832491753
 21
1773.761936367218
 31
0.0
 12
1201.059832491753
 22
1777.928603033884
 32
0.0
 13
1201.059832491753
 23
1777.928603033884
 33
0.0
  0
LINE
  5
1100
330
1036
100
AcDbEntity
  8
0
  6
ByBlock
 62
     0
 48
10.0
100
AcDbLine
 10
1251.059832491753
 20
1706.192056745515
 30
0.0
 11
1251.059832491753
 21
1792.075352507032
 31
0.0
  0
LINE
  5
1101
330
1036
100
AcDbEntity
  8
0
  6
ByBlock
 62
     0
 48
10.0
100
AcDbLine
 10
1201.059832491753
 20
1706.192056745515
 30
0.0
 11
1201.059832491753
 21
1790.428603033884
 31
0.0
  0
MTEXT
  5
1102
330
1036
100
AcDbEntity
  8
0
  6
ByBlock
 62
     0
 48
10.0
100
AcDbMText
 10
1227.068481498736
 20
1796.678603033884
 30
0.0
 40
25.0
 41
0.0
 71
     5
 72
     1
  1
\A1;50
 73
     1
 44
1.0
  0
POINT
  5
1103
330
1036
100
AcDbEntity
  8
DEFPOINTS
  6
ByBlock
 62
     0
 48
10.0
100
AcDbPoint
 10
1231.059832491753
 20
1773.708952282359
 30
0.0
  0
LINE
  5
1104
330
1036
100
AcDbEntity
  8
0
  6
ByBlock
 62
     0
 48
10.0
100
AcDbLine
 10
1321.059832491753
 20
1701.97240599399
 30
0.0
 11
1321.059832491753
 21
1787.855701755506
 31
0.0
  0
MTEXT
  5
1105
330
1036
100
AcDbEntity
  8
0
  6
ByBlock
 62
     0
 48
10.0
100
AcDbMText
 10
1286.059832491753
 20
1796.827887055194
 30
0.0
 40
25.0
 41
0.0
 71
     5
 72
     1
  1
\A1;70
 73
     1
 44
1.0
  0
SOLID
  5
1106
330
1036
100
AcDbEntity
  8
0
  6
ByBlock
 62
     0
 48
10.0
100
AcDbTrace
 10
1296.059832491753
 20
1782.24455372186
 30
0.0
 11
1296.059832491753
 21
1773.911220388527
 31
0.0
 12
1321.059832491753
 22
1778.077887055194
 32
0.0
 13
1321.059832491753
 23
1778.077887055194
 33
0.0
  0
POINT
  5
1107
330
1036
100
AcDbEntity
  8
DEFPOINTS
  6
ByBlock
 62
     0
 48
10.0
100
AcDbPoint
 10
1281.059832491753
 20
1773.708952282359
 30
0.0
  0
POINT
  5
1108
330
1036
100
AcDbEntity
  8
DEFPOINTS
  6
ByBlock
 62
     0
 48
10.0
100
AcDbPoint
 10
1351.059832491753
 20
1775.355701755506
 30
0.0
  0
SOLID
  5
1109
330
1036
100
AcDbEntity
  8
0
  6
ByBlock
 62
     0
 48
10.0
100
AcDbTrace
 10
1296.059832491753
 20
1871.997442400518
 30
0.0
 11
1296.059832491753
 21
1863.664109067185
 31
0.0
 12
1321.059832491753
 22
1867.830775733851
 32
0.0
 13
1321.059832491753
 23
1867.830775733851
 33
0.0
  0
POINT
  5
110A
330
1036
100
AcDbEntity
  8
DEFPOINTS
  6
ByBlock
 62
     0
 48
10.0
100
AcDbPoint
 10
1351.059832491753
 20
1861.501299606561
 30
0.0
  0
MTEXT
  5
110B
330
1036
100
AcDbEntity
  8
上線
 48
10.0
100
AcDbMText
 10
994.8121846863815
 20
2380.645027545337
 30
0.0
 40
40.0
 41
558.2059
 71
     1
 72
     5
  1
\fＭＳ Ｐ明朝|b0|i0|c128|p18;正面図
 73
     1
 44
1.0
  0
LINE
  5
110C
330
1036
100
AcDbEntity
  8
0
  6
ByBlock
 62
     0
 48
10.0
100
AcDbLine
 10
1458.04716628644
 20
1663.964657320177
 30
0.0
 11
1458.04716628644
 21
1738.964657320177
 31
0.0
  0
SOLID
  5
110D
330
1036
100
AcDbEntity
  8
0
  6
ByBlock
 62
     0
 48
10.0
100
AcDbTrace
 10
1453.879868420087
 20
1583.964657320177
 30
0.0
 11
1462.213201753421
 21
1583.964657320177
 31
0.0
 12
1458.046535086754
 22
1608.964657320177
 32
0.0
 13
1458.046535086754
 23
1608.964657320177
 33
0.0
  0
SOLID
  5
110E
330
1036
100
AcDbEntity
  8
0
  6
ByBlock
 62
     0
 48
10.0
100
AcDbTrace
 10
1453.880499619773
 20
1663.964657320177
 30
0.0
 11
1462.213832953107
 21
1663.964657320177
 31
0.0
 12
1458.04716628644
 22
1638.964657320177
 32
0.0
 13
1458.04716628644
 23
1638.964657320177
 33
0.0
  0
POINT
  5
110F
330
1036
100
AcDbEntity
  8
DEFPOINTS
  6
ByBlock
 62
     0
 48
10.0
100
AcDbPoint
 10
1458.04716628644
 20
1698.964657320177
 30
0.0
  0
LINE
  5
1110
330
1036
100
AcDbEntity
  8
0
  6
ByBlock
 62
     0
100
AcDbLine
 10
2861.807994990762
 20
1583.964657320177
 30
0.0
 11
2861.807994990762
 21
775.101194473832
 31
0.0
  0
LINE
  5
1111
330
1036
100
AcDbEntity
  8
上線
 48
10.0
100
AcDbLine
 10
3474.307994990762
 20
1608.964657320177
 30
0.0
 11
3474.307994990762
 21
968.9646573201773
 31
0.0
  0
LINE
  5
1112
330
1036
100
AcDbEntity
  8
上線
 48
10.0
100
AcDbLine
 10
3229.307994990762
 20
1608.964657320177
 30
0.0
 11
3229.307994990762
 21
968.9646573201773
 31
0.0
  0
LINE
  5
1113
330
1036
100
AcDbEntity
  8
上線
 48
10.0
100
AcDbLine
 10
2984.307994990762
 20
1608.964657320177
 30
0.0
 11
2984.307994990762
 21
968.9646573201773
 31
0.0
  0
LINE
  5
1114
330
1036
100
AcDbEntity
  8
上線
 48
10.0
100
AcDbLine
 10
2739.307994990762
 20
1608.964657320177
 30
0.0
 11
2739.307994990762
 21
968.9646573201773
 31
0.0
  0
LINE
  5
1115
330
1036
100
AcDbEntity
  8
上線
100
AcDbLine
 10
3454.307994990763
 20
1608.964657320177
 30
0.0
 11
3454.307994990762
 21
968.9646573201773
 31
0.0
  0
LINE
  5
1116
330
1036
100
AcDbEntity
  8
上線
100
AcDbLine
 10
3474.307994990762
 20
1638.964657320177
 30
0.0
 11
3474.307994990762
 21
938.9646573201776
 31
0.0
  0
LINE
  5
1117
330
1036
100
AcDbEntity
  8
上線
100
AcDbLine
 10
4177.218830816626
 20
0.0000031509980545
 30
0.0
 11
4177.218830816626
 21
2923.342524559054
 31
0.0
  0
LINE
  5
1118
330
1036
100
AcDbEntity
  8
上線
 48
10.0
100
AcDbLine
 10
2494.307994990762
 20
1608.964657320177
 30
0.0
 11
2494.307994990762
 21
968.9646573201773
 31
0.0
  0
LINE
  5
1119
330
1036
100
AcDbEntity
  8
上線
 48
10.0
100
AcDbLine
 10
2474.307994990762
 20
1638.964657320177
 30
0.0
 11
2474.307994990762
 21
938.9646573201773
 31
0.0
  0
LINE
  5
111A
330
1036
100
AcDbEntity
  8
上線
 48
10.0
100
AcDbLine
 10
2494.307994990762
 20
1182.297991320176
 30
0.0
 11
3454.307994990762
 21
1182.297991320177
 31
0.0
  0
LINE
  5
111B
330
1036
100
AcDbEntity
  8
上線
 48
10.0
100
AcDbLine
 10
2494.307994990762
 20
1395.631324320177
 30
0.0
 11
3454.307994990762
 21
1395.631324320177
 31
0.0
  0
LINE
  5
111C
330
1036
100
AcDbEntity
  8
点線
100
AcDbLine
 10
3474.307994990761
 20
1038.964657320177
 30
0.0
 11
2474.307994990762
 21
1038.964657320177
 31
0.0
  0
LINE
  5
111D
330
1036
100
AcDbEntity
  8
上線
100
AcDbLine
 10
4136.204185353559
 20
51.27467674447507
 30
0.0
 11
3221.72944325387
 21
51.27467674447507
 31
0.0
  0
LINE
  5
111E
330
1036
100
AcDbEntity
  8
上線
100
AcDbLine
 10
4136.204185353559
 20
134.5368362888175
 30
0.0
 11
3221.72944325387
 21
134.5368362888175
 31
0.0
  0
LINE
  5
111F
330
1036
100
AcDbEntity
  8
上線
100
AcDbLine
 10
4136.204185353559
 20
217.557114927059
 30
0.0
 11
3221.72944325387
 21
217.557114927059
 31
0.0
  0
LINE
  5
1120
330
1036
100
AcDbEntity
  8
上線
100
AcDbLine
 10
4136.204185353559
 20
300.5773869860131
 30
0.0
 11
3221.72944325387
 21
300.5773869860131
 31
0.0
  0
LINE
  5
1121
330
1036
100
AcDbEntity
  8
上線
100
AcDbLine
 10
4136.204185353559
 20
391.8996862508629
 30
0.0
 11
3221.72944325387
 21
391.8996862508629
 31
0.0
  0
LINE
  5
1122
330
1036
100
AcDbEntity
  8
上線
 48
10.0
100
AcDbLine
 10
2494.307994990762
 20
968.9646573201773
 30
0.0
 11
3454.307994990762
 21
968.9646573201773
 31
0.0
  0
LINE
  5
1123
330
1036
100
AcDbEntity
  8
上線
 48
10.0
100
AcDbLine
 10
2474.307994990762
 20
938.9646573201773
 30
0.0
 11
3474.307994990762
 21
938.9646573201776
 31
0.0
  0
LINE
  5
1124
330
1036
100
AcDbEntity
  8
上線
100
AcDbLine
 10
3221.729443253869
 20
391.8996862508629
 30
0.0
 11
3221.729443253869
 21
51.27467674447507
 31
0.0
  0
MTEXT
  5
1125
330
1036
100
AcDbEntity
  8
上線
 48
10.0
100
AcDbMText
 10
3260.480913839487
 20
197.9069032832576
 30
0.0
 40
30.0
 41
241.0562
 71
     1
 72
     5
  1
\fＭＳ Ｐ明朝|b0|i0|c128|p18;ｓ；1/10
 73
     1
 44
1.0
  0
MTEXT
  5
1126
330
1036
100
AcDbEntity
  8
上線
 48
10.0
100
AcDbMText
 10
3242.635540913962
 20
275.3924949244737
 30
0.0
 40
30.0
 41
241.0562
 71
     1
 72
     5
  1
\fＭＳ Ｐ明朝|b0|i0|c128|p18;寸　法
 73
     1
 44
1.0
  0
MTEXT
  5
1127
330
1036
100
AcDbEntity
  8
上線
 48
10.0
100
AcDbMText
 10
3242.635540913962
 20
363.9474539804541
 30
0.0
 40
30.0
 41
241.0562
 71
     1
 72
     5
  1
\fＭＳ Ｐ明朝|b0|i0|c128|p18;呼び名
 73
     1
 44
1.0
  0
LINE
  5
1128
330
1036
100
AcDbEntity
  8
上線
 48
10.0
100
AcDbLine
 10
2474.307994990762
 20
1378.964657320177
 30
0.0
 11
2474.307994990762
 21
938.9646573201773
 31
0.0
  0
POINT
  5
1129
330
1036
100
AcDbEntity
  8
DEFPOINTS
  6
ByBlock
 62
     0
 48
10.0
100
AcDbPoint
 10
2464.281677719127
 20
693.6063304182134
 30
0.0
  0
POINT
  5
112A
330
1036
100
AcDbEntity
  8
DEFPOINTS
  6
ByBlock
 62
     0
 48
10.0
100
AcDbPoint
 10
2484.281677719127
 20
865.5970742888323
 30
0.0
  0
POINT
  5
112B
330
1036
100
AcDbEntity
  8
DEFPOINTS
  6
ByBlock
 62
     0
 48
10.0
100
AcDbPoint
 10
2474.307994990762
 20
905.0362228259258
 30
0.0
  0
POINT
  5
112C
330
1036
100
AcDbEntity
  8
DEFPOINTS
  6
ByBlock
 62
     0
 48
10.0
100
AcDbPoint
 10
2494.307994990762
 20
905.0362228259258
 30
0.0
  0
POINT
  5
112D
330
1036
100
AcDbEntity
  8
DEFPOINTS
  6
ByBlock
 62
     0
 48
10.0
100
AcDbPoint
 10
2494.307994990762
 20
905.0362228259258
 30
0.0
  0
POINT
  5
112E
330
1036
100
AcDbEntity
  8
DEFPOINTS
  6
ByBlock
 62
     0
100
AcDbPoint
 10
2861.807994990762
 20
766.1445560973679
 30
0.0
  0
POINT
  5
112F
330
1036
100
AcDbEntity
  8
DEFPOINTS
  6
ByBlock
 62
     0
100
AcDbPoint
 10
2861.807994990762
 20
766.1445560973679
 30
0.0
  0
LINE
  5
1130
330
1036
100
AcDbEntity
  8
上線
100
AcDbLine
 10
2861.807994990762
 20
775.1011944738323
 30
0.0
 11
2995.322301752183
 21
775.101194473832
 31
0.0
  0
MTEXT
  5
1131
330
1036
100
AcDbEntity
  8
上線
 48
10.0
100
AcDbMText
 10
2898.986245048007
 20
798.7307496554121
 30
0.0
 40
25.0
 41
0.0
 71
     4
 72
     1
  1
9-Φ5
 73
     1
 44
1.0
  0
MTEXT
  5
1132
330
1036
100
AcDbEntity
  8
上線
 48
10.0
100
AcDbMText
 10
2898.986245048007
 20
834.8770635341734
 30
0.0
 40
25.0
 41
0.0
 71
     4
 72
     1
  1
\fＭＳ Ｐ明朝|b0|i0|c128|p18;横筋
 73
     1
 44
1.0
  0
POINT
  5
1133
330
1036
100
AcDbEntity
  8
DEFPOINTS
  6
ByBlock
 62
     0
 48
10.0
100
AcDbPoint
 10
2748.281677719127
 20
865.5970742888323
 30
0.0
  0
POINT
  5
1134
330
1036
100
AcDbEntity
  8
DEFPOINTS
  6
ByBlock
 62
     0
 48
10.0
100
AcDbPoint
 10
2758.307994990762
 20
905.0362228259258
 30
0.0
  0
SOLID
  5
1135
330
1036
100
AcDbEntity
  8
0
  6
ByBlock
 62
     0
100
AcDbTrace
 10
2857.641328324096
 20
944.7084097746747
 30
0.0
 11
2865.974661657428
 21
944.7084097746747
 31
0.0
 12
2861.807994990762
 22
969.7084097746747
 32
0.0
 13
2861.807994990762
 23
969.7084097746747
 33
0.0
  0
SOLID
  5
1136
330
1036
100
AcDbEntity
  8
0
  6
ByBlock
 62
     0
100
AcDbTrace
 10
2857.641328324096
 20
1158.216496298986
 30
0.0
 11
2865.974661657428
 21
1158.216496298986
 31
0.0
 12
2861.807994990762
 22
1183.216496298986
 32
0.0
 13
2861.807994990762
 23
1183.216496298986
 33
0.0
  0
SOLID
  5
1137
330
1036
100
AcDbEntity
  8
0
  6
ByBlock
 62
     0
100
AcDbTrace
 10
2857.641328324096
 20
1369.070895888296
 30
0.0
 11
2865.974661657428
 21
1369.070895888296
 31
0.0
 12
2861.807994990762
 22
1394.070895888296
 32
0.0
 13
2861.807994990762
 23
1394.070895888296
 33
0.0
  0
MTEXT
  5
1138
330
1036
100
AcDbEntity
  8
上線
 48
10.0
100
AcDbMText
 10
3974.12811941933
 20
189.3255129734025
 30
0.0
 40
30.0
 41
241.0562
 71
     1
 72
     5
  1
S=2.7㎏
 73
     1
 44
1.0
  0
MTEXT
  5
1139
330
1036
100
AcDbEntity
  8
上線
 48
10.0
100
AcDbMText
 10
3436.018857692868
 20
283.6945155510811
 30
0.0
 40
40.0
 41
1003.0154
 71
     1
 72
     5
  1
240×500×120/120×1000
 73
     1
 44
1.0
  0
MTEXT
  5
113A
330
1036
100
AcDbEntity
  8
上線
 48
10.0
100
AcDbMText
 10
3472.627703486923
 20
372.0708450121355
 30
0.0
 40
40.0
 41
1003.0154
 71
     1
 72
     5
  1
長尺U字溝　（H1-24-50）
 73
     1
 44
1.0
  0
MTEXT
  5
113B
330
1036
100
AcDbEntity
  8
上線
 48
10.0
100
AcDbMText
 10
3457.901265728765
 20
118.7463304485136
 30
0.0
 40
40.0
 41
1003.0154
 71
     1
 72
     5
  1
\fＭＳ Ｐ明朝|b0|i0|c128|p18;㈱　ウ　チ　コ　ン
 73
     1
 44
1.0
  0
LINE
  5
113C
330
1036
100
AcDbEntity
  8
上線
100
AcDbLine
 10
3396.287379150888
 20
391.8996862508629
 30
0.0
 11
3396.287379150888
 21
217.557114927059
 31
0.0
  0
MTEXT
  5
113D
330
1036
100
AcDbEntity
  8
上線
 48
10.0
100
AcDbMText
 10
3476.491660869515
 20
197.9069032832576
 30
0.0
 40
30.0
 41
241.0562
 71
     1
 72
     5
  1
\fＭＳ Ｐ明朝|b0|i0|c128|p18;単位；㎜
 73
     1
 44
1.0
  0
LINE
  5
113E
330
1036
100
AcDbEntity
  8
上線
 48
10.0
100
AcDbLine
 10
3434.708821764319
 20
217.557114927059
 30
0.0
 11
3434.708821764319
 21
134.5368362888175
 31
0.0
  0
LINE
  5
113F
330
1036
100
AcDbEntity
  8
上線
 48
10.0
100
AcDbLine
 10
3678.966814303714
 20
217.557114927059
 30
0.0
 11
3678.966814303714
 21
134.5368362888175
 31
0.0
  0
MTEXT
  5
1140
330
1036
100
AcDbEntity
  8
上線
 48
10.0
100
AcDbMText
 10
3724.502504880174
 20
189.3255129734025
 30
0.0
 40
30.0
 41
241.0562
 71
     1
 72
     5
  1
W=455㎏
 73
     1
 44
1.0
  0
LINE
  5
1141
330
1036
100
AcDbEntity
  8
上線
 48
10.0
100
AcDbLine
 10
3945.318493311339
 20
217.557114927059
 30
0.0
 11
3945.318493311339
 21
134.5368362888175
 31
0.0
  0
LINE
  5
1142
330
1036
100
AcDbEntity
  8
上線
100
AcDbLine
 10
4136.204185353559
 20
51.27467674447507
 30
0.0
 11
4136.204185353559
 21
391.8996862508629
 31
0.0
  0
POINT
  5
1143
330
1036
100
AcDbEntity
  8
DEFPOINTS
  6
ByBlock
 62
     0
 48
10.0
100
AcDbPoint
 10
3561.210156791708
 20
938.9646573201773
 30
0.0
  0
POINT
  5
1144
330
1036
100
AcDbEntity
  8
DEFPOINTS
  6
ByBlock
 62
     0
 48
10.0
100
AcDbPoint
 10
3959.569139520073
 20
911.5460169293083
 30
0.0
  0
POINT
  5
1145
330
1036
100
AcDbEntity
  8
DEFPOINTS
  6
ByBlock
 62
     0
 48
10.0
100
AcDbPoint
 10
3901.183856791709
 20
1223.678545063395
 30
0.0
  0
LINE
  5
1146
330
1036
100
AcDbEntity
  8
0
  6
ByBlock
 62
     0
100
AcDbLine
 10
3429.307994990762
 20
1502.297990820177
 30
0.0
 11
2225.72421651126
 21
1502.297990820177
 31
0.0
  0
DIMENSION
  5
1147
330
1036
100
AcDbEntity
  8
上線
100
AcDbDimension
  2
*D7
 10
3454.307994990762
 20
1768.945124195465
 30
0.0
 11
3341.807994990762
 21
1787.695124195465
 31
0.0
 12
494.6597463542238
 22
-299.89299565492
 32
0.0
 71
     5
 42
-1.0
  3
STANDARD
100
AcDbAlignedDimension
 13
3229.307994990762
 23
1665.627071404628
 33
0.0
 14
3454.307994990762
 24
1665.627071404628
 34
0.0
100
AcDbRotatedDimension
1001
ACAD
1000
DSTYLE
1002
{
1070
    40
1040
10.0
1070
    41
1040
2.5
1070
    42
1040
0.625
1070
    43
1040
3.75
1070
    44
1040
1.25
1070
    73
1070
     0
1070
    74
1070
     0
1070
    77
1070
     1
1070
    78
1070
     8
1070
   140
1040
2.5
1070
   141
1040
2.5
1070
   143
1040
0.0394
1070
   147
1040
0.625
1070
   171
1070
     4
1070
   172
1070
     1
1070
   273
1070
     8
1070
   274
1070
     4
1070
   277
1070
     6
1002
}
  0
DIMENSION
  5
1148
330
1036
100
AcDbEntity
  8
上線
100
AcDbDimension
  2
*D3
 10
3474.307994990763
 20
1858.847179099623
 30
0.0
 11
2974.307994990762
 21
1879.774145391758
 31
0.0
 12
494.6597463542238
 22
-299.89299565492
 32
0.0
 71
     5
 42
-1.0
  3
STANDARD
100
AcDbAlignedDimension
 13
2474.307994990762
 23
1665.627071404628
 33
0.0
 14
3474.307994990763
 24
1665.62707140463
 34
0.0
100
AcDbRotatedDimension
1001
ACAD
1000
DSTYLE
1002
{
1070
    40
1040
10.0
1070
    41
1040
2.5
1070
    42
1040
0.625
1070
    43
1040
3.75
1070
    44
1040
1.25
1070
    73
1070
     0
1070
    74
1070
     0
1070
    77
1070
     1
1070
    78
1070
     8
1070
   140
1040
2.5
1070
   141
1040
2.5
1070
   143
1040
0.0394
1070
   147
1040
0.625
1070
   171
1070
     4
1070
   172
1070
     1
1070
   273
1070
     8
1070
   274
1070
     4
1070
   277
1070
     6
1002
}
  0
LINE
  5
1149
330
1036
100
AcDbEntity
  8
0
  6
ByBlock
 62
     0
 48
10.0
100
AcDbLine
 10
2499.307994990762
 20
1768.945124195465
 30
0.0
 11
3474.307994990762
 21
1768.945124195465
 31
0.0
  0
LINE
  5
114A
330
1036
100
AcDbEntity
  8
点線
100
AcDbLine
 10
3474.307994990762
 20
1538.964657320176
 30
0.0
 11
2474.307994990762
 21
1538.964657320177
 31
0.0
  0
LINE
  5
114B
330
1036
100
AcDbEntity
  8
上線
 48
10.0
100
AcDbLine
 10
2494.307994990762
 20
1608.964657320177
 30
0.0
 11
3454.307994990762
 21
1608.964657320177
 31
0.0
  0
LINE
  5
114C
330
1036
100
AcDbEntity
  8
上線
 48
10.0
100
AcDbLine
 10
2474.307994990762
 20
1638.964657320177
 30
0.0
 11
3474.307994990761
 21
1638.964657320177
 31
0.0
  0
LWPOLYLINE
  5
114D
330
1036
100
AcDbEntity
  8
上線
100
AcDbPolyline
 90
        4
 70
     1
 43
0.0
 10
2866.766913390213
 20
2312.962744548296
 10
3070.043849559237
 20
2312.962744548296
 10
3070.043849559237
 20
2406.667127294302
 10
2866.766913390213
 20
2406.667127294302
  0
LWPOLYLINE
  5
114E
330
1036
100
AcDbEntity
  8
上線
100
AcDbPolyline
 90
        4
 70
     1
 43
0.0
 10
2863.766913390213
 20
2309.962744548296
 10
3073.043849559237
 20
2309.962744548296
 10
3073.043849559237
 20
2409.667127294302
 10
2863.766913390213
 20
2409.667127294302
  0
SOLID
  5
114F
330
1036
100
AcDbEntity
  8
0
  6
ByBlock
 62
     0
100
AcDbTrace
 10
2714.307994990762
 20
1506.464657486844
 30
0.0
 11
2714.307994990762
 21
1498.13132415351
 31
0.0
 12
2739.307994990762
 22
1502.297990820177
 32
0.0
 13
2739.307994990762
 23
1502.297990820177
 33
0.0
  0
DIMENSION
  5
1150
330
1036
100
AcDbEntity
  8
上線
100
AcDbDimension
  2
*D6
 10
3229.307994990762
 20
1768.945124195465
 30
0.0
 11
2861.807994990762
 21
1787.695124195465
 31
0.0
 12
494.6597463542238
 22
-299.89299565492
 32
0.0
  1
3@245=735
 71
     5
 42
-1.0
  3
STANDARD
100
AcDbAlignedDimension
 13
2494.307994990762
 23
1665.627071404628
 33
0.0
 14
3229.307994990762
 24
1665.627071404628
 34
0.0
100
AcDbRotatedDimension
1001
ACAD
1000
DSTYLE
1002
{
1070
    40
1040
10.0
1070
    41
1040
2.5
1070
    42
1040
0.625
1070
    43
1040
3.75
1070
    44
1040
1.25
1070
    73
1070
     0
1070
    74
1070
     0
1070
    77
1070
     1
1070
    78
1070
     8
1070
   140
1040
2.5
1070
   141
1040
2.5
1070
   143
1040
0.0394
1070
   147
1040
0.625
1070
   171
1070
     4
1070
   172
1070
     1
1070
   273
1070
     8
1070
   274
1070
     4
1070
   277
1070
     6
1002
}
  0
DIMENSION
  5
1151
330
1036
100
AcDbEntity
  8
上線
100
AcDbDimension
  2
*D4
 10
2474.307994990762
 20
1768.945124195465
 30
0.0
 11
2401.906309597503
 21
1787.695124195465
 31
0.0
 12
494.6597463542238
 22
-299.89299565492
 32
0.0
 71
     5
 42
-1.0
  3
STANDARD
100
AcDbAlignedDimension
 13
2494.307994990762
 23
1665.627071404628
 33
0.0
 14
2474.307994990762
 24
1665.627071404628
 34
0.0
100
AcDbRotatedDimension
1001
ACAD
1000
DSTYLE
1002
{
1070
    40
1040
10.0
1070
    41
1040
2.5
1070
    42
1040
0.625
1070
    43
1040
3.75
1070
    44
1040
1.25
1070
    73
1070
     0
1070
    74
1070
     0
1070
    77
1070
     1
1070
    78
1070
     8
1070
   140
1040
2.5
1070
   141
1040
2.5
1070
   143
1040
0.0394
1070
   147
1040
0.625
1070
   171
1070
     4
1070
   172
1070
     1
1070
   273
1070
     8
1070
   274
1070
     4
1070
   277
1070
     6
1002
}
  0
MTEXT
  5
1152
330
1036
100
AcDbEntity
  8
上線
 48
10.0
100
AcDbMText
 10
2231.81164565352
 20
1565.083800776146
 30
0.0
 40
25.0
 41
0.0
 71
     4
 72
     1
  1
\fＭＳ Ｐ明朝|b0|i0|c128|p18;縦筋
 73
     1
 44
1.0
  0
MTEXT
  5
1153
330
1036
100
AcDbEntity
  8
上線
 48
10.0
100
AcDbMText
 10
2231.81164565352
 20
1525.983604928847
 30
0.0
 40
25.0
 41
0.0
 71
     4
 72
     1
  1
5-Φ5
 73
     1
 44
1.0
  0
POINT
  5
1154
330
1036
100
AcDbEntity
  8
DEFPOINTS
  6
ByBlock
 62
     0
100
AcDbPoint
 10
2128.281140492929
 20
1502.297990820177
 30
0.0
  0
POINT
  5
1155
330
1036
100
AcDbEntity
  8
DEFPOINTS
  6
ByBlock
 62
     0
100
AcDbPoint
 10
2128.281140492929
 20
1502.297990820177
 30
0.0
  0
LINE
  5
1156
330
1036
100
AcDbEntity
  8
0
  6
ByBlock
 62
     0
 48
10.0
100
AcDbLine
 10
2474.307994990762
 20
1689.943433168825
 30
0.0
 11
2474.307994990762
 21
1781.445124195465
 31
0.0
  0
LINE
  5
1157
330
1036
100
AcDbEntity
  8
0
  6
ByBlock
 62
     0
 48
10.0
100
AcDbLine
 10
2474.307994990762
 20
1665.627071404628
 30
0.0
 11
2474.307994990762
 21
1871.347179099623
 31
0.0
  0
SOLID
  5
1158
330
1036
100
AcDbEntity
  8
0
  6
ByBlock
 62
     0
100
AcDbTrace
 10
2469.307994990762
 20
1506.464657486844
 30
0.0
 11
2469.307994990762
 21
1498.13132415351
 31
0.0
 12
2494.307994990762
 22
1502.297990820177
 32
0.0
 13
2494.307994990762
 23
1502.297990820177
 33
0.0
  0
POINT
  5
1159
330
1036
100
AcDbEntity
  8
DEFPOINTS
  6
ByBlock
 62
     0
 48
10.0
100
AcDbPoint
 10
2474.307994990762
 20
1743.693433168825
 30
0.0
  0
POINT
  5
115A
330
1036
100
AcDbEntity
  8
DEFPOINTS
  6
ByBlock
 62
     0
 48
10.0
100
AcDbPoint
 10
2474.307994990762
 20
1743.693433168825
 30
0.0
  0
SOLID
  5
115B
330
1036
100
AcDbEntity
  8
0
  6
ByBlock
 62
     0
 48
10.0
100
AcDbTrace
 10
2499.307994990762
 20
1863.01384576629
 30
0.0
 11
2499.307994990762
 21
1854.680512432957
 31
0.0
 12
2474.307994990762
 22
1858.847179099623
 32
0.0
 13
2474.307994990762
 23
1858.847179099623
 33
0.0
  0
SOLID
  5
115C
330
1036
100
AcDbEntity
  8
0
  6
ByBlock
 62
     0
100
AcDbTrace
 10
2857.641328324096
 20
1583.964657320177
 30
0.0
 11
2865.974661657428
 21
1583.964657320177
 31
0.0
 12
2861.807994990762
 22
1608.964657320177
 32
0.0
 13
2861.807994990762
 23
1608.964657320177
 33
0.0
  0
LINE
  5
115D
330
1036
100
AcDbEntity
  8
0
  6
ByBlock
 62
     0
100
AcDbLine
 10
2855.557994990762
 20
1608.964657320177
 30
0.0
 11
2849.307994990762
 21
1608.964657320177
 31
0.0
  0
POINT
  5
115E
330
1036
100
AcDbEntity
  8
DEFPOINTS
  6
ByBlock
 62
     0
100
AcDbPoint
 10
2861.807994990762
 20
1608.964657320177
 30
0.0
  0
SOLID
  5
115F
330
1036
100
AcDbEntity
  8
0
  6
ByBlock
 62
     0
100
AcDbTrace
 10
2959.307994990762
 20
1506.464657486844
 30
0.0
 11
2959.307994990762
 21
1498.13132415351
 31
0.0
 12
2984.307994990762
 22
1502.297990820177
 32
0.0
 13
2984.307994990762
 23
1502.297990820177
 33
0.0
  0
SOLID
  5
1160
330
1036
100
AcDbEntity
  8
0
  6
ByBlock
 62
     0
100
AcDbTrace
 10
3204.307994990762
 20
1506.464657486844
 30
0.0
 11
3204.307994990762
 21
1498.13132415351
 31
0.0
 12
3229.307994990762
 22
1502.297990820177
 32
0.0
 13
3229.307994990762
 23
1502.297990820177
 33
0.0
  0
MTEXT
  5
1161
330
1036
100
AcDbEntity
  8
上線
 48
10.0
100
AcDbMText
 10
2887.82178281529
 20
2380.645027545337
 30
0.0
 40
40.0
 41
558.2059
 71
     1
 72
     5
  1
\fＭＳ Ｐ明朝|b0|i0|c128|p18;側面図
 73
     1
 44
1.0
  0
DIMENSION
  5
1162
330
1036
100
AcDbEntity
  8
上線
100
AcDbDimension
  2
*D5
 10
3474.307994990763
 20
1768.945124195465
 30
0.0
 11
3546.709680384021
 21
1787.695124195465
 31
0.0
 12
494.6597463542238
 22
-299.89299565492
 32
0.0
 71
     5
 42
-1.0
  3
STANDARD
100
AcDbAlignedDimension
 13
3454.307994990762
 23
1665.627071404628
 33
0.0
 14
3474.307994990763
 24
1665.627071404628
 34
0.0
100
AcDbRotatedDimension
1001
ACAD
1000
DSTYLE
1002
{
1070
    40
1040
10.0
1070
    41
1040
2.5
1070
    42
1040
0.625
1070
    43
1040
3.75
1070
    44
1040
1.25
1070
    73
1070
     0
1070
    74
1070
     0
1070
    77
1070
     1
1070
    78
1070
     8
1070
   140
1040
2.5
1070
   141
1040
2.5
1070
   143
1040
0.0394
1070
   147
1040
0.625
1070
   171
1070
     4
1070
   172
1070
     1
1070
   273
1070
     8
1070
   274
1070
     4
1070
   277
1070
     6
1002
}
  0
LINE
  5
1163
330
1036
100
AcDbEntity
  8
0
  6
ByBlock
 62
     0
 48
10.0
100
AcDbLine
 10
3474.307994990763
 20
1665.627071404628
 30
0.0
 11
3474.307994990762
 21
1841.445124195464
 31
0.0
  0
SOLID
  5
1164
330
1036
100
AcDbEntity
  8
0
  6
ByBlock
 62
     0
100
AcDbTrace
 10
3429.307994990762
 20
1506.464657486844
 30
0.0
 11
3429.307994990762
 21
1498.13132415351
 31
0.0
 12
3454.307994990762
 22
1502.297990820177
 32
0.0
 13
3454.307994990762
 23
1502.297990820177
 33
0.0
  0
POINT
  5
1165
330
1036
100
AcDbEntity
  8
DEFPOINTS
  6
ByBlock
 62
     0
100
AcDbPoint
 10
3454.307994990762
 20
1502.297990820177
 30
0.0
  0
LINE
  5
1166
330
1036
100
AcDbEntity
  8
0
  6
ByBlock
 62
     0
100
AcDbLine
 10
3454.307994990762
 20
1508.547990820177
 30
0.0
 11
3454.307994990762
 21
1514.797990820177
 31
0.0
  0
POINT
  5
1167
330
1036
100
AcDbEntity
  8
DEFPOINTS
  6
ByBlock
 62
     0
 48
10.0
100
AcDbPoint
 10
3474.307994990762
 20
1743.693433168825
 30
0.0
  0
POINT
  5
1168
330
1036
100
AcDbEntity
  8
DEFPOINTS
  6
ByBlock
 62
     0
 48
10.0
100
AcDbPoint
 10
3474.307994990762
 20
1828.945124195464
 30
0.0
  0
ENDBLK
  5
116A
330
1036
100
AcDbEntity
  8
0
 48
10.0
100
AcDbBlockEnd
  0
BLOCK
  5
1461
330
144C
100
AcDbEntity
  8
0
 48
10.0
100
AcDbBlockBegin
  2
A$C116E6D52
 70
     0
 10
0.0
 20
0.0
 30
0.0
  3
A$C116E6D52
  1

  0
MTEXT
  5
144D
330
144C
100
AcDbEntity
  8
上線
 48
10.0
100
AcDbMText
 10
250.3095436652183
 20
66.52973757735344
 30
0.0
 40
40.0
 41
1003.0154
 71
     1
 72
     5
  1
\fＭＳ Ｐ明朝|b0|i0|c128|p18;㈱　ウ　チ　コ　ン
 73
     1
 44
1.0
  0
LINE
  5
144E
330
144C
100
AcDbEntity
  8
上線
100
AcDbLine
 10
914.474744697496
 20
-0.0000006282925824
 30
0.0
 11
0.0000025978065423
 21
-0.0000006282925824
 31
0.0
  0
MTEXT
  5
144F
330
144C
100
AcDbEntity
  8
上線
 48
10.0
100
AcDbMText
 10
254.7622202134516
 20
133.445570695394
 30
0.0
 40
30.0
 41
241.0562
 71
     1
 72
     5
  1
\fＭＳ Ｐ明朝|b0|i0|c128|p18;単位；㎜
 73
     1
 44
1.0
  0
LINE
  5
1450
330
144C
100
AcDbEntity
  8
上線
100
AcDbLine
 10
914.474744697496
 20
82.32025689785769
 30
0.0
 11
0.0000025978065423
 21
82.32025689785769
 31
0.0
  0
LINE
  5
1451
330
144C
100
AcDbEntity
  8
上線
100
AcDbLine
 10
914.474744697496
 20
149.3281742664257
 30
0.0
 11
0.0000025978065423
 21
149.3281742664257
 31
0.0
  0
MTEXT
  5
1452
330
144C
100
AcDbEntity
  8
上線
 48
10.0
100
AcDbMText
 10
212.0885990162423
 20
215.4655748904478
 30
0.0
 40
40.0
 41
1003.0154
 71
     1
 72
     5
  1
240×240×120/120×4000
 73
     1
 44
1.0
  0
MTEXT
  5
1453
330
144C
100
AcDbEntity
  8
上線
 48
10.0
100
AcDbMText
 10
266.0058814421426
 20
305.6012962856739
 30
0.0
 40
40.0
 41
1003.0154
 71
     1
 72
     5
  1
長尺U字溝　（H4-24A）
 73
     1
 44
1.0
  0
LINE
  5
1454
330
144C
100
AcDbEntity
  8
上線
100
AcDbLine
 10
914.474744697496
 20
232.3484463253798
 30
0.0
 11
0.0000025978065423
 21
232.3484463253798
 31
0.0
  0
LINE
  5
1455
330
144C
100
AcDbEntity
  8
上線
100
AcDbLine
 10
914.474744697496
 20
323.6707455902296
 30
0.0
 11
0.0000025978065423
 21
323.6707455902296
 31
0.0
  0
LINE
  5
1456
330
144C
100
AcDbEntity
  8
上線
 48
10.0
100
AcDbLine
 10
212.9793811082563
 20
149.3281742664257
 30
0.0
 11
212.9793811082568
 21
82.32025689785769
 31
0.0
  0
MTEXT
  5
1457
330
144C
100
AcDbEntity
  8
上線
 48
10.0
100
AcDbMText
 10
38.75147318342351
 20
133.4455706953949
 30
0.0
 40
30.0
 41
241.0562
 71
     1
 72
     5
  1
\fＭＳ Ｐ明朝|b0|i0|c128|p18;ｓ；1/10
 73
     1
 44
1.0
  0
LINE
  5
1458
330
144C
100
AcDbEntity
  8
上線
100
AcDbLine
 10
0.0000025978060876
 20
323.6707455902296
 30
0.0
 11
0.0000025978060876
 21
-0.0000006282925682
 31
0.0
  0
MTEXT
  5
1459
330
144C
100
AcDbEntity
  8
上線
 48
10.0
100
AcDbMText
 10
20.90610025789828
 20
207.1635542638405
 30
0.0
 40
30.0
 41
241.0562
 71
     1
 72
     5
  1
\fＭＳ Ｐ明朝|b0|i0|c128|p18;寸　法
 73
     1
 44
1.0
  0
MTEXT
  5
145A
330
144C
100
AcDbEntity
  8
上線
 48
10.0
100
AcDbMText
 10
20.90610025789828
 20
295.7185133198208
 30
0.0
 40
30.0
 41
241.0562
 71
     1
 72
     5
  1
\fＭＳ Ｐ明朝|b0|i0|c128|p18;呼び名
 73
     1
 44
1.0
  0
LINE
  5
145B
330
144C
100
AcDbEntity
  8
上線
100
AcDbLine
 10
174.557938494825
 20
323.6707455902296
 30
0.0
 11
174.557938494825
 21
149.3281742664257
 31
0.0
  0
LINE
  5
145C
330
144C
100
AcDbEntity
  8
上線
 48
10.0
100
AcDbLine
 10
723.5890526552757
 20
149.3281742664257
 30
0.0
 11
723.5890526552761
 21
82.32025689785769
 31
0.0
  0
MTEXT
  5
145D
330
144C
100
AcDbEntity
  8
上線
 48
10.0
100
AcDbMText
 10
755.8553176647456
 20
130.5155992347945
 30
0.0
 40
30.0
 41
241.0562
 71
     1
 72
     5
  1
S=7.2㎏
 73
     1
 44
1.0
  0
MTEXT
  5
145E
330
144C
100
AcDbEntity
  8
上線
 48
10.0
100
AcDbMText
 10
502.7730642241112
 20
131.4575079930873
 30
0.0
 40
30.0
 41
241.0562
 71
     1
 72
     5
  1
W=1196㎏
 73
     1
 44
1.0
  0
LINE
  5
145F
330
144C
100
AcDbEntity
  8
上線
 48
10.0
100
AcDbLine
 10
457.2373736476511
 20
149.3281742664257
 30
0.0
 11
457.2373736476516
 21
82.32025689785769
 31
0.0
  0
LINE
  5
1460
330
144C
100
AcDbEntity
  8
上線
100
AcDbLine
 10
914.474744697496
 20
-0.0000006282925682
 30
0.0
 11
914.474744697496
 21
323.6707455902296
 31
0.0
  0
ENDBLK
  5
1462
330
144C
100
AcDbEntity
  8
0
 48
10.0
100
AcDbBlockEnd
  0
BLOCK
  5
14BF
330
14A9
100
AcDbEntity
  8
0
 48
10.0
100
AcDbBlockBegin
  2
A$C08AE7DE9
 70
     0
 10
0.0
 20
0.0
 30
0.0
  3
A$C08AE7DE9
  1

  0
MTEXT
  5
14AA
330
14A9
100
AcDbEntity
  8
上線
 48
10.0
100
AcDbMText
 10
253.6646320438412
 20
391.6112710049801
 30
0.0
 40
55.0
 41
1003.0154
 71
     1
 72
     5
  1
長 尺 U 字 溝  （H4-24B）
 73
     1
 44
1.0
  0
MTEXT
  5
14AB
330
14A9
100
AcDbEntity
  8
上線
 48
10.0
100
AcDbMText
 10
257.0896225503074
 20
281.5684104756637
 30
0.0
 40
50.0
 41
1003.0154
 71
     1
 72
     5
  1
240×300×120/120×4000
 73
     1
 44
1.0
  0
MTEXT
  5
14AC
330
14A9
100
AcDbEntity
  8
上線
 48
10.0
100
AcDbMText
 10
280.4253554880178
 20
185.9977917874157
 30
0.0
 40
45.0
 41
241.0562
 71
     1
 72
     5
  1
\fＭＳ Ｐ明朝|b0|i0|c128|p18;単位；㎜
 73
     1
 44
1.0
  0
LINE
  5
14AD
330
14A9
100
AcDbEntity
  8
上線
100
AcDbLine
 10
1146.954615825921
 20
-0.0000019153676476
 30
0.0
 11
-0.0000047803073357
 21
-0.0000019153676476
 31
0.0
  0
MTEXT
  5
14AE
330
14A9
100
AcDbEntity
  8
上線
 48
10.0
100
AcDbMText
 10
287.2898765138724
 20
90.42100085113544
 30
0.0
 40
55.0
 41
1003.0154
 71
     1
 72
     5
  1
\fＭＳ Ｐ明朝|b0|i0|c128|p18;㈱　ウ　チ　コ　ン
 73
     1
 44
1.0
  0
LINE
  5
14AF
330
14A9
100
AcDbEntity
  8
上線
100
AcDbLine
 10
1146.954615825921
 20
109.9999980846323
 30
0.0
 11
-0.0000047803073357
 21
109.9999980846323
 31
0.0
  0
LINE
  5
14B0
330
14A9
100
AcDbEntity
  8
上線
100
AcDbLine
 10
1146.954615825921
 20
199.9999980846322
 30
0.0
 11
-0.0000047803073357
 21
199.9999980846323
 31
0.0
  0
LINE
  5
14B1
330
14A9
100
AcDbEntity
  8
上線
100
AcDbLine
 10
1146.95461582592
 20
299.9999980846323
 30
0.0
 11
-0.0000047803073357
 21
299.9999980846323
 31
0.0
  0
LINE
  5
14B2
330
14A9
100
AcDbEntity
  8
上線
100
AcDbLine
 10
1146.95461582592
 20
409.9999980846323
 30
0.0
 11
-0.0000047803073357
 21
409.9999980846323
 31
0.0
  0
LINE
  5
14B3
330
14A9
100
AcDbEntity
  8
上線
100
AcDbLine
 10
-0.0000047803082452
 20
409.9999980846323
 30
0.0
 11
-0.0000047803077905
 21
-0.0000019153676476
 31
0.0
  0
MTEXT
  5
14B4
330
14A9
100
AcDbEntity
  8
上線
 48
10.0
100
AcDbMText
 10
33.28331656377486
 20
375.5257022065679
 30
0.0
 40
30.0
 41
241.0562
 71
     1
 72
     5
  1
\fＭＳ Ｐ明朝|b0|i0|c128|p18;呼び名
 73
     1
 44
1.0
  0
MTEXT
  5
14B5
330
14A9
100
AcDbEntity
  8
上線
 48
10.0
100
AcDbMText
 10
33.28331656377486
 20
270.9650400917789
 30
0.0
 40
30.0
 41
241.0562
 71
     1
 72
     5
  1
\fＭＳ Ｐ明朝|b0|i0|c128|p18;寸　法
 73
     1
 44
1.0
  0
MTEXT
  5
14B6
330
14A9
100
AcDbEntity
  8
上線
 48
10.0
100
AcDbMText
 10
40.40026206756192
 20
185.9977917874157
 30
0.0
 40
45.0
 41
241.0562
 71
     1
 72
     5
  1
\fＭＳ Ｐ明朝|b0|i0|c128|p18;ｓ；1/15
 73
     1
 44
1.0
  0
LINE
  5
14B7
330
14A9
100
AcDbEntity
  8
上線
100
AcDbLine
 10
197.7705490538191
 20
409.9999980846324
 30
0.0
 11
197.7705490538196
 21
199.9999980846323
 31
0.0
  0
LINE
  5
14B8
330
14A9
100
AcDbEntity
  8
上線
100
AcDbLine
 10
267.957860344245
 20
199.9999980846323
 30
0.0
 11
267.957860344245
 21
109.9999980846323
 31
0.0
  0
MTEXT
  5
14B9
330
14A9
100
AcDbEntity
  8
上線
 48
10.0
100
AcDbMText
 10
879.5388234230868
 20
177.4164014775606
 30
0.0
 40
45.0
 41
241.0562
 71
     1
 72
     5
  1
S=11.1㎏
 73
     1
 44
1.0
  0
MTEXT
  5
14BA
330
14A9
100
AcDbEntity
  8
上線
100
AcDbMText
 10
559.7665845839729
 20
179.3156682661265
 30
0.0
 40
45.0
 41
364.4508999999999
 71
     1
 72
     5
  1
W=1280㎏
 73
     1
 44
1.0
  0
LINE
  5
14BB
330
14A9
100
AcDbEntity
  8
上線
100
AcDbLine
 10
535.9157254687979
 20
199.9999980846323
 30
0.0
 11
535.9157254687979
 21
109.9999980846323
 31
0.0
  0
POINT
  5
14BC
330
14A9
100
AcDbEntity
  8
DEFPOINTS
  6
ByBlock
 62
     0
 48
10.0
100
AcDbPoint
 10
682.7996971777501
 20
338.0351495319318
 30
0.0
  0
LINE
  5
14BD
330
14A9
100
AcDbEntity
  8
上線
100
AcDbLine
 10
852.6502760680623
 20
199.9999980846323
 30
0.0
 11
852.6502760680623
 21
109.9999980846323
 31
0.0
  0
LINE
  5
14BE
330
14A9
100
AcDbEntity
  8
上線
100
AcDbLine
 10
1146.954615825921
 20
-0.0000019153676476
 30
0.0
 11
1146.95461582592
 21
409.9999980846323
 31
0.0
  0
ENDBLK
  5
14C0
330
14A9
100
AcDbEntity
  8
0
 48
10.0
100
AcDbBlockEnd
  0
BLOCK
  5
14EA
330
14DE
100
AcDbEntity
  8
0
 48
10.0
100
AcDbBlockBegin
  2
*D11
 70
     1
 10
0.0
 20
0.0
 30
0.0
  3
*D11
  1

  0
LINE
  5
14DF
330
14DE
100
AcDbEntity
  8
0
  6
ByBlock
 62
     0
 48
10.0
100
AcDbLine
 10
1155.44619404415
 20
2050.325337888401
 30
0.0
 11
1265.317819684256
 21
2050.325337888401
 31
0.0
  0
LINE
  5
14E0
330
14DE
100
AcDbEntity
  8
0
  6
ByBlock
 62
     0
 48
10.0
100
AcDbLine
 10
1155.44619404415
 20
2080.325337888401
 30
0.0
 11
1265.317819684256
 21
2080.325337888401
 31
0.0
  0
LINE
  5
14E1
330
14DE
100
AcDbEntity
  8
0
  6
ByBlock
 62
     0
 48
10.0
100
AcDbLine
 10
1252.817819684256
 20
2025.325337888401
 30
0.0
 11
1252.817819684256
 21
2000.325337888401
 31
0.0
  0
LINE
  5
14E2
330
14DE
100
AcDbEntity
  8
0
  6
ByBlock
 62
     0
 48
10.0
100
AcDbLine
 10
1252.817819684256
 20
2105.325337888401
 30
0.0
 11
1252.817819684256
 21
2180.325337888401
 31
0.0
  0
LINE
  5
14E3
330
14DE
100
AcDbEntity
  8
0
  6
ByBlock
 62
     0
 48
10.0
100
AcDbLine
 10
1252.817819684256
 20
2050.325337888401
 30
0.0
 11
1252.817819684256
 21
2080.325337888401
 31
0.0
  0
SOLID
  5
14E4
330
14DE
100
AcDbEntity
  8
0
  6
ByBlock
 62
     0
 48
10.0
100
AcDbTrace
 10
1248.651153017589
 20
2025.325337888401
 30
0.0
 11
1256.984486350923
 21
2025.325337888401
 31
0.0
 12
1252.817819684256
 22
2050.325337888401
 32
0.0
 13
1252.817819684256
 23
2050.325337888401
 33
0.0
  0
SOLID
  5
14E5
330
14DE
100
AcDbEntity
  8
0
  6
ByBlock
 62
     0
 48
10.0
100
AcDbTrace
 10
1248.651153017589
 20
2105.325337888401
 30
0.0
 11
1256.984486350923
 21
2105.325337888401
 31
0.0
 12
1252.817819684256
 22
2080.325337888401
 32
0.0
 13
1252.817819684256
 23
2080.325337888401
 33
0.0
  0
MTEXT
  5
14E6
330
14DE
100
AcDbEntity
  8
0
  6
ByBlock
 62
     0
 48
10.0
100
AcDbMText
 10
1234.067819684256
 20
2155.325337888401
 30
0.0
 40
25.0
 41
0.0
 71
     5
 72
     1
  1
\A1;30
 11
0.0000000000000001
 21
1.0
 31
0.0
 73
     1
 44
1.0
  0
POINT
  5
14E7
330
14DE
100
AcDbEntity
  8
DEFPOINTS
  6
ByBlock
 62
     0
 48
10.0
100
AcDbPoint
 10
1149.19619404415
 20
2050.325337888401
 30
0.0
  0
POINT
  5
14E8
330
14DE
100
AcDbEntity
  8
DEFPOINTS
  6
ByBlock
 62
     0
 48
10.0
100
AcDbPoint
 10
1149.19619404415
 20
2080.325337888401
 30
0.0
  0
POINT
  5
14E9
330
14DE
100
AcDbEntity
  8
DEFPOINTS
  6
ByBlock
 62
     0
 48
10.0
100
AcDbPoint
 10
1252.817819684256
 20
2080.325337888401
 30
0.0
  0
ENDBLK
  5
14EB
330
14DE
100
AcDbEntity
  8
0
 48
10.0
100
AcDbBlockEnd
  0
BLOCK
  5
159F
330
14EC
100
AcDbEntity
  8
0
 48
10.0
100
AcDbBlockBegin
  2
A$C50DF7553
 70
     0
 10
0.0
 20
0.0
 30
0.0
  3
A$C50DF7553
  1

  0
LINE
  5
14ED
330
14EC
100
AcDbEntity
  8
0
  6
ByBlock
 62
     0
 48
10.0
100
AcDbLine
 10
571.0898501731008
 20
158.7003963764873
 30
0.0
 11
571.0898501731008
 21
0.0000013378667063
 31
0.0
  0
LINE
  5
14EE
330
14EC
100
AcDbEntity
  8
0
  6
ByBlock
 62
     0
 48
10.0
100
AcDbLine
 10
451.0898501731007
 20
158.7003963764873
 30
0.0
 11
451.0898501731007
 21
0.0000013378667063
 31
0.0
  0
LINE
  5
14EF
330
14EC
100
AcDbEntity
  8
0
  6
ByBlock
 62
     0
 48
10.0
100
AcDbLine
 10
281.1161674447357
 20
191.7069423799082
 30
0.0
 11
520.6997900599057
 21
191.7069423799084
 31
0.0
  0
LINE
  5
14F0
330
14EC
100
AcDbEntity
  8
0
  6
ByBlock
 62
     0
 48
10.0
100
AcDbLine
 10
465.6997900599053
 20
191.501197567245
 30
0.0
 11
760.6997900599053
 21
191.501197567245
 31
0.0
  0
LINE
  5
14F1
330
14EC
100
AcDbEntity
  8
0
  6
ByBlock
 62
     0
 48
10.0
100
AcDbLine
 10
406.1161674447357
 20
652.5646074723331
 30
0.0
 11
636.1161674447357
 21
652.5646074723336
 31
0.0
  0
LINE
  5
14F2
330
14EC
100
AcDbEntity
  8
上線
 48
10.0
100
AcDbLine
 10
445.4284615946526
 20
461.8527032101582
 30
0.0
 11
520.6997900599053
 21
461.8527032101582
 31
0.0
  0
MTEXT
  5
14F3
102
{ACAD_REACTORS
330
14F4
102
}
330
14EC
100
AcDbEntity
  8
上線
 48
10.0
100
AcDbMText
 10
489.1364183075893
 20
587.5131064626521
 30
0.0
 40
25.0
 41
0.0
 71
     4
 72
     1
  1
\A1;\fＭＳ Ｐ明朝|b0|i0|c128|p18;R=50
 73
     1
 44
1.0
  0
LEADER
  5
14F4
330
14EC
100
AcDbEntity
  8
上線
 48
10.0
100
AcDbLeader
  3
STANDARD
 73
     0
 74
     0
 75
     1
 40
25.0
 41
72.0505617977528
 76
     3
 10
423.422808509129
 20
486.2446624683362
 30
0.0
 10
457.8864183075893
 20
568.7631064626521
 30
0.0
 10
482.8864183075893
 20
568.7631064626521
 30
0.0
340
14F3
1001
ACAD
1000
DSTYLE
1002
{
1070
    78
1070
     8
1070
   270
1070
     8
1070
   140
1040
2.5
1070
    74
1070
     0
1070
   172
1070
     1
1070
    73
1070
     0
1070
    77
1070
     1
1070
    40
1040
10.0
1070
   147
1040
0.625
1070
    42
1040
0.625
1070
    44
1040
1.25
1070
    43
1040
3.75
1070
   141
1040
2.5
1070
    41
1040
2.5
1070
   273
1070
     8
1070
   274
1070
     4
1070
   143
1040
0.0394
1070
   171
1070
     4
1002
}
  0
LINE
  5
14F5
330
14EC
100
AcDbEntity
  8
0
  6
ByBlock
 62
     0
 48
10.0
100
AcDbLine
 10
281.1161674447357
 20
1025.387482867614
 30
0.0
 11
761.1161674447357
 21
1025.387482867614
 31
0.0
  0
LINE
  5
14F6
330
14EC
100
AcDbEntity
  8
0
  6
ByBlock
 62
     0
 48
10.0
100
AcDbLine
 10
396.1161674447357
 20
937.5951355434127
 30
0.0
 11
646.1161674447358
 21
937.5951355434127
 31
0.0
  0
SOLID
  5
14F7
330
14EC
100
AcDbEntity
  8
0
  6
ByBlock
 62
     0
 48
10.0
100
AcDbTrace
 10
486.0898501731007
 20
91.38203112990026
 30
0.0
 11
486.0898501731007
 21
83.04869779656678
 31
0.0
 12
461.0898501731007
 22
87.21536446323353
 32
0.0
 13
461.0898501731007
 23
87.21536446323353
 33
0.0
  0
LINE
  5
14F8
330
14EC
100
AcDbEntity
  8
0
  6
ByBlock
 62
     0
 48
10.0
100
AcDbLine
 10
461.0898501731007
 20
87.21536446323353
 30
0.0
 11
561.0898501731007
 21
87.21536446323353
 31
0.0
  0
LINE
  5
14F9
330
14EC
100
AcDbEntity
  8
上線
100
AcDbLine
 10
291.1161674447357
 20
371.852703210158
 30
0.0
 11
751.1161674447357
 21
371.852703210158
 31
0.0
  0
LINE
  5
14FA
330
14EC
100
AcDbEntity
  8
上線
100
AcDbLine
 10
586.8253513784866
 20
471.8527032101585
 30
0.0
 11
455.4069835109848
 21
471.8527032101583
 31
0.0
  0
LINE
  5
14FB
330
14EC
100
AcDbEntity
  8
0
  6
ByBlock
 62
     0
 48
10.0
100
AcDbLine
 10
281.1161674447357
 20
865.8585892550435
 30
0.0
 11
281.1161674447357
 21
1037.887482867615
 31
0.0
  0
LINE
  5
14FC
330
14EC
100
AcDbEntity
  8
0
  6
ByBlock
 62
     0
 48
10.0
100
AcDbLine
 10
34.81852183087358
 20
786.8527032101582
 30
0.0
 11
34.81852183087358
 21
371.8527032101583
 31
0.0
  0
LINE
  5
14FD
330
14EC
100
AcDbEntity
  8
上線
 48
10.0
100
AcDbLine
 10
391.8217313212762
 20
711.9197563920347
 30
0.0
 11
395.4332564839451
 21
511.160268420251
 31
0.0
  0
LINE
  5
14FE
330
14EC
100
AcDbEntity
  8
上線
 48
10.0
100
AcDbLine
 10
401.9047794412581
 20
706.649863453566
 30
0.0
 11
405.4120847710091
 21
521.1384903710154
 31
0.0
  0
LINE
  5
14FF
330
14EC
100
AcDbEntity
  8
0
  6
ByBlock
 62
     0
 48
10.0
100
AcDbLine
 10
406.1161674447357
 20
522.6843558391173
 30
0.0
 11
406.1161674447357
 21
665.0646074723336
 31
0.0
  0
LINE
  5
1500
330
14EC
100
AcDbEntity
  8
0
  6
ByBlock
 62
     0
 48
10.0
100
AcDbLine
 10
128.4647571535333
 20
686.8527032101582
 30
0.0
 11
128.4647571535333
 21
386.8527032101583
 31
0.0
  0
LINE
  5
1501
330
14EC
100
AcDbEntity
  8
上線
100
AcDbLine
 10
281.1161674447357
 20
803.8527032101583
 30
0.0
 11
281.1161674447357
 21
381.8527032101588
 31
0.0
  0
LINE
  5
1502
330
14EC
100
AcDbEntity
  8
0
  6
ByBlock
 62
     0
 48
10.0
100
AcDbLine
 10
214.8993664537993
 20
371.8527032101583
 30
0.0
 11
22.31852183087358
 21
371.8527032101583
 31
0.0
  0
LINE
  5
1503
330
14EC
100
AcDbEntity
  8
0
  6
ByBlock
 62
     0
 48
10.0
100
AcDbLine
 10
214.8993664537993
 20
371.8527032101583
 30
0.0
 11
115.9647571535333
 21
371.8527032101583
 31
0.0
  0
LINE
  5
1504
330
14EC
100
AcDbEntity
  8
0
  6
ByBlock
 62
     0
 48
10.0
100
AcDbLine
 10
214.8993664537993
 20
471.8527032101583
 30
0.0
 11
115.9647571535333
 21
471.8527032101583
 31
0.0
  0
LINE
  5
1505
330
14EC
100
AcDbEntity
  8
0
  6
ByBlock
 62
     0
 48
10.0
100
AcDbLine
 10
214.8993664537993
 20
471.8527032101583
 30
0.0
 11
115.9647571535333
 21
471.8527032101583
 31
0.0
  0
MTEXT
  5
1506
330
14EC
100
AcDbEntity
  8
0
  6
ByBlock
 62
     0
 48
10.0
100
AcDbMText
 10
109.7147571535333
 20
421.8527032101583
 30
0.0
 40
25.0
 41
0.0
 71
     5
 72
     1
  1
\A1;100
 11
0.0000000000000001
 21
1.0
 31
0.0
 73
     1
 44
1.0
  0
POINT
  5
1507
330
14EC
100
AcDbEntity
  8
DEFPOINTS
  6
ByBlock
 62
     0
 48
10.0
100
AcDbPoint
 10
34.81852183087358
 20
311.8527032101583
 30
0.0
  0
SOLID
  5
1508
330
14EC
100
AcDbEntity
  8
0
  6
ByBlock
 62
     0
 48
10.0
100
AcDbTrace
 10
30.6518551642066
 20
396.8527032101583
 30
0.0
 11
38.98518849754054
 21
396.8527032101583
 31
0.0
 12
34.81852183087358
 22
371.8527032101583
 32
0.0
 13
34.81852183087358
 23
371.8527032101583
 33
0.0
  0
POINT
  5
1509
330
14EC
100
AcDbEntity
  8
DEFPOINTS
  6
ByBlock
 62
     0
 48
10.0
100
AcDbPoint
 10
128.4647571535333
 20
311.8527032101583
 30
0.0
  0
SOLID
  5
150A
330
14EC
100
AcDbEntity
  8
0
  6
ByBlock
 62
     0
 48
10.0
100
AcDbTrace
 10
124.2980904868663
 20
396.8527032101583
 30
0.0
 11
132.6314238201994
 21
396.8527032101583
 31
0.0
 12
128.4647571535333
 22
371.8527032101583
 32
0.0
 13
128.4647571535333
 23
371.8527032101583
 33
0.0
  0
LINE
  5
150B
330
14EC
100
AcDbEntity
  8
0
  6
ByBlock
 62
     0
 48
10.0
100
AcDbLine
 10
128.4647571535333
 20
386.8527032101583
 30
0.0
 11
128.4647571535333
 21
371.8527032101583
 31
0.0
  0
POINT
  5
150C
330
14EC
100
AcDbEntity
  8
DEFPOINTS
  6
ByBlock
 62
     0
 48
10.0
100
AcDbPoint
 10
128.4647571535333
 20
361.8527032101583
 30
0.0
  0
SOLID
  5
150D
330
14EC
100
AcDbEntity
  8
0
  6
ByBlock
 62
     0
 48
10.0
100
AcDbTrace
 10
124.2980904868663
 20
496.8527032101583
 30
0.0
 11
132.6314238201994
 21
496.8527032101583
 31
0.0
 12
128.4647571535333
 22
471.8527032101583
 32
0.0
 13
128.4647571535333
 23
471.8527032101583
 33
0.0
  0
SOLID
  5
150E
330
14EC
100
AcDbEntity
  8
0
  6
ByBlock
 62
     0
 48
10.0
100
AcDbTrace
 10
124.2980904868663
 20
446.8527032101583
 30
0.0
 11
132.6314238201994
 21
446.8527032101583
 31
0.0
 12
128.4647571535333
 22
471.8527032101583
 32
0.0
 13
128.4647571535333
 23
471.8527032101583
 33
0.0
  0
LINE
  5
150F
330
14EC
100
AcDbEntity
  8
0
  6
ByBlock
 62
     0
 48
10.0
100
AcDbLine
 10
281.1161674447357
 20
311.4930652996511
 30
0.0
 11
281.1161674447357
 21
179.1611087828505
 31
0.0
  0
SOLID
  5
1510
330
14EC
100
AcDbEntity
  8
0
  6
ByBlock
 62
     0
 48
10.0
100
AcDbTrace
 10
305.8459512650624
 20
195.8736090465752
 30
0.0
 11
305.8459512650624
 21
187.5402757132417
 31
0.0
 12
280.8459512650624
 22
191.7069423799084
 32
0.0
 13
280.8459512650624
 23
191.7069423799084
 33
0.0
  0
POINT
  5
1511
330
14EC
100
AcDbEntity
  8
DEFPOINTS
  6
ByBlock
 62
     0
 48
10.0
100
AcDbPoint
 10
281.1161674447357
 20
243.6469519213542
 30
0.0
  0
POINT
  5
1512
330
14EC
100
AcDbEntity
  8
DEFPOINTS
  6
ByBlock
 62
     0
 48
10.0
100
AcDbPoint
 10
281.1493664537993
 20
261.8527032101583
 30
0.0
  0
LINE
  5
1513
330
14EC
100
AcDbEntity
  8
0
  6
ByBlock
 62
     0
 48
10.0
100
AcDbLine
 10
461.0898501731007
 20
158.7003963764873
 30
0.0
 11
461.0898501731007
 21
74.71536446323352
 31
0.0
  0
MTEXT
  5
1514
330
14EC
100
AcDbEntity
  8
0
  6
ByBlock
 62
     0
 48
10.0
100
AcDbMText
 10
405.8108588791947
 20
210.4569423799084
 30
0.0
 40
25.0
 41
0.0
 71
     5
 72
     1
  1
\A1;480
 73
     1
 44
1.0
  0
POINT
  5
1515
330
14EC
100
AcDbEntity
  8
DEFPOINTS
  6
ByBlock
 62
     0
 48
10.0
100
AcDbPoint
 10
311.1161674447357
 20
243.6469519213542
 30
0.0
  0
POINT
  5
1516
330
14EC
100
AcDbEntity
  8
DEFPOINTS
  6
ByBlock
 62
     0
 48
10.0
100
AcDbPoint
 10
311.1161674447357
 20
264.5781828621338
 30
0.0
  0
POINT
  5
1517
330
14EC
100
AcDbEntity
  8
DEFPOINTS
  6
ByBlock
 62
     0
 48
10.0
100
AcDbPoint
 10
440.6997900599053
 20
193.2952320924732
 30
0.0
  0
POINT
  5
1518
330
14EC
100
AcDbEntity
  8
DEFPOINTS
  6
ByBlock
 62
     0
 48
10.0
100
AcDbPoint
 10
221.1493664537993
 20
311.8527032101583
 30
0.0
  0
POINT
  5
1519
330
14EC
100
AcDbEntity
  8
DEFPOINTS
  6
ByBlock
 62
     0
 48
10.0
100
AcDbPoint
 10
251.1161674447357
 20
311.4930652996511
 30
0.0
  0
LINE
  5
151A
330
14EC
100
AcDbEntity
  8
上線
100
AcDbLine
 10
281.1161674447357
 20
381.8527032101585
 30
0.0
 11
291.1161674447357
 21
371.8527032101585
 31
0.0
  0
LINE
  5
151B
330
14EC
100
AcDbEntity
  8
点線
 48
10.0
100
AcDbLine
 10
460.6997900599053
 20
471.852703210158
 30
0.0
 11
470.6997900599053
 21
371.8527032101583
 31
0.0
  0
POINT
  5
151C
330
14EC
100
AcDbEntity
  8
DEFPOINTS
  6
ByBlock
 62
     0
 48
10.0
100
AcDbPoint
 10
440.6997900599053
 20
311.4930652996511
 30
0.0
  0
POINT
  5
151D
330
14EC
100
AcDbEntity
  8
DEFPOINTS
  6
ByBlock
 62
     0
 48
10.0
100
AcDbPoint
 10
440.6997900599053
 20
311.4930652996511
 30
0.0
  0
ARC
  5
151E
330
14EC
100
AcDbEntity
  8
上線
 48
10.0
100
AcDbCircle
 10
445.4284615946526
 20
511.8527032101582
 30
0.0
 40
50.0
100
AcDbArc
 50
180.793497186031
 51
270.0
  0
ARC
  5
151F
330
14EC
100
AcDbEntity
  8
上線
100
AcDbCircle
 10
455.4069835109848
 20
521.852703210158
 30
0.0
 40
50.0
100
AcDbArc
 50
180.8184554616886
 51
270.0
  0
LINE
  5
1520
330
14EC
100
AcDbEntity
  8
0
  6
ByBlock
 62
     0
 48
10.0
100
AcDbLine
 10
214.8993664537993
 20
811.8527032101583
 30
0.0
 11
22.31852183087358
 21
811.8527032101583
 31
0.0
  0
LINE
  5
1521
330
14EC
100
AcDbEntity
  8
0
  6
ByBlock
 62
     0
 48
10.0
100
AcDbLine
 10
214.8993664537993
 20
711.8527032101582
 30
0.0
 11
115.9647571535333
 21
711.8527032101582
 31
0.0
  0
LINE
  5
1522
330
14EC
100
AcDbEntity
  8
0
  6
ByBlock
 62
     0
 48
10.0
100
AcDbLine
 10
214.8993664537993
 20
811.8527032101583
 30
0.0
 11
115.9647571535333
 21
811.8527032101583
 31
0.0
  0
MTEXT
  5
1523
330
14EC
100
AcDbEntity
  8
0
  6
ByBlock
 62
     0
 48
10.0
100
AcDbMText
 10
109.7147571535333
 20
761.8527032101582
 30
0.0
 40
25.0
 41
0.0
 71
     5
 72
     1
  1
\A1;100
 11
0.0000000000000001
 21
1.0
 31
0.0
 73
     1
 44
1.0
  0
LINE
  5
1524
330
14EC
100
AcDbEntity
  8
0
  6
ByBlock
 62
     0
 48
10.0
100
AcDbLine
 10
128.4647571535333
 20
711.8527032101582
 30
0.0
 11
128.4647571535333
 21
786.8527032101582
 31
0.0
  0
MTEXT
  5
1525
330
14EC
100
AcDbEntity
  8
0
  6
ByBlock
 62
     0
 48
10.0
100
AcDbMText
 10
16.06852183087357
 20
591.8527032101583
 30
0.0
 40
25.0
 41
0.0
 71
     5
 72
     1
  1
\A1;440
 11
0.0000000000000001
 21
1.0
 31
0.0
 73
     1
 44
1.0
  0
MTEXT
  5
1526
330
14EC
100
AcDbEntity
  8
0
  6
ByBlock
 62
     0
 48
10.0
100
AcDbMText
 10
109.7147571535333
 20
591.8527032101583
 30
0.0
 40
25.0
 41
0.0
 71
     5
 72
     1
  1
240
 11
0.0000000000000001
 21
1.0
 31
0.0
 73
     1
 44
1.0
  0
SOLID
  5
1527
330
14EC
100
AcDbEntity
  8
0
  6
ByBlock
 62
     0
 48
10.0
100
AcDbTrace
 10
124.2980904868663
 20
686.8527032101582
 30
0.0
 11
132.6314238201994
 21
686.8527032101582
 31
0.0
 12
128.4647571535333
 22
711.8527032101582
 32
0.0
 13
128.4647571535333
 23
711.8527032101582
 33
0.0
  0
SOLID
  5
1528
330
14EC
100
AcDbEntity
  8
0
  6
ByBlock
 62
     0
 48
10.0
100
AcDbTrace
 10
124.2980904868663
 20
736.8527032101582
 30
0.0
 11
132.6314238201994
 21
736.8527032101582
 31
0.0
 12
128.4647571535333
 22
711.8527032101582
 32
0.0
 13
128.4647571535333
 23
711.8527032101582
 33
0.0
  0
SOLID
  5
1529
330
14EC
100
AcDbEntity
  8
0
  6
ByBlock
 62
     0
 48
10.0
100
AcDbTrace
 10
30.6518551642066
 20
786.8527032101582
 30
0.0
 11
38.98518849754054
 21
786.8527032101582
 31
0.0
 12
34.81852183087358
 22
811.8527032101583
 32
0.0
 13
34.81852183087358
 23
811.8527032101583
 33
0.0
  0
POINT
  5
152A
330
14EC
100
AcDbEntity
  8
DEFPOINTS
  6
ByBlock
 62
     0
 48
10.0
100
AcDbPoint
 10
128.4647571535333
 20
811.8527032101583
 30
0.0
  0
SOLID
  5
152B
330
14EC
100
AcDbEntity
  8
0
  6
ByBlock
 62
     0
 48
10.0
100
AcDbTrace
 10
124.2980904868663
 20
786.8527032101582
 30
0.0
 11
132.6314238201994
 21
786.8527032101582
 31
0.0
 12
128.4647571535333
 22
811.8527032101583
 32
0.0
 13
128.4647571535333
 23
811.8527032101583
 33
0.0
  0
LINE
  5
152C
330
14EC
100
AcDbEntity
  8
上線
 48
10.0
100
AcDbLine
 10
351.1161674447357
 20
811.8527032101583
 30
0.0
 11
351.1161674447357
 21
761.8527032101582
 31
0.0
  0
SOLID
  5
152D
330
14EC
100
AcDbEntity
  8
0
  6
ByBlock
 62
     0
 48
10.0
100
AcDbTrace
 10
431.1161674447357
 20
656.7312741390001
 30
0.0
 11
431.1161674447357
 21
648.397940805667
 31
0.0
 12
406.1161674447357
 22
652.5646074723336
 32
0.0
 13
406.1161674447357
 23
652.5646074723336
 33
0.0
  0
ARC
  5
152E
330
14EC
100
AcDbEntity
  8
上線
100
AcDbCircle
 10
401.1161674447357
 20
761.8527032101582
 30
0.0
 40
50.0
100
AcDbArc
 50
220.3081602875997
 51
258.4630409671845
  0
ARC
  5
152F
330
14EC
100
AcDbEntity
  8
上線
100
AcDbCircle
 10
401.1161674447357
 20
761.8527032101582
 30
0.0
 40
50.0
100
AcDbArc
 50
180.0
 51
220.3081602875996
  0
LINE
  5
1530
330
14EC
100
AcDbEntity
  8
上線
100
AcDbLine
 10
371.1161674447357
 20
711.8527032101582
 30
0.0
 11
371.1161674447357
 21
711.8527032101582
 31
0.0
  0
LINE
  5
1531
330
14EC
100
AcDbEntity
  8
上線
 48
10.0
100
AcDbLine
 10
391.1161674447357
 20
712.8629083544865
 30
0.0
 11
394.1161674447357
 21
708.8527032101583
 31
0.0
  0
LINE
  5
1532
330
14EC
100
AcDbEntity
  8
上線
 48
10.0
100
AcDbLine
 10
394.1161674447357
 20
708.8527032101583
 30
0.0
 11
401.9047794412581
 21
706.649863453566
 31
0.0
  0
TEXT
  5
1533
330
14EC
100
AcDbEntity
  8
点線
 62
     0
100
AcDbText
 10
296.1341202536914
 20
943.8451355434127
 30
0.0
 40
25.0
  1
70
100
AcDbText
  0
LINE
  5
1534
330
14EC
100
AcDbEntity
  8
0
  6
ByBlock
 62
     0
 48
10.0
100
AcDbLine
 10
356.1161674447357
 20
937.5951355434127
 30
0.0
 11
281.1161674447357
 21
937.5951355434127
 31
0.0
  0
LINE
  5
1535
330
14EC
100
AcDbEntity
  8
上線
100
AcDbLine
 10
351.1161674447357
 20
811.8527032101583
 30
0.0
 11
289.1161674447357
 21
811.8527032101583
 31
0.0
  0
POINT
  5
1536
330
14EC
100
AcDbEntity
  8
DEFPOINTS
  6
ByBlock
 62
     0
 48
10.0
100
AcDbPoint
 10
221.1493664537993
 20
811.8527032101583
 30
0.0
  0
ARC
  5
1537
330
14EC
100
AcDbEntity
  8
上線
100
AcDbCircle
 10
289.1161674447357
 20
803.8527032101583
 30
0.0
 40
8.0
100
AcDbArc
 50
90.0
 51
180.0
  0
SOLID
  5
1538
330
14EC
100
AcDbEntity
  8
0
  6
ByBlock
 62
     0
 48
10.0
100
AcDbTrace
 10
306.1161674447357
 20
941.7618022100791
 30
0.0
 11
306.1161674447357
 21
933.4284688767461
 31
0.0
 12
281.1161674447357
 22
937.5951355434127
 32
0.0
 13
281.1161674447357
 23
937.5951355434127
 33
0.0
  0
POINT
  5
1539
330
14EC
100
AcDbEntity
  8
DEFPOINTS
  6
ByBlock
 62
     0
 48
10.0
100
AcDbPoint
 10
251.1161674447357
 20
937.5951355434127
 30
0.0
  0
LINE
  5
153A
330
14EC
100
AcDbEntity
  8
0
  6
ByBlock
 62
     0
 48
10.0
100
AcDbLine
 10
351.1161674447357
 20
865.8585892550435
 30
0.0
 11
351.1161674447357
 21
950.0951355434127
 31
0.0
  0
LINE
  5
153B
330
14EC
100
AcDbEntity
  8
0
  6
ByBlock
 62
     0
 48
10.0
100
AcDbLine
 10
401.1161674447357
 20
865.8585892550435
 30
0.0
 11
401.1161674447357
 21
950.0951355434127
 31
0.0
  0
POINT
  5
153C
330
14EC
100
AcDbEntity
  8
DEFPOINTS
  6
ByBlock
 62
     0
 48
10.0
100
AcDbPoint
 10
321.1161674447357
 20
809.6085892550435
 30
0.0
  0
POINT
  5
153D
330
14EC
100
AcDbEntity
  8
DEFPOINTS
  6
ByBlock
 62
     0
 48
10.0
100
AcDbPoint
 10
321.1161674447357
 20
809.6085892550435
 30
0.0
  0
TEXT
  5
153E
330
14EC
100
AcDbEntity
  8
点線
 62
     0
100
AcDbText
 10
358.6085415609995
 20
943.8451355434127
 30
0.0
 40
25.0
  1
50
100
AcDbText
  0
SOLID
  5
153F
330
14EC
100
AcDbEntity
  8
0
  6
ByBlock
 62
     0
 48
10.0
100
AcDbTrace
 10
376.1161674447357
 20
941.7618022100791
 30
0.0
 11
376.1161674447357
 21
933.4284688767461
 31
0.0
 12
401.1161674447357
 22
937.5951355434127
 32
0.0
 13
401.1161674447357
 23
937.5951355434127
 33
0.0
  0
LINE
  5
1540
330
14EC
100
AcDbEntity
  8
0
  6
ByBlock
 62
     0
 48
10.0
100
AcDbLine
 10
371.1161674447357
 20
937.5951355434127
 30
0.0
 11
446.1161674447358
 21
937.5951355434127
 31
0.0
  0
SOLID
  5
1541
330
14EC
100
AcDbEntity
  8
0
  6
ByBlock
 62
     0
 48
10.0
100
AcDbTrace
 10
326.1161674447357
 20
941.7618022100791
 30
0.0
 11
326.1161674447357
 21
933.4284688767461
 31
0.0
 12
351.1161674447357
 22
937.5951355434127
 32
0.0
 13
351.1161674447357
 23
937.5951355434127
 33
0.0
  0
SOLID
  5
1542
330
14EC
100
AcDbEntity
  8
0
  6
ByBlock
 62
     0
 48
10.0
100
AcDbTrace
 10
376.1161674447357
 20
941.7618022100791
 30
0.0
 11
376.1161674447357
 21
933.4284688767461
 31
0.0
 12
351.1161674447357
 22
937.5951355434127
 32
0.0
 13
351.1161674447357
 23
937.5951355434127
 33
0.0
  0
POINT
  5
1543
330
14EC
100
AcDbEntity
  8
DEFPOINTS
  6
ByBlock
 62
     0
 48
10.0
100
AcDbPoint
 10
371.1161674447357
 20
937.5951355434127
 30
0.0
  0
SOLID
  5
1544
330
14EC
100
AcDbEntity
  8
0
  6
ByBlock
 62
     0
 48
10.0
100
AcDbTrace
 10
426.1161674447357
 20
941.7618022100791
 30
0.0
 11
426.1161674447357
 21
933.4284688767461
 31
0.0
 12
401.1161674447357
 22
937.5951355434127
 32
0.0
 13
401.1161674447357
 23
937.5951355434127
 33
0.0
  0
SOLID
  5
1545
330
14EC
100
AcDbEntity
  8
0
  6
ByBlock
 62
     0
 48
10.0
100
AcDbTrace
 10
306.1161674447357
 20
1029.554149534281
 30
0.0
 11
306.1161674447357
 21
1021.220816200948
 31
0.0
 12
281.1161674447357
 22
1025.387482867615
 32
0.0
 13
281.1161674447357
 23
1025.387482867615
 33
0.0
  0
LINE
  5
1546
330
14EC
100
AcDbEntity
  8
0
  6
ByBlock
 62
     0
 48
10.0
100
AcDbLine
 10
761.1161674447357
 20
865.8585892550435
 30
0.0
 11
761.1161674447357
 21
1037.887482867615
 31
0.0
  0
LINE
  5
1547
330
14EC
100
AcDbEntity
  8
上線
 48
10.0
100
AcDbLine
 10
640.3272490128998
 20
706.6284129816449
 30
0.0
 11
636.8202501184623
 21
521.1384903710158
 31
0.0
  0
LINE
  5
1548
330
14EC
100
AcDbEntity
  8
0
  6
ByBlock
 62
     0
 48
10.0
100
AcDbLine
 10
636.1161674447357
 20
522.6843558391173
 30
0.0
 11
636.1161674447357
 21
665.0646074723336
 31
0.0
  0
MTEXT
  5
1549
330
14EC
100
AcDbEntity
  8
0
  6
ByBlock
 62
     0
 48
10.0
100
AcDbMText
 10
909.3528700397367
 20
591.8527032101583
 30
0.0
 40
25.0
 41
0.0
 71
     5
 72
     1
  1
\fＭＳ Ｐ明朝|b0|i0|c128|p18;2@190=380
 11
0.0000000000000001
 21
1.0
 31
0.0
 73
     1
 44
1.0
  0
LINE
  5
154A
330
14EC
100
AcDbEntity
  8
0
  6
ByBlock
 62
     0
 48
10.0
100
AcDbLine
 10
928.1028700397364
 20
756.8527032101583
 30
0.0
 11
928.1028700397364
 21
341.8527032101583
 31
0.0
  0
LINE
  5
154B
330
14EC
100
AcDbEntity
  8
0
  6
ByBlock
 62
     0
 48
10.0
100
AcDbLine
 10
928.1028700397364
 20
536.8527032101582
 30
0.0
 11
928.1028700397364
 21
341.8527032101583
 31
0.0
  0
LINE
  5
154C
330
14EC
100
AcDbEntity
  8
上線
 48
10.0
100
AcDbLine
 10
731.1161674447357
 20
781.8527032101583
 30
0.0
 11
731.1161674447357
 21
401.8527032101586
 31
0.0
  0
LINE
  5
154D
330
14EC
100
AcDbEntity
  8
上線
100
AcDbLine
 10
761.1161674447357
 20
803.8527032101583
 30
0.0
 11
761.1161674447357
 21
381.8527032101581
 31
0.0
  0
LINE
  5
154E
330
14EC
100
AcDbEntity
  8
0
  6
ByBlock
 62
     0
 48
10.0
100
AcDbLine
 10
785.6997900599053
 20
191.501197567245
 30
0.0
 11
860.6997900599052
 21
191.501197567245
 31
0.0
  0
LINE
  5
154F
330
14EC
100
AcDbEntity
  8
0
  6
ByBlock
 62
     0
 48
10.0
100
AcDbLine
 10
731.1161674447357
 20
305.2430652996511
 30
0.0
 11
731.1161674447357
 21
179.001197567245
 31
0.0
  0
LINE
  5
1550
330
14EC
100
AcDbEntity
  8
0
  6
ByBlock
 62
     0
 48
10.0
100
AcDbLine
 10
760.6997900599053
 20
311.4930652996511
 30
0.0
 11
760.6997900599053
 21
179.001197567245
 31
0.0
  0
LINE
  5
1551
330
14EC
100
AcDbEntity
  8
中心線
100
AcDbLine
 10
520.6997900599053
 20
532.1196571947303
 30
0.0
 11
520.6997900599053
 21
167.9923485120477
 31
0.0
  0
MTEXT
  5
1552
330
14EC
100
AcDbEntity
  8
0
  6
ByBlock
 62
     0
 48
10.0
100
AcDbMText
 10
625.6584606505639
 20
210.251197567245
 30
0.0
 40
25.0
 41
0.0
 71
     5
 72
     1
  1
\fＭＳ Ｐ明朝|b0|i0|c128|p18;2@210=420
 73
     1
 44
1.0
  0
SOLID
  5
1553
330
14EC
100
AcDbEntity
  8
0
  6
ByBlock
 62
     0
 48
10.0
100
AcDbTrace
 10
536.0898501731007
 20
91.38203112990026
 30
0.0
 11
536.0898501731007
 21
83.04869779656678
 31
0.0
 12
561.0898501731007
 22
87.21536446323353
 32
0.0
 13
561.0898501731007
 23
87.21536446323353
 33
0.0
  0
TEXT
  5
1554
330
14EC
100
AcDbEntity
  8
上線
 62
     0
100
AcDbText
 10
484.0065168397672
 20
93.46536446323353
 30
0.0
 40
25.0
  1
100
100
AcDbText
  0
LINE
  5
1555
330
14EC
100
AcDbEntity
  8
0
  6
ByBlock
 62
     0
 48
10.0
100
AcDbLine
 10
561.0898501731007
 20
158.7003963764873
 30
0.0
 11
561.0898501731007
 21
74.71536446323352
 31
0.0
  0
POINT
  5
1556
330
14EC
100
AcDbEntity
  8
DEFPOINTS
  6
ByBlock
 62
     0
 48
10.0
100
AcDbPoint
 10
606.0898501731007
 20
87.21536446323353
 30
0.0
  0
POINT
  5
1557
330
14EC
100
AcDbEntity
  8
DEFPOINTS
  6
ByBlock
 62
     0
 48
10.0
100
AcDbPoint
 10
626.1161674447357
 20
293.8735731210299
 30
0.0
  0
SOLID
  5
1558
330
14EC
100
AcDbEntity
  8
0
  6
ByBlock
 62
     0
 48
10.0
100
AcDbTrace
 10
706.1161674447357
 20
195.6678642339118
 30
0.0
 11
706.1161674447357
 21
187.3345309005783
 31
0.0
 12
731.1161674447357
 22
191.501197567245
 32
0.0
 13
731.1161674447357
 23
191.501197567245
 33
0.0
  0
SOLID
  5
1559
330
14EC
100
AcDbEntity
  8
0
  6
ByBlock
 62
     0
 48
10.0
100
AcDbTrace
 10
785.6997900599053
 20
195.6678642339118
 30
0.0
 11
785.6997900599053
 21
187.3345309005783
 31
0.0
 12
760.6997900599053
 22
191.501197567245
 32
0.0
 13
760.6997900599053
 23
191.501197567245
 33
0.0
  0
POINT
  5
155A
330
14EC
100
AcDbEntity
  8
DEFPOINTS
  6
ByBlock
 62
     0
 48
10.0
100
AcDbPoint
 10
730.6997900599053
 20
245.5528825935562
 30
0.0
  0
POINT
  5
155B
330
14EC
100
AcDbEntity
  8
DEFPOINTS
  6
ByBlock
 62
     0
 48
10.0
100
AcDbPoint
 10
761.1161674447357
 20
191.501197567245
 30
0.0
  0
POINT
  5
155C
330
14EC
100
AcDbEntity
  8
DEFPOINTS
  6
ByBlock
 62
     0
 48
10.0
100
AcDbPoint
 10
790.6997900599053
 20
191.501197567245
 30
0.0
  0
POINT
  5
155D
330
14EC
100
AcDbEntity
  8
DEFPOINTS
  6
ByBlock
 62
     0
 48
10.0
100
AcDbPoint
 10
760.6997900599053
 20
245.5528825935562
 30
0.0
  0
LINE
  5
155E
330
14EC
100
AcDbEntity
  8
0
  6
ByBlock
 62
     0
 48
10.0
100
AcDbLine
 10
760.6997900599053
 20
191.501197567245
 30
0.0
 11
790.6997900599053
 21
191.501197567245
 31
0.0
  0
POINT
  5
155F
330
14EC
100
AcDbEntity
  8
DEFPOINTS
  6
ByBlock
 62
     0
 48
10.0
100
AcDbPoint
 10
761.1161674447357
 20
191.4571325275665
 30
0.0
  0
POINT
  5
1560
330
14EC
100
AcDbEntity
  8
DEFPOINTS
  6
ByBlock
 62
     0
 48
10.0
100
AcDbPoint
 10
761.1161674447357
 20
264.5781828621336
 30
0.0
  0
ARC
  5
1561
330
14EC
100
AcDbEntity
  8
上線
100
AcDbCircle
 10
586.8253513784866
 20
521.8527032101583
 30
0.0
 40
50.0
100
AcDbArc
 50
270.0
 51
359.1815445383113
  0
LINE
  5
1562
330
14EC
100
AcDbEntity
  8
上線
 48
10.0
100
AcDbLine
 10
731.1161674447357
 20
401.8527032101586
 30
0.0
 11
520.6997900599053
 21
401.852703210158
 31
0.0
  0
LINE
  5
1563
330
14EC
100
AcDbEntity
  8
点線
 48
10.0
100
AcDbLine
 10
581.1568354420196
 20
472.1702176977751
 30
0.0
 11
570.6997900599053
 21
371.8527032101583
 31
0.0
  0
LWPOLYLINE
  5
1564
330
14EC
100
AcDbEntity
  8
上線
 48
10.0
100
AcDbPolyline
 90
        2
 70
     1
 43
5.0
 10
517.3383374696677
 20
406.7068932713127
 42
1.0
 10
522.3383374696677
 20
406.7068932713127
 42
1.0
  0
POINT
  5
1565
330
14EC
100
AcDbEntity
  8
DEFPOINTS
  6
ByBlock
 62
     0
 48
10.0
100
AcDbPoint
 10
761.1161674447357
 20
311.4930652996511
 30
0.0
  0
LINE
  5
1566
330
14EC
100
AcDbEntity
  8
上線
100
AcDbLine
 10
761.1161674447357
 20
381.8527032101581
 30
0.0
 11
751.1161674447357
 21
371.852703210158
 31
0.0
  0
LWPOLYLINE
  5
1567
330
14EC
100
AcDbEntity
  8
上線
 48
10.0
100
AcDbPolyline
 90
        2
 70
     1
 43
5.0
 10
723.5584283614444
 20
406.7068932713127
 42
1.0
 10
728.5584283614443
 20
406.7068932713127
 42
1.0
  0
TEXT
  5
1568
330
14EC
100
AcDbEntity
  8
上線
 62
     0
100
AcDbText
 10
922.2189138281919
 20
278.1027032101583
 30
0.0
 40
25.0
  1
30
 50
90.0
100
AcDbText
  0
LINE
  5
1569
330
14EC
100
AcDbEntity
  8
0
  6
ByBlock
 62
     0
 48
10.0
100
AcDbLine
 10
928.4689138281919
 20
346.8527032101583
 30
0.0
 11
928.4689138281919
 21
271.8527032101583
 31
0.0
  0
TEXT
  5
156A
330
14EC
100
AcDbEntity
  8
上線
 62
     0
100
AcDbText
 10
816.9497900599052
 20
197.751197567245
 30
0.0
 40
25.0
  1
30
100
AcDbText
  0
SOLID
  5
156B
330
14EC
100
AcDbEntity
  8
0
  6
ByBlock
 62
     0
 48
10.0
100
AcDbTrace
 10
923.9362033730694
 20
425.6409641655254
 30
0.0
 11
932.2695367064033
 21
425.6409641655254
 31
0.0
 12
928.1028700397364
 22
400.6409641655254
 32
0.0
 13
928.1028700397364
 23
400.6409641655254
 33
0.0
  0
LINE
  5
156C
330
14EC
100
AcDbEntity
  8
0
  6
ByBlock
 62
     0
 48
10.0
100
AcDbLine
 10
858.8717423866
 20
401.8527032101583
 30
0.0
 11
940.9689138281919
 21
401.8527032101583
 31
0.0
  0
LINE
  5
156D
330
14EC
100
AcDbEntity
  8
0
  6
ByBlock
 62
     0
 48
10.0
100
AcDbLine
 10
830.7056239601298
 20
371.8527032101583
 30
0.0
 11
940.9689138281919
 21
371.8527032101583
 31
0.0
  0
LINE
  5
156E
330
14EC
100
AcDbEntity
  8
0
  6
ByBlock
 62
     0
 48
10.0
100
AcDbLine
 10
830.7056239601298
 20
401.8527032101583
 30
0.0
 11
940.9689138281919
 21
401.8527032101583
 31
0.0
  0
LINE
  5
156F
330
14EC
100
AcDbEntity
  8
0
  6
ByBlock
 62
     0
 48
10.0
100
AcDbLine
 10
928.4689138281919
 20
376.8527032101583
 30
0.0
 11
928.4689138281919
 21
351.8527032101583
 31
0.0
  0
SOLID
  5
1570
330
14EC
100
AcDbEntity
  8
0
  6
ByBlock
 62
     0
 48
10.0
100
AcDbTrace
 10
924.3022471615249
 20
346.8527032101583
 30
0.0
 11
932.6355804948589
 21
346.8527032101583
 31
0.0
 12
928.4689138281919
 22
371.8527032101583
 32
0.0
 13
928.4689138281919
 23
371.8527032101583
 33
0.0
  0
POINT
  5
1571
330
14EC
100
AcDbEntity
  8
DEFPOINTS
  6
ByBlock
 62
     0
 48
10.0
100
AcDbPoint
 10
928.4689138281919
 20
311.8527032101583
 30
0.0
  0
POINT
  5
1572
330
14EC
100
AcDbEntity
  8
DEFPOINTS
  6
ByBlock
 62
     0
 48
10.0
100
AcDbPoint
 10
928.1028700397364
 20
381.8527032101583
 30
0.0
  0
LINE
  5
1573
330
14EC
100
AcDbEntity
  8
0
  6
ByBlock
 62
     0
 48
10.0
100
AcDbLine
 10
928.4689138281919
 20
416.8527032101583
 30
0.0
 11
928.4689138281919
 21
391.8527032101583
 31
0.0
  0
POINT
  5
1574
330
14EC
100
AcDbEntity
  8
DEFPOINTS
  6
ByBlock
 62
     0
 48
10.0
100
AcDbPoint
 10
928.4689138281919
 20
391.8527032101583
 30
0.0
  0
LINE
  5
1575
330
14EC
100
AcDbEntity
  8
0
  6
ByBlock
 62
     0
 48
10.0
100
AcDbLine
 10
928.4689138281919
 20
401.8527032101583
 30
0.0
 11
928.4689138281919
 21
371.8527032101583
 31
0.0
  0
LINE
  5
1576
330
14EC
100
AcDbEntity
  8
0
  6
ByBlock
 62
     0
 48
10.0
100
AcDbLine
 10
928.4689138281919
 20
366.8527032101583
 30
0.0
 11
928.4689138281919
 21
391.8527032101583
 31
0.0
  0
LINE
  5
1577
330
14EC
100
AcDbEntity
  8
上線
 48
10.0
100
AcDbLine
 10
691.1161674447357
 20
811.8527032101583
 30
0.0
 11
691.1161674447357
 21
761.8527032101582
 31
0.0
  0
SOLID
  5
1578
330
14EC
100
AcDbEntity
  8
0
  6
ByBlock
 62
     0
 48
10.0
100
AcDbTrace
 10
611.1161674447357
 20
656.7312741390001
 30
0.0
 11
611.1161674447357
 21
648.397940805667
 31
0.0
 12
636.1161674447357
 22
652.5646074723336
 32
0.0
 13
636.1161674447357
 23
652.5646074723336
 33
0.0
  0
MTEXT
  5
1579
330
14EC
100
AcDbEntity
  8
0
  6
ByBlock
 62
     0
 48
10.0
100
AcDbMText
 10
521.1161674447358
 20
671.3146074723336
 30
0.0
 40
25.0
 41
0.0
 71
     5
 72
     1
  1
\A1;230
 73
     1
 44
1.0
  0
LWPOLYLINE
  5
157A
330
14EC
100
AcDbEntity
  8
上線
 48
10.0
100
AcDbPolyline
 90
        2
 70
     1
 43
5.0
 10
723.5584283614444
 20
592.1205710150397
 42
1.0
 10
728.5584283614443
 20
592.1205710150397
 42
1.0
  0
LINE
  5
157B
330
14EC
100
AcDbEntity
  8
上線
 48
10.0
100
AcDbLine
 10
651.1161674447357
 20
712.8629083544947
 30
0.0
 11
648.1509672847955
 21
708.8527032101583
 31
0.0
  0
LINE
  5
157C
330
14EC
100
AcDbEntity
  8
上線
 48
10.0
100
AcDbLine
 10
648.1509672847955
 20
708.8527032101583
 30
0.0
 11
640.3272490128998
 21
706.6284129816449
 31
0.0
  0
ARC
  5
157D
330
14EC
100
AcDbEntity
  8
上線
100
AcDbCircle
 10
641.1161674447357
 20
761.8527032101582
 30
0.0
 40
50.0
100
AcDbArc
 50
303.4316350040885
 51
0.0
  0
ARC
  5
157E
330
14EC
100
AcDbEntity
  8
上線
100
AcDbCircle
 10
641.1161674447357
 20
761.8527032101582
 30
0.0
 40
50.0
100
AcDbArc
 50
281.5369590328155
 51
303.4316350040884
  0
LINE
  5
157F
330
14EC
100
AcDbEntity
  8
上線
100
AcDbLine
 10
641.1161674447357
 20
711.8527032101582
 30
0.0
 11
641.1161674447357
 21
711.8527032101582
 31
0.0
  0
SOLID
  5
1580
330
14EC
100
AcDbEntity
  8
0
  6
ByBlock
 62
     0
 48
10.0
100
AcDbTrace
 10
616.1161674447357
 20
941.7618022100791
 30
0.0
 11
616.1161674447357
 21
933.4284688767461
 31
0.0
 12
641.1161674447357
 22
937.5951355434127
 32
0.0
 13
641.1161674447357
 23
937.5951355434127
 33
0.0
  0
TEXT
  5
1581
330
14EC
100
AcDbEntity
  8
上線
 62
     0
100
AcDbText
 10
491.9495007780692
 20
943.8451355434127
 30
0.0
 40
25.0
  1
240
100
AcDbText
  0
LINE
  5
1582
330
14EC
100
AcDbEntity
  8
0
  6
ByBlock
 62
     0
 48
10.0
100
AcDbLine
 10
761.1161674447357
 20
865.8585892550435
 30
0.0
 11
761.1161674447357
 21
951.7418850165604
 31
0.0
  0
LINE
  5
1583
330
14EC
100
AcDbEntity
  8
0
  6
ByBlock
 62
     0
 48
10.0
100
AcDbLine
 10
691.1161674447357
 20
865.8585892550435
 30
0.0
 11
691.1161674447357
 21
951.7418850165604
 31
0.0
  0
LINE
  5
1584
330
14EC
100
AcDbEntity
  8
0
  6
ByBlock
 62
     0
 48
10.0
100
AcDbLine
 10
691.1161674447357
 20
865.8585892550435
 30
0.0
 11
691.1161674447357
 21
950.0951355434127
 31
0.0
  0
LINE
  5
1585
330
14EC
100
AcDbEntity
  8
0
  6
ByBlock
 62
     0
 48
10.0
100
AcDbLine
 10
641.1161674447357
 20
865.8585892550435
 30
0.0
 11
641.1161674447357
 21
950.0951355434127
 31
0.0
  0
LINE
  5
1586
330
14EC
100
AcDbEntity
  8
0
  6
ByBlock
 62
     0
 48
10.0
100
AcDbLine
 10
641.1161674447357
 20
865.8585892550435
 30
0.0
 11
641.1161674447357
 21
950.0951355434127
 31
0.0
  0
LINE
  5
1587
330
14EC
100
AcDbEntity
  8
上線
100
AcDbLine
 10
691.1161674447357
 20
811.8527032101583
 30
0.0
 11
753.1161674447357
 21
811.8527032101583
 31
0.0
  0
POINT
  5
1588
330
14EC
100
AcDbEntity
  8
DEFPOINTS
  6
ByBlock
 62
     0
 48
10.0
100
AcDbPoint
 10
691.1161674447357
 20
809.6085892550435
 30
0.0
  0
POINT
  5
1589
330
14EC
100
AcDbEntity
  8
DEFPOINTS
  6
ByBlock
 62
     0
 48
10.0
100
AcDbPoint
 10
691.1161674447357
 20
809.6085892550435
 30
0.0
  0
ARC
  5
158A
330
14EC
100
AcDbEntity
  8
上線
100
AcDbCircle
 10
753.1161674447357
 20
803.8527032101583
 30
0.0
 40
8.0
100
AcDbArc
 50
0.0
 51
90.0
  0
LWPOLYLINE
  5
158B
330
14EC
100
AcDbEntity
  8
上線
 48
10.0
100
AcDbPolyline
 90
        2
 70
     1
 43
5.0
 10
723.5584283614444
 20
782.1205710150398
 42
1.0
 10
728.5584283614443
 20
782.1205710150398
 42
1.0
  0
POINT
  5
158C
330
14EC
100
AcDbEntity
  8
DEFPOINTS
  6
ByBlock
 62
     0
 48
10.0
100
AcDbPoint
 10
761.1161674447357
 20
809.6085892550435
 30
0.0
  0
POINT
  5
158D
330
14EC
100
AcDbEntity
  8
DEFPOINTS
  6
ByBlock
 62
     0
 48
10.0
100
AcDbPoint
 10
761.1161674447357
 20
809.6085892550435
 30
0.0
  0
TEXT
  5
158E
330
14EC
100
AcDbEntity
  8
上線
 62
     0
100
AcDbText
 10
707.3661674447357
 20
943.9944195647221
 30
0.0
 40
25.0
  1
70
100
AcDbText
  0
LINE
  5
158F
330
14EC
100
AcDbEntity
  8
0
  6
ByBlock
 62
     0
 48
10.0
100
AcDbLine
 10
691.1161674447357
 20
937.5951355434127
 30
0.0
 11
761.1161674447357
 21
937.5951355434121
 31
0.0
  0
TEXT
  5
1590
330
14EC
100
AcDbEntity
  8
上線
 62
     0
100
AcDbText
 10
648.3748164517183
 20
943.8451355434127
 30
0.0
 40
25.0
  1
50
100
AcDbText
  0
SOLID
  5
1591
330
14EC
100
AcDbEntity
  8
0
  6
ByBlock
 62
     0
 48
10.0
100
AcDbTrace
 10
716.1161674447357
 20
941.9110862313887
 30
0.0
 11
716.1161674447357
 21
933.5777528980557
 31
0.0
 12
691.1161674447357
 22
937.7444195647221
 32
0.0
 13
691.1161674447357
 23
937.7444195647221
 33
0.0
  0
SOLID
  5
1592
330
14EC
100
AcDbEntity
  8
0
  6
ByBlock
 62
     0
 48
10.0
100
AcDbTrace
 10
666.1161674447357
 20
941.7618022100791
 30
0.0
 11
666.1161674447357
 21
933.4284688767461
 31
0.0
 12
691.1161674447357
 22
937.5951355434127
 32
0.0
 13
691.1161674447357
 23
937.5951355434127
 33
0.0
  0
SOLID
  5
1593
330
14EC
100
AcDbEntity
  8
0
  6
ByBlock
 62
     0
 48
10.0
100
AcDbTrace
 10
666.1161674447357
 20
941.7618022100791
 30
0.0
 11
666.1161674447357
 21
933.4284688767461
 31
0.0
 12
641.1161674447357
 22
937.5951355434127
 32
0.0
 13
641.1161674447357
 23
937.5951355434127
 33
0.0
  0
POINT
  5
1594
330
14EC
100
AcDbEntity
  8
DEFPOINTS
  6
ByBlock
 62
     0
 48
10.0
100
AcDbPoint
 10
671.1161674447358
 20
937.5951355434127
 30
0.0
  0
POINT
  5
1595
330
14EC
100
AcDbEntity
  8
DEFPOINTS
  6
ByBlock
 62
     0
 48
10.0
100
AcDbPoint
 10
691.1161674447357
 20
937.5951355434127
 30
0.0
  0
SOLID
  5
1596
330
14EC
100
AcDbEntity
  8
0
  6
ByBlock
 62
     0
 48
10.0
100
AcDbTrace
 10
736.1161674447357
 20
941.9110862313887
 30
0.0
 11
736.1161674447357
 21
933.5777528980557
 31
0.0
 12
761.1161674447357
 22
937.7444195647221
 32
0.0
 13
761.1161674447357
 23
937.7444195647221
 33
0.0
  0
POINT
  5
1597
330
14EC
100
AcDbEntity
  8
DEFPOINTS
  6
ByBlock
 62
     0
 48
10.0
100
AcDbPoint
 10
761.1161674447357
 20
939.2418850165604
 30
0.0
  0
SOLID
  5
1598
330
14EC
100
AcDbEntity
  8
0
  6
ByBlock
 62
     0
 48
10.0
100
AcDbTrace
 10
923.9362033730699
 20
756.8527032101583
 30
0.0
 11
932.2695367064033
 21
756.8527032101583
 31
0.0
 12
928.1028700397364
 22
781.8527032101583
 32
0.0
 13
928.1028700397364
 23
781.8527032101583
 33
0.0
  0
DIMENSION
  5
1599
330
14EC
100
AcDbEntity
  8
上線
 48
10.0
100
AcDbDimension
  2
*D11
 10
928.0772496002354
 20
811.8527032101583
 30
0.0
 11
909.3272496002354
 21
886.8527032101583
 31
0.0
 12
-324.7405700840208
 22
-1268.472634678242
 32
0.0
 71
     5
 42
-1.0
  3
STANDARD
100
AcDbAlignedDimension
 13
824.4556239601298
 23
781.8527032101583
 33
0.0
 14
824.4556239601298
 24
811.8527032101583
 34
0.0
 50
90.0
100
AcDbRotatedDimension
1001
ACAD
1000
DSTYLE
1002
{
1070
    40
1040
10.0
1070
    41
1040
2.5
1070
    42
1040
0.625
1070
    43
1040
3.75
1070
    44
1040
1.25
1070
    73
1070
     0
1070
    74
1070
     0
1070
    77
1070
     1
1070
    78
1070
     8
1070
   140
1040
2.5
1070
   141
1040
2.5
1070
   143
1040
0.0394
1070
   147
1040
0.625
1070
   171
1070
     4
1070
   172
1070
     1
1070
   273
1070
     8
1070
   274
1070
     4
1070
   277
1070
     6
1002
}
  0
LINE
  5
159A
330
14EC
100
AcDbEntity
  8
0
  6
ByBlock
 62
     0
 48
10.0
100
AcDbLine
 10
831.2884695689135
 20
781.8527032101583
 30
0.0
 11
940.6028700397364
 21
781.8527032101583
 31
0.0
  0
POINT
  5
159B
330
14EC
100
AcDbEntity
  8
DEFPOINTS
  6
ByBlock
 62
     0
 48
10.0
100
AcDbPoint
 10
825.0384695689135
 20
781.8527032101583
 30
0.0
  0
TEXT
  5
159C
330
14EC
100
AcDbEntity
  8
上線
 62
     0
100
AcDbText
 10
474.8661674447357
 20
1031.637482867615
 30
0.0
 40
25.0
  1
480
100
AcDbText
  0
SOLID
  5
159D
330
14EC
100
AcDbEntity
  8
0
  6
ByBlock
 62
     0
 48
10.0
100
AcDbTrace
 10
736.1161674447357
 20
1029.554149534281
 30
0.0
 11
736.1161674447357
 21
1021.220816200948
 31
0.0
 12
761.1161674447357
 22
1025.387482867615
 32
0.0
 13
761.1161674447357
 23
1025.387482867615
 33
0.0
  0
POINT
  5
159E
330
14EC
100
AcDbEntity
  8
DEFPOINTS
  6
ByBlock
 62
     0
 48
10.0
100
AcDbPoint
 10
791.1161674447357
 20
1025.387482867615
 30
0.0
  0
ENDBLK
  5
15A0
330
14EC
100
AcDbEntity
  8
0
 48
10.0
100
AcDbBlockEnd
  0
ENDSEC
  0
SECTION
  2
ENTITIES
  0
MTEXT
  5
479
330
18
100
AcDbEntity
  8
上線
 48
10.0
100
AcDbMText
 10
2253.72144281457
 20
1430.035937614872
 30
0.0
 40
25.0
 41
0.0
 71
     4
 72
     1
  1
\A1;
 73
     1
 44
1.0
  0
MTEXT
  5
482
330
18
100
AcDbEntity
  8
上線
 48
10.0
100
AcDbMText
 10
2528.397580071227
 20
1457.117940756564
 30
0.0
 40
25.0
 41
0.0
 71
     4
 72
     1
  1
\A1;
 73
     1
 44
1.0
  0
LINE
  5
1175
330
18
100
AcDbEntity
  8
基準線
 48
10.0
100
AcDbLine
 10
589.7956909450942
 20
720.1867766473801
 30
0.0
 11
589.7956909450942
 21
1440.043289130485
 31
0.0
  0
LINE
  5
11A2
330
18
100
AcDbEntity
  8
基準線
 48
10.0
100
AcDbLine
 10
1129.795690945094
 20
740.0432891304856
 30
0.0
 11
1129.795690945094
 21
1510.430934787131
 31
0.0
  0
LINE
  5
1271
330
18
100
AcDbEntity
  8
基準線
 48
10.0
100
AcDbLine
 10
389.7956909450949
 20
980.1867766473801
 30
0.0
 11
389.7956909450949
 21
1700.043289130485
 31
0.0
  0
LINE
  5
1272
330
18
100
AcDbEntity
  8
基準線
 48
10.0
100
AcDbLine
 10
239.7956909450949
 20
980.1867766473801
 30
0.0
 11
239.7956909450949
 21
1700.043289130485
 31
0.0
  0
LINE
  5
1273
330
18
100
AcDbEntity
  8
基準線
 48
10.0
100
AcDbLine
 10
1329.795690945094
 20
1000.043289130485
 30
0.0
 11
1329.795690945094
 21
1440.043289130485
 31
0.0
  0
LINE
  5
134A
330
18
100
AcDbEntity
  8
基準線
 48
10.0
100
AcDbLine
 10
1099.795690945095
 20
1010.043289130485
 30
0.0
 11
1099.795690945095
 21
734.950986338331
 31
0.0
  0
LINE
  5
134B
330
18
100
AcDbEntity
  8
基準線
 48
10.0
100
AcDbLine
 10
619.7956909450949
 20
1010.043289130485
 30
0.0
 11
619.7956909450949
 21
688.1308572243433
 31
0.0
  0
LINE
  5
134C
330
18
100
AcDbEntity
  8
基準線
 48
10.0
100
AcDbLine
 10
1069.795690945094
 20
1010.043289130485
 30
0.0
 11
1069.795690945094
 21
734.950986338331
 31
0.0
  0
LINE
  5
143C
330
18
100
AcDbEntity
  8
基準線
 48
10.0
100
AcDbLine
 10
3191.971055449617
 20
233.8429829975566
 30
0.0
 11
3665.634254548308
 21
233.8429829975566
 31
0.0
  0
LINE
  5
143D
330
18
100
AcDbEntity
  8
基準線
 48
10.0
100
AcDbLine
 10
3665.634254548308
 20
233.8429829975566
 30
0.0
 11
4139.297453646997
 21
233.8429829975566
 31
0.0
  0
LINE
  5
1729
330
18
100
AcDbEntity
  8
WUWAGAKI
 48
10.0
100
AcDbLine
 10
5488.628422915358
 20
2535.939161685925
 30
0.0
 11
5534.780157704038
 21
2570.138221066537
 31
0.0
210
0.0
220
0.0
230
-1.0
1001
ACAD
1000
DSTYLE
1002
{
1070
    78
1070
     8
1070
   270
1070
     8
1070
   140
1040
2.5
1070
    74
1070
     0
1070
   172
1070
     1
1070
    73
1070
     0
1070
    77
1070
     1
1070
    40
1040
10.0
1070
   147
1040
0.625
1070
    42
1040
0.625
1070
    44
1040
1.25
1070
    43
1040
3.75
1070
   141
1040
2.5
1070
    41
1040
2.5
1070
   273
1070
     8
1070
   274
1070
     4
1070
   143
1040
0.0394
1070
   171
1070
     4
1002
}
  0
LINE
  5
172A
330
18
100
AcDbEntity
  8
上線
 48
10.0
100
AcDbLine
 10
5444.10066435315
 20
2750.141597943209
 30
0.0
 11
5448.813979316259
 21
2559.284542536232
 31
0.0
  0
LINE
  5
172B
330
18
100
AcDbEntity
  8
上線
 48
10.0
100
AcDbLine
 10
5454.10066435315
 20
2750.141597943209
 30
0.0
 11
5458.812959064253
 21
2559.427385104061
 31
0.0
  0
LINE
  5
172C
330
18
100
AcDbEntity
  8
OBJECT
 48
10.0
100
AcDbLine
 10
5005.419034100811
 20
2410.1313354346
 30
0.0
 11
5005.419034100811
 21
2850.131335434645
 31
0.0
  0
LINE
  5
172D
330
18
100
AcDbEntity
  8
OBJECT
 48
10.0
100
AcDbLine
 10
5155.419042864235
 20
2410.1313354346
 30
0.0
 11
5155.419042864234
 21
2850.131335434645
 31
0.0
  0
LINE
  5
172E
330
18
100
AcDbEntity
  8
WUWAGAKI
100
AcDbLine
 10
8955.600135938164
 20
1281.624404074891
 30
0.0
 11
8955.600135938164
 21
4207.774255871014
 31
0.0
  0
LINE
  5
172F
330
18
100
AcDbEntity
  8
OBJECT
100
AcDbLine
 10
8633.919025297856
 20
2850.131335434644
 30
0.0
 11
8633.919025297856
 21
2410.131335434645
 31
0.0
  0
LINE
  5
1730
330
18
100
AcDbEntity
  8
OBJECT
100
AcDbLine
 10
6133.919025297856
 20
2850.131335434645
 30
0.0
 11
6133.919025297856
 21
2410.131335434644
 31
0.0
  0
LINE
  5
1731
330
18
100
AcDbEntity
  8
OBJECT
100
AcDbLine
 10
5333.919025297856
 20
2850.131335434645
 30
0.0
 11
5333.919025297856
 21
2420.131335434644
 31
0.0
  0
LINE
  5
1732
330
18
100
AcDbEntity
  8
OBJECT
100
AcDbLine
 10
5813.919025297856
 20
2850.131335434645
 30
0.0
 11
5813.919025297856
 21
2420.131335434644
 31
0.0
  0
SPLINE
  5
1733
330
18
100
AcDbEntity
  8
上線
100
AcDbSpline
210
0.0
220
0.0
230
1.0
 70
     8
 71
     3
 72
    12
 73
     8
 74
     0
 42
0.0000000001
 43
0.0000000001
 40
119.1292141312075
 40
119.1292141312075
 40
119.1292141312075
 40
119.1292141312075
 40
220.1628261824348
 40
457.3418940607759
 40
679.6442565586878
 40
726.7976437010402
 40
752.9737075471701
 40
752.9737075471701
 40
752.9737075471701
 40
752.9737075471701
 10
7822.979503780186
 20
2410.131335434646
 30
0.0
 10
7844.767071577385
 20
2437.084512220422
 30
0.0
 10
7983.941753133795
 20
2528.100167181301
 30
0.0
 10
7702.729478158244
 20
2687.030554842324
 30
0.0
 10
7823.236799380184
 20
2799.328133058637
 30
0.0
 10
7885.475989530582
 20
2822.819155148902
 30
0.0
 10
7887.689179944143
 20
2842.989805570614
 30
0.0
 10
7877.038452821359
 20
2850.131335434645
 30
0.0
  0
SPLINE
  5
1734
330
18
100
AcDbEntity
  8
上線
100
AcDbSpline
210
0.0
220
0.0
230
1.0
 70
     8
 71
     3
 72
    12
 73
     8
 74
     0
 42
0.0000000001
 43
0.0000000001
 40
119.1292141312069
 40
119.1292141312069
 40
119.1292141312069
 40
119.1292141312069
 40
220.1628261824348
 40
457.3418940607759
 40
679.6442565586878
 40
726.7976437010402
 40
752.9737075471708
 40
752.9737075471708
 40
752.9737075471708
 40
752.9737075471708
 10
7837.979503780187
 20
2410.131335434646
 30
0.0
 10
7859.767071577386
 20
2437.084512220422
 30
0.0
 10
7998.941753133795
 20
2528.100167181301
 30
0.0
 10
7717.729478158244
 20
2687.030554842324
 30
0.0
 10
7838.236799380183
 20
2799.328133058637
 30
0.0
 10
7900.475989530581
 20
2822.819155148904
 30
0.0
 10
7902.689179944141
 20
2842.989805570614
 30
0.0
 10
7892.03845282136
 20
2850.131335434645
 30
0.0
  0
LINE
  5
1735
330
18
100
AcDbEntity
  8
WUWAGAKI
100
AcDbLine
 10
4684.881217311246
 20
4207.774255871014
 30
0.0
 11
4684.881217311246
 21
1281.624404074891
 31
0.0
  0
LINE
  5
1736
330
18
100
AcDbEntity
  8
点線
 48
3.0
100
AcDbLine
 10
7905.79686828339
 20
2510.131335434645
 30
0.0
 11
6133.919025297856
 21
2510.131335434645
 31
0.0
  0
LINE
  5
1737
330
18
100
AcDbEntity
  8
上線
 48
10.0
100
AcDbLine
 10
6133.919025297856
 20
2420.131335434644
 30
0.0
 11
7831.870611886516
 21
2420.131335434644
 31
0.0
  0
LINE
  5
1738
330
18
100
AcDbEntity
  8
上線
 48
10.0
100
AcDbLine
 10
6133.919025297856
 20
2410.131335434644
 30
0.0
 11
7822.979503780188
 21
2410.131335434646
 31
0.0
  0
LINE
  5
1739
330
18
100
AcDbEntity
  8
WUWAGAKI
100
AcDbLine
 10
4684.881217311246
 20
1281.624404074891
 30
0.0
 11
8955.600135938164
 21
1281.624404074891
 31
0.0
  0
LINE
  5
173A
330
18
100
AcDbEntity
  8
0
 48
10.0
100
AcDbLine
 10
5305.419044196007
 20
2510.1313354346
 30
0.0
 11
5125.419044196006
 21
2510.1313354346
 31
0.0
  0
LINE
  5
173B
330
18
100
AcDbEntity
  8
0
 48
10.0
100
AcDbLine
 10
5305.419034100815
 20
2410.1313354346
 30
0.0
 11
4975.419034100815
 21
2410.1313354346
 31
0.0
  0
SOLID
  5
173C
330
18
100
AcDbEntity
  8
0
  6
ByBlock
 62
     0
 48
10.0
100
AcDbTrace
 10
5149.169042864236
 20
2447.631347293755
 30
0.0
 11
5161.669042864236
 21
2447.631347293755
 31
0.0
 12
5155.419042864235
 22
2410.131347293755
 32
0.0
 13
5155.419042864235
 23
2410.131347293755
 33
0.0
  0
SOLID
  5
173D
330
18
100
AcDbEntity
  8
0
  6
ByBlock
 62
     0
 48
10.0
100
AcDbTrace
 10
5011.669034100811
 20
2447.631335434622
 30
0.0
 11
4999.169034100811
 21
2447.631335434622
 31
0.0
 12
5005.41903410081
 22
2410.131335434622
 32
0.0
 13
5005.41903410081
 23
2410.131335434622
 33
0.0
  0
MTEXT
  5
173E
330
18
100
AcDbEntity
  8
0
  6
ByBlock
 62
     0
 48
10.0
100
AcDbMText
 10
5125.419040887702
 20
2460.131335434601
 30
0.0
 40
37.5
 41
0.0
 71
     5
 72
     1
  1
100
 11
0.0000000000000001
 21
1.0
 31
0.0
 73
     1
 44
1.0
  0
SOLID
  5
173F
330
18
100
AcDbEntity
  8
0
  6
ByBlock
 62
     0
 48
10.0
100
AcDbTrace
 10
5161.669025337392
 20
2472.631335434595
 30
0.0
 11
5149.169025337394
 21
2472.631335434595
 31
0.0
 12
5155.419025337391
 22
2510.131335434595
 32
0.0
 13
5155.419025337391
 23
2510.131335434595
 33
0.0
  0
SOLID
  5
1740
330
18
100
AcDbEntity
  8
0
  6
ByBlock
 62
     0
 48
10.0
100
AcDbTrace
 10
5161.669025337392
 20
2547.631335434606
 30
0.0
 11
5149.169025337394
 21
2547.631335434606
 31
0.0
 12
5155.419025337391
 22
2510.131335434606
 32
0.0
 13
5155.419025337391
 23
2510.131335434606
 33
0.0
  0
LINE
  5
1741
330
18
100
AcDbEntity
  8
上線
 48
10.0
100
AcDbLine
 10
5639.393470902071
 20
2500.141597943209
 30
0.0
 11
5508.80785780423
 21
2500.141597943209
 31
0.0
  0
LINE
  5
1742
330
18
100
AcDbEntity
  8
上線
100
AcDbLine
 10
5508.80785780423
 20
2510.141597943209
 30
0.0
 11
5639.393470902071
 21
2510.141597943209
 31
0.0
  0
LINE
  5
1743
330
18
100
AcDbEntity
  8
OBJECT
100
AcDbLine
 10
5343.919025297855
 20
2410.131335434645
 30
0.0
 11
5803.919025297856
 21
2410.131335434645
 31
0.0
  0
LINE
  5
1744
330
18
100
AcDbEntity
  8
上線
100
AcDbLine
 10
5333.919025297856
 20
2420.131335434644
 30
0.0
 11
5343.919025297855
 21
2410.131335434645
 31
0.0
  0
ARC
  5
1745
330
18
100
AcDbEntity
  8
上線
100
AcDbCircle
 10
5508.80785780423
 20
2560.141597943209
 30
0.0
 40
60.0
100
AcDbArc
 50
180.8184554616945
 51
270.0
  0
ARC
  5
1746
330
18
100
AcDbEntity
  8
上線
100
AcDbCircle
 10
5508.80785780423
 20
2560.141597943209
 30
0.0
 40
50.0
100
AcDbArc
 50
180.8184554616945
 51
270.0
  0
SOLID
  5
1747
330
18
100
AcDbEntity
  8
0
  6
ByBlock
 62
     0
 48
10.0
100
AcDbTrace
 10
5500.109680252569
 20
2551.990380873732
 30
0.0
 11
5507.50105025185
 21
2541.909822876592
 31
0.0
 12
5473.563691260793
 22
2524.775991877308
 32
0.0
 13
5473.563691260793
 23
2524.775991877308
 33
0.0
  0
LINE
  5
1748
330
18
100
AcDbEntity
  8
上線
100
AcDbLine
 10
5813.919025297856
 20
2420.131335434644
 30
0.0
 11
5803.919025297856
 21
2410.131335434645
 31
0.0
  0
ARC
  5
1749
330
18
100
AcDbEntity
  8
上線
100
AcDbCircle
 10
5639.393470902071
 20
2560.141597943209
 30
0.0
 40
60.0
100
AcDbArc
 50
270.0
 51
359.1815445383053
  0
ARC
  5
174A
330
18
100
AcDbEntity
  8
上線
100
AcDbCircle
 10
5639.393470902071
 20
2560.141597943209
 30
0.0
 40
50.0
100
AcDbArc
 50
270.0
 51
359.1815445383053
  0
LINE
  5
174B
330
18
100
AcDbEntity
  8
WUWAGAKI
100
AcDbLine
 10
8889.097123130209
 20
1350.123938516694
 30
0.0
 11
8889.097123130209
 21
1770.104371146263
 31
0.0
  0
TEXT
  5
174C
330
18
100
AcDbEntity
  8
WUWAGAKI
100
AcDbText
 10
8666.814932544522
 20
1503.636144854613
 30
0.0
 40
45.0
  1
1130㎏
100
AcDbText
  0
LINE
  5
174D
330
18
100
AcDbEntity
  8
WUWAGAKI
100
AcDbLine
 10
8626.814932544519
 20
1579.667698236511
 30
0.0
 11
8626.814932544519
 21
1481.152634071905
 31
0.0
  0
LINE
  5
174E
330
18
100
AcDbEntity
  8
WUWAGAKI
100
AcDbLine
 10
7796.300548029785
 20
1770.104371146263
 30
0.0
 11
7796.300548029785
 21
1350.123938516694
 31
0.0
  0
TEXT
  5
174F
330
18
100
AcDbEntity
  8
WUWAGAKI
100
AcDbText
 10
8114.10929234384
 20
1505.525092819635
 30
0.0
 40
45.0
  1
S＝　1：15
100
AcDbText
  0
LINE
  5
1750
330
18
100
AcDbEntity
  8
WUWAGAKI
100
AcDbLine
 10
8048.417019598291
 20
1770.104371146263
 30
0.0
 11
8048.417019598291
 21
1481.152634071905
 31
0.0
  0
TEXT
  5
1751
330
18
100
AcDbEntity
  8
WUWAGAKI
100
AcDbText
 10
7868.826749553146
 20
1504.223177390179
 30
0.0
 40
45.0
  1
縮尺
100
AcDbText
  0
LINE
  5
1752
330
18
100
AcDbEntity
  8
WUWAGAKI
100
AcDbLine
 10
8442.5865057822
 20
1579.667698236511
 30
0.0
 11
8442.5865057822
 21
1481.152634071905
 31
0.0
  0
TEXT
  5
1753
330
18
100
AcDbEntity
  8
WUWAGAKI
100
AcDbText
 10
8469.514281534349
 20
1505.574530331177
 30
0.0
 40
45.0
  1
重量
100
AcDbText
  0
LINE
  5
1754
330
18
100
AcDbEntity
  8
WUWAGAKI
100
AcDbLine
 10
7796.300548029785
 20
1350.123938516694
 30
0.0
 11
8889.097123130209
 21
1350.123938516694
 31
0.0
  0
LINE
  5
1755
330
18
100
AcDbEntity
  8
WUWAGAKI
100
AcDbLine
 10
7796.300548029785
 20
1481.152634071905
 30
0.0
 11
8889.097123130204
 21
1481.152634071905
 31
0.0
  0
TEXT
  5
1756
330
18
100
AcDbEntity
  8
WUWAGAKI
100
AcDbText
 10
8035.005980929261
 20
1381.73150532308
 30
0.0
 40
60.0
  1
㈱　ウ　チ　コ　ン
100
AcDbText
  0
LINE
  5
1757
330
18
100
AcDbEntity
  8
WUWAGAKI
100
AcDbLine
 10
7796.300548029785
 20
1770.104371146263
 30
0.0
 11
8889.097123130209
 21
1770.104371146263
 31
0.0
  0
LINE
  5
1758
330
18
100
AcDbEntity
  8
WUWAGAKI
100
AcDbLine
 10
7796.300548029785
 20
1675.574083201126
 30
0.0
 11
8886.465300794446
 21
1675.574083201126
 31
0.0
  0
LINE
  5
1759
330
18
100
AcDbEntity
  8
WUWAGAKI
100
AcDbLine
 10
7796.300548029785
 20
1579.667698236511
 30
0.0
 11
8889.097123130204
 21
1579.667698236511
 31
0.0
  0
LINE
  5
175A
330
18
100
AcDbEntity
  8
WUWAGAKI
100
AcDbLine
 10
7796.300548029785
 20
1675.574083201126
 30
0.0
 11
8886.465300794446
 21
1675.574083201126
 31
0.0
  0
TEXT
  5
175B
330
18
100
AcDbEntity
  8
WUWAGAKI
100
AcDbText
 10
8073.417019598291
 20
1601.2655679636
 30
0.0
 40
47.25
  1
240×240×120/120×4000
100
AcDbText
  0
TEXT
  5
175C
330
18
100
AcDbEntity
  8
WUWAGAKI
100
AcDbText
 10
7841.178991792066
 20
1600.72113038166
 30
0.0
 40
45.0
  1
寸　法
100
AcDbText
  0
TEXT
  5
175D
330
18
100
AcDbEntity
  8
WUWAGAKI
100
AcDbText
 10
7843.834203678486
 20
1701.859970418641
 30
0.0
 40
45.0
  1
種　別
100
AcDbText
  0
LINE
  5
175F
330
18
100
AcDbEntity
  8
点線
 48
3.0
100
AcDbLine
 10
7920.796868283389
 20
2510.131335434646
 30
0.0
 11
8633.919025297856
 21
2510.131335434645
 31
0.0
  0
LINE
  5
1760
330
18
100
AcDbEntity
  8
上線
 48
10.0
100
AcDbLine
 10
8633.919025297856
 20
2420.131335434644
 30
0.0
 11
7846.870611886519
 21
2420.131335434644
 31
0.0
  0
LINE
  5
1761
330
18
100
AcDbEntity
  8
上線
 48
10.0
100
AcDbLine
 10
8633.919025297856
 20
2410.131335434645
 30
0.0
 11
7837.979503780187
 21
2410.131335434646
 31
0.0
  0
LINE
  5
1762
330
18
100
AcDbEntity
  8
上線
100
AcDbLine
 10
7511.426133134299
 20
3833.945152952022
 30
0.0
 11
7256.411917461415
 21
3833.945152952022
 31
0.0
  0
LINE
  5
1763
330
18
100
AcDbEntity
  8
上線
100
AcDbLine
 10
7514.4261331343
 20
3836.945152952022
 30
0.0
 11
7253.411917461415
 21
3836.945152952022
 31
0.0
  0
LINE
  5
1764
330
18
100
AcDbEntity
  8
上線
100
AcDbLine
 10
7256.411917461415
 20
3740.240770206016
 30
0.0
 11
7511.426133134299
 21
3740.240770206016
 31
0.0
  0
LINE
  5
1765
330
18
100
AcDbEntity
  8
上線
100
AcDbLine
 10
7253.411917461415
 20
3737.240770206016
 30
0.0
 11
7514.4261331343
 21
3737.240770206016
 31
0.0
  0
MTEXT
  5
1766
330
18
100
AcDbEntity
  8
上線
 48
10.0
100
AcDbMText
 10
7277.466786886492
 20
3819.386822217309
 30
0.0
 40
50.0
 41
558.2059
 71
     1
 72
     5
  1
\fＭＳ Ｐ明朝|b0|i0|c128|p18;側面図
 73
     1
 44
1.0
  0
LINE
  5
1767
330
18
100
AcDbEntity
  8
OBJECT
 48
10.0
100
AcDbLine
 10
8633.919025297856
 20
3180.131326671223
 30
0.0
 11
6133.919025297856
 21
3180.131326671225
 31
0.0
  0
LINE
  5
1768
330
18
100
AcDbEntity
  8
点線
 48
3.0
100
AcDbLine
 10
7788.557951492267
 20
2750.131332842502
 30
0.0
 11
6133.919025297856
 21
2750.131332842502
 31
0.0
  0
LINE
  5
1769
330
18
100
AcDbEntity
  8
上線
 48
10.0
100
AcDbLine
 10
6133.919025297856
 20
2850.131335434645
 30
0.0
 11
7877.038452821359
 21
2850.131335434645
 31
0.0
  0
LINE
  5
176A
330
18
100
AcDbEntity
  8
WUWAGAKI
100
AcDbLine
 10
8955.600135938164
 20
4207.774255871014
 30
0.0
 11
4684.881217311246
 21
4207.774255871014
 31
0.0
  0
LINE
  5
176B
330
18
100
AcDbEntity
  8
OBJECT
 48
10.0
100
AcDbLine
 10
5813.919037157021
 20
3028.631317868265
 30
0.0
 11
5926.419037157021
 21
3028.631317868265
 31
0.0
  0
MTEXT
  5
176C
330
18
100
AcDbEntity
  8
0
  6
ByBlock
 62
     0
 48
10.0
100
AcDbMText
 10
5428.919025297845
 20
3088.631317868268
 30
0.0
 40
37.5
 41
0.0
 71
     5
 72
     1
  1
50
 73
     1
 44
1.0
  0
MTEXT
  5
176D
330
18
100
AcDbEntity
  8
0
  6
ByBlock
 62
     0
 48
10.0
100
AcDbMText
 10
5778.919025297889
 20
3058.631317868267
 30
0.0
 40
37.5
 41
0.0
 71
     5
 72
     1
  1
70
 73
     1
 44
1.0
  0
MTEXT
  5
176E
330
18
100
AcDbEntity
  8
0
  6
ByBlock
 62
     0
 48
10.0
100
AcDbMText
 10
5718.919025297889
 20
3088.631317868268
 30
0.0
 40
37.5
 41
0.0
 71
     5
 72
     1
  1
50
 73
     1
 44
1.0
  0
MTEXT
  5
176F
330
18
100
AcDbEntity
  8
0
  6
ByBlock
 62
     0
 48
10.0
100
AcDbMText
 10
5368.919025297845
 20
3058.631319844799
 30
0.0
 40
37.5
 41
0.0
 71
     5
 72
     1
  1
70
 73
     1
 44
1.0
  0
MTEXT
  5
1770
330
18
100
AcDbEntity
  8
0
  6
ByBlock
 62
     0
 48
10.0
100
AcDbMText
 10
5573.919025297889
 20
3058.631326631685
 30
0.0
 40
37.5
 41
0.0
 71
     5
 72
     1
  1
240
 73
     1
 44
1.0
  0
LINE
  5
1771
330
18
100
AcDbEntity
  8
0
 48
10.0
100
AcDbLine
 10
5333.919025297845
 20
2878.631326631685
 30
0.0
 11
5333.919025297845
 21
3208.631326631685
 31
0.0
  0
LINE
  5
1772
330
18
100
AcDbEntity
  8
0
 48
10.0
100
AcDbLine
 10
5813.919025297889
 20
2878.631326631689
 30
0.0
 11
5813.919025297889
 21
3208.631326631689
 31
0.0
  0
LINE
  5
1773
330
18
100
AcDbEntity
  8
0
 48
10.0
100
AcDbLine
 10
5305.419044196007
 20
2750.131335434645
 30
0.0
 11
5125.419044196006
 21
2750.131335434645
 31
0.0
  0
LINE
  5
1774
330
18
100
AcDbEntity
  8
0
 48
10.0
100
AcDbLine
 10
5305.419034100811
 20
2850.131335434645
 30
0.0
 11
4975.419034100812
 21
2850.131335434645
 31
0.0
  0
SOLID
  5
1775
330
18
100
AcDbEntity
  8
0
  6
ByBlock
 62
     0
 48
10.0
100
AcDbTrace
 10
5011.669034100812
 20
2812.631335434622
 30
0.0
 11
4999.169034100812
 21
2812.631335434622
 31
0.0
 12
5005.419034100811
 22
2850.131335434623
 32
0.0
 13
5005.419034100811
 23
2850.131335434623
 33
0.0
  0
SOLID
  5
1776
330
18
100
AcDbEntity
  8
0
  6
ByBlock
 62
     0
 48
10.0
100
AcDbTrace
 10
5149.169042864237
 20
2812.631323575512
 30
0.0
 11
5161.669042864237
 21
2812.631323575512
 31
0.0
 12
5155.419042864237
 22
2850.131323575512
 32
0.0
 13
5155.419042864237
 23
2850.131323575512
 33
0.0
  0
MTEXT
  5
1777
330
18
100
AcDbEntity
  8
0
  6
ByBlock
 62
     0
 48
10.0
100
AcDbMText
 10
5125.419042864233
 20
2800.131335434645
 30
0.0
 40
37.5
 41
0.0
 71
     5
 72
     1
  1
100
 11
0.0000000000000001
 21
1.0
 31
0.0
 73
     1
 44
1.0
  0
MTEXT
  5
1778
330
18
100
AcDbEntity
  8
0
  6
ByBlock
 62
     0
 48
10.0
100
AcDbMText
 10
4975.419034100812
 20
2630.131335434644
 30
0.0
 40
37.5
 41
0.0
 71
     5
 72
     1
  1
440
 11
0.0000000000000001
 21
1.0
 31
0.0
 73
     1
 44
1.0
  0
MTEXT
  5
1779
330
18
100
AcDbEntity
  8
0
  6
ByBlock
 62
     0
 48
10.0
100
AcDbMText
 10
5125.419034100815
 20
2630.131335434644
 30
0.0
 40
37.5
 41
0.0
 71
     5
 72
     1
  1
240
 11
0.0000000000000001
 21
1.0
 31
0.0
 73
     1
 44
1.0
  0
SOLID
  5
177A
330
18
100
AcDbEntity
  8
0
  6
ByBlock
 62
     0
 48
10.0
100
AcDbTrace
 10
5149.169042864237
 20
2787.631347293777
 30
0.0
 11
5161.669042864237
 21
2787.631347293777
 31
0.0
 12
5155.419042864237
 22
2750.131347293776
 32
0.0
 13
5155.419042864237
 23
2750.131347293776
 33
0.0
  0
SOLID
  5
177B
330
18
100
AcDbEntity
  8
0
  6
ByBlock
 62
     0
 48
10.0
100
AcDbTrace
 10
5161.669034100811
 20
2712.631440595689
 30
0.0
 11
5149.169034100815
 21
2712.631440595689
 31
0.0
 12
5155.419034100812
 22
2750.131440595689
 32
0.0
 13
5155.419034100812
 23
2750.131440595689
 33
0.0
  0
MTEXT
  5
177E
330
18
100
AcDbEntity
  8
0
  6
ByBlock
 62
     0
 48
10.0
100
AcDbMText
 10
5573.919056142636
 20
2714.131330936638
 30
0.0
 40
37.5
 41
0.0
 71
     5
 72
     1
  1
230
 73
     1
 44
1.0
  0
LINE
  5
177F
330
18
100
AcDbEntity
  8
OBJECT
 48
10.0
100
AcDbLine
 10
5458.919056142592
 20
2684.131322173218
 30
0.0
 11
5688.919056142636
 21
2684.13132217322
 31
0.0
  0
LINE
  5
1780
330
18
100
AcDbEntity
  8
0
 48
10.0
100
AcDbLine
 10
5458.919056142592
 20
2594.131320841444
 30
0.0
 11
5458.919056142592
 21
2714.131320841445
 31
0.0
  0
SOLID
  5
1781
330
18
100
AcDbEntity
  8
0
  6
ByBlock
 62
     0
 48
10.0
100
AcDbTrace
 10
5496.419056142599
 20
2677.88133970006
 30
0.0
 11
5496.419056142599
 21
2690.381339700058
 31
0.0
 12
5458.919056142599
 22
2684.131339700062
 32
0.0
 13
5458.919056142599
 23
2684.131339700062
 33
0.0
  0
LINE
  5
1786
330
18
100
AcDbEntity
  8
0
 48
10.0
100
AcDbLine
 10
5688.919056142636
 20
2594.131320841444
 30
0.0
 11
5688.919056142636
 21
2714.131320841445
 31
0.0
  0
LINE
  5
1787
330
18
100
AcDbEntity
  8
OBJECT
 48
10.0
100
AcDbLine
 10
5534.780157704038
 20
2570.138221066537
 30
0.0
 11
5639.780157704038
 21
2570.138221066537
 31
0.0
  0
MTEXT
  5
1788
330
18
100
AcDbEntity
  8
0
  6
ByBlock
 62
     0
 48
10.0
100
AcDbMText
 10
5587.280157704038
 20
2600.138221066536
 30
0.0
 40
30.0
 41
0.0
 71
     5
 72
     1
  1
50R
 73
     1
 44
1.0
  0
SOLID
  5
1789
330
18
100
AcDbEntity
  8
0
  6
ByBlock
 62
     0
 48
10.0
100
AcDbTrace
 10
5651.419161303682
 20
2677.88133093664
 30
0.0
 11
5651.419161303682
 21
2690.381330936638
 31
0.0
 12
5688.919161303681
 22
2684.131330936641
 32
0.0
 13
5688.919161303681
 23
2684.131330936641
 33
0.0
  0
LINE
  5
178E
330
18
100
AcDbEntity
  8
OBJECT
 48
10.0
100
AcDbLine
 10
5333.919025297845
 20
3028.631317868265
 30
0.0
 11
5813.919025297889
 21
3028.631317868267
 31
0.0
  0
LINE
  5
178F
330
18
100
AcDbEntity
  8
0
 48
10.0
100
AcDbLine
 10
5403.91901858475
 20
2878.631310572931
 30
0.0
 11
5403.91901858475
 21
3058.631310572931
 31
0.0
  0
LINE
  5
1790
330
18
100
AcDbEntity
  8
0
 48
10.0
100
AcDbLine
 10
5453.919025297845
 20
2878.631316536494
 30
0.0
 11
5453.919025297845
 21
3058.631316536494
 31
0.0
  0
LINE
  5
1791
330
18
100
AcDbEntity
  8
上線
100
AcDbLine
 10
5403.919025297856
 20
2850.131335434645
 30
0.0
 11
5333.919025297856
 21
2850.131335434645
 31
0.0
  0
LINE
  5
1792
330
18
100
AcDbEntity
  8
OBJECT
 48
10.0
100
AcDbLine
 10
5333.919013438713
 20
3028.631317868265
 30
0.0
 11
5221.419013438713
 21
3028.631317868265
 31
0.0
  0
SOLID
  5
1793
330
18
100
AcDbEntity
  8
0
  6
ByBlock
 62
     0
 48
10.0
100
AcDbTrace
 10
5296.419001579558
 20
3034.881317868262
 30
0.0
 11
5296.419001579558
 21
3022.381317868262
 31
0.0
 12
5333.919001579559
 22
3028.631317868262
 32
0.0
 13
5333.919001579559
 23
3028.631317868262
 33
0.0
  0
LWPOLYLINE
  5
1794
330
18
100
AcDbEntity
  8
上書線
100
AcDbPolyline
 90
        2
 70
     1
 43
3.75
 10
5402.04401858475
 20
3028.631317868265
 42
1.0
 10
5405.794018584749
 20
3028.631317868265
 42
1.0
  0
SOLID
  5
1795
330
18
100
AcDbEntity
  8
0
  6
ByBlock
 62
     0
 48
10.0
100
AcDbTrace
 10
5491.419025297851
 20
3022.381335395109
 30
0.0
 11
5491.419025297851
 21
3034.881335395107
 31
0.0
 12
5453.91902529785
 22
3028.631335395111
 32
0.0
 13
5453.91902529785
 23
3028.631335395111
 33
0.0
  0
LINE
  5
1796
330
18
100
AcDbEntity
  8
0
 48
10.0
100
AcDbLine
 10
5743.919032010984
 20
2878.631310572931
 30
0.0
 11
5743.919032010984
 21
3058.631310572931
 31
0.0
  0
LINE
  5
1797
330
18
100
AcDbEntity
  8
0
 48
10.0
100
AcDbLine
 10
5693.919025297889
 20
2878.631316536494
 30
0.0
 11
5693.919025297889
 21
3058.631316536494
 31
0.0
  0
LINE
  5
1798
330
18
100
AcDbEntity
  8
上線
100
AcDbLine
 10
5743.919025297856
 20
2850.131335434645
 30
0.0
 11
5813.919025297856
 21
2850.131335434645
 31
0.0
  0
SOLID
  5
1799
330
18
100
AcDbEntity
  8
0
  6
ByBlock
 62
     0
 48
10.0
100
AcDbTrace
 10
5656.419130458934
 20
3022.381326631689
 30
0.0
 11
5656.419130458934
 21
3034.881326631685
 31
0.0
 12
5693.919130458934
 22
3028.631326631689
 32
0.0
 13
5693.919130458934
 23
3028.631326631689
 33
0.0
  0
LWPOLYLINE
  5
179A
330
18
100
AcDbEntity
  8
上書線
100
AcDbPolyline
 90
        2
 70
     1
 43
3.75
 10
5745.794032010984
 20
3028.631317868265
 42
-1.0
 10
5742.044032010984
 20
3028.631317868265
 42
-1.0
  0
SOLID
  5
179B
330
18
100
AcDbEntity
  8
0
  6
ByBlock
 62
     0
 48
10.0
100
AcDbTrace
 10
5851.419049016175
 20
3034.881317868262
 30
0.0
 11
5851.419049016175
 21
3022.381317868262
 31
0.0
 12
5813.919049016175
 22
3028.631317868262
 32
0.0
 13
5813.919049016175
 23
3028.631317868262
 33
0.0
  0
LINE
  5
179C
330
18
100
AcDbEntity
  8
OBJECT
 48
10.0
100
AcDbLine
 10
5333.919025297845
 20
3178.631326631689
 30
0.0
 11
5813.919025297889
 21
3178.631326631689
 31
0.0
  0
MTEXT
  5
179D
330
18
100
AcDbEntity
  8
0
  6
ByBlock
 62
     0
 48
10.0
100
AcDbMText
 10
5573.919025297889
 20
3208.631326631689
 30
0.0
 40
37.5
 41
0.0
 71
     5
 72
     1
  1
480
 73
     1
 44
1.0
  0
SOLID
  5
179E
330
18
100
AcDbEntity
  8
0
  6
ByBlock
 62
     0
 48
10.0
100
AcDbTrace
 10
5371.419025297867
 20
3172.381326631689
 30
0.0
 11
5371.419025297867
 21
3184.881326631689
 31
0.0
 12
5333.919025297866
 22
3178.631326631689
 32
0.0
 13
5333.919025297866
 23
3178.631326631689
 33
0.0
  0
SOLID
  5
179F
330
18
100
AcDbEntity
  8
0
  6
ByBlock
 62
     0
 48
10.0
100
AcDbTrace
 10
5776.419025297867
 20
3172.381326631689
 30
0.0
 11
5776.419025297867
 21
3184.881326631689
 31
0.0
 12
5813.919025297867
 22
3178.631326631689
 32
0.0
 13
5813.919025297867
 23
3178.631326631689
 33
0.0
  0
LINE
  5
17A0
330
18
100
AcDbEntity
  8
0
 48
10.0
100
AcDbLine
 10
6133.919025297856
 20
2880.131335434644
 30
0.0
 11
6133.919025297856
 21
3210.131335434645
 31
0.0
  0
SOLID
  5
17A1
330
18
100
AcDbEntity
  8
0
  6
ByBlock
 62
     0
 48
10.0
100
AcDbTrace
 10
6171.419025297879
 20
3173.881335434646
 30
0.0
 11
6171.419025297879
 21
3186.381335434647
 31
0.0
 12
6133.919025297879
 22
3180.131335434648
 32
0.0
 13
6133.919025297879
 23
3180.131335434648
 33
0.0
  0
MTEXT
  5
17A2
330
18
100
AcDbEntity
  8
上線
 48
10.0
100
AcDbMText
 10
5497.218710437626
 20
3819.386822217309
 30
0.0
 40
50.0
 41
558.2059
 71
     1
 72
     5
  1
\fＭＳ Ｐ明朝|b0|i0|c128|p18;正面図
 73
     1
 44
1.0
  0
LINE
  5
17A3
330
18
100
AcDbEntity
  8
上線
100
AcDbLine
 10
5473.163841012549
 20
3737.240770206016
 30
0.0
 11
5734.674271272679
 21
3737.240770206016
 31
0.0
  0
LINE
  5
17A4
330
18
100
AcDbEntity
  8
上線
100
AcDbLine
 10
5476.163841012549
 20
3740.240770206016
 30
0.0
 11
5731.674271272679
 21
3740.240770206016
 31
0.0
  0
LINE
  5
17A5
330
18
100
AcDbEntity
  8
上線
100
AcDbLine
 10
5734.674271272679
 20
3836.945152952022
 30
0.0
 11
5473.163841012549
 21
3836.945152952022
 31
0.0
  0
LINE
  5
17A6
330
18
100
AcDbEntity
  8
上線
100
AcDbLine
 10
5731.674271272679
 20
3833.945152952022
 30
0.0
 11
5476.163841012549
 21
3833.945152952022
 31
0.0
  0
LINE
  5
17A7
330
18
100
AcDbEntity
  8
上線
100
AcDbLine
 10
5473.163841012549
 20
3836.945152952022
 30
0.0
 11
5473.163841012549
 21
3737.240770206016
 31
0.0
  0
LINE
  5
17A8
330
18
100
AcDbEntity
  8
上線
100
AcDbLine
 10
5476.163841012549
 20
3833.945152952022
 30
0.0
 11
5476.163841012549
 21
3740.240770206016
 31
0.0
  0
LINE
  5
17A9
330
18
100
AcDbEntity
  8
上線
100
AcDbLine
 10
5734.674271272679
 20
3737.240770206016
 30
0.0
 11
5734.674271272679
 21
3836.945152952022
 31
0.0
  0
LINE
  5
17AA
330
18
100
AcDbEntity
  8
上線
100
AcDbLine
 10
5731.674271272679
 20
3740.240770206016
 30
0.0
 11
5731.674271272679
 21
3833.945152952022
 31
0.0
  0
LINE
  5
17AB
330
18
100
AcDbEntity
  8
上線
100
AcDbLine
 10
7256.411917461415
 20
3833.945152952022
 30
0.0
 11
7256.411917461415
 21
3740.240770206016
 31
0.0
  0
LINE
  5
17AC
330
18
100
AcDbEntity
  8
上線
100
AcDbLine
 10
7253.411917461415
 20
3836.945152952022
 30
0.0
 11
7253.411917461415
 21
3737.240770206016
 31
0.0
  0
LINE
  5
17AD
330
18
100
AcDbEntity
  8
0
 48
10.0
100
AcDbLine
 10
8633.919025297856
 20
2880.131335434644
 30
0.0
 11
8633.919025297856
 21
3210.131335434645
 31
0.0
  0
LINE
  5
17AE
330
18
100
AcDbEntity
  8
点線
 48
3.0
100
AcDbLine
 10
7803.557951492269
 20
2750.131332842502
 30
0.0
 11
8633.919025297856
 21
2750.131332842502
 31
0.0
  0
LINE
  5
17AF
330
18
100
AcDbEntity
  8
上線
 48
10.0
100
AcDbLine
 10
8633.919025297856
 20
2850.131335434644
 30
0.0
 11
7892.03845282136
 21
2850.131335434645
 31
0.0
  0
MTEXT
  5
17B0
330
18
100
AcDbEntity
  8
0
  6
ByBlock
 62
     0
 48
10.0
100
AcDbMText
 10
7383.919025297856
 20
3210.131335434645
 30
0.0
 40
37.5
 41
0.0
 71
     5
 72
     1
  1
4000
 73
     1
 44
1.0
  0
SOLID
  5
17B1
330
18
100
AcDbEntity
  8
0
  6
ByBlock
 62
     0
 48
10.0
100
AcDbTrace
 10
8596.419025297835
 20
3173.881335434646
 30
0.0
 11
8596.419025297835
 21
3186.381335434647
 31
0.0
 12
8633.919025297835
 22
3180.131335434648
 32
0.0
 13
8633.919025297835
 23
3180.131335434648
 33
0.0
  0
LINE
  5
17B2
330
18
100
AcDbEntity
  8
上線
100
AcDbLine
 10
7511.4261331343
 20
3740.240770206016
 30
0.0
 11
7511.4261331343
 21
3833.945152952022
 31
0.0
  0
LINE
  5
17B3
330
18
100
AcDbEntity
  8
上線
100
AcDbLine
 10
7514.4261331343
 20
3737.240770206016
 30
0.0
 11
7514.4261331343
 21
3836.945152952022
 31
0.0
  0
TEXT
  5
1864
330
18
100
AcDbEntity
  8
WUWAGAKI
100
AcDbText
 10
8073.417019598291
 20
1699.280810222582
 30
0.0
 40
45.0
  1
長尺Ｕ字溝（H4-24A）
100
AcDbText
  0
LINE
  5
188C
330
18
100
AcDbEntity
  8
上線
100
AcDbLine
 10
5404.10066435315
 20
2850.141597943209
 30
0.0
 11
5404.10066435315
 21
2750.141597943209
 31
0.0
  0
LINE
  5
188D
330
18
100
AcDbEntity
  8
上線
100
AcDbLine
 10
5404.10066435315
 20
2750.141597943209
 30
0.0
 11
5454.10066435315
 21
2750.141597943209
 31
0.0
  0
LINE
  5
18B6
330
18
100
AcDbEntity
  8
上線
 48
10.0
100
AcDbLine
 10
5703.737447932078
 20
2750.141597943209
 30
0.0
 11
5699.024132968968
 21
2559.284542536232
 31
0.0
  0
LINE
  5
18B7
330
18
100
AcDbEntity
  8
上線
 48
10.0
100
AcDbLine
 10
5693.737447932078
 20
2750.141597943209
 30
0.0
 11
5689.025153220974
 21
2559.427385104061
 31
0.0
  0
LINE
  5
18B8
330
18
100
AcDbEntity
  8
上線
100
AcDbLine
 10
5743.737447932078
 20
2850.141597943209
 30
0.0
 11
5743.737447932078
 21
2750.141597943209
 31
0.0
  0
LINE
  5
18B9
330
18
100
AcDbEntity
  8
上線
100
AcDbLine
 10
5743.737447932078
 20
2750.141597943209
 30
0.0
 11
5693.737447932078
 21
2750.141597943209
 31
0.0
  0
ENDSEC
  0
SECTION
  2
OBJECTS
  0
DICTIONARY
  5
C
330
0
100
AcDbDictionary
281
     1
  3
ACAD_GROUP
350
D
  3
ACAD_LAYOUT
350
15C5
  3
ACAD_MLINESTYLE
350
1B
  3
ACAD_PLOTSETTINGS
350
15C6
  3
ACAD_PLOTSTYLENAME
350
15C3
  0
DICTIONARY
  5
D
102
{ACAD_REACTORS
330
C
102
}
330
C
100
AcDbDictionary
281
     1
  0
DICTIONARY
  5
15C5
102
{ACAD_REACTORS
330
C
102
}
330
C
100
AcDbDictionary
281
     1
  3
Model
350
15C7
  3
ﾚｲｱｳﾄ1
350
15C8
  0
DICTIONARY
  5
1B
102
{ACAD_REACTORS
330
C
102
}
330
C
100
AcDbDictionary
281
     1
  3
STANDARD
350
1C
  0
DICTIONARY
  5
15C6
102
{ACAD_REACTORS
330
C
102
}
330
C
100
AcDbDictionary
281
     1
  0
ACDBDICTIONARYWDFLT
  5
15C3
102
{ACAD_REACTORS
330
C
102
}
330
C
100
AcDbDictionary
281
     1
  3
Normal
350
15C4
100
AcDbDictionaryWithDefault
340
15C4
  0
LAYOUT
  5
15C7
102
{ACAD_REACTORS
330
15C5
102
}
330
15C5
100
AcDbPlotSettings
  1

  2
Canon LBP3800 LIPSLX
  4
A4
  6

 40
5.873749732971191
 41
5.873747825622558
 42
5.873748779296875
 43
5.873748779296875
 44
209.9733276367187
 45
296.9259948730469
 46
0.0
 47
0.0
 48
0.0
 49
0.0
140
0.0
141
0.0
142
1.0
143
1.0
 70
 11952
 72
     1
 73
     1
 74
     0
  7

 75
     0
147
1.0
148
-678.3799396345361
149
120.7765806493935
100
AcDbLayout
  1
Model
 70
     1
 71
     0
 10
0.0
 20
0.0
 11
12.0
 21
9.0
 12
0.0
 22
0.0
 32
0.0
 14
0.0
 24
0.0
 34
0.0
 15
0.0
 25
0.0
 35
0.0
146
0.0
 13
0.0
 23
0.0
 33
0.0
 16
1.0
 26
0.0
 36
0.0
 17
0.0
 27
1.0
 37
0.0
 76
     0
330
18
  0
LAYOUT
  5
15C8
102
{ACAD_REACTORS
330
15C5
102
}
330
15C5
100
AcDbPlotSettings
  1

  2
Canon LBP3800 LIPSLX
  4

  6

 40
0.0
 41
0.0
 42
0.0
 43
0.0
 44
0.0
 45
0.0
 46
0.0
 47
0.0
 48
0.0
 49
0.0
140
0.0
141
0.0
142
1.0
143
1.0
 70
   688
 72
     0
 73
     0
 74
     5
  7

 75
    16
147
1.0
148
0.0
149
0.0
100
AcDbLayout
  1
ﾚｲｱｳﾄ1
 70
     1
 71
     1
 10
0.0
 20
0.0
 11
420.0
 21
297.0
 12
0.0
 22
0.0
 32
0.0
 14
1.000000000000000E+20
 24
1.000000000000000E+20
 34
1.000000000000000E+20
 15
-1.000000000000000E+20
 25
-1.000000000000000E+20
 35
-1.000000000000000E+20
146
0.0
 13
0.0
 23
0.0
 33
0.0
 16
1.0
 26
0.0
 36
0.0
 17
0.0
 27
1.0
 37
0.0
 76
     0
330
15
  0
MLINESTYLE
  5
1C
102
{ACAD_REACTORS
330
1B
102
}
330
1B
100
AcDbMlineStyle
  2
STANDARD
 70
     0
  3

 62
   256
 51
90.0
 52
90.0
 71
     2
 49
0.5
 62
   256
  6
BYLAYER
 49
-0.5
 62
   256
  6
BYLAYER
  0
ACDBPLACEHOLDER
  5
15C4
102
{ACAD_REACTORS
330
15C3
102
}
330
15C3
  0
ENDSEC
  0
EOF
