  0
SECTION
  2
HEADER
  9
$ACADVER
  1
AC1015
  9
$ACADMAINTVER
 70
     6
  9
$DWGCODEPAGE
  3
ANSI_932
  9
$INSBASE
 10
0.0
 20
0.0
 30
0.0
  9
$EXTMIN
 10
4100.421817745762
 20
-2812.333412385012
 30
-0.00000001
  9
$EXTMAX
 10
8807.122375436938
 20
2299.318376555616
 30
0.00000001
  9
$LIMMIN
 10
0.0
 20
0.0
  9
$LIMMAX
 10
4200.0
 20
2970.0
  9
$ORTHOMODE
 70
     0
  9
$REGENMODE
 70
     1
  9
$FILLMODE
 70
     1
  9
$QTEXTMODE
 70
     0
  9
$MIRRTEXT
 70
     1
  9
$LTSCALE
 40
1.0
  9
$ATTMODE
 70
     1
  9
$TEXTSIZE
 40
2.5
  9
$TRACEWID
 40
1.0
  9
$TEXTSTYLE
  7
STANDARD
  9
$CLAYER
  8
OBJECT
  9
$CELTYPE
  6
BYLAYER
  9
$CECOLOR
 62
   256
  9
$CELTSCALE
 40
10.0
  9
$DISPSILH
 70
     0
  9
$DIMSCALE
 40
15.0
  9
$DIMASZ
 40
2.5
  9
$DIMEXO
 40
0.625
  9
$DIMDLI
 40
3.75
  9
$DIMRND
 40
0.0
  9
$DIMDLE
 40
0.0
  9
$DIMEXE
 40
1.25
  9
$DIMTP
 40
0.0
  9
$DIMTM
 40
0.0
  9
$DIMTXT
 40
2.5
  9
$DIMCEN
 40
2.5
  9
$DIMTSZ
 40
0.0
  9
$DIMTOL
 70
     0
  9
$DIMLIM
 70
     0
  9
$DIMTIH
 70
     0
  9
$DIMTOH
 70
     0
  9
$DIMSE1
 70
     0
  9
$DIMSE2
 70
     0
  9
$DIMTAD
 70
     1
  9
$DIMZIN
 70
     8
  9
$DIMBLK
  1

  9
$DIMASO
 70
     1
  9
$DIMSHO
 70
     1
  9
$DIMPOST
  1

  9
$DIMAPOST
  1

  9
$DIMALT
 70
     0
  9
$DIMALTD
 70
     4
  9
$DIMALTF
 40
0.0394
  9
$DIMLFAC
 40
1.0
  9
$DIMTOFL
 70
     1
  9
$DIMTVP
 40
0.0
  9
$DIMTIX
 70
     0
  9
$DIMSOXD
 70
     0
  9
$DIMSAH
 70
     0
  9
$DIMBLK1
  1

  9
$DIMBLK2
  1

  9
$DIMSTYLE
  2
STANDARD
  9
$DIMCLRD
 70
     0
  9
$DIMCLRE
 70
     0
  9
$DIMCLRT
 70
     0
  9
$DIMTFAC
 40
1.0
  9
$DIMGAP
 40
0.625
  9
$DIMJUST
 70
     0
  9
$DIMSD1
 70
     0
  9
$DIMSD2
 70
     0
  9
$DIMTOLJ
 70
     1
  9
$DIMTZIN
 70
     0
  9
$DIMALTZ
 70
     0
  9
$DIMALTTZ
 70
     0
  9
$DIMUPT
 70
     0
  9
$DIMDEC
 70
     4
  9
$DIMTDEC
 70
     4
  9
$DIMALTU
 70
     8
  9
$DIMALTTD
 70
     4
  9
$DIMTXSTY
  7
STANDARD
  9
$DIMAUNIT
 70
     0
  9
$DIMADEC
 70
     0
  9
$DIMALTRND
 40
0.0
  9
$DIMAZIN
 70
     0
  9
$DIMDSEP
 70
    46
  9
$DIMATFIT
 70
     3
  9
$DIMFRAC
 70
     0
  9
$DIMLDRBLK
  1

  9
$DIMLUNIT
 70
     6
  9
$DIMLWD
 70
    -2
  9
$DIMLWE
 70
    -2
  9
$DIMTMOVE
 70
     0
  9
$LUNITS
 70
     2
  9
$LUPREC
 70
     4
  9
$SKETCHINC
 40
1.0
  9
$FILLETRAD
 40
55.0
  9
$AUNITS
 70
     0
  9
$AUPREC
 70
     0
  9
$MENU
  1
acad
  9
$ELEVATION
 40
0.0
  9
$PELEVATION
 40
0.0
  9
$THICKNESS
 40
0.0
  9
$LIMCHECK
 70
     0
  9
$CHAMFERA
 40
10.0
  9
$CHAMFERB
 40
10.0
  9
$CHAMFERC
 40
20.0
  9
$CHAMFERD
 40
0.0
  9
$SKPOLY
 70
     0
  9
$TDCREATE
 40
2452179.387794213
  9
$TDUCREATE
 40
2452179.012794213
  9
$TDUPDATE
 40
2454545.359357141
  9
$TDUUPDATE
 40
2454544.984357141
  9
$TDINDWG
 40
0.9512724884
  9
$TDUSRTIMER
 40
0.9512724884
  9
$USRTIMER
 70
     1
  9
$ANGBASE
 50
0.0
  9
$ANGDIR
 70
     0
  9
$PDMODE
 70
     3
  9
$PDSIZE
 40
0.0
  9
$PLINEWID
 40
0.0
  9
$SPLFRAME
 70
     0
  9
$SPLINETYPE
 70
     6
  9
$SPLINESEGS
 70
     8
  9
$HANDSEED
  5
204B
  9
$SURFTAB1
 70
     6
  9
$SURFTAB2
 70
     6
  9
$SURFTYPE
 70
     6
  9
$SURFU
 70
     6
  9
$SURFV
 70
     6
  9
$UCSBASE
  2

  9
$UCSNAME
  2

  9
$UCSORG
 10
0.0
 20
0.0
 30
0.0
  9
$UCSXDIR
 10
1.0
 20
0.0
 30
0.0
  9
$UCSYDIR
 10
0.0
 20
1.0
 30
0.0
  9
$UCSORTHOREF
  2

  9
$UCSORTHOVIEW
 70
     0
  9
$UCSORGTOP
 10
0.0
 20
0.0
 30
0.0
  9
$UCSORGBOTTOM
 10
0.0
 20
0.0
 30
0.0
  9
$UCSORGLEFT
 10
0.0
 20
0.0
 30
0.0
  9
$UCSORGRIGHT
 10
0.0
 20
0.0
 30
0.0
  9
$UCSORGFRONT
 10
0.0
 20
0.0
 30
0.0
  9
$UCSORGBACK
 10
0.0
 20
0.0
 30
0.0
  9
$PUCSBASE
  2

  9
$PUCSNAME
  2

  9
$PUCSORG
 10
0.0
 20
0.0
 30
0.0
  9
$PUCSXDIR
 10
1.0
 20
0.0
 30
0.0
  9
$PUCSYDIR
 10
0.0
 20
1.0
 30
0.0
  9
$PUCSORTHOREF
  2

  9
$PUCSORTHOVIEW
 70
     0
  9
$PUCSORGTOP
 10
0.0
 20
0.0
 30
0.0
  9
$PUCSORGBOTTOM
 10
0.0
 20
0.0
 30
0.0
  9
$PUCSORGLEFT
 10
0.0
 20
0.0
 30
0.0
  9
$PUCSORGRIGHT
 10
0.0
 20
0.0
 30
0.0
  9
$PUCSORGFRONT
 10
0.0
 20
0.0
 30
0.0
  9
$PUCSORGBACK
 10
0.0
 20
0.0
 30
0.0
  9
$USERI1
 70
     0
  9
$USERI2
 70
     0
  9
$USERI3
 70
     0
  9
$USERI4
 70
     0
  9
$USERI5
 70
     0
  9
$USERR1
 40
0.0
  9
$USERR2
 40
0.0
  9
$USERR3
 40
0.0
  9
$USERR4
 40
0.0
  9
$USERR5
 40
0.0
  9
$WORLDVIEW
 70
     1
  9
$SHADEDGE
 70
     3
  9
$SHADEDIF
 70
    70
  9
$TILEMODE
 70
     1
  9
$MAXACTVP
 70
    48
  9
$PINSBASE
 10
0.0
 20
0.0
 30
0.0
  9
$PLIMCHECK
 70
     0
  9
$PEXTMIN
 10
1.000000000000000E+20
 20
1.000000000000000E+20
 30
1.000000000000000E+20
  9
$PEXTMAX
 10
-1.000000000000000E+20
 20
-1.000000000000000E+20
 30
-1.000000000000000E+20
  9
$PLIMMIN
 10
0.0
 20
0.0
  9
$PLIMMAX
 10
420.0
 20
297.0
  9
$UNITMODE
 70
     0
  9
$VISRETAIN
 70
     1
  9
$PLINEGEN
 70
     0
  9
$PSLTSCALE
 70
     1
  9
$TREEDEPTH
 70
  3020
  9
$CMLSTYLE
  2
STANDARD
  9
$CMLJUST
 70
     0
  9
$CMLSCALE
 40
20.0
  9
$PROXYGRAPHICS
 70
     1
  9
$MEASUREMENT
 70
     1
  9
$CELWEIGHT
370
    -1
  9
$ENDCAPS
280
     0
  9
$JOINSTYLE
280
     0
  9
$LWDISPLAY
290
     0
  9
$INSUNITS
 70
     0
  9
$HYPERLINKBASE
  1

  9
$STYLESHEET
  1

  9
$XEDIT
290
     1
  9
$CEPSNTYPE
380
     0
  9
$PSTYLEMODE
290
     1
  9
$FINGERPRINTGUID
  2
{C52EE26B-7647-4641-B7E0-898CD95618AC}
  9
$VERSIONGUID
  2
{BBF99D8A-3321-4985-96A2-2D9E44FFA4BA}
  9
$EXTNAMES
290
     1
  9
$PSVPSCALE
 40
0.0
  9
$OLESTARTUP
290
     0
  0
ENDSEC
  0
SECTION
  2
CLASSES
  0
CLASS
  1
LWPOLYLINE
  2
AcDbPolyline
  3
AutoCAD 2000
 90
    32768
280
     0
281
     1
  0
CLASS
  1
ACDBDICTIONARYWDFLT
  2
AcDbDictionaryWithDefault
  3
AutoCAD 2000
 90
        0
280
     0
281
     0
  0
CLASS
  1
ACDBPLACEHOLDER
  2
AcDbPlaceHolder
  3
AutoCAD 2000
 90
        0
280
     0
281
     0
  0
CLASS
  1
LAYOUT
  2
AcDbLayout
  3
AutoCAD 2000
 90
        0
280
     0
281
     0
  0
ENDSEC
  0
SECTION
  2
TABLES
  0
TABLE
  2
VPORT
  5
8
330
0
100
AcDbSymbolTable
 70
     2
  0
VPORT
  5
204A
330
8
100
AcDbSymbolTableRecord
100
AcDbViewportTableRecord
  2
*Active
 70
     0
 10
0.0
 20
0.0
 11
1.0
 21
1.0
 12
6692.582763921146
 22
-1318.988686025583
 13
0.0
 23
0.0
 14
10.0
 24
10.0
 15
10.0
 25
10.0
 16
0.0
 26
0.0
 36
1.0
 17
0.0
 27
0.0
 37
0.0
 40
3172.358324225364
 41
1.731203007518796
 42
50.0
 43
0.0
 44
0.0
 50
0.0
 51
0.0
 71
     0
 72
   100
 73
     1
 74
     1
 75
     0
 76
     0
 77
     0
 78
     0
281
     0
 65
     1
110
0.0
120
0.0
130
0.0
111
1.0
121
0.0
131
0.0
112
0.0
122
1.0
132
0.0
 79
     0
146
0.0
  0
ENDTAB
  0
TABLE
  2
LTYPE
  5
5
330
0
100
AcDbSymbolTable
 70
    46
  0
LTYPE
  5
12
330
5
100
AcDbSymbolTableRecord
100
AcDbLinetypeTableRecord
  2
BYBLOCK
 70
     0
  3

 72
    65
 73
     0
 40
0.0
  0
LTYPE
  5
13
330
5
100
AcDbSymbolTableRecord
100
AcDbLinetypeTableRecord
  2
BYLAYER
 70
     0
  3

 72
    65
 73
     0
 40
0.0
  0
LTYPE
  5
14
330
5
100
AcDbSymbolTableRecord
100
AcDbLinetypeTableRecord
  2
CONTINUOUS
 70
     0
  3
Solid line
 72
    65
 73
     0
 40
0.0
  0
LTYPE
  5
BC
330
5
100
AcDbSymbolTableRecord
100
AcDbLinetypeTableRecord
  2
ACAD_ISO02W100
 70
     0
  3
ISO dash __ __ __ __ __ __ __ __ __ __ __ __ __
 72
    65
 73
     2
 40
15.0
 49
12.0
 74
     0
 49
-3.0
 74
     0
  0
LTYPE
  5
BD
330
5
100
AcDbSymbolTableRecord
100
AcDbLinetypeTableRecord
  2
ACAD_ISO03W100
 70
     0
  3
ISO dash space __    __    __    __    __    __
 72
    65
 73
     2
 40
30.0
 49
12.0
 74
     0
 49
-18.0
 74
     0
  0
LTYPE
  5
BE
330
5
100
AcDbSymbolTableRecord
100
AcDbLinetypeTableRecord
  2
ACAD_ISO04W100
 70
     0
  3
ISO long-dash dot ____ . ____ . ____ . ____ . _
 72
    65
 73
     4
 40
30.5
 49
24.0
 74
     0
 49
-3.0
 74
     0
 49
0.5
 74
     0
 49
-3.0
 74
     0
  0
LTYPE
  5
BF
330
5
100
AcDbSymbolTableRecord
100
AcDbLinetypeTableRecord
  2
ACAD_ISO05W100
 70
     0
  3
ISO long-dash double-dot ____ .. ____ .. ____ .
 72
    65
 73
     8
 40
37.5
 49
24.0
 74
     0
 49
-3.0
 74
     0
 49
0.5
 74
     0
 49
-3.0
 74
     0
 49
0.5
 74
     0
 49
-3.0
 74
     0
 49
0.5
 74
     0
 49
-3.0
 74
     0
  0
LTYPE
  5
C0
330
5
100
AcDbSymbolTableRecord
100
AcDbLinetypeTableRecord
  2
ACAD_ISO06W100
 70
     0
  3
ISO long-dash triple-dot ____ ... ____ ... ____
 72
    65
 73
     8
 40
37.5
 49
24.0
 74
     0
 49
-3.0
 74
     0
 49
0.5
 74
     0
 49
-3.0
 74
     0
 49
0.5
 74
     0
 49
-3.0
 74
     0
 49
0.5
 74
     0
 49
-3.0
 74
     0
  0
LTYPE
  5
C1
330
5
100
AcDbSymbolTableRecord
100
AcDbLinetypeTableRecord
  2
ACAD_ISO07W100
 70
     0
  3
ISO dot . . . . . . . . . . . . . . . . . . . .
 72
    65
 73
     2
 40
3.5
 49
0.5
 74
     0
 49
-3.0
 74
     0
  0
LTYPE
  5
C2
330
5
100
AcDbSymbolTableRecord
100
AcDbLinetypeTableRecord
  2
ACAD_ISO08W100
 70
     0
  3
ISO long-dash short-dash ____ __ ____ __ ____ _
 72
    65
 73
     4
 40
36.0
 49
24.0
 74
     0
 49
-3.0
 74
     0
 49
6.0
 74
     0
 49
-3.0
 74
     0
  0
LTYPE
  5
C3
330
5
100
AcDbSymbolTableRecord
100
AcDbLinetypeTableRecord
  2
ACAD_ISO09W100
 70
     0
  3
ISO long-dash double-short-dash ____ __ __ ____
 72
    65
 73
     6
 40
45.0
 49
24.0
 74
     0
 49
-3.0
 74
     0
 49
6.0
 74
     0
 49
-3.0
 74
     0
 49
6.0
 74
     0
 49
-3.0
 74
     0
  0
LTYPE
  5
C4
330
5
100
AcDbSymbolTableRecord
100
AcDbLinetypeTableRecord
  2
ACAD_ISO10W100
 70
     0
  3
ISO dash dot __ . __ . __ . __ . __ . __ . __ .
 72
    65
 73
     4
 40
18.5
 49
12.0
 74
     0
 49
-3.0
 74
     0
 49
0.5
 74
     0
 49
-3.0
 74
     0
  0
LTYPE
  5
C5
330
5
100
AcDbSymbolTableRecord
100
AcDbLinetypeTableRecord
  2
ACAD_ISO11W100
 70
     0
  3
ISO double-dash dot __ __ . __ __ . __ __ . __ 
 72
    65
 73
     6
 40
33.5
 49
12.0
 74
     0
 49
-3.0
 74
     0
 49
12.0
 74
     0
 49
-3.0
 74
     0
 49
0.5
 74
     0
 49
-3.0
 74
     0
  0
LTYPE
  5
C6
330
5
100
AcDbSymbolTableRecord
100
AcDbLinetypeTableRecord
  2
ACAD_ISO12W100
 70
     0
  3
ISO dash double-dot __ . . __ . . __ . . __ . .
 72
    65
 73
     6
 40
22.0
 49
12.0
 74
     0
 49
-3.0
 74
     0
 49
0.5
 74
     0
 49
-3.0
 74
     0
 49
0.5
 74
     0
 49
-3.0
 74
     0
  0
LTYPE
  5
C7
330
5
100
AcDbSymbolTableRecord
100
AcDbLinetypeTableRecord
  2
ACAD_ISO13W100
 70
     0
  3
ISO double-dash double-dot __ __ . . __ __ . . 
 72
    65
 73
     8
 40
37.0
 49
12.0
 74
     0
 49
-3.0
 74
     0
 49
12.0
 74
     0
 49
-3.0
 74
     0
 49
0.5
 74
     0
 49
-3.0
 74
     0
 49
0.5
 74
     0
 49
-3.0
 74
     0
  0
LTYPE
  5
C8
330
5
100
AcDbSymbolTableRecord
100
AcDbLinetypeTableRecord
  2
ACAD_ISO14W100
 70
     0
  3
ISO dash triple-dot __ . . . __ . . . __ . . . 
 72
    65
 73
     8
 40
25.5
 49
12.0
 74
     0
 49
-3.0
 74
     0
 49
0.5
 74
     0
 49
-3.0
 74
     0
 49
0.5
 74
     0
 49
-3.0
 74
     0
 49
0.5
 74
     0
 49
-3.0
 74
     0
  0
LTYPE
  5
C9
330
5
100
AcDbSymbolTableRecord
100
AcDbLinetypeTableRecord
  2
ACAD_ISO15W100
 70
     0
  3
ISO double-dash triple-dot __ __ . . . __ __ . 
 72
    65
 73
    10
 40
40.49999999999999
 49
12.0
 74
     0
 49
-3.0
 74
     0
 49
12.0
 74
     0
 49
-3.0
 74
     0
 49
0.5
 74
     0
 49
-3.0
 74
     0
 49
0.5
 74
     0
 49
-3.0
 74
     0
 49
0.5
 74
     0
 49
-3.0
 74
     0
  0
LTYPE
  5
CA
330
5
100
AcDbSymbolTableRecord
100
AcDbLinetypeTableRecord
  2
BATTING
 70
     0
  3
Batting SSSSSSSSSSSSSSSSSSSSSSSSSSSSSSSSSSSSSSS
 72
    65
 73
     4
 40
10.16253999999999
 49
0.00254
 74
     0
 49
-2.54
 74
     4
 75
   134
340
BB
 46
2.54
 50
0.0
 44
-2.54
 45
0.0
 49
-5.08
 74
     4
 75
   134
340
BB
 46
2.54
 50
180.0
 44
2.54
 45
0.0
 49
-2.54
 74
     0
  0
LTYPE
  5
CB
330
5
100
AcDbSymbolTableRecord
100
AcDbLinetypeTableRecord
  2
BORDER
 70
     0
  3
Border __ __ . __ __ . __ __ . __ __ . __ __ .
 72
    65
 73
     6
 40
44.45
 49
12.7
 74
     0
 49
-6.349999999999999
 74
     0
 49
12.7
 74
     0
 49
-6.349999999999999
 74
     0
 49
0.0
 74
     0
 49
-6.349999999999999
 74
     0
  0
LTYPE
  5
CC
330
5
100
AcDbSymbolTableRecord
100
AcDbLinetypeTableRecord
  2
BORDER2
 70
     0
  3
Border (.5x) __.__.__.__.__.__.__.__.__.__.__.
 72
    65
 73
     6
 40
22.225
 49
6.349999999999999
 74
     0
 49
-3.174999999999999
 74
     0
 49
6.349999999999999
 74
     0
 49
-3.174999999999999
 74
     0
 49
0.0
 74
     0
 49
-3.174999999999999
 74
     0
  0
LTYPE
  5
CD
330
5
100
AcDbSymbolTableRecord
100
AcDbLinetypeTableRecord
  2
BORDERX2
 70
     0
  3
Border (2x) ____  ____  .  ____  ____  .  ___
 72
    65
 73
     6
 40
88.9
 49
25.4
 74
     0
 49
-12.7
 74
     0
 49
25.4
 74
     0
 49
-12.7
 74
     0
 49
0.0
 74
     0
 49
-12.7
 74
     0
  0
LTYPE
  5
CE
330
5
100
AcDbSymbolTableRecord
100
AcDbLinetypeTableRecord
  2
CENTER
 70
     0
  3
Center ____ _ ____ _ ____ _ ____ _ ____ _ ____
 72
    65
 73
     4
 40
50.8
 49
31.75
 74
     0
 49
-6.349999999999999
 74
     0
 49
6.349999999999999
 74
     0
 49
-6.349999999999999
 74
     0
  0
LTYPE
  5
CF
330
5
100
AcDbSymbolTableRecord
100
AcDbLinetypeTableRecord
  2
CENTER2
 70
     0
  3
Center (.5x) ___ _ ___ _ ___ _ ___ _ ___ _ ___
 72
    65
 73
     4
 40
28.57499999999999
 49
19.05
 74
     0
 49
-3.174999999999999
 74
     0
 49
3.174999999999999
 74
     0
 49
-3.174999999999999
 74
     0
  0
LTYPE
  5
D0
330
5
100
AcDbSymbolTableRecord
100
AcDbLinetypeTableRecord
  2
CENTERX2
 70
     0
  3
Center (2x) ________  __  ________  __  _____
 72
    65
 73
     4
 40
101.6
 49
63.5
 74
     0
 49
-12.7
 74
     0
 49
12.7
 74
     0
 49
-12.7
 74
     0
  0
LTYPE
  5
D1
330
5
100
AcDbSymbolTableRecord
100
AcDbLinetypeTableRecord
  2
DASHDOT
 70
     0
  3
Dash dot __ . __ . __ . __ . __ . __ . __ . __
 72
    65
 73
     4
 40
25.4
 49
12.7
 74
     0
 49
-6.349999999999999
 74
     0
 49
0.0
 74
     0
 49
-6.349999999999999
 74
     0
  0
LTYPE
  5
D2
330
5
100
AcDbSymbolTableRecord
100
AcDbLinetypeTableRecord
  2
DASHDOT2
 70
     0
  3
Dash dot (.5x) _._._._._._._._._._._._._._._.
 72
    65
 73
     4
 40
12.7
 49
6.349999999999999
 74
     0
 49
-3.174999999999999
 74
     0
 49
0.0
 74
     0
 49
-3.174999999999999
 74
     0
  0
LTYPE
  5
D3
330
5
100
AcDbSymbolTableRecord
100
AcDbLinetypeTableRecord
  2
DASHDOTX2
 70
     0
  3
Dash dot (2x) ____  .  ____  .  ____  .  ___
 72
    65
 73
     4
 40
50.8
 49
25.4
 74
     0
 49
-12.7
 74
     0
 49
0.0
 74
     0
 49
-12.7
 74
     0
  0
LTYPE
  5
D4
330
5
100
AcDbSymbolTableRecord
100
AcDbLinetypeTableRecord
  2
DASHED
 70
     0
  3
Dashed __ __ __ __ __ __ __ __ __ __ __ __ __ _
 72
    65
 73
     2
 40
19.04999999999999
 49
12.7
 74
     0
 49
-6.349999999999999
 74
     0
  0
LTYPE
  5
D5
330
5
100
AcDbSymbolTableRecord
100
AcDbLinetypeTableRecord
  2
DASHED2
 70
     0
  3
Dashed (.5x) _ _ _ _ _ _ _ _ _ _ _ _ _ _ _ _ _
 72
    65
 73
     2
 40
9.524999999999998
 49
6.349999999999999
 74
     0
 49
-3.174999999999999
 74
     0
  0
LTYPE
  5
D6
330
5
100
AcDbSymbolTableRecord
100
AcDbLinetypeTableRecord
  2
DASHEDX2
 70
     0
  3
Dashed (2x) ____  ____  ____  ____  ____  ___
 72
    65
 73
     2
 40
38.09999999999999
 49
25.4
 74
     0
 49
-12.7
 74
     0
  0
LTYPE
  5
D7
330
5
100
AcDbSymbolTableRecord
100
AcDbLinetypeTableRecord
  2
DIVIDE
 70
     0
  3
Divide ____ . . ____ . . ____ . . ____ . . ____
 72
    65
 73
     6
 40
31.74999999999999
 49
12.7
 74
     0
 49
-6.349999999999999
 74
     0
 49
0.0
 74
     0
 49
-6.349999999999999
 74
     0
 49
0.0
 74
     0
 49
-6.349999999999999
 74
     0
  0
LTYPE
  5
D8
330
5
100
AcDbSymbolTableRecord
100
AcDbLinetypeTableRecord
  2
DIVIDE2
 70
     0
  3
Divide (.5x) __..__..__..__..__..__..__..__.._
 72
    65
 73
     6
 40
15.87499999999999
 49
6.349999999999999
 74
     0
 49
-3.174999999999999
 74
     0
 49
0.0
 74
     0
 49
-3.174999999999999
 74
     0
 49
0.0
 74
     0
 49
-3.174999999999999
 74
     0
  0
LTYPE
  5
D9
330
5
100
AcDbSymbolTableRecord
100
AcDbLinetypeTableRecord
  2
DIVIDEX2
 70
     0
  3
Divide (2x) ________  .  .  ________  .  .  _
 72
    65
 73
     6
 40
63.49999999999999
 49
25.4
 74
     0
 49
-12.7
 74
     0
 49
0.0
 74
     0
 49
-12.7
 74
     0
 49
0.0
 74
     0
 49
-12.7
 74
     0
  0
LTYPE
  5
DA
330
5
100
AcDbSymbolTableRecord
100
AcDbLinetypeTableRecord
  2
DOT
 70
     0
  3
Dot . . . . . . . . . . . . . . . . . . . . . .
 72
    65
 73
     2
 40
6.349999999999999
 49
0.0
 74
     0
 49
-6.349999999999999
 74
     0
  0
LTYPE
  5
DB
330
5
100
AcDbSymbolTableRecord
100
AcDbLinetypeTableRecord
  2
DOT2
 70
     0
  3
Dot (.5x) .....................................
 72
    65
 73
     2
 40
3.174999999999999
 49
0.0
 74
     0
 49
-3.174999999999999
 74
     0
  0
LTYPE
  5
DC
330
5
100
AcDbSymbolTableRecord
100
AcDbLinetypeTableRecord
  2
DOTX2
 70
     0
  3
Dot (2x) .  .  .  .  .  .  .  .  .  .  .  .  . 
 72
    65
 73
     2
 40
12.7
 49
0.0
 74
     0
 49
-12.7
 74
     0
  0
LTYPE
  5
DD
330
5
100
AcDbSymbolTableRecord
100
AcDbLinetypeTableRecord
  2
FENCELINE1
 70
     0
  3
Fenceline circle ----0-----0----0-----0----0---
 72
    65
 73
     4
 40
36.82999999999999
 49
6.349999999999999
 74
     0
 49
-2.54
 74
     4
 75
   133
340
BB
 46
2.54
 50
0.0
 44
-2.54
 45
0.0
 49
-2.54
 74
     0
 49
25.4
 74
     0
  0
LTYPE
  5
DE
330
5
100
AcDbSymbolTableRecord
100
AcDbLinetypeTableRecord
  2
FENCELINE2
 70
     0
  3
Fenceline square ----[]-----[]----[]-----[]----
 72
    65
 73
     4
 40
36.82999999999999
 49
6.349999999999999
 74
     0
 49
-2.54
 74
     4
 75
   132
340
BB
 46
2.54
 50
0.0
 44
-2.54
 45
0.0
 49
-2.54
 74
     0
 49
25.4
 74
     0
  0
LTYPE
  5
DF
330
5
100
AcDbSymbolTableRecord
100
AcDbLinetypeTableRecord
  2
GAS_LINE
 70
     0
  3
Gas line ----GAS----GAS----GAS----GAS----GAS---
 72
    65
 73
     3
 40
24.13
 49
12.7
 74
     0
 49
-5.08
 74
     2
 75
     0
340
F
 46
2.54
 50
0.0
 44
-2.54
 45
-1.27
  9
GAS
 49
-6.349999999999999
 74
     0
  0
LTYPE
  5
E0
330
5
100
AcDbSymbolTableRecord
100
AcDbLinetypeTableRecord
  2
HIDDEN
 70
     0
  3
Hidden __ __ __ __ __ __ __ __ __ __ __ __ __ _
 72
    65
 73
     2
 40
9.524999999999998
 49
6.349999999999999
 74
     0
 49
-3.174999999999999
 74
     0
  0
LTYPE
  5
E1
330
5
100
AcDbSymbolTableRecord
100
AcDbLinetypeTableRecord
  2
HIDDEN2
 70
     0
  3
Hidden (.5x) _ _ _ _ _ _ _ _ _ _ _ _ _ _ _ _ _
 72
    65
 73
     2
 40
4.762499999999999
 49
3.174999999999999
 74
     0
 49
-1.587499999999999
 74
     0
  0
LTYPE
  5
E2
330
5
100
AcDbSymbolTableRecord
100
AcDbLinetypeTableRecord
  2
HIDDENX2
 70
     0
  3
Hidden (2x) ____ ____ ____ ____ ____ ____ ____
 72
    65
 73
     2
 40
19.04999999999999
 49
12.7
 74
     0
 49
-6.349999999999999
 74
     0
  0
LTYPE
  5
E3
330
5
100
AcDbSymbolTableRecord
100
AcDbLinetypeTableRecord
  2
HOT_WATER_SUPPLY
 70
     0
  3
Hot water supply ---- HW ---- HW ---- HW ----
 72
    65
 73
     3
 40
22.86
 49
12.7
 74
     0
 49
-5.08
 74
     2
 75
     0
340
F
 46
2.54
 50
0.0
 44
-2.54
 45
-1.27
  9
HW
 49
-5.08
 74
     0
  0
LTYPE
  5
E4
330
5
100
AcDbSymbolTableRecord
100
AcDbLinetypeTableRecord
  2
PHANTOM
 70
     0
  3
Phantom ______  __  __  ______  __  __  ______
 72
    65
 73
     6
 40
63.5
 49
31.75
 74
     0
 49
-6.349999999999999
 74
     0
 49
6.349999999999999
 74
     0
 49
-6.349999999999999
 74
     0
 49
6.349999999999999
 74
     0
 49
-6.349999999999999
 74
     0
  0
LTYPE
  5
E5
330
5
100
AcDbSymbolTableRecord
100
AcDbLinetypeTableRecord
  2
PHANTOM2
 70
     0
  3
Phantom (.5x) ___ _ _ ___ _ _ ___ _ _ ___ _ _
 72
    65
 73
     6
 40
31.75
 49
15.875
 74
     0
 49
-3.174999999999999
 74
     0
 49
3.174999999999999
 74
     0
 49
-3.174999999999999
 74
     0
 49
3.174999999999999
 74
     0
 49
-3.174999999999999
 74
     0
  0
LTYPE
  5
E6
330
5
100
AcDbSymbolTableRecord
100
AcDbLinetypeTableRecord
  2
PHANTOMX2
 70
     0
  3
Phantom (2x) ____________    ____    ____   _
 72
    65
 73
     6
 40
127.0
 49
63.5
 74
     0
 49
-12.7
 74
     0
 49
12.7
 74
     0
 49
-12.7
 74
     0
 49
12.7
 74
     0
 49
-12.7
 74
     0
  0
LTYPE
  5
E7
330
5
100
AcDbSymbolTableRecord
100
AcDbLinetypeTableRecord
  2
TRACKS
 70
     0
  3
Tracks -|-|-|-|-|-|-|-|-|-|-|-|-|-|-|-|-|-|-|-|
 72
    65
 73
     2
 40
7.62
 49
3.81
 74
     4
 75
   130
340
BB
 46
6.349999999999999
 50
0.0
 44
0.0
 45
0.0
 49
3.81
 74
     0
  0
LTYPE
  5
E8
330
5
100
AcDbSymbolTableRecord
100
AcDbLinetypeTableRecord
  2
ZIGZAG
 70
     0
  3
Zig zag /\/\/\/\/\/\/\/\/\/\/\/\/\/\/\/\/\/\/\/
 72
    65
 73
     4
 40
20.32254
 49
0.00254
 74
     0
 49
-5.08
 74
     4
 75
   131
340
BB
 46
5.08
 50
0.0
 44
-5.08
 45
0.0
 49
-10.16
 74
     4
 75
   131
340
BB
 46
5.08
 50
180.0
 44
5.08
 45
0.0
 49
-5.08
 74
     0
  0
ENDTAB
  0
TABLE
  2
LAYER
  5
2
330
0
100
AcDbSymbolTable
 70
     9
  0
LAYER
  5
E
330
2
100
AcDbSymbolTableRecord
100
AcDbLayerTableRecord
  2
0
 70
     0
 62
     7
  6
CONTINUOUS
370
    -3
390
1658
  0
LAYER
  5
20
330
2
100
AcDbSymbolTableRecord
100
AcDbLayerTableRecord
  2
DEFPOINTS
 70
     0
 62
     7
  6
CONTINUOUS
290
     0
370
    -3
390
1658
  0
LAYER
  5
21
330
2
100
AcDbSymbolTableRecord
100
AcDbLayerTableRecord
  2
OBJECT
 70
     0
 62
     7
  6
CONTINUOUS
370
    -3
390
1658
  0
LAYER
  5
E9
330
2
100
AcDbSymbolTableRecord
100
AcDbLayerTableRecord
  2
基準線
 70
     0
 62
    -1
  6
CONTINUOUS
370
    -3
390
1658
  0
LAYER
  5
EA
330
2
100
AcDbSymbolTableRecord
100
AcDbLayerTableRecord
  2
上線
 70
     0
 62
     7
  6
CONTINUOUS
370
    -3
390
1658
  0
LAYER
  5
EB
330
2
100
AcDbSymbolTableRecord
100
AcDbLayerTableRecord
  2
点線
 70
     0
 62
     5
  6
HIDDEN
370
    -3
390
1658
  0
LAYER
  5
EC
330
2
100
AcDbSymbolTableRecord
100
AcDbLayerTableRecord
  2
中心線
 70
     0
 62
     6
  6
CENTER
370
    -3
390
1658
  0
LAYER
  5
1DFD
330
2
100
AcDbSymbolTableRecord
100
AcDbLayerTableRecord
  2
上書線
 70
     0
 62
     7
  6
CONTINUOUS
370
    -3
390
1658
  0
LAYER
  5
1DFE
330
2
100
AcDbSymbolTableRecord
100
AcDbLayerTableRecord
  2
WUWAGAKI
 70
     0
 62
     7
  6
CONTINUOUS
370
    -3
390
1658
  0
ENDTAB
  0
TABLE
  2
STYLE
  5
3
330
0
100
AcDbSymbolTable
 70
     3
  0
STYLE
  5
F
330
3
100
AcDbSymbolTableRecord
100
AcDbTextStyleTableRecord
  2
STANDARD
 70
     0
 40
0.0
 41
1.0
 50
0.0
 71
     0
 42
2.5
  3
MS PMincho.ttf
  4

1001
ACAD
1000
MS PMincho
1071
    32786
  0
STYLE
  5
22
330
3
100
AcDbSymbolTableRecord
100
AcDbTextStyleTableRecord
  2
ADESK1
 70
     0
 40
0.0
 41
1.0
 50
0.0
 71
     0
 42
5.0
  3
romans
  4
bigfont
  0
STYLE
  5
BB
330
3
100
AcDbSymbolTableRecord
100
AcDbTextStyleTableRecord
  2

 70
     1
 40
0.0
 41
1.0
 50
0.0
 71
     0
 42
2.5
  3
ltypeshp.shx
  4

  0
ENDTAB
  0
TABLE
  2
VIEW
  5
6
330
0
100
AcDbSymbolTable
 70
     0
  0
ENDTAB
  0
TABLE
  2
UCS
  5
7
330
0
100
AcDbSymbolTable
 70
     0
  0
ENDTAB
  0
TABLE
  2
APPID
  5
9
330
0
100
AcDbSymbolTable
 70
     2
  0
APPID
  5
10
330
9
100
AcDbSymbolTableRecord
100
AcDbRegAppTableRecord
  2
ACAD
 70
     0
  0
APPID
  5
E13
330
9
100
AcDbSymbolTableRecord
100
AcDbRegAppTableRecord
  2
DRAWINGVARIABLESXDATA
 70
     0
  0
ENDTAB
  0
TABLE
  2
DIMSTYLE
  5
A
330
0
100
AcDbSymbolTable
 70
     2
100
AcDbDimStyleTable
 71
     0
  0
DIMSTYLE
105
1D
102
{ACAD_REACTORS
330
1198
330
11A1
330
11E1
330
11FF
330
1227
330
1228
102
}
330
A
100
AcDbSymbolTableRecord
100
AcDbDimStyleTableRecord
  2
STANDARD
 70
     0
340
F
  0
DIMSTYLE
105
23
330
A
100
AcDbSymbolTableRecord
100
AcDbDimStyleTableRecord
  2
JIS
 70
     0
 41
2.5
 42
1.0
 43
7.0
 44
1.0
 73
     0
 74
     0
 77
     1
 78
     8
140
2.5
141
0.0
143
0.0394
147
0.0
172
     1
174
     1
175
     1
340
F
  0
ENDTAB
  0
TABLE
  2
BLOCK_RECORD
  5
1
330
0
100
AcDbSymbolTable
 70
    12
  0
BLOCK_RECORD
  5
18
330
1
100
AcDbSymbolTableRecord
100
AcDbBlockTableRecord
  2
*MODEL_SPACE
340
165B
  0
BLOCK_RECORD
  5
15
330
1
100
AcDbSymbolTableRecord
100
AcDbBlockTableRecord
  2
*PAPER_SPACE
340
165C
  0
BLOCK_RECORD
  5
24
330
1
100
AcDbSymbolTableRecord
100
AcDbBlockTableRecord
  2
JIS_A3
340
0
  0
BLOCK_RECORD
  5
1149
330
1
100
AcDbSymbolTableRecord
100
AcDbBlockTableRecord
  2
*D1
340
0
  0
BLOCK_RECORD
  5
1155
330
1
100
AcDbSymbolTableRecord
100
AcDbBlockTableRecord
  2
*D2
340
0
  0
BLOCK_RECORD
  5
1163
330
1
100
AcDbSymbolTableRecord
100
AcDbBlockTableRecord
  2
*D3
340
0
  0
BLOCK_RECORD
  5
116F
330
1
100
AcDbSymbolTableRecord
100
AcDbBlockTableRecord
  2
*D4
340
0
  0
BLOCK_RECORD
  5
117B
330
1
100
AcDbSymbolTableRecord
100
AcDbBlockTableRecord
  2
*D5
340
0
  0
BLOCK_RECORD
  5
1189
330
1
100
AcDbSymbolTableRecord
100
AcDbBlockTableRecord
  2
*D6
340
0
  0
BLOCK_RECORD
  5
1195
330
1
100
AcDbSymbolTableRecord
100
AcDbBlockTableRecord
  2
A$C56CF09EE
340
0
  0
BLOCK_RECORD
  5
1537
330
1
100
AcDbSymbolTableRecord
100
AcDbBlockTableRecord
  2
A$C7D6F6647
340
0
  0
BLOCK_RECORD
  5
156C
330
1
100
AcDbSymbolTableRecord
100
AcDbBlockTableRecord
  2
A$C2D1C24AC
340
0
  0
BLOCK_RECORD
  5
1626
330
1
100
AcDbSymbolTableRecord
100
AcDbBlockTableRecord
  2
A$C3D631542
340
0
  0
BLOCK_RECORD
  5
1D21
330
1
100
AcDbSymbolTableRecord
100
AcDbBlockTableRecord
  2
A$C4BCF46C3
340
0
  0
ENDTAB
  0
ENDSEC
  0
SECTION
  2
BLOCKS
  0
BLOCK
  5
19
330
18
100
AcDbEntity
  8
0
100
AcDbBlockBegin
  2
*MODEL_SPACE
 70
     0
 10
0.0
 20
0.0
 30
0.0
  3
*MODEL_SPACE
  1

  0
ENDBLK
  5
1A
330
18
100
AcDbEntity
  8
0
100
AcDbBlockEnd
  0
BLOCK
  5
16
330
15
100
AcDbEntity
 67
     1
  8
0
100
AcDbBlockBegin
  2
*PAPER_SPACE
 70
     0
 10
0.0
 20
0.0
 30
0.0
  3
*PAPER_SPACE
  1

  0
ENDBLK
  5
17
330
15
100
AcDbEntity
 67
     1
  8
0
100
AcDbBlockEnd
  0
BLOCK
  5
B1
330
24
100
AcDbEntity
  8
0
100
AcDbBlockBegin
  2
JIS_A3
 70
     2
 10
0.0
 20
0.0
 30
0.0
  3
JIS_A3
  1

  0
LINE
  5
25
330
24
100
AcDbEntity
  8
0
100
AcDbLine
 10
0.0
 20
0.0
 30
0.0
 11
0.0
 21
10.0
 31
0.0
  0
LINE
  5
26
330
24
100
AcDbEntity
  8
0
100
AcDbLine
 10
0.0
 20
297.0
 30
0.0
 11
25.0
 21
297.0
 31
0.0
  0
LINE
  5
27
330
24
100
AcDbEntity
  8
0
100
AcDbLine
 10
420.0
 20
297.0
 30
0.0
 11
420.0
 21
287.0
 31
0.0
  0
LINE
  5
28
330
24
100
AcDbEntity
  8
0
100
AcDbLine
 10
420.0
 20
0.0
 30
0.0
 11
410.0
 21
0.0
 31
0.0
  0
LINE
  5
29
330
24
100
AcDbEntity
  8
0
100
AcDbLine
 10
25.0
 20
10.0
 30
0.0
 11
25.0
 21
287.0
 31
0.0
  0
LINE
  5
2A
330
24
100
AcDbEntity
  8
0
100
AcDbLine
 10
410.0
 20
10.0
 30
0.0
 11
25.0
 21
10.0
 31
0.0
  0
LINE
  5
2B
330
24
100
AcDbEntity
  8
0
100
AcDbLine
 10
410.0
 20
287.0
 30
0.0
 11
410.0
 21
10.0
 31
0.0
  0
LINE
  5
2C
330
24
100
AcDbEntity
  8
0
100
AcDbLine
 10
25.0
 20
287.0
 30
0.0
 11
410.0
 21
287.0
 31
0.0
  0
LINE
  5
2D
330
24
100
AcDbEntity
  8
0
100
AcDbLine
 10
0.0
 20
287.0
 30
0.0
 11
0.0
 21
297.0
 31
0.0
  0
LINE
  5
2E
330
24
100
AcDbEntity
  8
0
100
AcDbLine
 10
25.0
 20
0.0
 30
0.0
 11
0.0
 21
0.0
 31
0.0
  0
LINE
  5
2F
330
24
100
AcDbEntity
  8
0
100
AcDbLine
 10
420.0
 20
10.0
 30
0.0
 11
420.0
 21
0.0
 31
0.0
  0
LINE
  5
30
330
24
100
AcDbEntity
  8
0
100
AcDbLine
 10
410.0
 20
297.0
 30
0.0
 11
420.0
 21
297.0
 31
0.0
  0
ATTDEF
  5
31
330
24
100
AcDbEntity
  8
0
 62
     0
100
AcDbText
 10
19.0
 20
10.0
 30
0.0
 40
3.0
  1

 50
90.0
  7
ADESK1
100
AcDbAttributeDefinition
  3

  2
USER
 70
     8
  0
ATTDEF
  5
32
330
24
100
AcDbEntity
  8
0
 62
     0
100
AcDbText
 10
19.0
 20
70.0
 30
0.0
 40
3.0
  1

 50
90.0
  7
ADESK1
100
AcDbAttributeDefinition
  3

  2
REVDATE
 70
     8
  0
ATTDEF
  5
33
330
24
100
AcDbEntity
  8
0
 62
     0
100
AcDbText
 10
19.0
 20
118.0
 30
0.0
 40
3.0
  1

 50
90.0
  7
ADESK1
100
AcDbAttributeDefinition
  3

  2
FNAME
 70
     8
  0
LINE
  5
34
330
24
100
AcDbEntity
  8
OBJECT
100
AcDbLine
 10
130.0
 20
16.0
 30
0.0
 11
25.0
 21
16.0
 31
0.0
  0
LINE
  5
35
330
24
100
AcDbEntity
  8
OBJECT
100
AcDbLine
 10
130.0
 20
22.0
 30
0.0
 11
25.0
 21
22.0
 31
0.0
  0
LINE
  5
36
330
24
100
AcDbEntity
  8
OBJECT
100
AcDbLine
 10
130.0
 20
28.0
 30
0.0
 11
25.0
 21
28.0
 31
0.0
  0
LINE
  5
37
330
24
100
AcDbEntity
  8
OBJECT
100
AcDbLine
 10
130.0
 20
34.0
 30
0.0
 11
25.0
 21
34.0
 31
0.0
  0
LINE
  5
38
330
24
100
AcDbEntity
  8
OBJECT
100
AcDbLine
 10
130.0
 20
40.0
 30
0.0
 11
25.0
 21
40.0
 31
0.0
  0
LINE
  5
39
330
24
100
AcDbEntity
  8
OBJECT
100
AcDbLine
 10
28.0
 20
11.53589799999999
 30
0.0
 11
30.0
 21
15.0
 31
0.0
  0
LINE
  5
3A
330
24
100
AcDbEntity
  8
OBJECT
100
AcDbLine
 10
32.0
 20
11.53589799999999
 30
0.0
 11
30.0
 21
15.0
 31
0.0
  0
LINE
  5
3B
330
24
100
AcDbEntity
  8
OBJECT
100
AcDbLine
 10
35.0
 20
10.0
 30
0.0
 11
35.0
 21
40.0
 31
0.0
  0
LINE
  5
3C
330
24
100
AcDbEntity
  8
OBJECT
100
AcDbLine
 10
50.0
 20
10.0
 30
0.0
 11
50.0
 21
40.0
 31
0.0
  0
LINE
  5
3D
330
24
100
AcDbEntity
  8
OBJECT
100
AcDbLine
 10
80.0
 20
10.0
 30
0.0
 11
80.0
 21
40.0
 31
0.0
  0
LINE
  5
3E
330
24
100
AcDbEntity
  8
OBJECT
100
AcDbLine
 10
28.0
 20
11.53589799999999
 30
0.0
 11
32.0
 21
11.53589799999999
 31
0.0
  0
LINE
  5
3F
330
24
100
AcDbEntity
  8
OBJECT
100
AcDbLine
 10
39.5
 20
13.0
 30
0.0
 11
40.49999999999999
 21
13.0
 31
0.0
  0
LINE
  5
40
330
24
100
AcDbEntity
  8
OBJECT
100
AcDbLine
 10
44.5
 20
13.0
 30
0.0
 11
45.49999999999999
 21
13.0
 31
0.0
  0
LINE
  5
41
330
24
100
AcDbEntity
  8
OBJECT
100
AcDbLine
 10
32.0
 20
17.535898
 30
0.0
 11
30.0
 21
20.99999999999999
 31
0.0
  0
LINE
  5
42
330
24
100
AcDbEntity
  8
OBJECT
100
AcDbLine
 10
28.0
 20
17.535898
 30
0.0
 11
32.0
 21
17.535898
 31
0.0
  0
LINE
  5
43
330
24
100
AcDbEntity
  8
OBJECT
100
AcDbLine
 10
28.0
 20
17.535898
 30
0.0
 11
30.0
 21
20.99999999999999
 31
0.0
  0
LINE
  5
44
330
24
100
AcDbEntity
  8
OBJECT
100
AcDbLine
 10
32.0
 20
23.53589799999999
 30
0.0
 11
30.0
 21
26.99999999999999
 31
0.0
  0
LINE
  5
45
330
24
100
AcDbEntity
  8
OBJECT
100
AcDbLine
 10
28.0
 20
23.53589799999999
 30
0.0
 11
32.0
 21
23.53589799999999
 31
0.0
  0
LINE
  5
46
330
24
100
AcDbEntity
  8
OBJECT
100
AcDbLine
 10
28.0
 20
23.53589799999999
 30
0.0
 11
30.0
 21
26.99999999999999
 31
0.0
  0
LINE
  5
47
330
24
100
AcDbEntity
  8
OBJECT
100
AcDbLine
 10
28.0
 20
35.53589799999999
 30
0.0
 11
30.0
 21
39.0
 31
0.0
  0
LINE
  5
48
330
24
100
AcDbEntity
  8
OBJECT
100
AcDbLine
 10
32.0
 20
35.53589799999999
 30
0.0
 11
30.0
 21
39.0
 31
0.0
  0
LINE
  5
49
330
24
100
AcDbEntity
  8
OBJECT
100
AcDbLine
 10
28.0
 20
35.53589799999999
 30
0.0
 11
32.0
 21
35.53589799999999
 31
0.0
  0
LINE
  5
4A
330
24
100
AcDbEntity
  8
OBJECT
100
AcDbLine
 10
32.0
 20
29.535898
 30
0.0
 11
30.0
 21
33.0
 31
0.0
  0
LINE
  5
4B
330
24
100
AcDbEntity
  8
OBJECT
100
AcDbLine
 10
28.0
 20
29.535898
 30
0.0
 11
32.0
 21
29.535898
 31
0.0
  0
LINE
  5
4C
330
24
100
AcDbEntity
  8
OBJECT
100
AcDbLine
 10
28.0
 20
29.535898
 30
0.0
 11
30.0
 21
33.0
 31
0.0
  0
LINE
  5
4D
330
24
100
AcDbEntity
  8
OBJECT
100
AcDbLine
 10
39.5
 20
19.0
 30
0.0
 11
40.49999999999999
 21
19.0
 31
0.0
  0
LINE
  5
4E
330
24
100
AcDbEntity
  8
OBJECT
100
AcDbLine
 10
44.5
 20
19.0
 30
0.0
 11
45.49999999999999
 21
19.0
 31
0.0
  0
LINE
  5
4F
330
24
100
AcDbEntity
  8
OBJECT
100
AcDbLine
 10
39.5
 20
25.0
 30
0.0
 11
40.49999999999999
 21
25.0
 31
0.0
  0
LINE
  5
50
330
24
100
AcDbEntity
  8
OBJECT
100
AcDbLine
 10
44.5
 20
25.0
 30
0.0
 11
45.49999999999999
 21
25.0
 31
0.0
  0
LINE
  5
51
330
24
100
AcDbEntity
  8
OBJECT
100
AcDbLine
 10
39.5
 20
31.0
 30
0.0
 11
40.49999999999999
 21
31.0
 31
0.0
  0
LINE
  5
52
330
24
100
AcDbEntity
  8
OBJECT
100
AcDbLine
 10
39.5
 20
37.0
 30
0.0
 11
40.49999999999999
 21
37.0
 31
0.0
  0
LINE
  5
53
330
24
100
AcDbEntity
  8
OBJECT
100
AcDbLine
 10
44.5
 20
31.0
 30
0.0
 11
45.49999999999999
 21
31.0
 31
0.0
  0
LINE
  5
54
330
24
100
AcDbEntity
  8
OBJECT
100
AcDbLine
 10
44.5
 20
37.0
 30
0.0
 11
45.49999999999999
 21
37.0
 31
0.0
  0
LINE
  5
55
330
24
100
AcDbEntity
  8
OBJECT
100
AcDbLine
 10
120.0
 20
10.0
 30
0.0
 11
120.0
 21
40.0
 31
0.0
  0
LINE
  5
56
330
24
100
AcDbEntity
  8
OBJECT
100
AcDbLine
 10
130.0
 20
40.0
 30
0.0
 11
130.0
 21
10.0
 31
0.0
  0
LINE
  5
57
330
24
100
AcDbEntity
  8
0
100
AcDbLine
 10
217.5
 20
10.0
 30
0.0
 11
217.5
 21
0.0
 31
0.0
  0
LINE
  5
58
330
24
100
AcDbEntity
  8
0
100
AcDbLine
 10
217.5
 20
287.0
 30
0.0
 11
217.5
 21
297.0
 31
0.0
  0
LINE
  5
59
330
24
100
AcDbEntity
  8
0
100
AcDbLine
 10
410.0
 20
148.5
 30
0.0
 11
420.0
 21
148.5
 31
0.0
  0
LINE
  5
5A
330
24
100
AcDbEntity
  8
0
100
AcDbLine
 10
25.0
 20
148.5
 30
0.0
 11
0.0
 21
148.5
 31
0.0
  0
TEXT
  5
5B
330
24
100
AcDbEntity
  8
0
100
AcDbText
 10
1.0
 20
1.0
 30
0.0
 40
3.0
  1
この図枠はサンプルです。社内の規格やプロッタの出力範囲に合わせて適当に変更してご利用ください。
  7
ADESK1
100
AcDbText
  0
LINE
  5
5C
330
24
100
AcDbEntity
  8
0
100
AcDbLine
 10
25.0
 20
240.8333333333333
 30
0.0
 11
20.0
 21
240.8333333333333
 31
0.0
  0
LINE
  5
5D
330
24
100
AcDbEntity
  8
0
100
AcDbLine
 10
25.0
 20
194.6666666666666
 30
0.0
 11
20.0
 21
194.6666666666666
 31
0.0
  0
LINE
  5
5E
330
24
100
AcDbEntity
  8
0
100
AcDbLine
 10
25.0
 20
148.5
 30
0.0
 11
20.0
 21
148.5
 31
0.0
  0
LINE
  5
5F
330
24
100
AcDbEntity
  8
0
100
AcDbLine
 10
25.0
 20
102.3333333333333
 30
0.0
 11
20.0
 21
102.3333333333333
 31
0.0
  0
LINE
  5
60
330
24
100
AcDbEntity
  8
0
100
AcDbLine
 10
25.0
 20
56.16666666666667
 30
0.0
 11
20.0
 21
56.16666666666667
 31
0.0
  0
LINE
  5
61
330
24
100
AcDbEntity
  8
0
100
AcDbLine
 10
410.0
 20
56.16666666666668
 30
0.0
 11
415.0
 21
56.16666666666668
 31
0.0
  0
LINE
  5
62
330
24
100
AcDbEntity
  8
0
100
AcDbLine
 10
410.0
 20
102.3333333333333
 30
0.0
 11
415.0
 21
102.3333333333333
 31
0.0
  0
LINE
  5
63
330
24
100
AcDbEntity
  8
0
100
AcDbLine
 10
410.0
 20
148.5
 30
0.0
 11
415.0
 21
148.5
 31
0.0
  0
LINE
  5
64
330
24
100
AcDbEntity
  8
0
100
AcDbLine
 10
410.0
 20
194.6666666666667
 30
0.0
 11
415.0
 21
194.6666666666667
 31
0.0
  0
LINE
  5
65
330
24
100
AcDbEntity
  8
0
100
AcDbLine
 10
410.0
 20
240.8333333333333
 30
0.0
 11
415.0
 21
240.8333333333333
 31
0.0
  0
LINE
  5
66
330
24
100
AcDbEntity
  8
0
100
AcDbLine
 10
73.125
 20
10.0
 30
0.0
 11
73.125
 21
5.0
 31
0.0
  0
LINE
  5
67
330
24
100
AcDbEntity
  8
0
100
AcDbLine
 10
121.25
 20
10.0
 30
0.0
 11
121.25
 21
5.0
 31
0.0
  0
LINE
  5
68
330
24
100
AcDbEntity
  8
0
100
AcDbLine
 10
169.375
 20
10.0
 30
0.0
 11
169.375
 21
5.0
 31
0.0
  0
LINE
  5
69
330
24
100
AcDbEntity
  8
0
100
AcDbLine
 10
217.5
 20
10.0
 30
0.0
 11
217.5
 21
5.0
 31
0.0
  0
LINE
  5
6A
330
24
100
AcDbEntity
  8
0
100
AcDbLine
 10
265.625
 20
10.0
 30
0.0
 11
265.625
 21
5.0
 31
0.0
  0
LINE
  5
6B
330
24
100
AcDbEntity
  8
0
100
AcDbLine
 10
313.75
 20
10.0
 30
0.0
 11
313.75
 21
5.0
 31
0.0
  0
LINE
  5
6C
330
24
100
AcDbEntity
  8
0
100
AcDbLine
 10
361.8749999999999
 20
10.0
 30
0.0
 11
361.8749999999999
 21
5.0
 31
0.0
  0
LINE
  5
6D
330
24
100
AcDbEntity
  8
0
100
AcDbLine
 10
361.8749999999999
 20
287.0
 30
0.0
 11
361.8749999999999
 21
292.0
 31
0.0
  0
LINE
  5
6E
330
24
100
AcDbEntity
  8
0
100
AcDbLine
 10
313.75
 20
287.0
 30
0.0
 11
313.75
 21
292.0
 31
0.0
  0
LINE
  5
6F
330
24
100
AcDbEntity
  8
0
100
AcDbLine
 10
265.625
 20
287.0
 30
0.0
 11
265.625
 21
292.0
 31
0.0
  0
LINE
  5
70
330
24
100
AcDbEntity
  8
0
100
AcDbLine
 10
217.5
 20
287.0
 30
0.0
 11
217.5
 21
292.0
 31
0.0
  0
LINE
  5
71
330
24
100
AcDbEntity
  8
0
100
AcDbLine
 10
169.375
 20
287.0
 30
0.0
 11
169.375
 21
292.0
 31
0.0
  0
LINE
  5
72
330
24
100
AcDbEntity
  8
0
100
AcDbLine
 10
121.25
 20
287.0
 30
0.0
 11
121.25
 21
292.0
 31
0.0
  0
LINE
  5
73
330
24
100
AcDbEntity
  8
0
100
AcDbLine
 10
73.125
 20
287.0
 30
0.0
 11
73.125
 21
292.0
 31
0.0
  0
TEXT
  5
74
330
24
100
AcDbEntity
  8
0
100
AcDbText
 10
47.84821428571429
 20
288.0
 30
0.0
 40
3.0
  1
1
  7
ADESK1
 72
     1
 11
49.0625
 21
288.0
 31
0.0
100
AcDbText
  0
TEXT
  5
75
330
24
100
AcDbEntity
  8
0
100
AcDbText
 10
21.32144707381961
 20
263.9166666666666
 30
0.0
 40
3.0
  1
A
  7
ADESK1
 72
     1
 11
22.60716135953389
 21
263.9166666666666
 31
0.0
100
AcDbText
  0
TEXT
  5
76
330
24
100
AcDbEntity
  8
0
100
AcDbText
 10
95.75892857142857
 20
288.0
 30
0.0
 40
3.0
  1
2
  7
ADESK1
 72
     1
 11
97.1875
 21
288.0
 31
0.0
100
AcDbText
  0
TEXT
  5
77
330
24
100
AcDbEntity
  8
0
100
AcDbText
 10
143.8839285714285
 20
288.0
 30
0.0
 40
3.0
  1
3
  7
ADESK1
 72
     1
 11
145.3125
 21
288.0
 31
0.0
100
AcDbText
  0
TEXT
  5
78
330
24
100
AcDbEntity
  8
0
100
AcDbText
 10
191.9375
 20
288.0
 30
0.0
 40
3.0
  1
4
  7
ADESK1
 72
     1
 11
193.4375
 21
288.0
 31
0.0
100
AcDbText
  0
TEXT
  5
79
330
24
100
AcDbEntity
  8
0
100
AcDbText
 10
240.1339285714285
 20
288.0
 30
0.0
 40
3.0
  1
5
  7
ADESK1
 72
     1
 11
241.5624999999999
 21
288.0
 31
0.0
100
AcDbText
  0
TEXT
  5
7A
330
24
100
AcDbEntity
  8
0
100
AcDbText
 10
288.1874999999999
 20
288.0
 30
0.0
 40
3.0
  1
6
  7
ADESK1
 72
     1
 11
289.6875
 21
288.0
 31
0.0
100
AcDbText
  0
TEXT
  5
7B
330
24
100
AcDbEntity
  8
0
100
AcDbText
 10
336.3839285714285
 20
288.0
 30
0.0
 40
3.0
  1
7
  7
ADESK1
 72
     1
 11
337.8125
 21
288.0
 31
0.0
100
AcDbText
  0
TEXT
  5
7C
330
24
100
AcDbEntity
  8
0
100
AcDbText
 10
384.5089285714285
 20
288.0
 30
0.0
 40
3.0
  1
8
  7
ADESK1
 72
     1
 11
385.9375
 21
288.0
 31
0.0
100
AcDbText
  0
TEXT
  5
7D
330
24
100
AcDbEntity
  8
0
100
AcDbText
 10
21.03573278810532
 20
217.7499999999999
 30
0.0
 40
3.0
  1
B
  7
ADESK1
 72
     1
 11
22.60716135953389
 21
217.7499999999999
 31
0.0
100
AcDbText
  0
TEXT
  5
7E
330
24
100
AcDbEntity
  8
0
100
AcDbText
 10
21.10716135953389
 20
171.5833333333333
 30
0.0
 40
3.0
  1
C
  7
ADESK1
 72
     1
 11
22.60716135953389
 21
171.5833333333333
 31
0.0
100
AcDbText
  0
TEXT
  5
7F
330
24
100
AcDbEntity
  8
0
100
AcDbText
 10
21.03573278810532
 20
125.4166666666666
 30
0.0
 40
3.0
  1
D
  7
ADESK1
 72
     1
 11
22.60716135953389
 21
125.4166666666666
 31
0.0
100
AcDbText
  0
TEXT
  5
80
330
24
100
AcDbEntity
  8
0
100
AcDbText
 10
21.10716135953389
 20
79.25
 30
0.0
 40
3.0
  1
E
  7
ADESK1
 72
     1
 11
22.60716135953389
 21
79.25
 31
0.0
100
AcDbText
  0
TEXT
  5
81
330
24
100
AcDbEntity
  8
0
100
AcDbText
 10
21.10716135953389
 20
33.08333333333334
 30
0.0
 40
3.0
  1
F
  7
ADESK1
 72
     1
 11
22.60716135953389
 21
33.08333333333334
 31
0.0
100
AcDbText
  0
TEXT
  5
82
330
24
100
AcDbEntity
  8
0
100
AcDbText
 10
47.84821428571429
 20
6.019997240728748
 30
0.0
 40
3.0
  1
1
  7
ADESK1
 72
     1
 11
49.0625
 21
6.019997240728748
 31
0.0
100
AcDbText
  0
TEXT
  5
83
330
24
100
AcDbEntity
  8
0
100
AcDbText
 10
95.75892857142857
 20
6.019997240728748
 30
0.0
 40
3.0
  1
2
  7
ADESK1
 72
     1
 11
97.1875
 21
6.019997240728748
 31
0.0
100
AcDbText
  0
TEXT
  5
84
330
24
100
AcDbEntity
  8
0
100
AcDbText
 10
143.8839285714285
 20
6.019997240728748
 30
0.0
 40
3.0
  1
3
  7
ADESK1
 72
     1
 11
145.3125
 21
6.019997240728748
 31
0.0
100
AcDbText
  0
TEXT
  5
85
330
24
100
AcDbEntity
  8
0
100
AcDbText
 10
191.9375
 20
6.019997240728748
 30
0.0
 40
3.0
  1
4
  7
ADESK1
 72
     1
 11
193.4375
 21
6.019997240728748
 31
0.0
100
AcDbText
  0
TEXT
  5
86
330
24
100
AcDbEntity
  8
0
100
AcDbText
 10
240.1339285714285
 20
6.019997240728748
 30
0.0
 40
3.0
  1
5
  7
ADESK1
 72
     1
 11
241.5624999999999
 21
6.019997240728748
 31
0.0
100
AcDbText
  0
TEXT
  5
87
330
24
100
AcDbEntity
  8
0
100
AcDbText
 10
288.1874999999999
 20
6.019997240728748
 30
0.0
 40
3.0
  1
6
  7
ADESK1
 72
     1
 11
289.6875
 21
6.019997240728748
 31
0.0
100
AcDbText
  0
TEXT
  5
88
330
24
100
AcDbEntity
  8
0
100
AcDbText
 10
336.3839285714285
 20
6.019997240728748
 30
0.0
 40
3.0
  1
7
  7
ADESK1
 72
     1
 11
337.8125
 21
6.019997240728748
 31
0.0
100
AcDbText
  0
TEXT
  5
89
330
24
100
AcDbEntity
  8
0
100
AcDbText
 10
384.5089285714285
 20
6.019997240728748
 30
0.0
 40
3.0
  1
8
  7
ADESK1
 72
     1
 11
385.9375
 21
6.019997240728748
 31
0.0
100
AcDbText
  0
TEXT
  5
8A
330
24
100
AcDbEntity
  8
0
100
AcDbText
 10
411.5851108826324
 20
263.9166666666666
 30
0.0
 40
3.0
  1
A
  7
ADESK1
 72
     1
 11
412.8708251683468
 21
263.9166666666666
 31
0.0
100
AcDbText
  0
TEXT
  5
8B
330
24
100
AcDbEntity
  8
0
100
AcDbText
 10
411.2993965969182
 20
217.7499999999999
 30
0.0
 40
3.0
  1
B
  7
ADESK1
 72
     1
 11
412.8708251683468
 21
217.7499999999999
 31
0.0
100
AcDbText
  0
TEXT
  5
8C
330
24
100
AcDbEntity
  8
0
100
AcDbText
 10
411.3708251683467
 20
171.5833333333333
 30
0.0
 40
3.0
  1
C
  7
ADESK1
 72
     1
 11
412.8708251683468
 21
171.5833333333333
 31
0.0
100
AcDbText
  0
TEXT
  5
8D
330
24
100
AcDbEntity
  8
0
100
AcDbText
 10
411.2993965969182
 20
125.4166666666666
 30
0.0
 40
3.0
  1
D
  7
ADESK1
 72
     1
 11
412.8708251683468
 21
125.4166666666666
 31
0.0
100
AcDbText
  0
TEXT
  5
8E
330
24
100
AcDbEntity
  8
0
100
AcDbText
 10
411.3708251683467
 20
79.25
 30
0.0
 40
3.0
  1
E
  7
ADESK1
 72
     1
 11
412.8708251683468
 21
79.25
 31
0.0
100
AcDbText
  0
TEXT
  5
8F
330
24
100
AcDbEntity
  8
0
100
AcDbText
 10
411.3708251683467
 20
33.08333333333334
 30
0.0
 40
3.0
  1
F
  7
ADESK1
 72
     1
 11
412.8708251683468
 21
33.08333333333334
 31
0.0
100
AcDbText
  0
LINE
  5
90
330
24
100
AcDbEntity
  8
0
 62
     0
100
AcDbLine
 10
280.2978723404241
 20
49.00000000000036
 30
0.0
 11
410.0
 21
49.00000000000036
 31
0.0
  0
LINE
  5
91
330
24
100
AcDbEntity
  8
0
 62
     0
100
AcDbLine
 10
280.2978723404241
 20
13.00000000000004
 30
0.0
 11
410.0
 21
13.00000000000004
 31
0.0
  0
LINE
  5
92
330
24
100
AcDbEntity
  8
0
 62
     0
100
AcDbLine
 10
280.2978723404241
 20
37.00000000000024
 30
0.0
 11
410.0
 21
37.00000000000024
 31
0.0
  0
LINE
  5
93
330
24
100
AcDbEntity
  8
0
 62
     0
100
AcDbLine
 10
318.1276595744673
 20
22.00000000000012
 30
0.0
 11
410.0
 21
22.00000000000012
 31
0.0
  0
LINE
  5
94
330
24
100
AcDbEntity
  8
0
 62
     0
100
AcDbLine
 10
280.2978723404241
 20
10.0
 30
0.0
 11
410.0
 21
10.0
 31
0.0
  0
LINE
  5
95
330
24
100
AcDbEntity
  8
0
 62
     0
100
AcDbLine
 10
410.0
 20
49.00000000000036
 30
0.0
 11
280.2978723404241
 21
49.00000000000036
 31
0.0
  0
LINE
  5
96
330
24
100
AcDbEntity
  8
0
 62
     0
100
AcDbLine
 10
303.7163120567365
 20
37.00000000000024
 30
0.0
 11
303.7163120567365
 21
10.0
 31
0.0
  0
LINE
  5
97
330
24
100
AcDbEntity
  8
0
 62
     0
100
AcDbLine
 10
285.702127659573
 20
37.00000000000024
 30
0.0
 11
285.702127659573
 21
10.0
 31
0.0
  0
LINE
  5
98
330
24
100
AcDbEntity
  8
0
 62
     0
100
AcDbLine
 10
312.7234042553184
 20
37.00000000000024
 30
0.0
 11
312.7234042553184
 21
10.0
 31
0.0
  0
LINE
  5
99
330
24
100
AcDbEntity
  8
0
 62
     0
100
AcDbLine
 10
318.1276595744673
 20
25.00000000000012
 30
0.0
 11
318.1276595744673
 21
10.0
 31
0.0
  0
LINE
  5
9A
330
24
100
AcDbEntity
  8
0
 62
     0
100
AcDbLine
 10
280.2978723404241
 20
49.00000000000036
 30
0.0
 11
280.2978723404241
 21
10.0
 31
0.0
  0
LINE
  5
9B
330
24
100
AcDbEntity
  8
0
 62
     0
100
AcDbLine
 10
348.7517730496447
 20
49.00000000000036
 30
0.0
 11
348.7517730496447
 21
10.0
 31
0.0
  0
LINE
  5
9C
330
24
100
AcDbEntity
  8
0
 62
     0
100
AcDbLine
 10
328.7659574468077
 20
22.00000000000007
 30
0.0
 11
328.7659574468077
 21
10.0
 31
0.0
  0
LINE
  5
9D
330
24
100
AcDbEntity
  8
0
 62
     0
100
AcDbLine
 10
339.4042553191484
 20
22.00000000000007
 30
0.0
 11
339.4042553191484
 21
10.0
 31
0.0
  0
LINE
  5
9E
330
24
100
AcDbEntity
  8
0
 62
     0
100
AcDbLine
 10
280.2978723404241
 20
16.00000000000008
 30
0.0
 11
318.1276595744673
 21
16.00000000000008
 31
0.0
  0
LINE
  5
9F
330
24
100
AcDbEntity
  8
0
 62
     0
100
AcDbLine
 10
280.2978723404241
 20
10.0
 30
0.0
 11
280.2978723404241
 21
13.00000000000004
 31
0.0
  0
TEXT
  5
A0
330
24
100
AcDbEntity
  8
0
 62
     0
100
AcDbText
 10
321.7174935280942
 20
10.48329012996929
 30
0.0
 40
1.791674070777747
  1
製図
  7
ADESK1
 72
     1
 11
323.5688900678979
 21
10.48329012996929
 31
0.0
100
AcDbText
  0
TEXT
  5
A1
330
24
100
AcDbEntity
  8
0
 62
     0
100
AcDbText
 10
332.2960689314087
 20
10.48329012996929
 30
0.0
 40
1.791674070777747
  1
設計
  7
ADESK1
 72
     1
 11
334.2071879402383
 21
10.48329012996929
 31
0.0
100
AcDbText
  0
TEXT
  5
A2
330
24
100
AcDbEntity
  8
0
 62
     0
100
AcDbText
 10
342.2447163844405
 20
10.55220101068186
 30
0.0
 40
1.791674070777747
  1
照査
  7
ADESK1
 72
     1
 11
344.1558353932701
 21
10.55220101068186
 31
0.0
100
AcDbText
  0
LINE
  5
A3
330
24
100
AcDbEntity
  8
0
 62
     0
100
AcDbLine
 10
280.2978723404241
 20
25.00000000000012
 30
0.0
 11
318.1276595744673
 21
25.00000000000012
 31
0.0
  0
LINE
  5
A4
330
24
100
AcDbEntity
  8
0
 62
     0
100
AcDbLine
 10
280.2978723404241
 20
22.00000000000007
 30
0.0
 11
318.1276595744673
 21
22.00000000000012
 31
0.0
  0
LINE
  5
A5
330
24
100
AcDbEntity
  8
0
 62
     0
100
AcDbLine
 10
280.2978723404241
 20
19.00000000000007
 30
0.0
 11
318.1276595744673
 21
19.00000000000012
 31
0.0
  0
LINE
  5
A6
330
24
100
AcDbEntity
  8
0
 62
     0
100
AcDbLine
 10
280.2978723404241
 20
34.00000000000024
 30
0.0
 11
348.7517730496447
 21
34.00000000000024
 31
0.0
  0
LINE
  5
A7
330
24
100
AcDbEntity
  8
0
 62
     0
100
AcDbLine
 10
280.2978723404241
 20
31.0000000000002
 30
0.0
 11
348.7517730496447
 21
31.0000000000002
 31
0.0
  0
LINE
  5
A8
330
24
100
AcDbEntity
  8
0
 62
     0
100
AcDbLine
 10
280.2978723404241
 20
28.00000000000015
 30
0.0
 11
348.7517730496447
 21
28.00000000000015
 31
0.0
  0
LINE
  5
A9
330
24
100
AcDbEntity
  8
0
 62
     0
100
AcDbLine
 10
318.1276595744673
 20
25.00000000000012
 30
0.0
 11
348.7517730496447
 21
25.00000000000012
 31
0.0
  0
LINE
  5
AA
330
24
100
AcDbEntity
  8
0
 62
     0
100
AcDbLine
 10
318.1276595744673
 20
49.00000000000036
 30
0.0
 11
318.1276595744673
 21
25.00000000000012
 31
0.0
  0
LINE
  5
AB
330
24
100
AcDbEntity
  8
0
 62
     0
100
AcDbLine
 10
325.3333333333325
 20
37.00000000000024
 30
0.0
 11
325.3333333333325
 21
25.00000000000012
 31
0.0
  0
LINE
  5
AC
330
24
100
AcDbEntity
  8
0
 62
     0
100
AcDbLine
 10
336.1418439716306
 20
49.00000000000036
 30
0.0
 11
336.1418439716306
 21
22.00000000000012
 31
0.0
  0
LINE
  5
AD
330
24
100
AcDbEntity
  8
0
 62
     0
100
AcDbLine
 10
402.7943262411347
 20
22.00000000000012
 30
0.0
 11
402.7943262411347
 21
10.0
 31
0.0
  0
LINE
  5
AE
330
24
100
AcDbEntity
  8
0
 62
     0
100
AcDbLine
 10
410.0
 20
49.00000000000036
 30
0.0
 11
410.0
 21
10.0
 31
0.0
  0
LINE
  5
AF
330
24
100
AcDbEntity
  8
0
 62
     0
100
AcDbLine
 10
410.0
 20
10.0
 30
0.0
 11
410.0
 21
49.00000000000036
 31
0.0
  0
LINE
  5
B0
330
24
100
AcDbEntity
  8
0
 62
     0
100
AcDbLine
 10
402.7943262411347
 20
16.00000000000008
 30
0.0
 11
410.0
 21
16.00000000000008
 31
0.0
  0
ENDBLK
  5
B2
330
24
100
AcDbEntity
  8
0
100
AcDbBlockEnd
  0
BLOCK
  5
1153
330
1149
100
AcDbEntity
  8
0
 48
10.0
100
AcDbBlockBegin
  2
*D1
 70
     1
 10
0.0
 20
0.0
 30
0.0
  3
*D1
  1

  0
LINE
  5
114A
330
1149
100
AcDbEntity
  8
0
  6
ByBlock
 62
     0
 48
10.0
100
AcDbLine
 10
580.4206909450949
 20
1700.043289130485
 30
0.0
 11
221.045690945095
 21
1700.043289130485
 31
0.0
  0
LINE
  5
114B
330
1149
100
AcDbEntity
  8
0
  6
ByBlock
 62
     0
 48
10.0
100
AcDbLine
 10
580.4206909450949
 20
1000.043289130485
 30
0.0
 11
221.0456909450949
 21
1000.043289130485
 31
0.0
  0
LINE
  5
114C
330
1149
100
AcDbEntity
  8
0
  6
ByBlock
 62
     0
 48
10.0
100
AcDbLine
 10
239.795690945095
 20
1662.543289130485
 30
0.0
 11
239.7956909450949
 21
1037.543289130485
 31
0.0
  0
SOLID
  5
114D
330
1149
100
AcDbEntity
  8
0
  6
ByBlock
 62
     0
 48
10.0
100
AcDbTrace
 10
233.545690945095
 20
1662.543289130485
 30
0.0
 11
246.045690945095
 21
1662.543289130485
 31
0.0
 12
239.795690945095
 22
1700.043289130485
 32
0.0
 13
239.795690945095
 23
1700.043289130485
 33
0.0
  0
SOLID
  5
114E
330
1149
100
AcDbEntity
  8
0
  6
ByBlock
 62
     0
 48
10.0
100
AcDbTrace
 10
233.5456909450949
 20
1037.543289130485
 30
0.0
 11
246.0456909450949
 21
1037.543289130485
 31
0.0
 12
239.7956909450949
 22
1000.043289130485
 32
0.0
 13
239.7956909450949
 23
1000.043289130485
 33
0.0
  0
MTEXT
  5
114F
330
1149
100
AcDbEntity
  8
0
  6
ByBlock
 62
     0
 48
10.0
100
AcDbMText
 10
211.6706909450949
 20
1350.043289130485
 30
0.0
 40
37.5
 41
0.0
 71
     5
 72
     1
  1
\A1;700
 11
0.0000000000000001
 21
1.0
 31
0.0
 73
     1
 44
1.0
  0
POINT
  5
1150
330
1149
100
AcDbEntity
  8
DEFPOINTS
  6
ByBlock
 62
     0
 48
10.0
100
AcDbPoint
 10
589.7956909450949
 20
1700.043289130485
 30
0.0
  0
POINT
  5
1151
330
1149
100
AcDbEntity
  8
DEFPOINTS
  6
ByBlock
 62
     0
 48
10.0
100
AcDbPoint
 10
589.7956909450949
 20
1000.043289130485
 30
0.0
  0
POINT
  5
1152
330
1149
100
AcDbEntity
  8
DEFPOINTS
  6
ByBlock
 62
     0
 48
10.0
100
AcDbPoint
 10
239.7956909450949
 20
1000.043289130485
 30
0.0
  0
ENDBLK
  5
1154
330
1149
100
AcDbEntity
  8
0
 48
10.0
100
AcDbBlockEnd
  0
BLOCK
  5
1161
330
1155
100
AcDbEntity
  8
0
 48
10.0
100
AcDbBlockBegin
  2
*D2
 70
     1
 10
0.0
 20
0.0
 30
0.0
  3
*D2
  1

  0
LINE
  5
1156
330
1155
100
AcDbEntity
  8
0
  6
ByBlock
 62
     0
 48
10.0
100
AcDbLine
 10
1069.795690945094
 20
960.6682891304856
 30
0.0
 11
1069.795690945094
 21
751.2932891304856
 31
0.0
  0
LINE
  5
1157
330
1155
100
AcDbEntity
  8
0
  6
ByBlock
 62
     0
 48
10.0
100
AcDbLine
 10
1099.795690945095
 20
960.6682891304856
 30
0.0
 11
1099.795690945095
 21
751.2932891304856
 31
0.0
  0
LINE
  5
1158
330
1155
100
AcDbEntity
  8
0
  6
ByBlock
 62
     0
 48
10.0
100
AcDbLine
 10
1032.295690945095
 20
770.0432891304856
 30
0.0
 11
994.7956909450949
 21
770.0432891304856
 31
0.0
  0
LINE
  5
1159
330
1155
100
AcDbEntity
  8
0
  6
ByBlock
 62
     0
 48
10.0
100
AcDbLine
 10
1137.295690945095
 20
770.0432891304856
 30
0.0
 11
1241.579398810263
 21
770.0432891304856
 31
0.0
  0
LINE
  5
115A
330
1155
100
AcDbEntity
  8
0
  6
ByBlock
 62
     0
 48
10.0
100
AcDbLine
 10
1069.795690945094
 20
770.0432891304856
 30
0.0
 11
1099.795690945095
 21
770.0432891304856
 31
0.0
  0
SOLID
  5
115B
330
1155
100
AcDbEntity
  8
0
  6
ByBlock
 62
     0
 48
10.0
100
AcDbTrace
 10
1032.295690945095
 20
776.2932891304856
 30
0.0
 11
1032.295690945095
 21
763.7932891304856
 31
0.0
 12
1069.795690945094
 22
770.0432891304856
 32
0.0
 13
1069.795690945094
 23
770.0432891304856
 33
0.0
  0
SOLID
  5
115C
330
1155
100
AcDbEntity
  8
0
  6
ByBlock
 62
     0
 48
10.0
100
AcDbTrace
 10
1137.295690945095
 20
776.2932891304856
 30
0.0
 11
1137.295690945095
 21
763.7932891304856
 31
0.0
 12
1099.795690945095
 22
770.0432891304856
 32
0.0
 13
1099.795690945095
 23
770.0432891304856
 33
0.0
  0
MTEXT
  5
115D
330
1155
100
AcDbEntity
  8
0
  6
ByBlock
 62
     0
 48
10.0
100
AcDbMText
 10
1208.187544877679
 20
798.1682891304856
 30
0.0
 40
37.5
 41
0.0
 71
     5
 72
     1
  1
\A1;30
 73
     1
 44
1.0
  0
POINT
  5
115E
330
1155
100
AcDbEntity
  8
DEFPOINTS
  6
ByBlock
 62
     0
 48
10.0
100
AcDbPoint
 10
1069.795690945094
 20
970.0432891304856
 30
0.0
  0
POINT
  5
115F
330
1155
100
AcDbEntity
  8
DEFPOINTS
  6
ByBlock
 62
     0
 48
10.0
100
AcDbPoint
 10
1099.795690945095
 20
970.0432891304856
 30
0.0
  0
POINT
  5
1160
330
1155
100
AcDbEntity
  8
DEFPOINTS
  6
ByBlock
 62
     0
 48
10.0
100
AcDbPoint
 10
1099.795690945095
 20
770.0432891304856
 30
0.0
  0
ENDBLK
  5
1162
330
1155
100
AcDbEntity
  8
0
 48
10.0
100
AcDbBlockEnd
  0
BLOCK
  5
116D
330
1163
100
AcDbEntity
  8
0
 48
10.0
100
AcDbBlockBegin
  2
*D3
 70
     1
 10
0.0
 20
0.0
 30
0.0
  3
*D3
  1

  0
LINE
  5
1164
330
1163
100
AcDbEntity
  8
0
  6
ByBlock
 62
     0
 48
10.0
100
AcDbLine
 10
744.7956909450949
 20
1195.178872085971
 30
0.0
 11
744.7956909450949
 21
1348.748018357144
 31
0.0
  0
LINE
  5
1165
330
1163
100
AcDbEntity
  8
0
  6
ByBlock
 62
     0
 48
10.0
100
AcDbLine
 10
974.795690945095
 20
1195.178872085971
 30
0.0
 11
974.795690945095
 21
1348.748018357144
 31
0.0
  0
LINE
  5
1166
330
1163
100
AcDbEntity
  8
0
  6
ByBlock
 62
     0
 48
10.0
100
AcDbLine
 10
782.2956909450949
 20
1329.998018357144
 30
0.0
 11
937.295690945095
 21
1329.998018357144
 31
0.0
  0
SOLID
  5
1167
330
1163
100
AcDbEntity
  8
0
  6
ByBlock
 62
     0
 48
10.0
100
AcDbTrace
 10
782.2956909450949
 20
1336.248018357144
 30
0.0
 11
782.2956909450949
 21
1323.748018357144
 31
0.0
 12
744.7956909450949
 22
1329.998018357144
 32
0.0
 13
744.7956909450949
 23
1329.998018357144
 33
0.0
  0
SOLID
  5
1168
330
1163
100
AcDbEntity
  8
0
  6
ByBlock
 62
     0
 48
10.0
100
AcDbTrace
 10
937.295690945095
 20
1336.248018357144
 30
0.0
 11
937.295690945095
 21
1323.748018357144
 31
0.0
 12
974.795690945095
 22
1329.998018357144
 32
0.0
 13
974.795690945095
 23
1329.998018357144
 33
0.0
  0
MTEXT
  5
1169
330
1163
100
AcDbEntity
  8
0
  6
ByBlock
 62
     0
 48
10.0
100
AcDbMText
 10
859.795690945095
 20
1358.123018357144
 30
0.0
 40
37.5
 41
0.0
 71
     5
 72
     1
  1
\A1;230
 73
     1
 44
1.0
  0
POINT
  5
116A
330
1163
100
AcDbEntity
  8
DEFPOINTS
  6
ByBlock
 62
     0
 48
10.0
100
AcDbPoint
 10
744.7956909450949
 20
1185.803872085971
 30
0.0
  0
POINT
  5
116B
330
1163
100
AcDbEntity
  8
DEFPOINTS
  6
ByBlock
 62
     0
 48
10.0
100
AcDbPoint
 10
974.795690945095
 20
1185.803872085971
 30
0.0
  0
POINT
  5
116C
330
1163
100
AcDbEntity
  8
DEFPOINTS
  6
ByBlock
 62
     0
 48
10.0
100
AcDbPoint
 10
974.795690945095
 20
1329.998018357144
 30
0.0
  0
ENDBLK
  5
116E
330
1163
100
AcDbEntity
  8
0
 48
10.0
100
AcDbBlockEnd
  0
BLOCK
  5
1179
330
116F
100
AcDbEntity
  8
0
 48
10.0
100
AcDbBlockBegin
  2
*D4
 70
     1
 10
0.0
 20
0.0
 30
0.0
  3
*D4
  1

  0
LINE
  5
1170
330
116F
100
AcDbEntity
  8
0
  6
ByBlock
 62
     0
 48
10.0
100
AcDbLine
 10
1696.958599685889
 20
1735.668289130485
 30
0.0
 11
1696.958599685889
 21
2098.793289130485
 31
0.0
  0
LINE
  5
1171
330
116F
100
AcDbEntity
  8
0
  6
ByBlock
 62
     0
 48
10.0
100
AcDbLine
 10
3993.44667872076
 20
1739.418289130485
 30
0.0
 11
3993.44667872076
 21
2098.793289130485
 31
0.0
  0
LINE
  5
1172
330
116F
100
AcDbEntity
  8
0
  6
ByBlock
 62
     0
 48
10.0
100
AcDbLine
 10
1734.458599685889
 20
2080.043289130485
 30
0.0
 11
3955.94667872076
 21
2080.043289130485
 31
0.0
  0
SOLID
  5
1173
330
116F
100
AcDbEntity
  8
0
  6
ByBlock
 62
     0
 48
10.0
100
AcDbTrace
 10
1734.458599685889
 20
2086.293289130485
 30
0.0
 11
1734.458599685889
 21
2073.793289130485
 31
0.0
 12
1696.958599685889
 22
2080.043289130485
 32
0.0
 13
1696.958599685889
 23
2080.043289130485
 33
0.0
  0
SOLID
  5
1174
330
116F
100
AcDbEntity
  8
0
  6
ByBlock
 62
     0
 48
10.0
100
AcDbTrace
 10
3955.94667872076
 20
2086.293289130485
 30
0.0
 11
3955.94667872076
 21
2073.793289130485
 31
0.0
 12
3993.44667872076
 22
2080.043289130485
 32
0.0
 13
3993.44667872076
 23
2080.043289130485
 33
0.0
  0
MTEXT
  5
1175
330
116F
100
AcDbEntity
  8
0
  6
ByBlock
 62
     0
 48
10.0
100
AcDbMText
 10
2845.202639203325
 20
2111.433738568687
 30
0.0
 40
37.5
 41
0.0
 71
     5
 72
     1
  1
\A1;4,000
 73
     1
 44
1.0
  0
POINT
  5
1176
330
116F
100
AcDbEntity
  8
DEFPOINTS
  6
ByBlock
 62
     0
 48
10.0
100
AcDbPoint
 10
1696.958599685889
 20
1726.293289130485
 30
0.0
  0
POINT
  5
1177
330
116F
100
AcDbEntity
  8
DEFPOINTS
  6
ByBlock
 62
     0
 48
10.0
100
AcDbPoint
 10
3993.44667872076
 20
1730.043289130485
 30
0.0
  0
POINT
  5
1178
330
116F
100
AcDbEntity
  8
DEFPOINTS
  6
ByBlock
 62
     0
 48
10.0
100
AcDbPoint
 10
3993.44667872076
 20
2080.043289130485
 30
0.0
  0
ENDBLK
  5
117A
330
116F
100
AcDbEntity
  8
0
 48
10.0
100
AcDbBlockEnd
  0
BLOCK
  5
1187
330
117B
100
AcDbEntity
  8
0
 48
10.0
100
AcDbBlockBegin
  2
*D5
 70
     1
 10
0.0
 20
0.0
 30
0.0
  3
*D5
  1

  0
LINE
  5
117C
330
117B
100
AcDbEntity
  8
0
  6
ByBlock
 62
     0
 48
10.0
100
AcDbLine
 10
1716.958599685889
 20
960.6682891304856
 30
0.0
 11
1716.958599685889
 21
751.2932891304854
 31
0.0
  0
LINE
  5
117D
330
117B
100
AcDbEntity
  8
0
  6
ByBlock
 62
     0
 48
10.0
100
AcDbLine
 10
1696.958599685889
 20
960.6682891304856
 30
0.0
 11
1696.958599685889
 21
751.2932891304854
 31
0.0
  0
LINE
  5
117E
330
117B
100
AcDbEntity
  8
0
  6
ByBlock
 62
     0
 48
10.0
100
AcDbLine
 10
1754.458599685889
 20
770.0432891304854
 30
0.0
 11
1791.958599685889
 21
770.0432891304854
 31
0.0
  0
LINE
  5
117F
330
117B
100
AcDbEntity
  8
0
  6
ByBlock
 62
     0
 48
10.0
100
AcDbLine
 10
1659.458599685889
 20
770.0432891304854
 30
0.0
 11
1554.753543506114
 21
770.0432891304854
 31
0.0
  0
LINE
  5
1180
330
117B
100
AcDbEntity
  8
0
  6
ByBlock
 62
     0
 48
10.0
100
AcDbLine
 10
1716.958599685889
 20
770.0432891304854
 30
0.0
 11
1696.958599685889
 21
770.0432891304854
 31
0.0
  0
SOLID
  5
1181
330
117B
100
AcDbEntity
  8
0
  6
ByBlock
 62
     0
 48
10.0
100
AcDbTrace
 10
1754.458599685889
 20
776.2932891304854
 30
0.0
 11
1754.458599685889
 21
763.7932891304854
 31
0.0
 12
1716.958599685889
 22
770.0432891304854
 32
0.0
 13
1716.958599685889
 23
770.0432891304854
 33
0.0
  0
SOLID
  5
1182
330
117B
100
AcDbEntity
  8
0
  6
ByBlock
 62
     0
 48
10.0
100
AcDbTrace
 10
1659.458599685889
 20
776.2932891304854
 30
0.0
 11
1659.458599685889
 21
763.7932891304854
 31
0.0
 12
1696.958599685889
 22
770.0432891304854
 32
0.0
 13
1696.958599685889
 23
770.0432891304854
 33
0.0
  0
MTEXT
  5
1183
330
117B
100
AcDbEntity
  8
0
  6
ByBlock
 62
     0
 48
10.0
100
AcDbMText
 10
1588.356071596002
 20
798.1682891304854
 30
0.0
 40
37.5
 41
0.0
 71
     5
 72
     1
  1
\A1;20
 73
     1
 44
1.0
  0
POINT
  5
1184
330
117B
100
AcDbEntity
  8
DEFPOINTS
  6
ByBlock
 62
     0
 48
10.0
100
AcDbPoint
 10
1716.958599685889
 20
970.0432891304856
 30
0.0
  0
POINT
  5
1185
330
117B
100
AcDbEntity
  8
DEFPOINTS
  6
ByBlock
 62
     0
 48
10.0
100
AcDbPoint
 10
1696.958599685889
 20
970.0432891304856
 30
0.0
  0
POINT
  5
1186
330
117B
100
AcDbEntity
  8
DEFPOINTS
  6
ByBlock
 62
     0
 48
10.0
100
AcDbPoint
 10
1696.958599685889
 20
770.0432891304854
 30
0.0
  0
ENDBLK
  5
1188
330
117B
100
AcDbEntity
  8
0
 48
10.0
100
AcDbBlockEnd
  0
BLOCK
  5
1193
330
1189
100
AcDbEntity
  8
0
 48
10.0
100
AcDbBlockBegin
  2
*D6
 70
     1
 10
0.0
 20
0.0
 30
0.0
  3
*D6
  1

  0
LINE
  5
118A
330
1189
100
AcDbEntity
  8
0
  6
ByBlock
 62
     0
 48
10.0
100
AcDbLine
 10
1716.958599685889
 20
960.6682891304856
 30
0.0
 11
1716.958599685889
 21
751.2932891304854
 31
0.0
  0
LINE
  5
118B
330
1189
100
AcDbEntity
  8
0
  6
ByBlock
 62
     0
 48
10.0
100
AcDbLine
 10
1980.958599685889
 20
960.6682891304856
 30
0.0
 11
1980.958599685889
 21
751.2932891304854
 31
0.0
  0
LINE
  5
118C
330
1189
100
AcDbEntity
  8
0
  6
ByBlock
 62
     0
 48
10.0
100
AcDbLine
 10
1754.458599685889
 20
770.0432891304854
 30
0.0
 11
1943.458599685889
 21
770.0432891304854
 31
0.0
  0
SOLID
  5
118D
330
1189
100
AcDbEntity
  8
0
  6
ByBlock
 62
     0
 48
10.0
100
AcDbTrace
 10
1754.458599685889
 20
776.2932891304854
 30
0.0
 11
1754.458599685889
 21
763.7932891304854
 31
0.0
 12
1716.958599685889
 22
770.0432891304854
 32
0.0
 13
1716.958599685889
 23
770.0432891304854
 33
0.0
  0
SOLID
  5
118E
330
1189
100
AcDbEntity
  8
0
  6
ByBlock
 62
     0
 48
10.0
100
AcDbTrace
 10
1943.458599685889
 20
776.2932891304854
 30
0.0
 11
1943.458599685889
 21
763.7932891304854
 31
0.0
 12
1980.958599685889
 22
770.0432891304854
 32
0.0
 13
1980.958599685889
 23
770.0432891304854
 33
0.0
  0
MTEXT
  5
118F
330
1189
100
AcDbEntity
  8
0
  6
ByBlock
 62
     0
 48
10.0
100
AcDbMText
 10
1848.958599685889
 20
798.1682891304854
 30
0.0
 40
37.5
 41
0.0
 71
     5
 72
     1
  1
\A1;264
 73
     1
 44
1.0
  0
POINT
  5
1190
330
1189
100
AcDbEntity
  8
DEFPOINTS
  6
ByBlock
 62
     0
 48
10.0
100
AcDbPoint
 10
1716.958599685889
 20
970.0432891304856
 30
0.0
  0
POINT
  5
1191
330
1189
100
AcDbEntity
  8
DEFPOINTS
  6
ByBlock
 62
     0
 48
10.0
100
AcDbPoint
 10
1980.958599685889
 20
970.0432891304856
 30
0.0
  0
POINT
  5
1192
330
1189
100
AcDbEntity
  8
DEFPOINTS
  6
ByBlock
 62
     0
 48
10.0
100
AcDbPoint
 10
1980.958599685889
 20
770.0432891304854
 30
0.0
  0
ENDBLK
  5
1194
330
1189
100
AcDbEntity
  8
0
 48
10.0
100
AcDbBlockEnd
  0
BLOCK
  5
12F6
330
1195
100
AcDbEntity
  8
0
 48
10.0
100
AcDbBlockBegin
  2
A$C56CF09EE
 70
     0
 10
0.0
 20
0.0
 30
0.0
  3
A$C56CF09EE
  1

  0
LINE
  5
1196
330
1195
100
AcDbEntity
  8
上線
 48
10.0
100
AcDbLine
 10
1967.77061006034
 20
1121.650624328118
 30
0.0
 11
2075.877187035985
 21
754.8641603908102
 31
0.0
1001
ACAD
1000
DSTYLE
1002
{
1070
    78
1070
     8
1070
   270
1070
     8
1070
   140
1040
2.5
1070
    74
1070
     0
1070
   172
1070
     1
1070
    73
1070
     0
1070
    77
1070
     1
1070
    40
1040
10.0
1070
   147
1040
0.625
1070
    42
1040
0.625
1070
    44
1040
1.25
1070
    43
1040
3.75
1070
   141
1040
2.5
1070
    41
1040
2.5
1070
   273
1070
     8
1070
   274
1070
     4
1070
   143
1040
0.0394
1070
   171
1070
     4
1002
}
  0
LINE
  5
1197
330
1195
100
AcDbEntity
  8
0
  6
ByBlock
 62
     0
 48
10.0
100
AcDbLine
 10
2646.27061006034
 20
1914.864160390809
 30
0.0
 11
1721.27061006034
 21
1914.864160390809
 31
0.0
  0
DIMENSION
  5
1198
330
1195
100
AcDbEntity
  8
上線
 48
10.0
100
AcDbDimension
  2
*D4
 10
3980.258689095211
 20
2064.864160390809
 30
0.0
 11
2832.014649577776
 21
2096.254609829012
 31
0.0
 12
-13.18798962554865
 22
-15.17912873967543
 32
0.0
  1
4,000
 71
     5
 42
-1.0
  3
STANDARD
100
AcDbAlignedDimension
 13
1683.77061006034
 23
1711.11416039081
 33
0.0
 14
3980.258689095211
 24
1714.86416039081
 34
0.0
100
AcDbRotatedDimension
1001
ACAD
1000
DSTYLE
1002
{
1070
    40
1040
15.0
1070
    41
1040
2.5
1070
    42
1040
0.625
1070
    43
1040
3.75
1070
    44
1040
1.25
1070
    73
1070
     0
1070
    74
1070
     0
1070
    77
1070
     1
1070
    78
1070
     8
1070
   140
1040
2.5
1070
   141
1040
2.5
1070
   143
1040
0.0394
1070
   147
1040
0.625
1070
   171
1070
     4
1070
   172
1070
     1
1070
   273
1070
     8
1070
   274
1070
     4
1070
   277
1070
     6
1002
}
  0
LINE
  5
1199
330
1195
100
AcDbEntity
  8
上線
 48
10.0
100
AcDbLine
 10
1703.77061006034
 20
1334.86416039081
 30
0.0
 11
2683.77061006034
 21
1334.86416039081
 31
0.0
  0
LINE
  5
119A
330
1195
100
AcDbEntity
  8
上線
100
AcDbLine
 10
4184.109931434224
 20
2926.920038226122
 30
0.0
 11
-0.0000024292457965
 21
2926.920038226122
 31
0.0
  0
LINE
  5
119B
330
1195
100
AcDbEntity
  8
上線
100
AcDbLine
 10
-0.0000024292457947
 20
-0.0000044160024117
 30
0.0
 11
4184.109931434224
 21
-0.0000044160024117
 31
0.0
  0
LINE
  5
119C
330
1195
100
AcDbEntity
  8
上線
 48
10.0
100
AcDbLine
 10
1703.77061006034
 20
1014.86416039081
 30
0.0
 11
2683.77061006034
 21
1014.86416039081
 31
0.0
  0
LINE
  5
119D
330
1195
100
AcDbEntity
  8
上線
 48
10.0
100
AcDbLine
 10
1703.77061006034
 20
1654.864160390809
 30
0.0
 11
2683.77061006034
 21
1654.864160390809
 31
0.0
  0
LINE
  5
119E
330
1195
100
AcDbEntity
  8
上線
 48
10.0
100
AcDbLine
 10
1683.77061006034
 20
984.8641603908102
 30
0.0
 11
3082.07622233504
 21
984.8641603908104
 31
0.0
  0
LINE
  5
119F
330
1195
100
AcDbEntity
  8
上線
 48
10.0
100
AcDbLine
 10
1683.77061006034
 20
1684.86416039081
 30
0.0
 11
3082.07622233504
 21
1684.86416039081
 31
0.0
  0
LINE
  5
11A0
330
1195
100
AcDbEntity
  8
0
  6
ByBlock
 62
     0
 48
10.0
100
AcDbLine
 10
1316.607701319546
 20
1617.36416039081
 30
0.0
 11
1316.607701319546
 21
1052.36416039081
 31
0.0
  0
DIMENSION
  5
11A1
330
1195
100
AcDbEntity
  8
上線
 48
10.0
100
AcDbDimension
  2
*D1
 10
226.6077013195463
 20
984.8641603908102
 30
0.0
 11
198.4827013195463
 21
1334.86416039081
 31
0.0
 12
-13.18798962554865
 22
-15.17912873967543
 32
0.0
 71
     5
 42
-1.0
  3
STANDARD
100
AcDbAlignedDimension
 13
576.6077013195463
 23
1684.86416039081
 33
0.0
 14
576.6077013195463
 24
984.8641603908102
 34
0.0
 50
90.0
100
AcDbRotatedDimension
1001
ACAD
1000
DSTYLE
1002
{
1070
    40
1040
15.0
1070
    41
1040
2.5
1070
    42
1040
0.625
1070
    43
1040
3.75
1070
    44
1040
1.25
1070
    73
1070
     0
1070
    74
1070
     0
1070
    77
1070
     1
1070
    78
1070
     8
1070
   140
1040
2.5
1070
   141
1040
2.5
1070
   143
1040
0.0394
1070
   147
1040
0.625
1070
   171
1070
     4
1070
   172
1070
     1
1070
   273
1070
     8
1070
   274
1070
     4
1070
   277
1070
     6
1002
}
  0
LINE
  5
11A2
330
1195
100
AcDbEntity
  8
0
  6
ByBlock
 62
     0
 48
10.0
100
AcDbLine
 10
376.6077013195463
 20
1547.364160390809
 30
0.0
 11
376.6077013195463
 21
1122.364160390809
 31
0.0
  0
LINE
  5
11A3
330
1195
100
AcDbEntity
  8
上線
 48
10.0
100
AcDbLine
 10
717.3223027586775
 20
1584.784697209287
 30
0.0
 11
720.9039343706649
 21
1134.070484370144
 31
0.0
  0
LINE
  5
11A4
330
1195
100
AcDbEntity
  8
上線
 48
10.0
100
AcDbLine
 10
727.3219870338325
 20
1584.86416039081
 30
0.0
 11
730.9036186458199
 21
1134.149947551666
 31
0.0
  0
LINE
  5
11A5
330
1195
100
AcDbEntity
  8
上線
 48
10.0
100
AcDbLine
 10
965.89341560526
 20
1584.86416039081
 30
0.0
 11
961.6077013195463
 21
1137.498967161737
 31
0.0
  0
LINE
  5
11A6
330
1195
100
AcDbEntity
  8
上線
100
AcDbLine
 10
-0.0000024292457965
 20
2926.920038226122
 30
0.0
 11
-0.0000024292457965
 21
-0.0000044160024117
 31
0.0
  0
LINE
  5
11A7
330
1195
100
AcDbEntity
  8
上線
 48
10.0
100
AcDbLine
 10
1967.77061006034
 20
1654.864160390809
 30
0.0
 11
1967.77061006034
 21
1014.86416039081
 31
0.0
  0
LINE
  5
11A8
330
1195
100
AcDbEntity
  8
上線
 48
10.0
100
AcDbLine
 10
1683.770610060341
 20
1684.86416039081
 30
0.0
 11
1683.77061006034
 21
984.8641603908102
 31
0.0
  0
LINE
  5
11A9
330
1195
100
AcDbEntity
  8
上線
 48
10.0
100
AcDbLine
 10
1703.770610060341
 20
1654.864160390809
 30
0.0
 11
1703.77061006034
 21
1014.86416039081
 31
0.0
  0
LINE
  5
11AA
330
1195
100
AcDbEntity
  8
上線
 48
10.0
100
AcDbLine
 10
1056.607701319546
 20
1654.864160390809
 30
0.0
 11
1056.607701319546
 21
1014.864160390809
 31
0.0
  0
LINE
  5
11AB
330
1195
100
AcDbEntity
  8
上線
100
AcDbLine
 10
1086.607701319546
 20
1684.86416039081
 30
0.0
 11
1086.607701319546
 21
1034.864160390809
 31
0.0
  0
LINE
  5
11AC
330
1195
100
AcDbEntity
  8
上線
100
AcDbLine
 10
606.6077013195463
 20
1684.86416039081
 30
0.0
 11
606.6077013195463
 21
994.8641603908098
 31
0.0
  0
MTEXT
  5
11AD
330
1195
100
AcDbEntity
  8
0
  6
ByBlock
 62
     0
 48
10.0
100
AcDbMText
 10
726.3995126271311
 20
782.9891603908102
 30
0.0
 40
37.5
 41
0.0
 71
     5
 72
     1
  1
\A1;240
 73
     1
 44
1.0
  0
LINE
  5
11AE
330
1195
100
AcDbEntity
  8
0
  6
ByBlock
 62
     0
 48
10.0
100
AcDbLine
 10
846.1913239347158
 20
754.8641603908102
 30
0.0
 11
644.1077013195463
 21
754.8641603908102
 31
0.0
  0
ARC
  5
11AF
330
1195
100
AcDbEntity
  8
上線
100
AcDbCircle
 10
780.8985173857954
 20
1134.864160390809
 30
0.0
 40
60.0
100
AcDbArc
 50
180.8184554616886
 51
270.0
  0
LINE
  5
11B0
330
1195
100
AcDbEntity
  8
上線
 48
10.0
100
AcDbLine
 10
616.6077013195462
 20
984.8641603908102
 30
0.0
 11
1076.607701319546
 21
984.8641603908097
 31
0.0
  0
ARC
  5
11B1
330
1195
100
AcDbEntity
  8
上線
100
AcDbCircle
 10
780.8985173857954
 20
1134.864160390809
 30
0.0
 40
50.0
100
AcDbArc
 50
180.8184554616886
 51
270.0
  0
MTEXT
  5
11B2
330
1195
100
AcDbEntity
  8
0
  6
ByBlock
 62
     0
 48
10.0
100
AcDbMText
 10
348.4827013195463
 20
1034.864160390809
 30
0.0
 40
37.5
 41
0.0
 71
     5
 72
     1
  1
\A1;100
 11
0.0000000000000001
 21
1.0
 31
0.0
 73
     1
 44
1.0
  0
SOLID
  5
11B3
330
1195
100
AcDbEntity
  8
0
  6
ByBlock
 62
     0
 48
10.0
100
AcDbTrace
 10
370.3577013195463
 20
1022.36416039081
 30
0.0
 11
382.8577013195463
 21
1022.36416039081
 31
0.0
 12
376.6077013195463
 22
984.8641603908102
 32
0.0
 13
376.6077013195463
 23
984.8641603908102
 33
0.0
  0
LINE
  5
11B4
330
1195
100
AcDbEntity
  8
0
  6
ByBlock
 62
     0
 48
10.0
100
AcDbLine
 10
567.2327013195463
 20
984.8641603908102
 30
0.0
 11
357.8577013195463
 21
984.8641603908102
 31
0.0
  0
LINE
  5
11B5
330
1195
100
AcDbEntity
  8
0
  6
ByBlock
 62
     0
 48
10.0
100
AcDbLine
 10
576.6077013195463
 20
984.8641603908102
 30
0.0
 11
304.1077013195462
 21
984.8641603908102
 31
0.0
  0
LINE
  5
11B6
330
1195
100
AcDbEntity
  8
0
  6
ByBlock
 62
     0
 48
10.0
100
AcDbLine
 10
576.6077013195464
 20
984.8641603908102
 30
0.0
 11
304.1077013195463
 21
984.8641603908102
 31
0.0
  0
LINE
  5
11B7
330
1195
100
AcDbEntity
  8
0
  6
ByBlock
 62
     0
 48
10.0
100
AcDbLine
 10
499.5864182704645
 20
984.8641603908099
 30
0.0
 11
307.0055736475387
 21
984.8641603908099
 31
0.0
  0
POINT
  5
11B8
330
1195
100
AcDbEntity
  8
DEFPOINTS
  6
ByBlock
 62
     0
 48
10.0
100
AcDbPoint
 10
316.6077013195463
 20
984.8641603908102
 30
0.0
  0
POINT
  5
11B9
330
1195
100
AcDbEntity
  8
DEFPOINTS
  6
ByBlock
 62
     0
 48
10.0
100
AcDbPoint
 10
319.5055736475387
 20
984.8641603908099
 30
0.0
  0
POINT
  5
11BA
330
1195
100
AcDbEntity
  8
DEFPOINTS
  6
ByBlock
 62
     0
 48
10.0
100
AcDbPoint
 10
376.6077013195463
 20
984.8641603908102
 30
0.0
  0
LINE
  5
11BB
330
1195
100
AcDbEntity
  8
0
  6
ByBlock
 62
     0
 48
10.0
100
AcDbLine
 10
606.6077013195463
 20
945.4891603908102
 30
0.0
 11
606.6077013195463
 21
736.1141603908102
 31
0.0
  0
SOLID
  5
11BC
330
1195
100
AcDbEntity
  8
0
  6
ByBlock
 62
     0
 48
10.0
100
AcDbTrace
 10
644.1077013195463
 20
761.1141603908102
 30
0.0
 11
644.1077013195463
 21
748.6141603908102
 31
0.0
 12
606.6077013195463
 22
754.8641603908102
 32
0.0
 13
606.6077013195463
 23
754.8641603908102
 33
0.0
  0
POINT
  5
11BD
330
1195
100
AcDbEntity
  8
DEFPOINTS
  6
ByBlock
 62
     0
 48
10.0
100
AcDbPoint
 10
606.6077013195463
 20
754.8641603908102
 30
0.0
  0
LINE
  5
11BE
330
1195
100
AcDbEntity
  8
0
  6
ByBlock
 62
     0
 48
10.0
100
AcDbLine
 10
570.3909003286098
 20
984.8641603908099
 30
0.0
 11
471.4562910283439
 21
984.8641603908099
 31
0.0
  0
POINT
  5
11BF
330
1195
100
AcDbEntity
  8
DEFPOINTS
  6
ByBlock
 62
     0
 48
10.0
100
AcDbPoint
 10
483.9562910283439
 20
984.8641603908099
 30
0.0
  0
POINT
  5
11C0
330
1195
100
AcDbEntity
  8
DEFPOINTS
  6
ByBlock
 62
     0
 48
10.0
100
AcDbPoint
 10
576.6077013195463
 20
815.0241024768824
 30
0.0
  0
POINT
  5
11C1
330
1195
100
AcDbEntity
  8
DEFPOINTS
  6
ByBlock
 62
     0
 48
10.0
100
AcDbPoint
 10
576.6409003286098
 20
934.8641603908099
 30
0.0
  0
POINT
  5
11C2
330
1195
100
AcDbEntity
  8
DEFPOINTS
  6
ByBlock
 62
     0
 48
10.0
100
AcDbPoint
 10
606.6077013195463
 20
916.6584091020059
 30
0.0
  0
POINT
  5
11C3
330
1195
100
AcDbEntity
  8
DEFPOINTS
  6
ByBlock
 62
     0
 48
10.0
100
AcDbPoint
 10
636.6077013195463
 20
916.6584091020059
 30
0.0
  0
POINT
  5
11C4
330
1195
100
AcDbEntity
  8
DEFPOINTS
  6
ByBlock
 62
     0
 48
10.0
100
AcDbPoint
 10
636.6077013195463
 20
907.5896400427854
 30
0.0
  0
POINT
  5
11C5
330
1195
100
AcDbEntity
  8
DEFPOINTS
  6
ByBlock
 62
     0
 48
10.0
100
AcDbPoint
 10
576.6077013195463
 20
984.8641603908102
 30
0.0
  0
POINT
  5
11C6
330
1195
100
AcDbEntity
  8
DEFPOINTS
  6
ByBlock
 62
     0
 48
10.0
100
AcDbPoint
 10
586.6077013195463
 20
984.8641603908102
 30
0.0
  0
POINT
  5
11C7
330
1195
100
AcDbEntity
  8
DEFPOINTS
  6
ByBlock
 62
     0
 48
10.0
100
AcDbPoint
 10
570.3909003286098
 20
984.8641603908102
 30
0.0
  0
POINT
  5
11C8
330
1195
100
AcDbEntity
  8
DEFPOINTS
  6
ByBlock
 62
     0
 48
10.0
100
AcDbPoint
 10
576.6409003286098
 20
984.8641603908099
 30
0.0
  0
POINT
  5
11C9
330
1195
100
AcDbEntity
  8
DEFPOINTS
  6
ByBlock
 62
     0
 48
10.0
100
AcDbPoint
 10
606.6077013195463
 20
954.8641603908102
 30
0.0
  0
POINT
  5
11CA
330
1195
100
AcDbEntity
  8
DEFPOINTS
  6
ByBlock
 62
     0
 48
10.0
100
AcDbPoint
 10
606.6077013195463
 20
964.7399178968703
 30
0.0
  0
LINE
  5
11CB
330
1195
100
AcDbEntity
  8
上線
100
AcDbLine
 10
606.6077013195463
 20
994.8641603908102
 30
0.0
 11
616.6077013195462
 21
984.8641603908102
 31
0.0
  0
LINE
  5
11CC
330
1195
100
AcDbEntity
  8
0
  6
ByBlock
 62
     0
 48
10.0
100
AcDbLine
 10
567.2327013195463
 20
1084.864160390809
 30
0.0
 11
357.8577013195463
 21
1084.864160390809
 31
0.0
  0
LINE
  5
11CD
330
1195
100
AcDbEntity
  8
0
  6
ByBlock
 62
     0
 48
10.0
100
AcDbLine
 10
567.2327013195463
 20
1084.864160390809
 30
0.0
 11
357.8577013195463
 21
1084.864160390809
 31
0.0
  0
SOLID
  5
11CE
330
1195
100
AcDbEntity
  8
0
  6
ByBlock
 62
     0
 48
10.0
100
AcDbTrace
 10
370.3577013195463
 20
1122.364160390809
 30
0.0
 11
382.8577013195463
 21
1122.364160390809
 31
0.0
 12
376.6077013195463
 22
1084.864160390809
 32
0.0
 13
376.6077013195463
 23
1084.864160390809
 33
0.0
  0
SOLID
  5
11CF
330
1195
100
AcDbEntity
  8
0
  6
ByBlock
 62
     0
 48
10.0
100
AcDbTrace
 10
370.3577013195463
 20
1047.364160390809
 30
0.0
 11
382.8577013195463
 21
1047.364160390809
 31
0.0
 12
376.6077013195463
 22
1084.864160390809
 32
0.0
 13
376.6077013195463
 23
1084.864160390809
 33
0.0
  0
LINE
  5
11D0
330
1195
100
AcDbEntity
  8
0
  6
ByBlock
 62
     0
 48
10.0
100
AcDbLine
 10
376.6077013195463
 20
1047.364160390809
 30
0.0
 11
376.6077013195463
 21
1022.36416039081
 31
0.0
  0
POINT
  5
11D1
330
1195
100
AcDbEntity
  8
DEFPOINTS
  6
ByBlock
 62
     0
 48
10.0
100
AcDbPoint
 10
376.6077013195463
 20
1084.864160390809
 30
0.0
  0
MTEXT
  5
11D2
330
1195
100
AcDbEntity
  8
0
  6
ByBlock
 62
     0
 48
10.0
100
AcDbMText
 10
348.4827013195463
 20
1334.86416039081
 30
0.0
 40
37.5
 41
0.0
 71
     5
 72
     1
  1
\A1;500
 11
0.0000000000000001
 21
1.0
 31
0.0
 73
     1
 44
1.0
  0
LINE
  5
11D3
330
1195
100
AcDbEntity
  8
0
  6
ByBlock
 62
     0
 48
10.0
100
AcDbLine
 10
576.6077013195463
 20
1084.864160390809
 30
0.0
 11
424.1077019175418
 21
1084.864160390809
 31
0.0
  0
POINT
  5
11D4
330
1195
100
AcDbEntity
  8
DEFPOINTS
  6
ByBlock
 62
     0
 48
10.0
100
AcDbPoint
 10
436.6077019175418
 20
1084.864160390809
 30
0.0
  0
POINT
  5
11D5
330
1195
100
AcDbEntity
  8
DEFPOINTS
  6
ByBlock
 62
     0
 48
10.0
100
AcDbPoint
 10
576.6077013195463
 20
1084.864160390809
 30
0.0
  0
POINT
  5
11D6
330
1195
100
AcDbEntity
  8
DEFPOINTS
  6
ByBlock
 62
     0
 48
10.0
100
AcDbPoint
 10
576.6077013195463
 20
1084.864160390809
 30
0.0
  0
POINT
  5
11D7
330
1195
100
AcDbEntity
  8
DEFPOINTS
  6
ByBlock
 62
     0
 48
10.0
100
AcDbPoint
 10
586.1043958516283
 20
1084.864160390809
 30
0.0
  0
POINT
  5
11D8
330
1195
100
AcDbEntity
  8
DEFPOINTS
  6
ByBlock
 62
     0
 48
10.0
100
AcDbPoint
 10
586.1043958516283
 20
1324.86416039081
 30
0.0
  0
POINT
  5
11D9
330
1195
100
AcDbEntity
  8
DEFPOINTS
  6
ByBlock
 62
     0
 48
10.0
100
AcDbPoint
 10
576.6409003286098
 20
1384.86416039081
 30
0.0
  0
POINT
  5
11DA
330
1195
100
AcDbEntity
  8
DEFPOINTS
  6
ByBlock
 62
     0
 48
10.0
100
AcDbPoint
 10
570.3909003286098
 20
1424.86416039081
 30
0.0
  0
POINT
  5
11DB
330
1195
100
AcDbEntity
  8
DEFPOINTS
  6
ByBlock
 62
     0
 48
10.0
100
AcDbPoint
 10
576.6409003286098
 20
1434.86416039081
 30
0.0
  0
POINT
  5
11DC
330
1195
100
AcDbEntity
  8
DEFPOINTS
  6
ByBlock
 62
     0
 48
10.0
100
AcDbPoint
 10
606.6077013195463
 20
1464.148746435695
 30
0.0
  0
LINE
  5
11DD
330
1195
100
AcDbEntity
  8
0
  6
ByBlock
 62
     0
 48
10.0
100
AcDbLine
 10
1316.607701319546
 20
1014.86416039081
 30
0.0
 11
1316.607701319546
 21
984.8641603908102
 31
0.0
  0
LINE
  5
11DE
330
1195
100
AcDbEntity
  8
中心線
100
AcDbLine
 10
846.1913239347159
 20
1163.583947253955
 30
0.0
 11
846.1913239347159
 21
710.7325259635054
 31
0.0
  0
LINE
  5
11DF
330
1195
100
AcDbEntity
  8
上線
100
AcDbLine
 10
1086.607701319546
 20
994.8641603908097
 30
0.0
 11
1086.607701319546
 21
1034.864160390809
 31
0.0
  0
SOLID
  5
11E0
330
1195
100
AcDbEntity
  8
0
  6
ByBlock
 62
     0
 48
10.0
100
AcDbTrace
 10
1019.107701319546
 20
761.1141603908102
 30
0.0
 11
1019.107701319546
 21
748.6141603908102
 31
0.0
 12
1056.607701319546
 22
754.8641603908102
 32
0.0
 13
1056.607701319546
 23
754.8641603908102
 33
0.0
  0
DIMENSION
  5
11E1
330
1195
100
AcDbEntity
  8
上線
 48
10.0
100
AcDbDimension
  2
*D2
 10
1086.607701319546
 20
754.8641603908102
 30
0.0
 11
1194.99955525213
 21
782.9891603908102
 31
0.0
 12
-13.18798962554865
 22
-15.17912873967543
 32
0.0
 71
     5
 42
-1.0
  3
STANDARD
100
AcDbAlignedDimension
 13
1056.607701319546
 23
954.8641603908102
 33
0.0
 14
1086.607701319546
 24
954.8641603908102
 34
0.0
100
AcDbRotatedDimension
1001
ACAD
1000
DSTYLE
1002
{
1070
    40
1040
15.0
1070
    41
1040
2.5
1070
    42
1040
0.625
1070
    43
1040
3.75
1070
    44
1040
1.25
1070
    73
1070
     0
1070
    74
1070
     0
1070
    77
1070
     1
1070
    78
1070
     8
1070
   140
1040
2.5
1070
   141
1040
2.5
1070
   143
1040
0.0394
1070
   147
1040
0.625
1070
   171
1070
     4
1070
   172
1070
     1
1070
   273
1070
     8
1070
   274
1070
     4
1070
   277
1070
     6
1002
}
  0
MTEXT
  5
11E2
330
1195
100
AcDbEntity
  8
0
  6
ByBlock
 62
     0
 48
10.0
100
AcDbMText
 10
951.3995126271311
 20
814.2391603908102
 30
0.0
 40
37.5
 41
0.0
 71
     5
 72
     1
  1
\A1;2@210\P=420
 73
     1
 44
1.0
  0
LINE
  5
11E3
330
1195
100
AcDbEntity
  8
0
  6
ByBlock
 62
     0
 48
10.0
100
AcDbLine
 10
1019.107701319546
 20
754.8641603908102
 30
0.0
 11
846.1913239347158
 21
754.8641603908102
 31
0.0
  0
MTEXT
  5
11E4
330
1195
100
AcDbEntity
  8
上線
 48
10.0
100
AcDbMText
 10
818.7238969783519
 20
677.4427005937805
 30
0.0
 40
40.0
 41
0.0
 71
     4
 72
     1
  1
￡
 73
     1
 44
1.0
  0
POINT
  5
11E5
330
1195
100
AcDbEntity
  8
DEFPOINTS
  6
ByBlock
 62
     0
 48
10.0
100
AcDbPoint
 10
846.1913239347159
 20
754.8641603908102
 30
0.0
  0
POINT
  5
11E6
330
1195
100
AcDbEntity
  8
DEFPOINTS
  6
ByBlock
 62
     0
 48
10.0
100
AcDbPoint
 10
846.1913239347159
 20
790.2220197201891
 30
0.0
  0
POINT
  5
11E7
330
1195
100
AcDbEntity
  8
DEFPOINTS
  6
ByBlock
 62
     0
 48
10.0
100
AcDbPoint
 10
846.1913239347159
 20
954.8641603908102
 30
0.0
  0
POINT
  5
11E8
330
1195
100
AcDbEntity
  8
DEFPOINTS
  6
ByBlock
 62
     0
 48
10.0
100
AcDbPoint
 10
846.1913239347159
 20
954.8641603908103
 30
0.0
  0
POINT
  5
11E9
330
1195
100
AcDbEntity
  8
DEFPOINTS
  6
ByBlock
 62
     0
 48
10.0
100
AcDbPoint
 10
846.1913239347159
 20
964.7399178968703
 30
0.0
  0
LINE
  5
11EA
330
1195
100
AcDbEntity
  8
0
  6
ByBlock
 62
     0
 48
10.0
100
AcDbLine
 10
1056.607701319546
 20
945.4891603908102
 30
0.0
 11
1056.607701319546
 21
736.1141603908102
 31
0.0
  0
LINE
  5
11EB
330
1195
100
AcDbEntity
  8
0
  6
ByBlock
 62
     0
 48
10.0
100
AcDbLine
 10
1116.607701319546
 20
984.8641603908102
 30
0.0
 11
1335.357701319546
 21
984.8641603908102
 31
0.0
  0
POINT
  5
11EC
330
1195
100
AcDbEntity
  8
DEFPOINTS
  6
ByBlock
 62
     0
 48
10.0
100
AcDbPoint
 10
1056.607701319546
 20
954.8641603908102
 30
0.0
  0
LINE
  5
11ED
330
1195
100
AcDbEntity
  8
上線
100
AcDbLine
 10
1086.607701319546
 20
994.8641603908097
 30
0.0
 11
1076.607701319546
 21
984.8641603908097
 31
0.0
  0
POINT
  5
11EE
330
1195
100
AcDbEntity
  8
DEFPOINTS
  6
ByBlock
 62
     0
 48
10.0
100
AcDbPoint
 10
1116.607701319546
 20
984.8641603908102
 30
0.0
  0
POINT
  5
11EF
330
1195
100
AcDbEntity
  8
DEFPOINTS
  6
ByBlock
 62
     0
 48
10.0
100
AcDbPoint
 10
1106.607701319546
 20
984.8641603908102
 30
0.0
  0
POINT
  5
11F0
330
1195
100
AcDbEntity
  8
DEFPOINTS
  6
ByBlock
 62
     0
 48
10.0
100
AcDbPoint
 10
1116.607701319546
 20
954.5045224803027
 30
0.0
  0
POINT
  5
11F1
330
1195
100
AcDbEntity
  8
DEFPOINTS
  6
ByBlock
 62
     0
 48
10.0
100
AcDbPoint
 10
1146.191323934716
 20
918.5643397742078
 30
0.0
  0
POINT
  5
11F2
330
1195
100
AcDbEntity
  8
DEFPOINTS
  6
ByBlock
 62
     0
 48
10.0
100
AcDbPoint
 10
1208.11327626141
 20
934.8641603908099
 30
0.0
  0
POINT
  5
11F3
330
1195
100
AcDbEntity
  8
DEFPOINTS
  6
ByBlock
 62
     0
 48
10.0
100
AcDbPoint
 10
1208.11327626141
 20
1004.86416039081
 30
0.0
  0
POINT
  5
11F4
330
1195
100
AcDbEntity
  8
DEFPOINTS
  6
ByBlock
 62
     0
 48
10.0
100
AcDbPoint
 10
1208.11327626141
 20
1004.86416039081
 30
0.0
  0
POINT
  5
11F5
330
1195
100
AcDbEntity
  8
DEFPOINTS
  6
ByBlock
 62
     0
 48
10.0
100
AcDbPoint
 10
1208.11327626141
 20
964.8641603908099
 30
0.0
  0
POINT
  5
11F6
330
1195
100
AcDbEntity
  8
DEFPOINTS
  6
ByBlock
 62
     0
 48
10.0
100
AcDbPoint
 10
1208.11327626141
 20
964.8641603908099
 30
0.0
  0
MTEXT
  5
11F7
330
1195
100
AcDbEntity
  8
0
  6
ByBlock
 62
     0
 48
10.0
100
AcDbMText
 10
1288.482701319546
 20
876.4723064582259
 30
0.0
 40
37.5
 41
0.0
 71
     5
 72
     1
  1
\A1;30
 11
0.0000000000000001
 21
1.0
 31
0.0
 73
     1
 44
1.0
  0
LINE
  5
11F8
330
1195
100
AcDbEntity
  8
0
  6
ByBlock
 62
     0
 48
10.0
100
AcDbLine
 10
1316.607701319546
 20
947.3641603908102
 30
0.0
 11
1316.607701319546
 21
843.0804525256416
 31
0.0
  0
POINT
  5
11F9
330
1195
100
AcDbEntity
  8
DEFPOINTS
  6
ByBlock
 62
     0
 48
10.0
100
AcDbPoint
 10
1256.607701319546
 20
984.8641603908102
 30
0.0
  0
SOLID
  5
11FA
330
1195
100
AcDbEntity
  8
0
  6
ByBlock
 62
     0
 48
10.0
100
AcDbTrace
 10
1310.357701319546
 20
947.3641603908102
 30
0.0
 11
1322.857701319546
 21
947.3641603908102
 31
0.0
 12
1316.607701319546
 22
984.8641603908102
 32
0.0
 13
1316.607701319546
 23
984.8641603908102
 33
0.0
  0
POINT
  5
11FB
330
1195
100
AcDbEntity
  8
DEFPOINTS
  6
ByBlock
 62
     0
 48
10.0
100
AcDbPoint
 10
1316.607701319546
 20
984.8641603908102
 30
0.0
  0
LWPOLYLINE
  5
11FC
330
1195
100
AcDbEntity
  8
上線
 48
10.0
100
AcDbPolyline
 90
        2
 70
     1
 43
5.0
 10
1049.049962236255
 20
1334.452938555406
 42
1.0
 10
1054.049962236254
 20
1334.452938555406
 42
1.0
  0
LWPOLYLINE
  5
11FD
330
1195
100
AcDbEntity
  8
上線
 48
10.0
100
AcDbPolyline
 90
        2
 70
     1
 43
5.0
 10
1049.049962236255
 20
1019.718350451964
 42
1.0
 10
1054.049962236254
 20
1019.718350451964
 42
1.0
  0
LINE
  5
11FE
330
1195
100
AcDbEntity
  8
上線
 48
10.0
100
AcDbLine
 10
1056.607701319546
 20
1014.864160390809
 30
0.0
 11
846.1913239347159
 21
1014.864160390809
 31
0.0
  0
DIMENSION
  5
11FF
330
1195
100
AcDbEntity
  8
上線
 48
10.0
100
AcDbDimension
  2
*D3
 10
961.6077013195463
 20
1314.818889617468
 30
0.0
 11
846.6077013195462
 21
1342.943889617468
 31
0.0
 12
-13.18798962554865
 22
-15.17912873967543
 32
0.0
 71
     5
 42
-1.0
  3
STANDARD
100
AcDbAlignedDimension
 13
731.6077013195463
 23
1170.624743346295
 33
0.0
 14
961.6077013195463
 24
1170.624743346295
 34
0.0
100
AcDbRotatedDimension
1001
ACAD
1000
DSTYLE
1002
{
1070
    40
1040
15.0
1070
    41
1040
2.5
1070
    42
1040
0.625
1070
    43
1040
3.75
1070
    44
1040
1.25
1070
    73
1070
     0
1070
    74
1070
     0
1070
    77
1070
     1
1070
    78
1070
     8
1070
   140
1040
2.5
1070
   141
1040
2.5
1070
   143
1040
0.0394
1070
   147
1040
0.625
1070
   171
1070
     4
1070
   172
1070
     1
1070
   273
1070
     8
1070
   274
1070
     4
1070
   277
1070
     6
1002
}
  0
LINE
  5
1200
330
1195
100
AcDbEntity
  8
0
  6
ByBlock
 62
     0
 48
10.0
100
AcDbLine
 10
961.6077013195463
 20
1170.624743346295
 30
0.0
 11
961.6077013195463
 21
1327.318889617468
 31
0.0
  0
LINE
  5
1201
330
1195
100
AcDbEntity
  8
0
  6
ByBlock
 62
     0
 48
10.0
100
AcDbLine
 10
731.6077013195463
 20
1170.624743346295
 30
0.0
 11
731.6077013195463
 21
1327.318889617468
 31
0.0
  0
MTEXT
  5
1202
102
{ACAD_REACTORS
330
1203
102
}
330
1195
100
AcDbEntity
  8
上線
 48
10.0
100
AcDbMText
 10
839.1077087887296
 20
1218.214634408747
 30
0.0
 40
35.0
 41
0.0
 71
     4
 72
     1
  1
\A1;\fＭＳ Ｐ明朝|b0|i0|c128|p18;R=50
 73
     1
 44
1.0
  0
LEADER
  5
1203
330
1195
100
AcDbEntity
  8
上線
 48
10.0
100
AcDbLeader
  3
STANDARD
 73
     0
 74
     0
 75
     1
 40
35.0
 41
100.8707865168539
 76
     3
 10
748.9143423839395
 20
1099.256119648987
 30
0.0
 10
807.8577087887296
 20
1194.464634408747
 30
0.0
 10
832.8577087887296
 20
1194.464634408747
 30
0.0
340
1202
1001
ACAD
1000
DSTYLE
1002
{
1070
    78
1070
     8
1070
   270
1070
     8
1070
   140
1040
2.5
1070
    74
1070
     0
1070
   172
1070
     1
1070
    73
1070
     0
1070
    77
1070
     1
1070
    40
1040
10.0
1070
   147
1040
0.625
1070
    42
1040
0.625
1070
    44
1040
1.25
1070
    43
1040
3.75
1070
   141
1040
2.5
1070
    41
1040
2.5
1070
   273
1070
     8
1070
   274
1070
     4
1070
   143
1040
0.0394
1070
   171
1070
     4
1002
}
  0
LINE
  5
1204
330
1195
100
AcDbEntity
  8
上線
100
AcDbLine
 10
912.3168852532971
 20
1084.864160390809
 30
0.0
 11
780.8985173857954
 21
1084.864160390809
 31
0.0
  0
LINE
  5
1205
330
1195
100
AcDbEntity
  8
上線
 48
10.0
100
AcDbLine
 10
770.9199954694631
 20
1074.86416039081
 30
0.0
 11
846.1913239347159
 21
1074.86416039081
 31
0.0
  0
LWPOLYLINE
  5
1206
330
1195
100
AcDbEntity
  8
上線
 48
10.0
100
AcDbPolyline
 90
        2
 70
     1
 43
5.0
 10
843.3990995842268
 20
1019.718350451964
 42
1.0
 10
848.3990995842269
 20
1019.718350451964
 42
1.0
  0
POINT
  5
1207
330
1195
100
AcDbEntity
  8
DEFPOINTS
  6
ByBlock
 62
     0
 48
10.0
100
AcDbPoint
 10
731.6077013195463
 20
1131.248967161736
 30
0.0
  0
ARC
  5
1208
330
1195
100
AcDbEntity
  8
上線
100
AcDbCircle
 10
912.3168852532971
 20
1134.86416039081
 30
0.0
 40
50.0
100
AcDbArc
 50
270.0
 51
359.1815445383113
  0
POINT
  5
1209
330
1195
100
AcDbEntity
  8
DEFPOINTS
  6
ByBlock
 62
     0
 48
10.0
100
AcDbPoint
 10
1021.607701319546
 20
1131.248967161736
 30
0.0
  0
LINE
  5
120A
330
1195
100
AcDbEntity
  8
0
  6
ByBlock
 62
     0
 48
10.0
100
AcDbLine
 10
756.6077013195463
 20
1314.818889617468
 30
0.0
 11
961.6077013195463
 21
1314.818889617468
 31
0.0
  0
SOLID
  5
120B
330
1195
100
AcDbEntity
  8
0
  6
ByBlock
 62
     0
 48
10.0
100
AcDbTrace
 10
756.6077013195463
 20
1318.985556284135
 30
0.0
 11
756.6077013195463
 21
1310.652222950802
 31
0.0
 12
731.6077013195463
 22
1314.818889617468
 32
0.0
 13
731.6077013195463
 23
1314.818889617468
 33
0.0
  0
LINE
  5
120C
330
1195
100
AcDbEntity
  8
上線
100
AcDbLine
 10
726.6077013195463
 20
1384.86416039081
 30
0.0
 11
726.6077013195463
 21
1384.86416039081
 31
0.0
  0
SOLID
  5
120D
330
1195
100
AcDbEntity
  8
0
  6
ByBlock
 62
     0
 48
10.0
100
AcDbTrace
 10
936.6077013195463
 20
1318.985556284135
 30
0.0
 11
936.6077013195463
 21
1310.652222950802
 31
0.0
 12
961.6077013195463
 22
1314.818889617468
 32
0.0
 13
961.6077013195463
 23
1314.818889617468
 33
0.0
  0
POINT
  5
120E
330
1195
100
AcDbEntity
  8
DEFPOINTS
  6
ByBlock
 62
     0
 48
10.0
100
AcDbPoint
 10
1021.607701319546
 20
1281.693113432909
 30
0.0
  0
LINE
  5
120F
330
1195
100
AcDbEntity
  8
上線
100
AcDbLine
 10
1026.607701319546
 20
1384.86416039081
 30
0.0
 11
1026.607701319546
 21
1384.86416039081
 31
0.0
  0
MTEXT
  5
1210
330
1195
100
AcDbEntity
  8
0
  6
ByBlock
 62
     0
 48
10.0
100
AcDbMText
 10
1288.482701319546
 20
1334.86416039081
 30
0.0
 40
37.5
 41
0.0
 71
     5
 72
     1
  1
\A1;2@320=640
 11
0.0000000000000001
 21
1.0
 31
0.0
 73
     1
 44
1.0
  0
LINE
  5
1211
330
1195
100
AcDbEntity
  8
0
  6
ByBlock
 62
     0
 48
10.0
100
AcDbLine
 10
1116.607701319546
 20
1014.86416039081
 30
0.0
 11
1335.357701319546
 21
1014.86416039081
 31
0.0
  0
LINE
  5
1212
330
1195
100
AcDbEntity
  8
0
  6
ByBlock
 62
     0
 48
10.0
100
AcDbLine
 10
1125.982701319546
 20
1014.86416039081
 30
0.0
 11
1335.357701319546
 21
1014.86416039081
 31
0.0
  0
LINE
  5
1213
330
1195
100
AcDbEntity
  8
0
  6
ByBlock
 62
     0
 48
10.0
100
AcDbLine
 10
1119.107701319546
 20
1014.86416039081
 30
0.0
 11
1269.107701319546
 21
1014.86416039081
 31
0.0
  0
POINT
  5
1214
330
1195
100
AcDbEntity
  8
DEFPOINTS
  6
ByBlock
 62
     0
 48
10.0
100
AcDbPoint
 10
1116.607701319546
 20
1014.86416039081
 30
0.0
  0
POINT
  5
1215
330
1195
100
AcDbEntity
  8
DEFPOINTS
  6
ByBlock
 62
     0
 48
10.0
100
AcDbPoint
 10
1116.607701319546
 20
1014.86416039081
 30
0.0
  0
POINT
  5
1216
330
1195
100
AcDbEntity
  8
DEFPOINTS
  6
ByBlock
 62
     0
 48
10.0
100
AcDbPoint
 10
1106.607701319546
 20
1014.86416039081
 30
0.0
  0
POINT
  5
1217
330
1195
100
AcDbEntity
  8
DEFPOINTS
  6
ByBlock
 62
     0
 48
10.0
100
AcDbPoint
 10
1106.607701319546
 20
1014.86416039081
 30
0.0
  0
POINT
  5
1218
330
1195
100
AcDbEntity
  8
DEFPOINTS
  6
ByBlock
 62
     0
 48
10.0
100
AcDbPoint
 10
1112.857701319546
 20
1014.86416039081
 30
0.0
  0
POINT
  5
1219
330
1195
100
AcDbEntity
  8
DEFPOINTS
  6
ByBlock
 62
     0
 48
10.0
100
AcDbPoint
 10
1180.530003443724
 20
1054.864160390809
 30
0.0
  0
POINT
  5
121A
330
1195
100
AcDbEntity
  8
DEFPOINTS
  6
ByBlock
 62
     0
 48
10.0
100
AcDbPoint
 10
1208.11327626141
 20
1034.864160390809
 30
0.0
  0
LINE
  5
121B
330
1195
100
AcDbEntity
  8
0
  6
ByBlock
 62
     0
 48
10.0
100
AcDbLine
 10
1316.607701319546
 20
1052.36416039081
 30
0.0
 11
1316.607701319546
 21
1089.86416039081
 31
0.0
  0
POINT
  5
121C
330
1195
100
AcDbEntity
  8
DEFPOINTS
  6
ByBlock
 62
     0
 48
10.0
100
AcDbPoint
 10
1316.607701319546
 20
1014.86416039081
 30
0.0
  0
SOLID
  5
121D
330
1195
100
AcDbEntity
  8
0
  6
ByBlock
 62
     0
 48
10.0
100
AcDbTrace
 10
1310.357701319546
 20
1052.36416039081
 30
0.0
 11
1322.857701319546
 21
1052.36416039081
 31
0.0
 12
1316.607701319546
 22
1014.86416039081
 32
0.0
 13
1316.607701319546
 23
1014.86416039081
 33
0.0
  0
SOLID
  5
121E
330
1195
100
AcDbEntity
  8
0
  6
ByBlock
 62
     0
 48
10.0
100
AcDbTrace
 10
1310.357701319546
 20
1052.36416039081
 30
0.0
 11
1322.857701319546
 21
1052.36416039081
 31
0.0
 12
1316.607701319546
 22
1014.86416039081
 32
0.0
 13
1316.607701319546
 23
1014.86416039081
 33
0.0
  0
POINT
  5
121F
330
1195
100
AcDbEntity
  8
DEFPOINTS
  6
ByBlock
 62
     0
 48
10.0
100
AcDbPoint
 10
1334.503697803906
 20
1054.864160390809
 30
0.0
  0
LINE
  5
1220
330
1195
100
AcDbEntity
  8
上線
100
AcDbLine
 10
1076.607701319546
 20
1384.86416039081
 30
0.0
 11
1076.607701319546
 21
1384.86416039081
 31
0.0
  0
POINT
  5
1221
330
1195
100
AcDbEntity
  8
DEFPOINTS
  6
ByBlock
 62
     0
 48
10.0
100
AcDbPoint
 10
1106.607701319546
 20
1394.86416039081
 30
0.0
  0
POINT
  5
1222
330
1195
100
AcDbEntity
  8
DEFPOINTS
  6
ByBlock
 62
     0
 48
10.0
100
AcDbPoint
 10
1112.857701319546
 20
1394.864160390809
 30
0.0
  0
POINT
  5
1223
330
1195
100
AcDbEntity
  8
DEFPOINTS
  6
ByBlock
 62
     0
 48
10.0
100
AcDbPoint
 10
1086.607701319546
 20
1464.148746435695
 30
0.0
  0
POINT
  5
1224
330
1195
100
AcDbEntity
  8
DEFPOINTS
  6
ByBlock
 62
     0
 48
10.0
100
AcDbPoint
 10
1106.607701319546
 20
1424.86416039081
 30
0.0
  0
POINT
  5
1225
330
1195
100
AcDbEntity
  8
DEFPOINTS
  6
ByBlock
 62
     0
 48
10.0
100
AcDbPoint
 10
1180.530003443724
 20
1454.86416039081
 30
0.0
  0
LINE
  5
1226
330
1195
100
AcDbEntity
  8
上線
 48
10.0
100
AcDbLine
 10
1683.77061006034
 20
1424.86416039081
 30
0.0
 11
1683.77061006034
 21
984.8641603908102
 31
0.0
  0
DIMENSION
  5
1227
330
1195
100
AcDbEntity
  8
上線
 48
10.0
100
AcDbDimension
  2
*D6
 10
1967.77061006034
 20
754.8641603908101
 30
0.0
 11
1835.770610060341
 21
782.9891603908101
 31
0.0
 12
-13.18798962554865
 22
-15.17912873967543
 32
0.0
 71
     5
 42
-1.0
  3
STANDARD
100
AcDbAlignedDimension
 13
1703.77061006034
 23
954.8641603908102
 33
0.0
 14
1967.77061006034
 24
954.8641603908102
 34
0.0
100
AcDbRotatedDimension
1001
ACAD
1000
DSTYLE
1002
{
1070
    40
1040
15.0
1070
    41
1040
2.5
1070
    42
1040
0.625
1070
    43
1040
3.75
1070
    44
1040
1.25
1070
    73
1070
     0
1070
    74
1070
     0
1070
    77
1070
     1
1070
    78
1070
     8
1070
   140
1040
2.5
1070
   141
1040
2.5
1070
   143
1040
0.0394
1070
   147
1040
0.625
1070
   171
1070
     4
1070
   172
1070
     1
1070
   273
1070
     8
1070
   274
1070
     4
1070
   277
1070
     6
1002
}
  0
DIMENSION
  5
1228
330
1195
100
AcDbEntity
  8
上線
 48
10.0
100
AcDbDimension
  2
*D5
 10
1683.77061006034
 20
754.8641603908101
 30
0.0
 11
1575.168081970453
 21
782.9891603908101
 31
0.0
 12
-13.18798962554865
 22
-15.17912873967543
 32
0.0
 71
     5
 42
-1.0
  3
STANDARD
100
AcDbAlignedDimension
 13
1703.77061006034
 23
954.8641603908102
 33
0.0
 14
1683.77061006034
 24
954.8641603908102
 34
0.0
100
AcDbRotatedDimension
1001
ACAD
1000
DSTYLE
1002
{
1070
    40
1040
15.0
1070
    41
1040
2.5
1070
    42
1040
0.625
1070
    43
1040
3.75
1070
    44
1040
1.25
1070
    73
1070
     0
1070
    74
1070
     0
1070
    77
1070
     1
1070
    78
1070
     8
1070
   140
1040
2.5
1070
   141
1040
2.5
1070
   143
1040
0.0394
1070
   147
1040
0.625
1070
   171
1070
     4
1070
   172
1070
     1
1070
   273
1070
     8
1070
   274
1070
     4
1070
   277
1070
     6
1002
}
  0
POINT
  5
1229
330
1195
100
AcDbEntity
  8
DEFPOINTS
  6
ByBlock
 62
     0
 48
10.0
100
AcDbPoint
 10
1673.744292788706
 20
763.6069605625534
 30
0.0
  0
LINE
  5
122A
330
1195
100
AcDbEntity
  8
0
  6
ByBlock
 62
     0
 48
10.0
100
AcDbLine
 10
1683.77061006034
 20
954.8641603908102
 30
0.0
 11
1683.77061006034
 21
802.3641498746245
 31
0.0
  0
LINE
  5
122B
330
1195
100
AcDbEntity
  8
0
  6
ByBlock
 62
     0
 48
10.0
100
AcDbLine
 10
1703.770610060341
 20
954.8641603908102
 30
0.0
 11
1703.77061006034
 21
802.3641498746245
 31
0.0
  0
LINE
  5
122C
330
1195
100
AcDbEntity
  8
0
  6
ByBlock
 62
     0
 48
10.0
100
AcDbLine
 10
1703.77061006034
 20
925.7321987238819
 30
0.0
 11
1703.77061006034
 21
802.3641498746245
 31
0.0
  0
POINT
  5
122D
330
1195
100
AcDbEntity
  8
DEFPOINTS
  6
ByBlock
 62
     0
 48
10.0
100
AcDbPoint
 10
1683.77061006034
 20
814.8641498746245
 30
0.0
  0
POINT
  5
122E
330
1195
100
AcDbEntity
  8
DEFPOINTS
  6
ByBlock
 62
     0
 48
10.0
100
AcDbPoint
 10
1683.77061006034
 20
909.0760987238821
 30
0.0
  0
POINT
  5
122F
330
1195
100
AcDbEntity
  8
DEFPOINTS
  6
ByBlock
 62
     0
 48
10.0
100
AcDbPoint
 10
1703.77061006034
 20
909.0760987238821
 30
0.0
  0
POINT
  5
1230
330
1195
100
AcDbEntity
  8
DEFPOINTS
  6
ByBlock
 62
     0
 48
10.0
100
AcDbPoint
 10
1703.77061006034
 20
909.0760987238821
 30
0.0
  0
POINT
  5
1231
330
1195
100
AcDbEntity
  8
DEFPOINTS
  6
ByBlock
 62
     0
 48
10.0
100
AcDbPoint
 10
1693.744292788705
 20
911.4965773594651
 30
0.0
  0
LINE
  5
1232
330
1195
100
AcDbEntity
  8
0
  6
ByBlock
 62
     0
 48
10.0
100
AcDbLine
 10
1967.77061006034
 20
954.8641603908102
 30
0.0
 11
1967.77061006034
 21
802.3641498746245
 31
0.0
  0
POINT
  5
1233
330
1195
100
AcDbEntity
  8
DEFPOINTS
  6
ByBlock
 62
     0
 48
10.0
100
AcDbPoint
 10
1967.77061006034
 20
814.8641498746245
 30
0.0
  0
POINT
  5
1234
330
1195
100
AcDbEntity
  8
DEFPOINTS
  6
ByBlock
 62
     0
 48
10.0
100
AcDbPoint
 10
1967.77061006034
 20
909.0760987238821
 30
0.0
  0
POINT
  5
1235
330
1195
100
AcDbEntity
  8
DEFPOINTS
  6
ByBlock
 62
     0
 48
10.0
100
AcDbPoint
 10
1957.744292788706
 20
911.4965773594651
 30
0.0
  0
POINT
  5
1236
330
1195
100
AcDbEntity
  8
DEFPOINTS
  6
ByBlock
 62
     0
 48
10.0
100
AcDbPoint
 10
1683.77061006034
 20
1451.11416039081
 30
0.0
  0
SOLID
  5
1237
330
1195
100
AcDbEntity
  8
上線
 48
10.0
100
AcDbTrace
 10
1970.931261305464
 20
1096.314789055169
 30
0.0
 11
1967.860054905988
 21
1121.472865340189
 31
0.0
 12
1978.924626241175
 22
1098.670752010946
 32
0.0
 13
1978.924626241175
 23
1098.670752010946
 33
0.0
1001
ACAD
1000
DSTYLE
1002
{
1070
    78
1070
     8
1070
   270
1070
     8
1070
   140
1040
2.5
1070
    74
1070
     0
1070
   172
1070
     1
1070
    73
1070
     0
1070
    77
1070
     1
1070
    40
1040
10.0
1070
   147
1040
0.625
1070
    42
1040
0.625
1070
    44
1040
1.25
1070
    43
1040
3.75
1070
   141
1040
2.5
1070
    41
1040
2.5
1070
   273
1070
     8
1070
   274
1070
     4
1070
   143
1040
0.0394
1070
   171
1070
     4
1002
}
  0
LINE
  5
1238
330
1195
100
AcDbEntity
  8
0
  6
ByBlock
 62
     0
 48
10.0
100
AcDbLine
 10
676.6077013195464
 20
1914.864160390809
 30
0.0
 11
751.6077013195463
 21
1914.864160390809
 31
0.0
  0
LINE
  5
1239
330
1195
100
AcDbEntity
  8
0
  6
ByBlock
 62
     0
 48
10.0
100
AcDbLine
 10
644.1077013195463
 20
2064.864160390809
 30
0.0
 11
1049.107701319546
 21
2064.864160390809
 31
0.0
  0
LINE
  5
123A
330
1195
100
AcDbEntity
  8
上線
 48
10.0
100
AcDbLine
 10
727.3219870338325
 20
1584.86416039081
 30
0.0
 11
676.6077013195463
 21
1584.86416039081
 31
0.0
  0
TEXT
  5
123B
330
1195
100
AcDbEntity
  8
点線
 62
     0
100
AcDbText
 10
684.1000754358101
 20
1969.098061110153
 30
0.0
 40
37.5
  1
50
100
AcDbText
  0
MTEXT
  5
123C
330
1195
100
AcDbEntity
  8
0
  6
ByBlock
 62
     0
 48
10.0
100
AcDbMText
 10
641.6077013195462
 20
1942.989160390809
 30
0.0
 40
37.5
 41
0.0
 71
     5
 72
     1
  1
\A1;70
 73
     1
 44
1.0
  0
LINE
  5
123D
330
1195
100
AcDbEntity
  8
0
  6
ByBlock
 62
     0
 48
10.0
100
AcDbLine
 10
606.6077013195463
 20
1724.239160390809
 30
0.0
 11
606.6077013195463
 21
2083.61416039081
 31
0.0
  0
LINE
  5
123E
330
1195
100
AcDbEntity
  8
0
  6
ByBlock
 62
     0
 48
10.0
100
AcDbLine
 10
570.9827013195463
 20
1684.86416039081
 30
0.0
 11
357.8577013195463
 21
1684.86416039081
 31
0.0
  0
LINE
  5
123F
330
1195
100
AcDbEntity
  8
0
  6
ByBlock
 62
     0
 48
10.0
100
AcDbLine
 10
576.6077013195464
 20
1584.86416039081
 30
0.0
 11
357.8577013195463
 21
1584.86416039081
 31
0.0
  0
LINE
  5
1240
330
1195
100
AcDbEntity
  8
0
  6
ByBlock
 62
     0
 48
10.0
100
AcDbLine
 10
561.6077013195463
 20
1584.86416039081
 30
0.0
 11
357.8577013195463
 21
1584.86416039081
 31
0.0
  0
LINE
  5
1241
330
1195
100
AcDbEntity
  8
0
  6
ByBlock
 62
     0
 48
10.0
100
AcDbLine
 10
580.3577013195463
 20
1684.86416039081
 30
0.0
 11
304.1077013195462
 21
1684.86416039081
 31
0.0
  0
SOLID
  5
1242
330
1195
100
AcDbEntity
  8
0
  6
ByBlock
 62
     0
 48
10.0
100
AcDbTrace
 10
370.3577013195463
 20
1622.36416039081
 30
0.0
 11
382.8577013195463
 21
1622.36416039081
 31
0.0
 12
376.6077013195463
 22
1584.86416039081
 32
0.0
 13
376.6077013195463
 23
1584.86416039081
 33
0.0
  0
SOLID
  5
1243
330
1195
100
AcDbEntity
  8
0
  6
ByBlock
 62
     0
 48
10.0
100
AcDbTrace
 10
370.3577013195463
 20
1547.364160390809
 30
0.0
 11
382.8577013195463
 21
1547.364160390809
 31
0.0
 12
376.6077013195463
 22
1584.86416039081
 32
0.0
 13
376.6077013195463
 23
1584.86416039081
 33
0.0
  0
MTEXT
  5
1244
330
1195
100
AcDbEntity
  8
0
  6
ByBlock
 62
     0
 48
10.0
100
AcDbMText
 10
348.4827013195463
 20
1634.86416039081
 30
0.0
 40
37.5
 41
0.0
 71
     5
 72
     1
  1
\A1;100
 11
0.0000000000000001
 21
1.0
 31
0.0
 73
     1
 44
1.0
  0
LINE
  5
1245
330
1195
100
AcDbEntity
  8
0
  6
ByBlock
 62
     0
 48
10.0
100
AcDbLine
 10
376.6077013195463
 20
1622.36416039081
 30
0.0
 11
376.6077013195463
 21
1647.36416039081
 31
0.0
  0
POINT
  5
1246
330
1195
100
AcDbEntity
  8
DEFPOINTS
  6
ByBlock
 62
     0
 48
10.0
100
AcDbPoint
 10
316.6077013195462
 20
1684.86416039081
 30
0.0
  0
POINT
  5
1247
330
1195
100
AcDbEntity
  8
DEFPOINTS
  6
ByBlock
 62
     0
 48
10.0
100
AcDbPoint
 10
376.6077013195463
 20
1684.86416039081
 30
0.0
  0
SOLID
  5
1248
330
1195
100
AcDbEntity
  8
0
  6
ByBlock
 62
     0
 48
10.0
100
AcDbTrace
 10
370.3577013195463
 20
1647.36416039081
 30
0.0
 11
382.8577013195463
 21
1647.36416039081
 31
0.0
 12
376.6077013195463
 22
1684.86416039081
 32
0.0
 13
376.6077013195463
 23
1684.86416039081
 33
0.0
  0
LINE
  5
1249
330
1195
100
AcDbEntity
  8
上線
 48
10.0
100
AcDbLine
 10
676.6077013195463
 20
1684.86416039081
 30
0.0
 11
676.6077013195463
 21
1584.86416039081
 31
0.0
  0
POINT
  5
124A
330
1195
100
AcDbEntity
  8
DEFPOINTS
  6
ByBlock
 62
     0
 48
10.0
100
AcDbPoint
 10
576.6409003286098
 20
1484.864160390809
 30
0.0
  0
POINT
  5
124B
330
1195
100
AcDbEntity
  8
DEFPOINTS
  6
ByBlock
 62
     0
 48
10.0
100
AcDbPoint
 10
576.6409003286098
 20
1484.864160390809
 30
0.0
  0
POINT
  5
124C
330
1195
100
AcDbEntity
  8
DEFPOINTS
  6
ByBlock
 62
     0
 48
10.0
100
AcDbPoint
 10
606.6077013195463
 20
1482.620046435695
 30
0.0
  0
POINT
  5
124D
330
1195
100
AcDbEntity
  8
DEFPOINTS
  6
ByBlock
 62
     0
 48
10.0
100
AcDbPoint
 10
606.6077013195463
 20
1482.620046435695
 30
0.0
  0
POINT
  5
124E
330
1195
100
AcDbEntity
  8
DEFPOINTS
  6
ByBlock
 62
     0
 48
10.0
100
AcDbPoint
 10
580.3577013195463
 20
1584.86416039081
 30
0.0
  0
POINT
  5
124F
330
1195
100
AcDbEntity
  8
DEFPOINTS
  6
ByBlock
 62
     0
 48
10.0
100
AcDbPoint
 10
570.9827013195463
 20
1584.86416039081
 30
0.0
  0
POINT
  5
1250
330
1195
100
AcDbEntity
  8
DEFPOINTS
  6
ByBlock
 62
     0
 48
10.0
100
AcDbPoint
 10
606.6077013195463
 20
1550.606592724064
 30
0.0
  0
LINE
  5
1251
330
1195
100
AcDbEntity
  8
上線
100
AcDbLine
 10
676.6077013195463
 20
1684.86416039081
 30
0.0
 11
606.6077013195463
 21
1684.86416039081
 31
0.0
  0
POINT
  5
1252
330
1195
100
AcDbEntity
  8
DEFPOINTS
  6
ByBlock
 62
     0
 48
10.0
100
AcDbPoint
 10
580.3577013195463
 20
1684.86416039081
 30
0.0
  0
POINT
  5
1253
330
1195
100
AcDbEntity
  8
DEFPOINTS
  6
ByBlock
 62
     0
 48
10.0
100
AcDbPoint
 10
586.6077013195463
 20
1684.86416039081
 30
0.0
  0
POINT
  5
1254
330
1195
100
AcDbEntity
  8
DEFPOINTS
  6
ByBlock
 62
     0
 48
10.0
100
AcDbPoint
 10
676.6077013195463
 20
1682.620046435695
 30
0.0
  0
POINT
  5
1255
330
1195
100
AcDbEntity
  8
DEFPOINTS
  6
ByBlock
 62
     0
 48
10.0
100
AcDbPoint
 10
676.6077013195463
 20
1682.620046435695
 30
0.0
  0
LINE
  5
1256
330
1195
100
AcDbEntity
  8
上線
100
AcDbLine
 10
676.6077013195463
 20
1644.86416039081
 30
0.0
 11
676.6077013195463
 21
1644.86416039081
 31
0.0
  0
LINE
  5
1257
330
1195
100
AcDbEntity
  8
0
  6
ByBlock
 62
     0
 48
10.0
100
AcDbLine
 10
569.1077013195463
 20
1914.864160390809
 30
0.0
 11
531.6077013195463
 21
1914.864160390809
 31
0.0
  0
LINE
  5
1258
330
1195
100
AcDbEntity
  8
0
  6
ByBlock
 62
     0
 48
10.0
100
AcDbLine
 10
676.6077013195463
 20
1714.86416039081
 30
0.0
 11
676.6077013195463
 21
1933.61416039081
 31
0.0
  0
LINE
  5
1259
330
1195
100
AcDbEntity
  8
0
  6
ByBlock
 62
     0
 48
10.0
100
AcDbLine
 10
606.6077013195463
 20
1714.86416039081
 30
0.0
 11
606.6077013195463
 21
1933.61416039081
 31
0.0
  0
LINE
  5
125A
330
1195
100
AcDbEntity
  8
0
  6
ByBlock
 62
     0
 48
10.0
100
AcDbLine
 10
676.6077013195463
 20
1783.127629317843
 30
0.0
 11
676.6077013195463
 21
1867.364175606212
 31
0.0
  0
POINT
  5
125B
330
1195
100
AcDbEntity
  8
DEFPOINTS
  6
ByBlock
 62
     0
 48
10.0
100
AcDbPoint
 10
606.6077013195463
 20
1714.86416039081
 30
0.0
  0
POINT
  5
125C
330
1195
100
AcDbEntity
  8
DEFPOINTS
  6
ByBlock
 62
     0
 48
10.0
100
AcDbPoint
 10
606.6077013195463
 20
1714.86416039081
 30
0.0
  0
POINT
  5
125D
330
1195
100
AcDbEntity
  8
DEFPOINTS
  6
ByBlock
 62
     0
 48
10.0
100
AcDbPoint
 10
676.6077013195463
 20
1714.86416039081
 30
0.0
  0
LINE
  5
125E
330
1195
100
AcDbEntity
  8
0
  6
ByBlock
 62
     0
 48
10.0
100
AcDbLine
 10
606.6077013195463
 20
1914.864160390809
 30
0.0
 11
676.6077013195463
 21
1914.864160390809
 31
0.0
  0
SOLID
  5
125F
330
1195
100
AcDbEntity
  8
0
  6
ByBlock
 62
     0
 48
10.0
100
AcDbTrace
 10
569.1077013195463
 20
1921.11416039081
 30
0.0
 11
569.1077013195463
 21
1908.614160390809
 31
0.0
 12
606.6077013195463
 22
1914.864160390809
 32
0.0
 13
606.6077013195463
 23
1914.864160390809
 33
0.0
  0
LWPOLYLINE
  5
1260
330
1195
100
AcDbEntity
  8
上線
 48
10.0
100
AcDbPolyline
 90
        2
 70
     1
 43
5.0
 10
674.1077013195464
 20
1914.864160390809
 42
1.0
 10
679.1077013195464
 20
1914.864160390809
 42
1.0
  0
POINT
  5
1261
330
1195
100
AcDbEntity
  8
DEFPOINTS
  6
ByBlock
 62
     0
 48
10.0
100
AcDbPoint
 10
676.6077013195463
 20
1914.864160390809
 30
0.0
  0
SOLID
  5
1262
330
1195
100
AcDbEntity
  8
0
  6
ByBlock
 62
     0
 48
10.0
100
AcDbTrace
 10
644.1077013195463
 20
2071.11416039081
 30
0.0
 11
644.1077013195463
 21
2058.614160390809
 31
0.0
 12
606.6077013195463
 22
2064.864160390809
 32
0.0
 13
606.6077013195463
 23
2064.864160390809
 33
0.0
  0
MTEXT
  5
1263
330
1195
100
AcDbEntity
  8
0
  6
ByBlock
 62
     0
 48
10.0
100
AcDbMText
 10
1051.607701319546
 20
1942.989160390809
 30
0.0
 40
37.5
 41
0.0
 71
     5
 72
     1
  1
\A1;70
 73
     1
 44
1.0
  0
LINE
  5
1264
330
1195
100
AcDbEntity
  8
0
  6
ByBlock
 62
     0
 48
10.0
100
AcDbLine
 10
1086.607701319546
 20
1724.239160390809
 30
0.0
 11
1086.607701319546
 21
2083.61416039081
 31
0.0
  0
MTEXT
  5
1265
330
1195
100
AcDbEntity
  8
0
  6
ByBlock
 62
     0
 48
10.0
100
AcDbMText
 10
846.6077013195462
 20
1942.989160390809
 30
0.0
 40
37.5
 41
0.0
 71
     5
 72
     1
  1
\A1;240
 73
     1
 44
1.0
  0
LINE
  5
1266
330
1195
100
AcDbEntity
  8
0
  6
ByBlock
 62
     0
 48
10.0
100
AcDbLine
 10
1086.607701319546
 20
1815.335284369196
 30
0.0
 11
1086.607701319546
 21
1987.364177981768
 31
0.0
  0
LINE
  5
1267
330
1195
100
AcDbEntity
  8
0
  6
ByBlock
 62
     0
 48
10.0
100
AcDbLine
 10
1016.607701319546
 20
1914.864160390809
 30
0.0
 11
1086.607701319546
 21
1914.864160390809
 31
0.0
  0
LWPOLYLINE
  5
1268
330
1195
100
AcDbEntity
  8
上線
 48
10.0
100
AcDbPolyline
 90
        2
 70
     1
 43
5.0
 10
1049.049962236255
 20
1654.452938555406
 42
1.0
 10
1054.049962236254
 20
1654.452938555406
 42
1.0
  0
LINE
  5
1269
330
1195
100
AcDbEntity
  8
上線
100
AcDbLine
 10
1016.607701319546
 20
1684.86416039081
 30
0.0
 11
1086.607701319546
 21
1684.86416039081
 31
0.0
  0
POINT
  5
126A
330
1195
100
AcDbEntity
  8
DEFPOINTS
  6
ByBlock
 62
     0
 48
10.0
100
AcDbPoint
 10
726.6077013195463
 20
1478.870046435694
 30
0.0
  0
LINE
  5
126B
330
1195
100
AcDbEntity
  8
上線
 48
10.0
100
AcDbLine
 10
1016.607701319546
 20
1684.86416039081
 30
0.0
 11
1016.607701319546
 21
1584.86416039081
 31
0.0
  0
LINE
  5
126C
330
1195
100
AcDbEntity
  8
上線
 48
10.0
100
AcDbLine
 10
1016.607701319546
 20
1584.86416039081
 30
0.0
 11
965.89341560526
 21
1584.86416039081
 31
0.0
  0
POINT
  5
126D
330
1195
100
AcDbEntity
  8
DEFPOINTS
  6
ByBlock
 62
     0
 48
10.0
100
AcDbPoint
 10
966.6077013195463
 20
1478.870046435694
 30
0.0
  0
LINE
  5
126E
330
1195
100
AcDbEntity
  8
上線
 48
10.0
100
AcDbLine
 10
1026.607701319546
 20
1639.86416039081
 30
0.0
 11
1026.536272748117
 21
1639.86416039081
 31
0.0
  0
LINE
  5
126F
330
1195
100
AcDbEntity
  8
0
  6
ByBlock
 62
     0
 48
10.0
100
AcDbLine
 10
764.1077013195463
 20
1914.864160390809
 30
0.0
 11
929.1077013195463
 21
1914.864160390809
 31
0.0
  0
LINE
  5
1270
330
1195
100
AcDbEntity
  8
0
  6
ByBlock
 62
     0
 48
10.0
100
AcDbLine
 10
726.6077013195463
 20
1714.86416039081
 30
0.0
 11
726.6077013195463
 21
1933.61416039081
 31
0.0
  0
LINE
  5
1271
330
1195
100
AcDbEntity
  8
0
  6
ByBlock
 62
     0
 48
10.0
100
AcDbLine
 10
726.6077013195463
 20
1711.217746435695
 30
0.0
 11
726.6077013195463
 21
1867.364175606212
 31
0.0
  0
LINE
  5
1272
330
1195
100
AcDbEntity
  8
0
  6
ByBlock
 62
     0
 48
10.0
100
AcDbLine
 10
726.6077013195463
 20
1783.127629317843
 30
0.0
 11
726.6077013195463
 21
1867.364175606212
 31
0.0
  0
POINT
  5
1273
330
1195
100
AcDbEntity
  8
DEFPOINTS
  6
ByBlock
 62
     0
 48
10.0
100
AcDbPoint
 10
726.6077013195463
 20
1714.86416039081
 30
0.0
  0
POINT
  5
1274
330
1195
100
AcDbEntity
  8
DEFPOINTS
  6
ByBlock
 62
     0
 48
10.0
100
AcDbPoint
 10
726.6077013195463
 20
1854.864175606212
 30
0.0
  0
SOLID
  5
1275
330
1195
100
AcDbEntity
  8
0
  6
ByBlock
 62
     0
 48
10.0
100
AcDbTrace
 10
764.1077013195463
 20
1921.11416039081
 30
0.0
 11
764.1077013195463
 21
1908.614160390809
 31
0.0
 12
726.6077013195463
 22
1914.864160390809
 32
0.0
 13
726.6077013195463
 23
1914.864160390809
 33
0.0
  0
LINE
  5
1276
330
1195
100
AcDbEntity
  8
0
  6
ByBlock
 62
     0
 48
10.0
100
AcDbLine
 10
1016.607701319546
 20
1714.86416039081
 30
0.0
 11
1016.607701319546
 21
1933.61416039081
 31
0.0
  0
LINE
  5
1277
330
1195
100
AcDbEntity
  8
0
  6
ByBlock
 62
     0
 48
10.0
100
AcDbLine
 10
966.6077013195463
 20
1724.239160390809
 30
0.0
 11
966.6077013195463
 21
1933.61416039081
 31
0.0
  0
LINE
  5
1278
330
1195
100
AcDbEntity
  8
0
  6
ByBlock
 62
     0
 48
10.0
100
AcDbLine
 10
966.6077013195463
 20
1711.217746435695
 30
0.0
 11
966.6077013195463
 21
1867.364175606212
 31
0.0
  0
LINE
  5
1279
330
1195
100
AcDbEntity
  8
0
  6
ByBlock
 62
     0
 48
10.0
100
AcDbLine
 10
1016.607701319546
 20
1783.127629317843
 30
0.0
 11
1016.607701319546
 21
1869.01092507936
 31
0.0
  0
LINE
  5
127A
330
1195
100
AcDbEntity
  8
0
  6
ByBlock
 62
     0
 48
10.0
100
AcDbLine
 10
966.6077013195463
 20
1783.127629317843
 30
0.0
 11
966.6077013195463
 21
1867.364175606212
 31
0.0
  0
POINT
  5
127B
330
1195
100
AcDbEntity
  8
DEFPOINTS
  6
ByBlock
 62
     0
 48
10.0
100
AcDbPoint
 10
966.6077013195463
 20
1714.86416039081
 30
0.0
  0
POINT
  5
127C
330
1195
100
AcDbEntity
  8
DEFPOINTS
  6
ByBlock
 62
     0
 48
10.0
100
AcDbPoint
 10
1016.607701319546
 20
1714.86416039081
 30
0.0
  0
LINE
  5
127D
330
1195
100
AcDbEntity
  8
0
  6
ByBlock
 62
     0
 48
10.0
100
AcDbLine
 10
1016.607701319546
 20
1914.864160390809
 30
0.0
 11
941.6077013195463
 21
1914.864160390809
 31
0.0
  0
POINT
  5
127E
330
1195
100
AcDbEntity
  8
DEFPOINTS
  6
ByBlock
 62
     0
 48
10.0
100
AcDbPoint
 10
966.6077013195463
 20
1854.864175606212
 30
0.0
  0
SOLID
  5
127F
330
1195
100
AcDbEntity
  8
0
  6
ByBlock
 62
     0
 48
10.0
100
AcDbTrace
 10
929.1077013195463
 20
1921.11416039081
 30
0.0
 11
929.1077013195463
 21
1908.614160390809
 31
0.0
 12
966.6077013195463
 22
1914.864160390809
 32
0.0
 13
966.6077013195463
 23
1914.864160390809
 33
0.0
  0
POINT
  5
1280
330
1195
100
AcDbEntity
  8
DEFPOINTS
  6
ByBlock
 62
     0
 48
10.0
100
AcDbPoint
 10
966.6077013195463
 20
1914.864160390809
 30
0.0
  0
POINT
  5
1281
330
1195
100
AcDbEntity
  8
DEFPOINTS
  6
ByBlock
 62
     0
 48
10.0
100
AcDbPoint
 10
1026.607701319546
 20
1854.864175606212
 30
0.0
  0
LWPOLYLINE
  5
1282
330
1195
100
AcDbEntity
  8
上線
 48
10.0
100
AcDbPolyline
 90
        2
 70
     1
 43
5.0
 10
1014.107701319546
 20
1914.864160390809
 42
1.0
 10
1019.107701319546
 20
1914.864160390809
 42
1.0
  0
SOLID
  5
1283
330
1195
100
AcDbEntity
  8
0
  6
ByBlock
 62
     0
 48
10.0
100
AcDbTrace
 10
1310.357701319546
 20
1722.364160390809
 30
0.0
 11
1322.857701319546
 21
1722.364160390809
 31
0.0
 12
1316.607701319546
 22
1684.86416039081
 32
0.0
 13
1316.607701319546
 23
1684.86416039081
 33
0.0
  0
LINE
  5
1284
330
1195
100
AcDbEntity
  8
0
  6
ByBlock
 62
     0
 48
10.0
100
AcDbLine
 10
1125.982701319546
 20
1654.864160390809
 30
0.0
 11
1335.357701319546
 21
1654.864160390809
 31
0.0
  0
LINE
  5
1285
330
1195
100
AcDbEntity
  8
0
  6
ByBlock
 62
     0
 48
10.0
100
AcDbLine
 10
1116.607701319546
 20
1684.86416039081
 30
0.0
 11
1335.357701319546
 21
1684.86416039081
 31
0.0
  0
LINE
  5
1286
330
1195
100
AcDbEntity
  8
0
  6
ByBlock
 62
     0
 48
10.0
100
AcDbLine
 10
1125.982701319546
 20
1654.864160390809
 30
0.0
 11
1335.357701319546
 21
1654.864160390809
 31
0.0
  0
LINE
  5
1287
330
1195
100
AcDbEntity
  8
0
  6
ByBlock
 62
     0
 48
10.0
100
AcDbLine
 10
1112.857701319546
 20
1654.864160390809
 30
0.0
 11
1269.107701319546
 21
1654.864160390809
 31
0.0
  0
POINT
  5
1288
330
1195
100
AcDbEntity
  8
DEFPOINTS
  6
ByBlock
 62
     0
 48
10.0
100
AcDbPoint
 10
1086.607701319546
 20
1482.620046435695
 30
0.0
  0
POINT
  5
1289
330
1195
100
AcDbEntity
  8
DEFPOINTS
  6
ByBlock
 62
     0
 48
10.0
100
AcDbPoint
 10
1086.607701319546
 20
1482.620046435695
 30
0.0
  0
POINT
  5
128A
330
1195
100
AcDbEntity
  8
DEFPOINTS
  6
ByBlock
 62
     0
 48
10.0
100
AcDbPoint
 10
1086.607701319546
 20
1552.253342197212
 30
0.0
  0
POINT
  5
128B
330
1195
100
AcDbEntity
  8
DEFPOINTS
  6
ByBlock
 62
     0
 48
10.0
100
AcDbPoint
 10
1179.94715783494
 20
1504.86416039081
 30
0.0
  0
POINT
  5
128C
330
1195
100
AcDbEntity
  8
DEFPOINTS
  6
ByBlock
 62
     0
 48
10.0
100
AcDbPoint
 10
1179.94715783494
 20
1534.864160390809
 30
0.0
  0
POINT
  5
128D
330
1195
100
AcDbEntity
  8
DEFPOINTS
  6
ByBlock
 62
     0
 48
10.0
100
AcDbPoint
 10
1116.607701319546
 20
1654.864160390809
 30
0.0
  0
POINT
  5
128E
330
1195
100
AcDbEntity
  8
DEFPOINTS
  6
ByBlock
 62
     0
 48
10.0
100
AcDbPoint
 10
1116.607701319546
 20
1684.86416039081
 30
0.0
  0
POINT
  5
128F
330
1195
100
AcDbEntity
  8
DEFPOINTS
  6
ByBlock
 62
     0
 48
10.0
100
AcDbPoint
 10
1116.607701319546
 20
1654.864160390809
 30
0.0
  0
POINT
  5
1290
330
1195
100
AcDbEntity
  8
DEFPOINTS
  6
ByBlock
 62
     0
 48
10.0
100
AcDbPoint
 10
1106.607701319546
 20
1684.86416039081
 30
0.0
  0
POINT
  5
1291
330
1195
100
AcDbEntity
  8
DEFPOINTS
  6
ByBlock
 62
     0
 48
10.0
100
AcDbPoint
 10
1106.607701319546
 20
1654.864160390809
 30
0.0
  0
POINT
  5
1292
330
1195
100
AcDbEntity
  8
DEFPOINTS
  6
ByBlock
 62
     0
 48
10.0
100
AcDbPoint
 10
1106.607701319546
 20
1654.864160390809
 30
0.0
  0
LINE
  5
1293
330
1195
100
AcDbEntity
  8
0
  6
ByBlock
 62
     0
 48
10.0
100
AcDbLine
 10
1316.607701319546
 20
1617.36416039081
 30
0.0
 11
1316.607701319546
 21
1579.864160390809
 31
0.0
  0
POINT
  5
1294
330
1195
100
AcDbEntity
  8
DEFPOINTS
  6
ByBlock
 62
     0
 48
10.0
100
AcDbPoint
 10
1256.607701319546
 20
1684.86416039081
 30
0.0
  0
POINT
  5
1295
330
1195
100
AcDbEntity
  8
DEFPOINTS
  6
ByBlock
 62
     0
 48
10.0
100
AcDbPoint
 10
1256.607701319546
 20
1654.864160390809
 30
0.0
  0
SOLID
  5
1296
330
1195
100
AcDbEntity
  8
0
  6
ByBlock
 62
     0
 48
10.0
100
AcDbTrace
 10
1310.357701319546
 20
1617.36416039081
 30
0.0
 11
1322.857701319546
 21
1617.36416039081
 31
0.0
 12
1316.607701319546
 22
1654.864160390809
 32
0.0
 13
1316.607701319546
 23
1654.864160390809
 33
0.0
  0
SOLID
  5
1297
330
1195
100
AcDbEntity
  8
0
  6
ByBlock
 62
     0
 48
10.0
100
AcDbTrace
 10
1310.357701319546
 20
1617.36416039081
 30
0.0
 11
1322.857701319546
 21
1617.36416039081
 31
0.0
 12
1316.607701319546
 22
1654.864160390809
 32
0.0
 13
1316.607701319546
 23
1654.864160390809
 33
0.0
  0
POINT
  5
1298
330
1195
100
AcDbEntity
  8
DEFPOINTS
  6
ByBlock
 62
     0
 48
10.0
100
AcDbPoint
 10
1316.607701319546
 20
1684.86416039081
 30
0.0
  0
LINE
  5
1299
330
1195
100
AcDbEntity
  8
0
  6
ByBlock
 62
     0
 48
10.0
100
AcDbLine
 10
1316.607701319546
 20
1654.864160390809
 30
0.0
 11
1316.607701319546
 21
1684.86416039081
 31
0.0
  0
LINE
  5
129A
330
1195
100
AcDbEntity
  8
0
  6
ByBlock
 62
     0
 48
10.0
100
AcDbLine
 10
1086.607701319546
 20
1714.86416039081
 30
0.0
 11
1086.607701319546
 21
1933.61416039081
 31
0.0
  0
LINE
  5
129B
330
1195
100
AcDbEntity
  8
0
  6
ByBlock
 62
     0
 48
10.0
100
AcDbLine
 10
1086.607701319546
 20
1738.870046435695
 30
0.0
 11
1086.607701319546
 21
1824.753342197212
 31
0.0
  0
POINT
  5
129C
330
1195
100
AcDbEntity
  8
DEFPOINTS
  6
ByBlock
 62
     0
 48
10.0
100
AcDbPoint
 10
1086.607701319546
 20
1714.86416039081
 30
0.0
  0
POINT
  5
129D
330
1195
100
AcDbEntity
  8
DEFPOINTS
  6
ByBlock
 62
     0
 48
10.0
100
AcDbPoint
 10
1086.607701319546
 20
1714.86416039081
 30
0.0
  0
LINE
  5
129E
330
1195
100
AcDbEntity
  8
0
  6
ByBlock
 62
     0
 48
10.0
100
AcDbLine
 10
1124.107701319546
 20
1914.864160390809
 30
0.0
 11
1161.607701319546
 21
1914.864160390809
 31
0.0
  0
SOLID
  5
129F
330
1195
100
AcDbEntity
  8
0
  6
ByBlock
 62
     0
 48
10.0
100
AcDbTrace
 10
1124.107701319546
 20
1921.11416039081
 30
0.0
 11
1124.107701319546
 21
1908.614160390809
 31
0.0
 12
1086.607701319546
 22
1914.864160390809
 32
0.0
 13
1086.607701319546
 23
1914.864160390809
 33
0.0
  0
POINT
  5
12A0
330
1195
100
AcDbEntity
  8
DEFPOINTS
  6
ByBlock
 62
     0
 48
10.0
100
AcDbPoint
 10
1086.607701319546
 20
1914.864160390809
 30
0.0
  0
POINT
  5
12A1
330
1195
100
AcDbEntity
  8
DEFPOINTS
  6
ByBlock
 62
     0
 48
10.0
100
AcDbPoint
 10
1076.607701319546
 20
1888.766475606212
 30
0.0
  0
MTEXT
  5
12A2
330
1195
100
AcDbEntity
  8
0
  6
ByBlock
 62
     0
 48
10.0
100
AcDbMText
 10
1288.482701319546
 20
1793.256014323394
 30
0.0
 40
37.5
 41
0.0
 71
     5
 72
     1
  1
\A1;30
 11
0.0000000000000001
 21
1.0
 31
0.0
 73
     1
 44
1.0
  0
LINE
  5
12A3
330
1195
100
AcDbEntity
  8
0
  6
ByBlock
 62
     0
 48
10.0
100
AcDbLine
 10
1316.607701319546
 20
1722.364160390809
 30
0.0
 11
1316.607701319546
 21
1826.647868255978
 31
0.0
  0
SOLID
  5
12A4
330
1195
100
AcDbEntity
  8
0
  6
ByBlock
 62
     0
 48
10.0
100
AcDbTrace
 10
1049.107701319546
 20
2071.11416039081
 30
0.0
 11
1049.107701319546
 21
2058.614160390809
 31
0.0
 12
1086.607701319546
 22
2064.864160390809
 32
0.0
 13
1086.607701319546
 23
2064.864160390809
 33
0.0
  0
MTEXT
  5
12A5
330
1195
100
AcDbEntity
  8
0
  6
ByBlock
 62
     0
 48
10.0
100
AcDbMText
 10
846.6077013195462
 20
2092.98916039081
 30
0.0
 40
37.5
 41
0.0
 71
     5
 72
     1
  1
\A1;480
 73
     1
 44
1.0
  0
MTEXT
  5
12A6
330
1195
100
AcDbEntity
  8
0
  6
ByBlock
 62
     0
 48
10.0
100
AcDbMText
 10
992.6163503265287
 20
1981.598061110153
 30
0.0
 40
37.5
 41
0.0
 71
     5
 72
     1
  1
\A1;50
 73
     1
 44
1.0
  0
POINT
  5
12A7
330
1195
100
AcDbEntity
  8
DEFPOINTS
  6
ByBlock
 62
     0
 48
10.0
100
AcDbPoint
 10
1086.607701319546
 20
1974.864177981768
 30
0.0
  0
POINT
  5
12A8
330
1195
100
AcDbEntity
  8
DEFPOINTS
  6
ByBlock
 62
     0
 48
10.0
100
AcDbPoint
 10
1146.607701319546
 20
1989.585477981768
 30
0.0
  0
POINT
  5
12A9
330
1195
100
AcDbEntity
  8
DEFPOINTS
  6
ByBlock
 62
     0
 48
10.0
100
AcDbPoint
 10
1086.607701319546
 20
2064.864160390809
 30
0.0
  0
POINT
  5
12AA
330
1195
100
AcDbEntity
  8
DEFPOINTS
  6
ByBlock
 62
     0
 48
10.0
100
AcDbPoint
 10
1683.77061006034
 20
1529.592936239458
 30
0.0
  0
LINE
  5
12AB
330
1195
100
AcDbEntity
  8
0
  6
ByBlock
 62
     0
 48
10.0
100
AcDbLine
 10
1683.77061006034
 20
1724.239160390809
 30
0.0
 11
1683.77061006034
 21
1933.61416039081
 31
0.0
  0
LINE
  5
12AC
330
1195
100
AcDbEntity
  8
0
  6
ByBlock
 62
     0
 48
10.0
100
AcDbLine
 10
1683.77061006034
 20
1717.364160390809
 30
0.0
 11
1683.77061006034
 21
1867.36416039081
 31
0.0
  0
POINT
  5
12AD
330
1195
100
AcDbEntity
  8
DEFPOINTS
  6
ByBlock
 62
     0
 48
10.0
100
AcDbPoint
 10
1683.77061006034
 20
1714.86416039081
 30
0.0
  0
POINT
  5
12AE
330
1195
100
AcDbEntity
  8
DEFPOINTS
  6
ByBlock
 62
     0
 48
10.0
100
AcDbPoint
 10
1683.77061006034
 20
1914.864160390809
 30
0.0
  0
SOLID
  5
12AF
330
1195
100
AcDbEntity
  8
0
  6
ByBlock
 62
     0
 48
10.0
100
AcDbTrace
 10
1721.27061006034
 20
1921.11416039081
 30
0.0
 11
1721.27061006034
 21
1908.614160390809
 31
0.0
 12
1683.77061006034
 22
1914.864160390809
 32
0.0
 13
1683.77061006034
 23
1914.864160390809
 33
0.0
  0
POINT
  5
12B0
330
1195
100
AcDbEntity
  8
DEFPOINTS
  6
ByBlock
 62
     0
 48
10.0
100
AcDbPoint
 10
1683.77061006034
 20
1912.347753339068
 30
0.0
  0
LWPOLYLINE
  5
12B1
330
1195
100
AcDbEntity
  8
上線
100
AcDbPolyline
 90
        4
 70
     1
 43
0.0
 10
739.2268035286288
 20
2415.256840828481
 10
948.5037396976531
 20
2415.256840828481
 10
948.5037396976531
 20
2514.961223574487
 10
739.2268035286288
 20
2514.961223574487
  0
LWPOLYLINE
  5
12B2
330
1195
100
AcDbEntity
  8
上線
100
AcDbPolyline
 90
        4
 70
     1
 43
0.0
 10
742.2268035286288
 20
2418.256840828481
 10
945.5037396976532
 20
2418.256840828481
 10
945.5037396976532
 20
2511.961223574487
 10
742.2268035286288
 20
2511.961223574487
  0
MTEXT
  5
12B3
330
1195
100
AcDbEntity
  8
上線
 48
10.0
100
AcDbMText
 10
763.2816729537061
 20
2485.939123825522
 30
0.0
 40
40.0
 41
558.2059
 71
     1
 72
     5
  1
\fＭＳ Ｐ明朝|b0|i0|c128|p18;正面図
 73
     1
 44
1.0
  0
SPLINE
  5
12B4
330
1195
100
AcDbEntity
  8
上線
 48
10.0
100
AcDbSpline
210
0.0
220
0.0
230
1.0
 70
     8
 71
     3
 72
    10
 73
     6
 74
     0
 42
0.0000000001
 43
0.0000000001
 40
197.2422459363112
 40
197.2422459363112
 40
197.2422459363112
 40
197.2422459363112
 40
220.5413135163642
 40
397.3917699938457
 40
607.6874310862709
 40
607.6874310862709
 40
607.6874310862709
 40
607.6874310862709
 10
3163.335179852713
 20
1334.864160390809
 30
0.0
 10
3162.618404605593
 20
1341.032130259583
 30
0.0
 10
3149.000016765658
 20
1392.750665724935
 30
0.0
 10
2974.112052161909
 20
1473.850766974913
 30
0.0
 10
3041.103696344092
 20
1617.299716769306
 30
0.0
 10
3082.07622233504
 20
1684.864160390809
 30
0.0
  0
SPLINE
  5
12B5
330
1195
100
AcDbEntity
  8
上線
 48
10.0
100
AcDbSpline
210
0.0
220
0.0
230
1.0
 70
     8
 71
     3
 72
    10
 73
     6
 74
     0
 42
0.0000000001
 43
0.0000000001
 40
197.242245936312
 40
197.242245936312
 40
197.242245936312
 40
197.242245936312
 40
220.5413135163642
 40
397.3917699938457
 40
607.6874310862709
 40
607.6874310862709
 40
607.6874310862709
 40
607.6874310862709
 10
3191.579854975016
 20
1334.86416039081
 30
0.0
 10
3190.863079727896
 20
1341.032130259583
 30
0.0
 10
3177.24469188796
 20
1392.750665724935
 30
0.0
 10
3002.356727284212
 20
1473.850766974913
 30
0.0
 10
3069.348371466396
 20
1617.299716769306
 30
0.0
 10
3110.320897457343
 20
1684.864160390809
 30
0.0
  0
LINE
  5
12B6
330
1195
100
AcDbEntity
  8
上線
100
AcDbLine
 10
4184.109931434224
 20
-0.0000044160024117
 30
0.0
 11
4184.109931434224
 21
2926.920038226122
 31
0.0
  0
LINE
  5
12B7
330
1195
100
AcDbEntity
  8
上線
 48
10.0
100
AcDbLine
 10
2495.770610060341
 20
1654.864160390809
 30
0.0
 11
2495.770610060341
 21
1014.86416039081
 31
0.0
  0
LINE
  5
12B8
330
1195
100
AcDbEntity
  8
上線
 48
10.0
100
AcDbLine
 10
2231.77061006034
 20
1654.864160390809
 30
0.0
 11
2231.77061006034
 21
1014.86416039081
 31
0.0
  0
LINE
  5
12B9
330
1195
100
AcDbEntity
  8
中心線
 48
10.0
100
AcDbLine
 10
2683.77061006034
 20
2000.506335570257
 30
0.0
 11
2683.770610060341
 21
843.4257324262008
 31
0.0
  0
LINE
  5
12BA
330
1195
100
AcDbEntity
  8
上線
 48
10.0
100
AcDbLine
 10
3980.25868909521
 20
1684.86416039081
 30
0.0
 11
3980.258689095211
 21
984.8641603908102
 31
0.0
  0
LINE
  5
12BB
330
1195
100
AcDbEntity
  8
上線
 48
10.0
100
AcDbLine
 10
3104.340243970245
 20
994.8641603908102
 30
0.0
 11
3980.25868909521
 21
994.8641603908098
 31
0.0
  0
LINE
  5
12BC
330
1195
100
AcDbEntity
  8
上線
 48
10.0
100
AcDbLine
 10
3110.320897457343
 20
994.8641603908104
 30
0.0
 11
3683.768608458658
 21
994.8641603908104
 31
0.0
  0
LINE
  5
12BD
330
1195
100
AcDbEntity
  8
上線
 48
10.0
100
AcDbLine
 10
3110.320897457343
 20
984.8641603908104
 30
0.0
 11
3683.768608458658
 21
984.8641603908104
 31
0.0
  0
LINE
  5
12BE
330
1195
100
AcDbEntity
  8
上線
 48
10.0
100
AcDbLine
 10
3110.320897457343
 20
984.8641603908102
 30
0.0
 11
3980.25868909521
 21
984.8641603908099
 31
0.0
  0
LINE
  5
12BF
330
1195
100
AcDbEntity
  8
点線
 48
10.0
100
AcDbLine
 10
3061.900393780399
 20
1084.86416039081
 30
0.0
 11
3980.258689095211
 21
1084.86416039081
 31
0.0
  0
LINE
  5
12C0
330
1195
100
AcDbEntity
  8
上線
100
AcDbLine
 10
4126.109464021449
 20
47.6123128288109
 30
0.0
 11
3178.783065824068
 21
47.6123128288109
 31
0.0
  0
LINE
  5
12C1
330
1195
100
AcDbEntity
  8
上線
100
AcDbLine
 10
4126.109464021449
 20
150.2665887964485
 30
0.0
 11
3178.783065824068
 21
150.2665887964485
 31
0.0
  0
LINE
  5
12C2
330
1195
100
AcDbEntity
  8
上線
100
AcDbLine
 10
4126.109464021449
 20
218.6638542578811
 30
0.0
 11
3178.783065824068
 21
218.6638542578811
 31
0.0
  0
MTEXT
  5
12C3
330
1195
100
AcDbEntity
  8
上線
 48
10.0
100
AcDbMText
 10
3372.099276513676
 20
284.8012548819024
 30
0.0
 40
45.0
 41
1003.0154
 71
     1
 72
     5
  1
240×500×120/120×4000
 73
     1
 44
1.0
  0
MTEXT
  5
12C4
330
1195
100
AcDbEntity
  8
上線
 48
10.0
100
AcDbMText
 10
3385.839723471242
 20
377.1504264387885
 30
0.0
 40
50.0
 41
1003.0154
 71
     1
 72
     5
  1
長尺U字溝　（H4-24D）
 73
     1
 44
1.0
  0
LINE
  5
12C5
330
1195
100
AcDbEntity
  8
上線
100
AcDbLine
 10
4126.109464021449
 20
295.4877975789795
 30
0.0
 11
3178.783065824068
 21
295.4877975789795
 31
0.0
  0
LINE
  5
12C6
330
1195
100
AcDbEntity
  8
上線
100
AcDbLine
 10
4126.109464021449
 20
395.2198757433443
 30
0.0
 11
3178.783065824068
 21
395.2198757433443
 31
0.0
  0
LINE
  5
12C7
330
1195
100
AcDbEntity
  8
上線
100
AcDbLine
 10
3178.783065824069
 20
395.2198757433444
 30
0.0
 11
3178.783065824068
 21
47.6123128288109
 31
0.0
  0
LINE
  5
12C8
330
1195
100
AcDbEntity
  8
上線
100
AcDbLine
 10
3345.519173072225
 20
395.2198757433443
 30
0.0
 11
3345.519173072225
 21
218.6638542578811
 31
0.0
  0
MTEXT
  5
12C9
330
1195
100
AcDbEntity
  8
上線
 48
10.0
100
AcDbMText
 10
3215.733189068778
 20
203.4126921751558
 30
0.0
 40
35.0
 41
241.0562
 71
     1
 72
     5
  1
\fＭＳ Ｐ明朝|b0|i0|c128|p18;ｓ；1/15
 73
     1
 44
1.0
  0
MTEXT
  5
12CA
330
1195
100
AcDbEntity
  8
上線
 48
10.0
100
AcDbMText
 10
3199.689163484161
 20
273.7440421984302
 30
0.0
 40
30.0
 41
241.0562
 71
     1
 72
     5
  1
\fＭＳ Ｐ明朝|b0|i0|c128|p18;寸　法
 73
     1
 44
1.0
  0
MTEXT
  5
12CB
330
1195
100
AcDbEntity
  8
上線
 48
10.0
100
AcDbMText
 10
3199.689163484161
 20
367.2676434729355
 30
0.0
 40
30.0
 41
241.0562
 71
     1
 72
     5
  1
\fＭＳ Ｐ明朝|b0|i0|c128|p18;呼び名
 73
     1
 44
1.0
  0
LINE
  5
12CC
330
1195
100
AcDbEntity
  8
上線
 48
10.0
100
AcDbLine
 10
2683.77061006034
 20
994.8641603908104
 30
0.0
 11
3076.095568847941
 21
994.8641603908104
 31
0.0
  0
LINE
  5
12CD
330
1195
100
AcDbEntity
  8
点線
 48
10.0
100
AcDbLine
 10
2683.77061006034
 20
1084.86416039081
 30
0.0
 11
2737.065241284468
 21
1084.86416039081
 31
0.0
  0
LINE
  5
12CE
330
1195
100
AcDbEntity
  8
上線
 48
10.0
100
AcDbLine
 10
2344.359339943103
 20
1334.86416039081
 30
0.0
 11
2453.702395557843
 21
754.8641603908102
 31
0.0
1001
ACAD
1000
DSTYLE
1002
{
1070
    78
1070
     8
1070
   270
1070
     8
1070
   140
1040
2.5
1070
    74
1070
     0
1070
   172
1070
     1
1070
    73
1070
     0
1070
    77
1070
     1
1070
    40
1040
10.0
1070
   147
1040
0.625
1070
    42
1040
0.625
1070
    44
1040
1.25
1070
    43
1040
3.75
1070
   141
1040
2.5
1070
    41
1040
2.5
1070
   273
1070
     8
1070
   274
1070
     4
1070
   143
1040
0.0394
1070
   171
1070
     4
1002
}
  0
MTEXT
  5
12CF
330
1195
100
AcDbEntity
  8
上線
 48
10.0
100
AcDbMText
 10
2096.095443996388
 20
785.1485566202573
 30
0.0
 40
40.0
 41
0.0
 71
     4
 72
     1
  1
16-Φ5
 73
     1
 44
1.0
  0
LINE
  5
12D0
330
1195
100
AcDbEntity
  8
上線
 48
10.0
100
AcDbLine
 10
2075.877187035985
 20
754.8641603908102
 30
0.0
 11
2266.585763689517
 21
754.8641603908102
 31
0.0
  0
MTEXT
  5
12D1
330
1195
100
AcDbEntity
  8
上線
 48
10.0
100
AcDbMText
 10
2096.095443996388
 20
850.4240049071423
 30
0.0
 40
40.0
 41
0.0
 71
     4
 72
     1
  1
\fＭＳ Ｐ明朝|b0|i0|c128|p18;縦筋
 73
     1
 44
1.0
  0
MTEXT
  5
12D2
330
1195
100
AcDbEntity
  8
上線
 48
10.0
100
AcDbMText
 10
2477.091381363759
 20
784.575938068152
 30
0.0
 40
40.0
 41
0.0
 71
     4
 72
     1
  1
7-Φ5
 73
     1
 44
1.0
  0
LINE
  5
12D3
330
1195
100
AcDbEntity
  8
上線
 48
10.0
100
AcDbLine
 10
2453.702395557843
 20
754.8641603908102
 30
0.0
 11
2622.686506314747
 21
754.8641603908101
 31
0.0
  0
MTEXT
  5
12D4
330
1195
100
AcDbEntity
  8
上線
 48
10.0
100
AcDbMText
 10
2477.091381363759
 20
846.8975043865002
 30
0.0
 40
40.0
 41
0.0
 71
     4
 72
     1
  1
\fＭＳ Ｐ明朝|b0|i0|c128|p18;横筋
 73
     1
 44
1.0
  0
SOLID
  5
12D5
330
1195
100
AcDbEntity
  8
上線
 48
10.0
100
AcDbTrace
 10
2345.085027863278
 20
1309.109059710295
 30
0.0
 11
2344.548090065543
 21
1334.448215357484
 31
0.0
 12
2353.274108732759
 22
1310.652885787787
 32
0.0
 13
2353.274108732759
 23
1310.652885787787
 33
0.0
1001
ACAD
1000
DSTYLE
1002
{
1070
    78
1070
     8
1070
   270
1070
     8
1070
   140
1040
2.5
1070
    74
1070
     0
1070
   172
1070
     1
1070
    73
1070
     0
1070
    77
1070
     1
1070
    40
1040
10.0
1070
   147
1040
0.625
1070
    42
1040
0.625
1070
    44
1040
1.25
1070
    43
1040
3.75
1070
   141
1040
2.5
1070
    41
1040
2.5
1070
   273
1070
     8
1070
   274
1070
     4
1070
   143
1040
0.0394
1070
   171
1070
     4
1002
}
  0
POINT
  5
12D6
330
1195
100
AcDbEntity
  8
DEFPOINTS
  6
ByBlock
 62
     0
 48
10.0
100
AcDbPoint
 10
2683.77061006034
 20
1444.86416039081
 30
0.0
  0
SPLINE
  5
12D7
330
1195
100
AcDbEntity
  8
上線
 48
10.0
100
AcDbSpline
210
0.0
220
0.0
230
1.0
 70
     8
 71
     3
 72
    10
 73
     6
 74
     0
 42
0.0000000001
 43
0.0000000001
 40
197.242245936312
 40
197.242245936312
 40
197.242245936312
 40
197.242245936312
 40
220.5413135163642
 40
397.3917699938457
 40
607.6874310862709
 40
607.6874310862709
 40
607.6874310862709
 40
607.6874310862709
 10
3191.579854975016
 20
1334.86416039081
 30
0.0
 10
3190.863079727896
 20
1328.696190522037
 30
0.0
 10
3177.24469188796
 20
1276.977655056684
 30
0.0
 10
3002.356727284212
 20
1195.877553806706
 30
0.0
 10
3069.348371466396
 20
1052.428604012313
 30
0.0
 10
3110.320897457343
 20
984.8641603908106
 30
0.0
  0
SPLINE
  5
12D8
330
1195
100
AcDbEntity
  8
上線
 48
10.0
100
AcDbSpline
210
0.0
220
0.0
230
1.0
 70
     8
 71
     3
 72
    10
 73
     6
 74
     0
 42
0.0000000001
 43
0.0000000001
 40
197.2422459363112
 40
197.2422459363112
 40
197.2422459363112
 40
197.2422459363112
 40
220.5413135163642
 40
397.3917699938457
 40
607.6874310862709
 40
607.6874310862709
 40
607.6874310862709
 40
607.6874310862709
 10
3163.335179852713
 20
1334.86416039081
 30
0.0
 10
3162.618404605593
 20
1328.696190522037
 30
0.0
 10
3149.000016765658
 20
1276.977655056684
 30
0.0
 10
2974.112052161909
 20
1195.877553806706
 30
0.0
 10
3041.103696344092
 20
1052.428604012313
 30
0.0
 10
3082.07622233504
 20
984.8641603908106
 30
0.0
  0
POINT
  5
12D9
330
1195
100
AcDbEntity
  8
DEFPOINTS
  6
ByBlock
 62
     0
 48
10.0
100
AcDbPoint
 10
2935.411608458658
 20
984.8641603908102
 30
0.0
  0
POINT
  5
12DA
330
1195
100
AcDbEntity
  8
DEFPOINTS
  6
ByBlock
 62
     0
 48
10.0
100
AcDbPoint
 10
2985.411608458658
 20
984.8641603908102
 30
0.0
  0
POINT
  5
12DB
330
1195
100
AcDbEntity
  8
DEFPOINTS
  6
ByBlock
 62
     0
 48
10.0
100
AcDbPoint
 10
2985.411608458658
 20
984.8641603908102
 30
0.0
  0
POINT
  5
12DC
330
1195
100
AcDbEntity
  8
DEFPOINTS
  6
ByBlock
 62
     0
 48
10.0
100
AcDbPoint
 10
3285.411608458658
 20
984.8641603908102
 30
0.0
  0
LINE
  5
12DD
330
1195
100
AcDbEntity
  8
点線
 48
10.0
100
AcDbLine
 10
2791.159545462589
 20
1084.86416039081
 30
0.0
 11
2894.750924797712
 21
1084.86416039081
 31
0.0
  0
LINE
  5
12DE
330
1195
100
AcDbEntity
  8
点線
 48
10.0
100
AcDbLine
 10
2950.354956888397
 20
1084.86416039081
 30
0.0
 11
3033.655718658095
 21
1084.86416039081
 31
0.0
  0
MTEXT
  5
12DF
330
1195
100
AcDbEntity
  8
上線
 48
10.0
100
AcDbMText
 10
3934.179375141737
 20
200.4827207145554
 30
0.0
 40
35.0
 41
241.0562
 71
     1
 72
     5
  1
S=8.7㎏
 73
     1
 44
1.0
  0
MTEXT
  5
12E0
330
1195
100
AcDbEntity
  8
上線
 48
10.0
100
AcDbMText
 10
3392.734212283692
 20
131.0448489726686
 30
0.0
 40
50.0
 41
1003.0154
 71
     1
 72
     5
  1
\fＭＳ Ｐ明朝|b0|i0|c128|p18;㈱　ウ　チ　コ　ン
 73
     1
 44
1.0
  0
MTEXT
  5
12E1
330
1195
100
AcDbEntity
  8
上線
 48
10.0
100
AcDbMText
 10
3670.263068769025
 20
201.4246294728482
 30
0.0
 40
35.0
 41
241.0562
 71
     1
 72
     5
  1
W=1820㎏
 73
     1
 44
1.0
  0
MTEXT
  5
12E2
330
1195
100
AcDbEntity
  8
上線
 48
10.0
100
AcDbMText
 10
3446.595216797257
 20
203.4126921751549
 30
0.0
 40
35.0
 41
241.0562
 71
     1
 72
     5
  1
\fＭＳ Ｐ明朝|b0|i0|c128|p18;単位；㎜
 73
     1
 44
1.0
  0
LINE
  5
12E3
330
1195
100
AcDbEntity
  8
上線
 48
10.0
100
AcDbLine
 10
3415.614665373414
 20
218.6638542578811
 30
0.0
 11
3415.614665373414
 21
150.2665887964485
 31
0.0
  0
LINE
  5
12E4
330
1195
100
AcDbEntity
  8
上線
 48
10.0
100
AcDbLine
 10
3652.446264922758
 20
218.6638542578811
 30
0.0
 11
3652.446264922758
 21
150.2665887964485
 31
0.0
  0
LINE
  5
12E5
330
1195
100
AcDbEntity
  8
上線
 48
10.0
100
AcDbLine
 10
3908.075537688189
 20
218.6638542578811
 30
0.0
 11
3908.075537688189
 21
150.2665887964485
 31
0.0
  0
LINE
  5
12E6
330
1195
100
AcDbEntity
  8
上線
100
AcDbLine
 10
4126.109464021449
 20
47.6123128288109
 30
0.0
 11
4126.109464021449
 21
395.2198757433444
 31
0.0
  0
POINT
  5
12E7
330
1195
100
AcDbEntity
  8
DEFPOINTS
  6
ByBlock
 62
     0
 48
10.0
100
AcDbPoint
 10
3683.770591187023
 20
672.7316455176961
 30
0.0
  0
POINT
  5
12E8
330
1195
100
AcDbEntity
  8
DEFPOINTS
  6
ByBlock
 62
     0
 48
10.0
100
AcDbPoint
 10
3625.385308458658
 20
984.8641736517832
 30
0.0
  0
LINE
  5
12E9
330
1195
100
AcDbEntity
  8
上線
 48
10.0
100
AcDbLine
 10
3158.2921317155
 20
1684.86416039081
 30
0.0
 11
3980.258689095211
 21
1684.86416039081
 31
0.0
  0
LINE
  5
12EA
330
1195
100
AcDbEntity
  8
上線
 48
10.0
100
AcDbLine
 10
3110.320897457344
 20
1684.86416039081
 30
0.0
 11
3683.768608458658
 21
1684.86416039081
 31
0.0
  0
LINE
  5
12EB
330
1195
100
AcDbEntity
  8
点線
 48
10.0
100
AcDbLine
 10
2683.77061006034
 20
1584.864160390809
 30
0.0
 11
3980.258689095211
 21
1584.864160390809
 31
0.0
  0
MTEXT
  5
12EC
330
1195
100
AcDbEntity
  8
0
  6
ByBlock
 62
     0
 48
10.0
100
AcDbMText
 10
2183.77061006034
 20
1946.254609829012
 30
0.0
 40
37.5
 41
0.0
 71
     5
 72
     1
  1
\A1;1,000
 73
     1
 44
1.0
  0
POINT
  5
12ED
330
1195
100
AcDbEntity
  8
DEFPOINTS
  6
ByBlock
 62
     0
 48
10.0
100
AcDbPoint
 10
2683.77061006034
 20
1714.86416039081
 30
0.0
  0
POINT
  5
12EE
330
1195
100
AcDbEntity
  8
DEFPOINTS
  6
ByBlock
 62
     0
 48
10.0
100
AcDbPoint
 10
2683.77061006034
 20
1854.86416039081
 30
0.0
  0
SOLID
  5
12EF
330
1195
100
AcDbEntity
  8
0
  6
ByBlock
 62
     0
 48
10.0
100
AcDbTrace
 10
2646.27061006034
 20
1921.11416039081
 30
0.0
 11
2646.27061006034
 21
1908.614160390809
 31
0.0
 12
2683.77061006034
 22
1914.864160390809
 32
0.0
 13
2683.77061006034
 23
1914.864160390809
 33
0.0
  0
POINT
  5
12F0
330
1195
100
AcDbEntity
  8
DEFPOINTS
  6
ByBlock
 62
     0
 48
10.0
100
AcDbPoint
 10
2683.77061006034
 20
1912.347753339068
 30
0.0
  0
POINT
  5
12F1
330
1195
100
AcDbEntity
  8
DEFPOINTS
  6
ByBlock
 62
     0
 48
10.0
100
AcDbPoint
 10
2683.77061006034
 20
1997.599444365708
 30
0.0
  0
LWPOLYLINE
  5
12F2
330
1195
100
AcDbEntity
  8
上線
100
AcDbPolyline
 90
        4
 70
     1
 43
0.0
 10
2724.601482006154
 20
2417.976060888545
 10
2927.878418175179
 20
2417.976060888545
 10
2927.878418175179
 20
2511.680443634551
 10
2724.601482006154
 20
2511.680443634551
  0
LWPOLYLINE
  5
12F3
330
1195
100
AcDbEntity
  8
上線
100
AcDbPolyline
 90
        4
 70
     1
 43
0.0
 10
2721.601482006154
 20
2414.976060888545
 10
2930.878418175179
 20
2414.976060888545
 10
2930.878418175179
 20
2514.680443634551
 10
2721.601482006154
 20
2514.680443634551
  0
MTEXT
  5
12F4
330
1195
100
AcDbEntity
  8
上線
 48
10.0
100
AcDbMText
 10
2745.656351431232
 20
2485.658343885586
 30
0.0
 40
40.0
 41
558.2059
 71
     1
 72
     5
  1
\fＭＳ Ｐ明朝|b0|i0|c128|p18;側面図
 73
     1
 44
1.0
  0
POINT
  5
12F5
330
1195
100
AcDbEntity
  8
DEFPOINTS
  6
ByBlock
 62
     0
 48
10.0
100
AcDbPoint
 10
3678.217807337145
 20
1529.592936239458
 30
0.0
  0
ENDBLK
  5
12F7
330
1195
100
AcDbEntity
  8
0
 48
10.0
100
AcDbBlockEnd
  0
BLOCK
  5
154C
330
1537
100
AcDbEntity
  8
0
 48
10.0
100
AcDbBlockBegin
  2
A$C7D6F6647
 70
     0
 10
0.0
 20
0.0
 30
0.0
  3
A$C7D6F6647
  1

  0
MTEXT
  5
1538
330
1537
100
AcDbEntity
  8
上線
 48
10.0
100
AcDbMText
 10
213.9511483416536
 20
83.43253345969333
 30
0.0
 40
50.0
 41
1003.0154
 71
     1
 72
     5
  1
\fＭＳ Ｐ明朝|b0|i0|c128|p18;㈱　ウ　チ　コ　ン
 73
     1
 44
1.0
  0
LINE
  5
1539
330
1537
100
AcDbEntity
  8
上線
100
AcDbLine
 10
947.3264000794097
 20
-0.0000026841644285
 30
0.0
 11
0.0000018820296646
 21
-0.0000026841644285
 31
0.0
  0
LINE
  5
153A
330
1537
100
AcDbEntity
  8
上線
100
AcDbLine
 10
947.3264000794097
 20
102.6542732834732
 30
0.0
 11
0.0000018820296646
 21
102.6542732834732
 31
0.0
  0
LINE
  5
153B
330
1537
100
AcDbEntity
  8
上線
100
AcDbLine
 10
947.3264000794097
 20
171.0515387449058
 30
0.0
 11
0.0000018820296646
 21
171.0515387449058
 31
0.0
  0
MTEXT
  5
153C
330
1537
100
AcDbEntity
  8
上線
 48
10.0
100
AcDbMText
 10
193.3162125716371
 20
237.188939368927
 30
0.0
 40
45.0
 41
1003.0154
 71
     1
 72
     5
  1
240×500×120/120×4000
 73
     1
 44
1.0
  0
MTEXT
  5
153D
330
1537
100
AcDbEntity
  8
上線
 48
10.0
100
AcDbMText
 10
207.0566595292039
 20
329.5381109258132
 30
0.0
 40
50.0
 41
1003.0154
 71
     1
 72
     5
  1
長尺U字溝　（H4-24D）
 73
     1
 44
1.0
  0
LINE
  5
153E
330
1537
100
AcDbEntity
  8
上線
100
AcDbLine
 10
947.3264000794097
 20
247.8754820660042
 30
0.0
 11
0.0000018820296646
 21
247.8754820660042
 31
0.0
  0
LINE
  5
153F
330
1537
100
AcDbEntity
  8
上線
100
AcDbLine
 10
947.3264000794097
 20
347.607560230369
 30
0.0
 11
0.0000018820296646
 21
347.607560230369
 31
0.0
  0
LINE
  5
1540
330
1537
100
AcDbEntity
  8
上線
100
AcDbLine
 10
0.0000018820305741
 20
347.607560230369
 30
0.0
 11
0.0000018820296646
 21
-0.0000026841644214
 31
0.0
  0
LINE
  5
1541
330
1537
100
AcDbEntity
  8
上線
100
AcDbLine
 10
166.7361091301863
 20
347.607560230369
 30
0.0
 11
166.7361091301863
 21
171.0515387449058
 31
0.0
  0
MTEXT
  5
1542
330
1537
100
AcDbEntity
  8
上線
 48
10.0
100
AcDbMText
 10
36.95012512673929
 20
155.8003766621804
 30
0.0
 40
35.0
 41
241.0562
 71
     1
 72
     5
  1
\fＭＳ Ｐ明朝|b0|i0|c128|p18;ｓ；1/15
 73
     1
 44
1.0
  0
MTEXT
  5
1543
330
1537
100
AcDbEntity
  8
上線
 48
10.0
100
AcDbMText
 10
20.90609954212232
 20
226.1317266854548
 30
0.0
 40
30.0
 41
241.0562
 71
     1
 72
     5
  1
\fＭＳ Ｐ明朝|b0|i0|c128|p18;寸　法
 73
     1
 44
1.0
  0
MTEXT
  5
1544
330
1537
100
AcDbEntity
  8
上線
 48
10.0
100
AcDbMText
 10
20.90609954212232
 20
319.6553279599602
 30
0.0
 40
30.0
 41
241.0562
 71
     1
 72
     5
  1
\fＭＳ Ｐ明朝|b0|i0|c128|p18;呼び名
 73
     1
 44
1.0
  0
MTEXT
  5
1545
330
1537
100
AcDbEntity
  8
上線
 48
10.0
100
AcDbMText
 10
755.3963111996981
 20
152.87040520158
 30
0.0
 40
35.0
 41
241.0562
 71
     1
 72
     5
  1
S=8.7㎏
 73
     1
 44
1.0
  0
MTEXT
  5
1546
330
1537
100
AcDbEntity
  8
上線
 48
10.0
100
AcDbMText
 10
491.4800048269862
 20
153.8123139598728
 30
0.0
 40
35.0
 41
241.0562
 71
     1
 72
     5
  1
W=1820㎏
 73
     1
 44
1.0
  0
MTEXT
  5
1547
330
1537
100
AcDbEntity
  8
上線
 48
10.0
100
AcDbMText
 10
267.8121528552182
 20
155.8003766621795
 30
0.0
 40
35.0
 41
241.0562
 71
     1
 72
     5
  1
\fＭＳ Ｐ明朝|b0|i0|c128|p18;単位；㎜
 73
     1
 44
1.0
  0
LINE
  5
1548
330
1537
100
AcDbEntity
  8
上線
 48
10.0
100
AcDbLine
 10
236.831601431375
 20
171.0515387449058
 30
0.0
 11
236.8316014313754
 21
102.6542732834732
 31
0.0
  0
LINE
  5
1549
330
1537
100
AcDbEntity
  8
上線
 48
10.0
100
AcDbLine
 10
473.6632009807199
 20
171.0515387449058
 30
0.0
 11
473.6632009807199
 21
102.6542732834732
 31
0.0
  0
LINE
  5
154A
330
1537
100
AcDbEntity
  8
上線
 48
10.0
100
AcDbLine
 10
729.2924737461508
 20
171.0515387449058
 30
0.0
 11
729.2924737461508
 21
102.6542732834732
 31
0.0
  0
LINE
  5
154B
330
1537
100
AcDbEntity
  8
上線
100
AcDbLine
 10
947.3264000794097
 20
-0.0000026841644214
 30
0.0
 11
947.3264000794097
 21
347.607560230369
 31
0.0
  0
ENDBLK
  5
154D
330
1537
100
AcDbEntity
  8
0
 48
10.0
100
AcDbBlockEnd
  0
BLOCK
  5
1582
330
156C
100
AcDbEntity
  8
0
 48
10.0
100
AcDbBlockBegin
  2
A$C2D1C24AC
 70
     0
 10
0.0
 20
0.0
 30
0.0
  3
A$C2D1C24AC
  1

  0
LINE
  5
156D
330
156C
100
AcDbEntity
  8
上線
100
AcDbLine
 10
1146.954623483747
 20
410.0000012727577
 30
0.0
 11
0.0000028775198189
 21
410.0000012727577
 31
0.0
  0
LINE
  5
156E
330
156C
100
AcDbEntity
  8
上線
100
AcDbLine
 10
1146.954623483747
 20
300.0000012727578
 30
0.0
 11
0.0000028775198189
 21
300.0000012727578
 31
0.0
  0
LINE
  5
156F
330
156C
100
AcDbEntity
  8
上線
100
AcDbLine
 10
1146.954623483748
 20
200.0000012727577
 30
0.0
 11
0.0000028775198189
 21
200.0000012727578
 31
0.0
  0
LINE
  5
1570
330
156C
100
AcDbEntity
  8
上線
100
AcDbLine
 10
1146.954623483748
 20
110.0000012727577
 30
0.0
 11
0.0000028775198189
 21
110.0000012727577
 31
0.0
  0
MTEXT
  5
1571
330
156C
100
AcDbEntity
  8
上線
 48
10.0
100
AcDbMText
 10
287.2898841716996
 20
90.42100403926088
 30
0.0
 40
55.0
 41
1003.0154
 71
     1
 72
     5
  1
\fＭＳ Ｐ明朝|b0|i0|c128|p18;㈱　ウ　チ　コ　ン
 73
     1
 44
1.0
  0
LINE
  5
1572
330
156C
100
AcDbEntity
  8
上線
100
AcDbLine
 10
1146.954623483748
 20
0.0000012727577996
 30
0.0
 11
0.0000028775198189
 21
0.0000012727577996
 31
0.0
  0
MTEXT
  5
1573
330
156C
100
AcDbEntity
  8
上線
 48
10.0
100
AcDbMText
 10
280.425363145845
 20
185.9977949755411
 30
0.0
 40
45.0
 41
241.0562
 71
     1
 72
     5
  1
\fＭＳ Ｐ明朝|b0|i0|c128|p18;単位；㎜
 73
     1
 44
1.0
  0
MTEXT
  5
1574
330
156C
100
AcDbEntity
  8
上線
 48
10.0
100
AcDbMText
 10
257.0896302081346
 20
281.5684136637892
 30
0.0
 40
50.0
 41
1003.0154
 71
     1
 72
     5
  1
240×600×120/120×2000
 73
     1
 44
1.0
  0
MTEXT
  5
1575
330
156C
100
AcDbEntity
  8
上線
 48
10.0
100
AcDbMText
 10
253.6646397016684
 20
391.6112741931056
 30
0.0
 40
55.0
 41
1003.0154
 71
     1
 72
     5
  1
長 尺 U 字 溝  （H2-24E）
 73
     1
 44
1.0
  0
LINE
  5
1576
330
156C
100
AcDbEntity
  8
上線
100
AcDbLine
 10
0.0000028775189094
 20
410.0000012727577
 30
0.0
 11
0.0000028775193641
 21
0.0000012727577996
 31
0.0
  0
MTEXT
  5
1577
330
156C
100
AcDbEntity
  8
上線
 48
10.0
100
AcDbMText
 10
40.40026972538908
 20
185.9977949755411
 30
0.0
 40
45.0
 41
241.0562
 71
     1
 72
     5
  1
\fＭＳ Ｐ明朝|b0|i0|c128|p18;ｓ；1/15
 73
     1
 44
1.0
  0
MTEXT
  5
1578
330
156C
100
AcDbEntity
  8
上線
 48
10.0
100
AcDbMText
 10
33.28332422160201
 20
270.9650432799044
 30
0.0
 40
30.0
 41
241.0562
 71
     1
 72
     5
  1
\fＭＳ Ｐ明朝|b0|i0|c128|p18;寸　法
 73
     1
 44
1.0
  0
MTEXT
  5
1579
330
156C
100
AcDbEntity
  8
上線
 48
10.0
100
AcDbMText
 10
33.28332422160201
 20
375.5257053946934
 30
0.0
 40
30.0
 41
241.0562
 71
     1
 72
     5
  1
\fＭＳ Ｐ明朝|b0|i0|c128|p18;呼び名
 73
     1
 44
1.0
  0
LINE
  5
157A
330
156C
100
AcDbEntity
  8
上線
100
AcDbLine
 10
197.7705567116463
 20
410.0000012727578
 30
0.0
 11
197.7705567116468
 21
200.0000012727578
 31
0.0
  0
LINE
  5
157B
330
156C
100
AcDbEntity
  8
上線
100
AcDbLine
 10
267.9578680020722
 20
200.0000012727578
 30
0.0
 11
267.9578680020722
 21
110.0000012727577
 31
0.0
  0
MTEXT
  5
157C
330
156C
100
AcDbEntity
  8
上線
 48
10.0
100
AcDbMText
 10
900.7153566420747
 20
177.416404665686
 30
0.0
 40
45.0
 41
241.0562
 71
     1
 72
     5
  1
S=4.5㎏
 73
     1
 44
1.0
  0
MTEXT
  5
157D
330
156C
100
AcDbEntity
  8
上線
100
AcDbMText
 10
559.7665922418
 20
179.3156714542519
 30
0.0
 40
45.0
 41
364.4508999999999
 71
     1
 72
     5
  1
W=990㎏
 73
     1
 44
1.0
  0
LINE
  5
157E
330
156C
100
AcDbEntity
  8
上線
100
AcDbLine
 10
535.9157331266251
 20
200.0000012727578
 30
0.0
 11
535.9157331266251
 21
110.0000012727577
 31
0.0
  0
POINT
  5
157F
330
156C
100
AcDbEntity
  8
DEFPOINTS
  6
ByBlock
 62
     0
 48
10.0
100
AcDbPoint
 10
682.7997048355773
 20
338.0351527200573
 30
0.0
  0
LINE
  5
1580
330
156C
100
AcDbEntity
  8
上線
100
AcDbLine
 10
852.6502837258895
 20
200.0000012727578
 30
0.0
 11
852.6502837258895
 21
110.0000012727577
 31
0.0
  0
LINE
  5
1581
330
156C
100
AcDbEntity
  8
上線
100
AcDbLine
 10
1146.954623483748
 20
0.0000012727577996
 30
0.0
 11
1146.954623483747
 21
410.0000012727577
 31
0.0
  0
ENDBLK
  5
1583
330
156C
100
AcDbEntity
  8
0
 48
10.0
100
AcDbBlockEnd
  0
BLOCK
  5
162B
330
1626
100
AcDbEntity
  8
0
 48
10.0
100
AcDbBlockBegin
  2
A$C3D631542
 70
     0
 10
0.0
 20
0.0
 30
0.0
  3
A$C3D631542
  1

  0
MTEXT
  5
1627
102
{ACAD_REACTORS
330
1628
102
}
330
1626
100
AcDbEntity
  8
上線
100
AcDbMText
 10
238.839502896315
 20
68.78511025822172
 30
0.0
 40
37.5
 41
0.0
 71
     4
 72
     1
  1
縦　筋\P16-φ5
 73
     1
 44
1.0
  0
LEADER
  5
1628
330
1626
100
AcDbEntity
  8
上線
100
AcDbLeader
  3
STANDARD
 73
     0
 74
     0
 75
     1
 40
118.8202247191011
 41
152.317415730337
 76
     3
 10
0.000003806870609
 20
452.5234384752211
 30
0.0
 10
191.964502896315
 20
-0.0000021013288318
 30
0.0
 10
229.464502896315
 20
-0.0000021013288318
 30
0.0
340
1627
1001
ACAD
1000
DSTYLE
1002
{
1070
    78
1070
     8
1070
   270
1070
     8
1070
   140
1040
2.5
1070
    74
1070
     0
1070
   172
1070
     1
1070
    73
1070
     0
1070
    77
1070
     1
1070
    40
1040
15.0
1070
   147
1040
0.625
1070
    42
1040
0.625
1070
    44
1040
1.25
1070
    43
1040
3.75
1070
   141
1040
2.5
1070
    41
1040
2.5
1070
   273
1070
     8
1070
   274
1070
     4
1070
   143
1040
0.0394
1070
   171
1070
     4
1002
}
  0
MTEXT
  5
1629
102
{ACAD_REACTORS
330
162A
102
}
330
1626
100
AcDbEntity
  8
上線
100
AcDbMText
 10
565.1610966160842
 20
68.89066905041818
 30
0.0
 40
37.5
 41
0.0
 71
     4
 72
     1
  1
横　筋\P7-φ5
 73
     1
 44
1.0
  0
LEADER
  5
162A
330
1626
100
AcDbEntity
  8
上線
100
AcDbLeader
  3
STANDARD
 73
     0
 74
     0
 75
     1
 40
119.0308988764044
 41
137.7808988764044
 76
     3
 10
382.6959432697226
 20
557.5099543452224
 30
0.0
 10
518.2860966160842
 20
0.000219612215929
 30
0.0
 10
555.7860966160842
 20
0.000219612215929
 30
0.0
340
1629
1001
ACAD
1000
DSTYLE
1002
{
1070
    78
1070
     8
1070
   270
1070
     8
1070
   140
1040
2.5
1070
    74
1070
     0
1070
   172
1070
     1
1070
    73
1070
     0
1070
    77
1070
     1
1070
    40
1040
15.0
1070
   147
1040
0.625
1070
    42
1040
0.625
1070
    44
1040
1.25
1070
    43
1040
3.75
1070
   141
1040
2.5
1070
    41
1040
2.5
1070
   273
1070
     8
1070
   274
1070
     4
1070
   143
1040
0.0394
1070
   171
1070
     4
1002
}
  0
ENDBLK
  5
162C
330
1626
100
AcDbEntity
  8
0
 48
10.0
100
AcDbBlockEnd
  0
BLOCK
  5
1D3C
330
1D21
100
AcDbEntity
  8
0
 48
10.0
100
AcDbBlockBegin
  2
A$C4BCF46C3
 70
     0
 10
0.0
 20
0.0
 30
0.0
  3
A$C4BCF46C3
  1

  0
MTEXT
  5
1D22
330
1D21
100
AcDbEntity
  8
0
  6
ByBlock
 62
     0
 48
10.0
100
AcDbMText
 10
345.000001919896
 20
408.1249998705188
 30
0.0
 40
37.5
 41
0.0
 71
     5
 72
     1
  1
\A1;540
 73
     1
 44
1.0
  0
LINE
  5
1D23
330
1D21
100
AcDbEntity
  8
0
  6
ByBlock
 62
     0
 48
10.0
100
AcDbLine
 10
112.500001919896
 20
379.9999998705188
 30
0.0
 11
615.000001919896
 21
379.9999998705188
 31
0.0
  0
SOLID
  5
1D24
330
1D21
100
AcDbEntity
  8
0
  6
ByBlock
 62
     0
 48
10.0
100
AcDbTrace
 10
112.500001919896
 20
386.2499998705188
 30
0.0
 11
112.500001919896
 21
373.7499998705188
 31
0.0
 12
75.00000191989602
 22
379.9999998705188
 32
0.0
 13
75.00000191989602
 23
379.9999998705188
 33
0.0
  0
SOLID
  5
1D25
330
1D21
100
AcDbEntity
  8
0
  6
ByBlock
 62
     0
 48
10.0
100
AcDbTrace
 10
577.500001919896
 20
386.2499998705188
 30
0.0
 11
577.500001919896
 21
373.7499998705188
 31
0.0
 12
615.000001919896
 22
379.9999998705188
 32
0.0
 13
615.000001919896
 23
379.9999998705188
 33
0.0
  0
LINE
  5
1D26
330
1D21
100
AcDbEntity
  8
0
  6
ByBlock
 62
     0
 48
10.0
100
AcDbLine
 10
615.000001919896
 20
39.37499987051888
 30
0.0
 11
615.000001919896
 21
398.7499998705188
 31
0.0
  0
LINE
  5
1D27
330
1D21
100
AcDbEntity
  8
0
  6
ByBlock
 62
     0
 48
10.0
100
AcDbLine
 10
75.00000191989602
 20
39.37499987051888
 30
0.0
 11
75.00000191989602
 21
398.7499998705188
 31
0.0
  0
LINE
  5
1D28
330
1D21
100
AcDbEntity
  8
0
  6
ByBlock
 62
     0
 48
10.0
100
AcDbLine
 10
37.50000191989602
 20
229.9999998705188
 30
0.0
 11
0.0000019198960217
 21
229.9999998705188
 31
0.0
  0
SOLID
  5
1D29
330
1D21
100
AcDbEntity
  8
0
  6
ByBlock
 62
     0
 48
10.0
100
AcDbTrace
 10
37.50000191989602
 20
236.2499998705188
 30
0.0
 11
37.50000191989602
 21
223.7499998705188
 31
0.0
 12
75.00000191989602
 22
229.9999998705188
 32
0.0
 13
75.00000191989602
 23
229.9999998705188
 33
0.0
  0
MTEXT
  5
1D2A
330
1D21
100
AcDbEntity
  8
0
  6
ByBlock
 62
     0
 48
10.0
100
AcDbMText
 10
110.000001919896
 20
258.1249998705188
 30
0.0
 40
37.5
 41
0.0
 71
     5
 72
     1
  1
\A1;70
 73
     1
 44
1.0
  0
TEXT
  5
1D2B
330
1D21
100
AcDbEntity
  8
点線
 62
     0
100
AcDbText
 10
148.3154166544991
 20
270.460955691984
 30
0.0
 40
37.5
  1
50
100
AcDbText
  0
MTEXT
  5
1D2C
330
1D21
100
AcDbEntity
  8
0
  6
ByBlock
 62
     0
 48
10.0
100
AcDbMText
 10
345.000001919896
 20
258.1249998705188
 30
0.0
 40
37.5
 41
0.0
 71
     5
 72
     1
  1
\A1;300
 73
     1
 44
1.0
  0
LINE
  5
1D2D
330
1D21
100
AcDbEntity
  8
0
  6
ByBlock
 62
     0
 48
10.0
100
AcDbLine
 10
232.500001919896
 20
229.9999998705188
 30
0.0
 11
495.0000019198959
 21
229.9999998705188
 31
0.0
  0
LINE
  5
1D2E
330
1D21
100
AcDbEntity
  8
0
  6
ByBlock
 62
     0
 48
10.0
100
AcDbLine
 10
145.000001919896
 20
229.9999998705188
 30
0.0
 11
220.000001919896
 21
229.9999998705188
 31
0.0
  0
LINE
  5
1D2F
330
1D21
100
AcDbEntity
  8
0
  6
ByBlock
 62
     0
 48
10.0
100
AcDbLine
 10
195.000001919896
 20
29.99999987051978
 30
0.0
 11
195.000001919896
 21
248.7499998705188
 31
0.0
  0
SOLID
  5
1D30
330
1D21
100
AcDbEntity
  8
0
  6
ByBlock
 62
     0
 48
10.0
100
AcDbTrace
 10
232.500001919896
 20
236.2499998705188
 30
0.0
 11
232.500001919896
 21
223.7499998705188
 31
0.0
 12
195.000001919896
 22
229.9999998705188
 32
0.0
 13
195.000001919896
 23
229.9999998705188
 33
0.0
  0
SOLID
  5
1D31
330
1D21
100
AcDbEntity
  8
0
  6
ByBlock
 62
     0
 48
10.0
100
AcDbTrace
 10
457.5000019198959
 20
236.2499998705188
 30
0.0
 11
457.5000019198959
 21
223.7499998705188
 31
0.0
 12
495.0000019198959
 22
229.9999998705188
 32
0.0
 13
495.0000019198959
 23
229.9999998705188
 33
0.0
  0
LINE
  5
1D32
330
1D21
100
AcDbEntity
  8
0
  6
ByBlock
 62
     0
 48
10.0
100
AcDbLine
 10
495.0000019198959
 20
30.0000004912581
 30
0.0
 11
495.0000019198959
 21
248.7499998705188
 31
0.0
  0
LINE
  5
1D33
330
1D21
100
AcDbEntity
  8
0
  6
ByBlock
 62
     0
 48
10.0
100
AcDbLine
 10
545.0000019198959
 20
29.99999987051978
 30
0.0
 11
545.0000019198959
 21
248.7499998705188
 31
0.0
  0
LWPOLYLINE
  5
1D34
330
1D21
100
AcDbEntity
  8
上線
 48
10.0
100
AcDbPolyline
 90
        2
 70
     1
 43
5.0
 10
542.500001919896
 20
229.9999998705188
 42
1.0
 10
547.500001919896
 20
229.9999998705188
 42
1.0
  0
MTEXT
  5
1D35
330
1D21
100
AcDbEntity
  8
0
  6
ByBlock
 62
     0
 48
10.0
100
AcDbMText
 10
580.000001919896
 20
258.1249998705188
 30
0.0
 40
37.5
 41
0.0
 71
     5
 72
     1
  1
\A1;70
 73
     1
 44
1.0
  0
MTEXT
  5
1D36
330
1D21
100
AcDbEntity
  8
0
  6
ByBlock
 62
     0
 48
10.0
100
AcDbMText
 10
521.0086509268785
 20
282.960955691984
 30
0.0
 40
37.5
 41
0.0
 71
     5
 72
     1
  1
\A1;50
 73
     1
 44
1.0
  0
LWPOLYLINE
  5
1D37
330
1D21
100
AcDbEntity
  8
上線
 48
10.0
100
AcDbPolyline
 90
        2
 70
     1
 43
5.0
 10
142.500001919896
 20
229.9999998705188
 42
1.0
 10
147.500001919896
 20
229.9999998705188
 42
1.0
  0
LINE
  5
1D38
330
1D21
100
AcDbEntity
  8
0
  6
ByBlock
 62
     0
 48
10.0
100
AcDbLine
 10
145.000001919896
 20
29.99999987051978
 30
0.0
 11
145.000001919896
 21
248.7499998705188
 31
0.0
  0
SOLID
  5
1D39
330
1D21
100
AcDbEntity
  8
0
  6
ByBlock
 62
     0
 48
10.0
100
AcDbTrace
 10
652.500001919896
 20
236.2499998705188
 30
0.0
 11
652.500001919896
 21
223.7499998705188
 31
0.0
 12
615.000001919896
 22
229.9999998705188
 32
0.0
 13
615.000001919896
 23
229.9999998705188
 33
0.0
  0
LINE
  5
1D3A
330
1D21
100
AcDbEntity
  8
0
  6
ByBlock
 62
     0
 48
10.0
100
AcDbLine
 10
652.500001919896
 20
229.9999998705188
 30
0.0
 11
690.000001919896
 21
229.9999998705188
 31
0.0
  0
LINE
  5
1D3B
330
1D21
100
AcDbEntity
  8
上線
100
AcDbLine
 10
145.000001919896
 20
-0.0000001294811227
 30
0.0
 11
75.00000191989602
 21
-0.0000001294811227
 31
0.0
  0
ENDBLK
  5
1D3D
330
1D21
100
AcDbEntity
  8
0
 48
10.0
100
AcDbBlockEnd
  0
ENDSEC
  0
SECTION
  2
ENTITIES
  0
MTEXT
  5
479
330
18
100
AcDbEntity
  8
上線
 48
10.0
100
AcDbMText
 10
2253.72144281457
 20
1430.035937614872
 30
0.0
 40
25.0
 41
0.0
 71
     4
 72
     1
  1
\A1;
 73
     1
 44
1.0
  0
MTEXT
  5
482
330
18
100
AcDbEntity
  8
上線
 48
10.0
100
AcDbMText
 10
2528.397580071227
 20
1457.117940756564
 30
0.0
 40
25.0
 41
0.0
 71
     4
 72
     1
  1
\A1;
 73
     1
 44
1.0
  0
LINE
  5
1639
330
18
100
AcDbEntity
  8
基準線
 48
10.0
100
AcDbLine
 10
4100.421817745762
 20
1561.268142098947
 30
0.0
 11
4100.421817745762
 21
2299.318376555616
 31
0.0
  0
LINE
  5
1ECC
330
18
100
AcDbEntity
  8
上線
 48
10.0
100
AcDbLine
 10
5171.44126479663
 20
-1243.826481025258
 30
0.0
 11
5171.44126479663
 21
-1293.826481025258
 31
0.0
  0
LINE
  5
1ECD
330
18
100
AcDbEntity
  8
上線
 48
10.0
100
AcDbLine
 10
5222.155550510916
 20
-1293.826481025258
 30
0.0
 11
5171.44126479663
 21
-1293.826481025258
 31
0.0
  0
TEXT
  5
1F00
330
18
100
AcDbEntity
  8
WUWAGAKI
100
AcDbText
 10
7924.939259097065
 20
-2394.677006237321
 30
0.0
 40
45.0
  1
長尺Ｕ字溝（F4-30）
100
AcDbText
  0
MTEXT
  5
1FA3
330
18
100
AcDbEntity
  8
0
  6
ByBlock
 62
     0
 48
10.0
100
AcDbMText
 10
5354.802397202813
 20
-1503.819595393366
 30
0.0
 40
30.0
 41
0.0
 71
     5
 72
     1
  1
50R
 73
     1
 44
1.0
  0
LINE
  5
1FA4
330
18
100
AcDbEntity
  8
WUWAGAKI
100
AcDbLine
 10
4536.403456810019
 20
113.8164394111117
 30
0.0
 11
4536.403456810019
 21
-2812.333412385012
 31
0.0
  0
SPLINE
  5
1FA5
330
18
100
AcDbEntity
  8
上線
100
AcDbSpline
210
0.0
220
0.0
230
1.0
 70
     8
 71
     3
 72
    12
 73
     8
 74
     0
 42
0.0000000001
 43
0.0000000001
 40
119.1292141312069
 40
119.1292141312069
 40
119.1292141312069
 40
119.1292141312069
 40
220.1628261824348
 40
457.3418940607759
 40
679.6442565586878
 40
726.7976437010402
 40
752.9737075471708
 40
752.9737075471708
 40
752.9737075471708
 40
752.9737075471708
 10
7675.501743278961
 20
-1693.826481025258
 30
0.0
 10
7697.28931107616
 20
-1676.87330423948
 30
0.0
 10
7836.46399263257
 20
-1595.857649278601
 30
0.0
 10
7555.251717657018
 20
-1446.927261617579
 30
0.0
 10
7675.759038878958
 20
-1344.629683401266
 30
0.0
 10
7737.998229029355
 20
-1271.138661311
 30
0.0
 10
7740.211419442916
 20
-1250.968010889289
 30
0.0
 10
7729.560692320134
 20
-1243.826481025258
 30
0.0
  0
SPLINE
  5
1FA6
330
18
100
AcDbEntity
  8
上線
100
AcDbSpline
210
0.0
220
0.0
230
1.0
 70
     8
 71
     3
 72
    12
 73
     8
 74
     0
 42
0.0000000001
 43
0.0000000001
 40
119.1292141312075
 40
119.1292141312075
 40
119.1292141312075
 40
119.1292141312075
 40
220.1628261824348
 40
457.3418940607759
 40
679.6442565586878
 40
726.7976437010402
 40
752.9737075471701
 40
752.9737075471701
 40
752.9737075471701
 40
752.9737075471701
 10
7660.501743278961
 20
-1693.826481025257
 30
0.0
 10
7682.28931107616
 20
-1676.87330423948
 30
0.0
 10
7821.463992632569
 20
-1595.857649278601
 30
0.0
 10
7540.251717657018
 20
-1446.927261617579
 30
0.0
 10
7660.759038878957
 20
-1344.629683401266
 30
0.0
 10
7722.998229029356
 20
-1271.138661311
 30
0.0
 10
7725.211419442915
 20
-1250.968010889289
 30
0.0
 10
7714.560692320134
 20
-1243.826481025258
 30
0.0
  0
LINE
  5
1FA7
330
18
100
AcDbEntity
  8
OBJECT
100
AcDbLine
 10
5641.44126479663
 20
-1243.826481025258
 30
0.0
 11
5641.44126479663
 21
-1683.826481025259
 31
0.0
  0
LINE
  5
1FA8
330
18
100
AcDbEntity
  8
OBJECT
100
AcDbLine
 10
5101.44126479663
 20
-1243.826481025258
 30
0.0
 11
5101.44126479663
 21
-1683.826481025259
 31
0.0
  0
LINE
  5
1FA9
330
18
100
AcDbEntity
  8
OBJECT
100
AcDbLine
 10
5971.441264796631
 20
-1243.826481025258
 30
0.0
 11
5971.441264796631
 21
-1693.826481025259
 31
0.0
  0
LINE
  5
1FAA
330
18
100
AcDbEntity
  8
OBJECT
100
AcDbLine
 10
8471.441264796631
 20
-1243.826481025259
 30
0.0
 11
8471.441264796631
 21
-1693.826481025258
 31
0.0
  0
LINE
  5
1FAB
330
18
100
AcDbEntity
  8
WUWAGAKI
100
AcDbLine
 10
8807.122375436938
 20
-2812.333412385012
 30
0.0
 11
8807.122375436938
 21
113.8164394111117
 31
0.0
  0
LINE
  5
1FAC
330
18
100
AcDbEntity
  8
OBJECT
 48
10.0
100
AcDbLine
 10
4922.941282363009
 20
-1693.826481025302
 30
0.0
 11
4922.941282363007
 21
-1243.826481025258
 31
0.0
  0
LINE
  5
1FAD
330
18
100
AcDbEntity
  8
OBJECT
 48
10.0
100
AcDbLine
 10
4772.941273599585
 20
-1693.826481025302
 30
0.0
 11
4772.941273599585
 21
-1243.826481025258
 31
0.0
  0
LINE
  5
1FAE
330
18
100
AcDbEntity
  8
上線
 48
10.0
100
AcDbLine
 10
5222.155550510916
 20
-1293.826481025258
 30
0.0
 11
5226.335198563027
 21
-1544.530431355841
 31
0.0
  0
LINE
  5
1FAF
330
18
100
AcDbEntity
  8
上線
 48
10.0
100
AcDbLine
 10
5212.155550510916
 20
-1293.826481025258
 30
0.0
 11
5216.336218815033
 21
-1544.673273923671
 31
0.0
  0
LINE
  5
1FB2
330
18
100
AcDbEntity
  8
WUWAGAKI
100
AcDbLine
 10
4536.403456810019
 20
-2812.333412385012
 30
0.0
 11
8807.122375436938
 21
-2812.333412385012
 31
0.0
  0
LINE
  5
1FB3
330
18
100
AcDbEntity
  8
上線
 48
10.0
100
AcDbLine
 10
5971.441264796631
 20
-1693.826481025259
 30
0.0
 11
7660.501743278962
 21
-1693.826481025257
 31
0.0
  0
LINE
  5
1FB4
330
18
100
AcDbEntity
  8
上線
 48
10.0
100
AcDbLine
 10
5971.441264796631
 20
-1683.826481025258
 30
0.0
 11
7674.166699874807
 21
-1683.826481025258
 31
0.0
  0
LINE
  5
1FB5
330
18
100
AcDbEntity
  8
点線
 48
3.0
100
AcDbLine
 10
7741.835673432849
 20
-1593.826481025258
 30
0.0
 11
5971.441264796631
 21
-1593.826481025258
 31
0.0
  0
LINE
  5
1FB6
330
18
100
AcDbEntity
  8
0
 48
10.0
100
AcDbLine
 10
5072.94128369478
 20
-1593.826481025302
 30
0.0
 11
4892.94128369478
 21
-1593.826481025302
 31
0.0
  0
LINE
  5
1FB7
330
18
100
AcDbEntity
  8
0
 48
10.0
100
AcDbLine
 10
5072.941273599589
 20
-1693.826481025302
 30
0.0
 11
4742.94127359959
 21
-1693.826481025302
 31
0.0
  0
MTEXT
  5
1FB8
330
18
100
AcDbEntity
  8
0
  6
ByBlock
 62
     0
 48
10.0
100
AcDbMText
 10
4892.941280386475
 20
-1643.826481025302
 30
0.0
 40
37.5
 41
0.0
 71
     5
 72
     1
  1
100
 11
0.0000000000000001
 21
1.0
 31
0.0
 73
     1
 44
1.0
  0
SOLID
  5
1FB9
330
18
100
AcDbEntity
  8
0
  6
ByBlock
 62
     0
 48
10.0
100
AcDbTrace
 10
4779.191273599585
 20
-1656.32648102528
 30
0.0
 11
4766.691273599585
 21
-1656.32648102528
 31
0.0
 12
4772.941273599585
 22
-1693.82648102528
 32
0.0
 13
4772.941273599585
 23
-1693.82648102528
 33
0.0
  0
SOLID
  5
1FBA
330
18
100
AcDbEntity
  8
0
  6
ByBlock
 62
     0
 48
10.0
100
AcDbTrace
 10
4916.69128236301
 20
-1656.326469166148
 30
0.0
 11
4929.19128236301
 21
-1656.326469166148
 31
0.0
 12
4922.94128236301
 22
-1693.826469166148
 32
0.0
 13
4922.94128236301
 23
-1693.826469166148
 33
0.0
  0
SOLID
  5
1FBB
330
18
100
AcDbEntity
  8
0
  6
ByBlock
 62
     0
 48
10.0
100
AcDbTrace
 10
4929.191264836166
 20
-1556.326481025297
 30
0.0
 11
4916.691264836168
 21
-1556.326481025297
 31
0.0
 12
4922.941264836164
 22
-1593.826481025297
 32
0.0
 13
4922.941264836164
 23
-1593.826481025297
 33
0.0
  0
SOLID
  5
1FBC
330
18
100
AcDbEntity
  8
0
  6
ByBlock
 62
     0
 48
10.0
100
AcDbTrace
 10
4929.191264836166
 20
-1631.326481025308
 30
0.0
 11
4916.691264836168
 21
-1631.326481025308
 31
0.0
 12
4922.941264836164
 22
-1593.826481025308
 32
0.0
 13
4922.941264836164
 23
-1593.826481025308
 33
0.0
  0
LINE
  5
1FBD
330
18
100
AcDbEntity
  8
上線
100
AcDbLine
 10
5276.330097303003
 20
-1593.816218516693
 30
0.0
 11
5466.915710400845
 21
-1593.816218516693
 31
0.0
  0
LINE
  5
1FBE
330
18
100
AcDbEntity
  8
上線
 48
10.0
100
AcDbLine
 10
5466.915710400845
 20
-1603.816218516693
 30
0.0
 11
5276.330097303003
 21
-1603.816218516694
 31
0.0
  0
LINE
  5
1FBF
330
18
100
AcDbEntity
  8
OBJECT
100
AcDbLine
 10
5111.441264796629
 20
-1693.826481025258
 30
0.0
 11
5631.44126479663
 21
-1693.826481025258
 31
0.0
  0
LINE
  5
1FC0
330
18
100
AcDbEntity
  8
上線
100
AcDbLine
 10
5101.44126479663
 20
-1683.826481025259
 30
0.0
 11
5111.441264796629
 21
-1693.826481025258
 31
0.0
  0
ARC
  5
1FC1
330
18
100
AcDbEntity
  8
上線
100
AcDbCircle
 10
5276.330097303003
 20
-1543.816218516694
 30
0.0
 40
50.0
100
AcDbArc
 50
180.8184554616945
 51
270.0
  0
ARC
  5
1FC2
330
18
100
AcDbEntity
  8
上線
100
AcDbCircle
 10
5276.330097303003
 20
-1543.816218516694
 30
0.0
 40
60.0
100
AcDbArc
 50
180.8184554616945
 51
270.0
  0
SOLID
  5
1FC3
330
18
100
AcDbEntity
  8
0
  6
ByBlock
 62
     0
 48
10.0
100
AcDbTrace
 10
5267.631919751343
 20
-1551.967435586171
 30
0.0
 11
5275.023289750624
 21
-1562.047993583311
 31
0.0
 12
5241.085930759567
 22
-1579.181824582595
 32
0.0
 13
5241.085930759567
 23
-1579.181824582595
 33
0.0
  0
LINE
  5
1FC4
330
18
100
AcDbEntity
  8
OBJECT
 48
10.0
100
AcDbLine
 10
5302.302397202812
 20
-1533.819595393366
 30
0.0
 11
5407.302397202812
 21
-1533.819595393366
 31
0.0
  0
LINE
  5
1FC5
330
18
100
AcDbEntity
  8
WUWAGAKI
 48
10.0
100
AcDbLine
 10
5256.150662414132
 20
-1568.018654773978
 30
0.0
 11
5302.302397202812
 21
-1533.819595393366
 31
0.0
210
0.0
220
0.0
230
-1.0
1001
ACAD
1000
DSTYLE
1002
{
1070
    78
1070
     8
1070
   270
1070
     8
1070
   140
1040
2.5
1070
    74
1070
     0
1070
   172
1070
     1
1070
    73
1070
     0
1070
    77
1070
     1
1070
    40
1040
10.0
1070
   147
1040
0.625
1070
    42
1040
0.625
1070
    44
1040
1.25
1070
    43
1040
3.75
1070
   141
1040
2.5
1070
    41
1040
2.5
1070
   273
1070
     8
1070
   274
1070
     4
1070
   143
1040
0.0394
1070
   171
1070
     4
1002
}
  0
LINE
  5
1FC6
330
18
100
AcDbEntity
  8
上線
100
AcDbLine
 10
5641.44126479663
 20
-1683.826481025259
 30
0.0
 11
5631.44126479663
 21
-1693.826481025258
 31
0.0
  0
LINE
  5
1FC9
330
18
100
AcDbEntity
  8
WUWAGAKI
100
AcDbLine
 10
8294.108745280976
 20
-2514.290118223391
 30
0.0
 11
8294.108745280976
 21
-2612.805182387997
 31
0.0
  0
LINE
  5
1FCA
330
18
100
AcDbEntity
  8
WUWAGAKI
100
AcDbLine
 10
8478.337172043294
 20
-2514.290118223391
 30
0.0
 11
8478.337172043294
 21
-2612.805182387997
 31
0.0
  0
LINE
  5
1FCB
330
18
100
AcDbEntity
  8
WUWAGAKI
100
AcDbLine
 10
7899.939259097066
 20
-2323.853445313639
 30
0.0
 11
7899.939259097066
 21
-2612.805182387997
 31
0.0
  0
LINE
  5
1FCC
330
18
100
AcDbEntity
  8
WUWAGAKI
100
AcDbLine
 10
7647.82278752856
 20
-2323.853445313639
 30
0.0
 11
7647.82278752856
 21
-2743.833877943209
 31
0.0
  0
LINE
  5
1FCD
330
18
100
AcDbEntity
  8
WUWAGAKI
100
AcDbLine
 10
8740.619362628981
 20
-2743.833877943209
 30
0.0
 11
8740.619362628981
 21
-2323.853445313639
 31
0.0
  0
LINE
  5
1FCE
330
18
100
AcDbEntity
  8
WUWAGAKI
100
AcDbLine
 10
7647.82278752856
 20
-2612.805182387997
 30
0.0
 11
8740.619362628979
 21
-2612.805182387997
 31
0.0
  0
LINE
  5
1FCF
330
18
100
AcDbEntity
  8
WUWAGAKI
100
AcDbLine
 10
7647.82278752856
 20
-2743.833877943209
 30
0.0
 11
8740.619362628981
 21
-2743.833877943209
 31
0.0
  0
TEXT
  5
1FD0
330
18
100
AcDbEntity
  8
WUWAGAKI
100
AcDbText
 10
7886.528220428033
 20
-2712.226311136823
 30
0.0
 40
60.0
  1
㈱　ウ　チ　コ　ン
100
AcDbText
  0
LINE
  5
1FD1
330
18
100
AcDbEntity
  8
WUWAGAKI
100
AcDbLine
 10
7647.82278752856
 20
-2418.383733258776
 30
0.0
 11
8737.98754029322
 21
-2418.383733258776
 31
0.0
  0
LINE
  5
1FD2
330
18
100
AcDbEntity
  8
WUWAGAKI
100
AcDbLine
 10
7647.82278752856
 20
-2418.383733258776
 30
0.0
 11
8737.98754029322
 21
-2418.383733258776
 31
0.0
  0
LINE
  5
1FD3
330
18
100
AcDbEntity
  8
WUWAGAKI
100
AcDbLine
 10
7647.82278752856
 20
-2323.853445313639
 30
0.0
 11
8740.619362628981
 21
-2323.853445313639
 31
0.0
  0
LINE
  5
1FD4
330
18
100
AcDbEntity
  8
WUWAGAKI
100
AcDbLine
 10
7647.82278752856
 20
-2514.290118223391
 30
0.0
 11
8740.619362628979
 21
-2514.290118223391
 31
0.0
  0
TEXT
  5
1FD5
330
18
100
AcDbEntity
  8
WUWAGAKI
100
AcDbText
 10
8518.337172043295
 20
-2590.321671605289
 30
0.0
 40
45.0
  1
1280㎏
100
AcDbText
  0
TEXT
  5
1FD6
330
18
100
AcDbEntity
  8
WUWAGAKI
100
AcDbText
 10
7924.939259097065
 20
-2492.692248496303
 30
0.0
 40
47.25
  1
300×300×120/120×4000
100
AcDbText
  0
TEXT
  5
1FD7
330
18
100
AcDbEntity
  8
WUWAGAKI
100
AcDbText
 10
7695.356443177259
 20
-2392.097846041261
 30
0.0
 40
45.0
  1
種　別
100
AcDbText
  0
TEXT
  5
1FD8
330
18
100
AcDbEntity
  8
WUWAGAKI
100
AcDbText
 10
7720.348989051919
 20
-2589.734639069724
 30
0.0
 40
45.0
  1
縮尺
100
AcDbText
  0
TEXT
  5
1FD9
330
18
100
AcDbEntity
  8
WUWAGAKI
100
AcDbText
 10
7692.701231290839
 20
-2493.236686078243
 30
0.0
 40
45.0
  1
寸　法
100
AcDbText
  0
TEXT
  5
1FDB
330
18
100
AcDbEntity
  8
WUWAGAKI
100
AcDbText
 10
7965.631531842615
 20
-2588.432723640267
 30
0.0
 40
45.0
  1
S＝　1：15
100
AcDbText
  0
TEXT
  5
1FDC
330
18
100
AcDbEntity
  8
WUWAGAKI
100
AcDbText
 10
8321.036521033121
 20
-2588.383286128726
 30
0.0
 40
45.0
  1
重量
100
AcDbText
  0
LINE
  5
1FDD
330
18
100
AcDbEntity
  8
上線
 48
10.0
100
AcDbLine
 10
8471.441264796631
 20
-1693.826481025258
 30
0.0
 11
7675.501743278961
 21
-1693.826481025258
 31
0.0
  0
LINE
  5
1FDE
330
18
100
AcDbEntity
  8
上線
 48
10.0
100
AcDbLine
 10
8471.441264796631
 20
-1683.826481025258
 30
0.0
 11
7689.166699874807
 21
-1683.826481025258
 31
0.0
  0
LINE
  5
1FDF
330
18
100
AcDbEntity
  8
点線
 48
3.0
100
AcDbLine
 10
7756.83567343285
 20
-1593.826481025258
 30
0.0
 11
8471.441264796631
 21
-1593.826481025258
 31
0.0
  0
LINE
  5
1FE0
330
18
100
AcDbEntity
  8
WUWAGAKI
100
AcDbLine
 10
8807.122375436938
 20
113.8164394111117
 30
0.0
 11
4536.403456810019
 21
113.8164394111117
 31
0.0
  0
LINE
  5
1FE1
330
18
100
AcDbEntity
  8
上線
 48
10.0
100
AcDbLine
 10
5971.441264796631
 20
-1243.826481025258
 30
0.0
 11
7714.560692320134
 21
-1243.826481025258
 31
0.0
  0
LINE
  5
1FE2
330
18
100
AcDbEntity
  8
点線
 48
3.0
100
AcDbLine
 10
7703.452619035457
 20
-1293.826483617401
 30
0.0
 11
5971.441264796631
 21
-1293.826483617401
 31
0.0
  0
LINE
  5
1FE3
330
18
100
AcDbEntity
  8
OBJECT
 48
10.0
100
AcDbLine
 10
8471.441264796631
 20
-913.8264897886802
 30
0.0
 11
5971.441264796631
 21
-913.8264897886783
 31
0.0
  0
MTEXT
  5
1FE4
330
18
100
AcDbEntity
  8
上線
 48
10.0
100
AcDbMText
 10
7114.989026385265
 20
-274.5709942425942
 30
0.0
 40
50.0
 41
558.2059
 71
     1
 72
     5
  1
\fＭＳ Ｐ明朝|b0|i0|c128|p18;側面図
 73
     1
 44
1.0
  0
LINE
  5
1FE5
330
18
100
AcDbEntity
  8
上線
100
AcDbLine
 10
7090.934156960189
 20
-356.7170462538865
 30
0.0
 11
7351.948372633073
 21
-356.7170462538865
 31
0.0
  0
LINE
  5
1FE6
330
18
100
AcDbEntity
  8
上線
100
AcDbLine
 10
7093.934156960187
 20
-353.7170462538865
 30
0.0
 11
7348.948372633073
 21
-353.7170462538865
 31
0.0
  0
LINE
  5
1FE7
330
18
100
AcDbEntity
  8
上線
100
AcDbLine
 10
7351.948372633073
 20
-257.0126635078804
 30
0.0
 11
7090.934156960189
 21
-257.0126635078804
 31
0.0
  0
LINE
  5
1FE8
330
18
100
AcDbEntity
  8
上線
100
AcDbLine
 10
7348.948372633073
 20
-260.0126635078809
 30
0.0
 11
7093.934156960187
 21
-260.0126635078809
 31
0.0
  0
MTEXT
  5
1FE9
330
18
100
AcDbEntity
  8
0
  6
ByBlock
 62
     0
 48
10.0
100
AcDbMText
 10
5606.441264796663
 20
-1035.326498591635
 30
0.0
 40
37.5
 41
0.0
 71
     5
 72
     1
  1
70
 73
     1
 44
1.0
  0
MTEXT
  5
1FEA
330
18
100
AcDbEntity
  8
0
  6
ByBlock
 62
     0
 48
10.0
100
AcDbMText
 10
5371.441264796663
 20
-1035.326489828217
 30
0.0
 40
37.5
 41
0.0
 71
     5
 72
     1
  1
300
 73
     1
 44
1.0
  0
MTEXT
  5
1FEB
330
18
100
AcDbEntity
  8
0
  6
ByBlock
 62
     0
 48
10.0
100
AcDbMText
 10
5136.441264796619
 20
-1035.326496615103
 30
0.0
 40
37.5
 41
0.0
 71
     5
 72
     1
  1
70
 73
     1
 44
1.0
  0
LINE
  5
1FEC
330
18
100
AcDbEntity
  8
0
 48
10.0
100
AcDbLine
 10
5641.441264796663
 20
-1215.326489828214
 30
0.0
 11
5641.441264796663
 21
-885.3264898282141
 31
0.0
  0
LINE
  5
1FED
330
18
100
AcDbEntity
  8
0
 48
10.0
100
AcDbLine
 10
5101.441264796619
 20
-1215.326489828217
 30
0.0
 11
5101.441264796619
 21
-885.3264898282176
 31
0.0
  0
LINE
  5
1FEE
330
18
100
AcDbEntity
  8
0
 48
10.0
100
AcDbLine
 10
5072.94128369478
 20
-1293.826481025258
 30
0.0
 11
4892.94128369478
 21
-1293.826481025258
 31
0.0
  0
LINE
  5
1FEF
330
18
100
AcDbEntity
  8
0
 48
10.0
100
AcDbLine
 10
5072.941273599585
 20
-1243.826481025258
 30
0.0
 11
4742.941273599586
 21
-1243.826481025258
 31
0.0
  0
LINE
  5
1FF0
330
18
100
AcDbEntity
  8
OBJECT
 48
10.0
100
AcDbLine
 10
5101.441252937487
 20
-1065.326498591637
 30
0.0
 11
4988.941252937486
 21
-1065.326498591637
 31
0.0
  0
SOLID
  5
1FF1
330
18
100
AcDbEntity
  8
0
  6
ByBlock
 62
     0
 48
10.0
100
AcDbTrace
 10
5063.941241078333
 20
-1059.076498591641
 30
0.0
 11
5063.941241078333
 21
-1071.576498591641
 31
0.0
 12
5101.441241078333
 22
-1065.326498591641
 32
0.0
 13
5101.441241078333
 23
-1065.326498591641
 33
0.0
  0
SOLID
  5
1FF2
330
18
100
AcDbEntity
  8
0
  6
ByBlock
 62
     0
 48
10.0
100
AcDbTrace
 10
4929.191273599585
 20
-1331.326375864213
 30
0.0
 11
4916.691273599589
 21
-1331.326375864213
 31
0.0
 12
4922.941273599586
 22
-1293.826375864213
 32
0.0
 13
4922.941273599586
 23
-1293.826375864213
 33
0.0
  0
MTEXT
  5
1FF3
330
18
100
AcDbEntity
  8
0
  6
ByBlock
 62
     0
 48
10.0
100
AcDbMText
 10
4742.941273599586
 20
-1468.826481025258
 30
0.0
 40
37.5
 41
0.0
 71
     5
 72
     1
  1
450
 11
0.0000000000000001
 21
1.0
 31
0.0
 73
     1
 44
1.0
  0
MTEXT
  5
1FF4
330
18
100
AcDbEntity
  8
0
  6
ByBlock
 62
     0
 48
10.0
100
AcDbMText
 10
4892.941273599589
 20
-1443.826481025259
 30
0.0
 40
37.5
 41
0.0
 71
     5
 72
     1
  1
300
 11
0.0000000000000001
 21
1.0
 31
0.0
 73
     1
 44
1.0
  0
LINE
  5
1FF5
330
18
100
AcDbEntity
  8
OBJECT
 48
10.0
100
AcDbLine
 10
4922.941284339536
 20
-1243.826492884412
 30
0.0
 11
4922.941284339536
 21
-1131.326492884412
 31
0.0
  0
MTEXT
  5
1FF6
330
18
100
AcDbEntity
  8
0
  6
ByBlock
 62
     0
 48
10.0
100
AcDbMText
 10
4892.941282363008
 20
-1168.826481025258
 30
0.0
 40
37.5
 41
0.0
 71
     5
 72
     1
  1
50
 11
0.0000000000000001
 21
1.0
 31
0.0
 73
     1
 44
1.0
  0
SOLID
  5
1FF7
330
18
100
AcDbEntity
  8
0
  6
ByBlock
 62
     0
 48
10.0
100
AcDbTrace
 10
4779.191273599585
 20
-1281.32648102528
 30
0.0
 11
4766.691273599586
 21
-1281.32648102528
 31
0.0
 12
4772.941273599585
 22
-1243.826481025281
 32
0.0
 13
4772.941273599585
 23
-1243.826481025281
 33
0.0
  0
SOLID
  5
1FF8
330
18
100
AcDbEntity
  8
0
  6
ByBlock
 62
     0
 48
10.0
100
AcDbTrace
 10
4929.191284339533
 20
-1206.326481025258
 30
0.0
 11
4916.691284339533
 21
-1206.326481025258
 31
0.0
 12
4922.941284339533
 22
-1243.826481025258
 32
0.0
 13
4922.941284339533
 23
-1243.826481025258
 33
0.0
  0
LINE
  5
1FFD
330
18
100
AcDbEntity
  8
OBJECT
 48
10.0
100
AcDbLine
 10
5226.441295641366
 20
-1409.826494286685
 30
0.0
 11
5516.44129564141
 21
-1409.826494286683
 31
0.0
  0
LINE
  5
1FFE
330
18
100
AcDbEntity
  8
0
 48
10.0
100
AcDbLine
 10
5226.441295641366
 20
-1499.826495618458
 30
0.0
 11
5226.441295641366
 21
-1379.826495618458
 31
0.0
  0
SOLID
  5
1FFF
330
18
100
AcDbEntity
  8
0
  6
ByBlock
 62
     0
 48
10.0
100
AcDbTrace
 10
5263.941295641373
 20
-1416.076476759843
 30
0.0
 11
5263.941295641373
 21
-1403.576476759845
 31
0.0
 12
5226.441295641373
 22
-1409.826476759841
 32
0.0
 13
5226.441295641373
 23
-1409.826476759841
 33
0.0
  0
MTEXT
  5
2001
330
18
100
AcDbEntity
  8
0
  6
ByBlock
 62
     0
 48
10.0
100
AcDbMText
 10
5371.44129564141
 20
-1379.826485523265
 30
0.0
 40
37.5
 41
0.0
 71
     5
 72
     1
  1
290
 73
     1
 44
1.0
  0
LINE
  5
2002
330
18
100
AcDbEntity
  8
0
 48
10.0
100
AcDbLine
 10
5516.44129564141
 20
-1499.826495618458
 30
0.0
 11
5516.44129564141
 21
-1379.826495618458
 31
0.0
  0
SOLID
  5
2003
330
18
100
AcDbEntity
  8
0
  6
ByBlock
 62
     0
 48
10.0
100
AcDbTrace
 10
5478.941400802455
 20
-1416.076485523263
 30
0.0
 11
5478.941400802455
 21
-1403.576485523265
 31
0.0
 12
5516.441400802455
 22
-1409.826485523262
 32
0.0
 13
5516.441400802455
 23
-1409.826485523262
 33
0.0
  0
LINE
  5
2005
330
18
100
AcDbEntity
  8
OBJECT
 48
10.0
100
AcDbLine
 10
5101.441264796619
 20
-1065.326498591637
 30
0.0
 11
5641.441264796663
 21
-1065.326498591635
 31
0.0
  0
LINE
  5
2006
330
18
100
AcDbEntity
  8
0
 48
10.0
100
AcDbLine
 10
5221.441264796619
 20
-1215.326499923409
 30
0.0
 11
5221.441264796619
 21
-1035.326499923408
 31
0.0
  0
LINE
  5
2007
330
18
100
AcDbEntity
  8
0
 48
10.0
100
AcDbLine
 10
5171.441258083524
 20
-1215.326505886972
 30
0.0
 11
5171.441258083524
 21
-1035.326505886972
 31
0.0
  0
LINE
  5
2008
330
18
100
AcDbEntity
  8
上線
100
AcDbLine
 10
5171.44126479663
 20
-1243.826481025258
 30
0.0
 11
5101.44126479663
 21
-1243.826481025258
 31
0.0
  0
SOLID
  5
200A
330
18
100
AcDbEntity
  8
0
  6
ByBlock
 62
     0
 48
10.0
100
AcDbTrace
 10
5258.941264796625
 20
-1071.576481064794
 30
0.0
 11
5258.941264796625
 21
-1059.076481064796
 31
0.0
 12
5221.441264796625
 22
-1065.326481064792
 32
0.0
 13
5221.441264796625
 23
-1065.326481064792
 33
0.0
  0
LWPOLYLINE
  5
200B
330
18
100
AcDbEntity
  8
上書線
100
AcDbPolyline
 90
        2
 70
     1
 43
3.75
 10
5169.566258083523
 20
-1065.326498591637
 42
1.0
 10
5173.316258083524
 20
-1065.326498591637
 42
1.0
  0
LINE
  5
200C
330
18
100
AcDbEntity
  8
0
 48
10.0
100
AcDbLine
 10
5571.441264796663
 20
-1215.326489828217
 30
0.0
 11
5571.441264796663
 21
-1035.326489828217
 31
0.0
  0
LINE
  5
200D
330
18
100
AcDbEntity
  8
0
 48
10.0
100
AcDbLine
 10
5521.441264796663
 20
-1215.326499923409
 30
0.0
 11
5521.441264796663
 21
-1035.326499923408
 31
0.0
  0
LINE
  5
200E
330
18
100
AcDbEntity
  8
0
 48
10.0
100
AcDbLine
 10
5571.441271509758
 20
-1215.326505886972
 30
0.0
 11
5571.441271509758
 21
-1035.326505886972
 31
0.0
  0
LINE
  5
200F
330
18
100
AcDbEntity
  8
上線
100
AcDbLine
 10
5571.44126479663
 20
-1243.826481025258
 30
0.0
 11
5641.44126479663
 21
-1243.826481025258
 31
0.0
  0
SOLID
  5
2011
330
18
100
AcDbEntity
  8
0
  6
ByBlock
 62
     0
 48
10.0
100
AcDbTrace
 10
5483.941369957708
 20
-1071.576489828214
 30
0.0
 11
5483.941369957708
 21
-1059.076489828217
 31
0.0
 12
5521.441369957708
 22
-1065.326489828214
 32
0.0
 13
5521.441369957708
 23
-1065.326489828214
 33
0.0
  0
LWPOLYLINE
  5
2012
330
18
100
AcDbEntity
  8
上書線
100
AcDbPolyline
 90
        2
 70
     1
 43
3.75
 10
5573.316271509757
 20
-1065.326498591637
 42
-1.0
 10
5569.566271509757
 20
-1065.326498591637
 42
-1.0
  0
SOLID
  5
2013
330
18
100
AcDbEntity
  8
0
  6
ByBlock
 62
     0
 48
10.0
100
AcDbTrace
 10
5678.941288514949
 20
-1059.076498591641
 30
0.0
 11
5678.941288514949
 21
-1071.576498591641
 31
0.0
 12
5641.44128851495
 22
-1065.326498591641
 32
0.0
 13
5641.44128851495
 23
-1065.326498591641
 33
0.0
  0
LINE
  5
2014
330
18
100
AcDbEntity
  8
OBJECT
 48
10.0
100
AcDbLine
 10
5641.441276655795
 20
-1065.326498591637
 30
0.0
 11
5753.941276655795
 21
-1065.326498591637
 31
0.0
  0
LINE
  5
2015
330
18
100
AcDbEntity
  8
OBJECT
 48
10.0
100
AcDbLine
 10
5101.441264796619
 20
-915.3264898282142
 30
0.0
 11
5641.441264796663
 21
-915.3264898282142
 31
0.0
  0
MTEXT
  5
2016
330
18
100
AcDbEntity
  8
0
  6
ByBlock
 62
     0
 48
10.0
100
AcDbMText
 10
5371.441264796663
 20
-885.3264898282141
 30
0.0
 40
37.5
 41
0.0
 71
     5
 72
     1
  1
540
 73
     1
 44
1.0
  0
MTEXT
  5
2017
330
18
100
AcDbEntity
  8
0
  6
ByBlock
 62
     0
 48
10.0
100
AcDbMText
 10
5196.441264796619
 20
-1005.326498591635
 30
0.0
 40
37.5
 41
0.0
 71
     5
 72
     1
  1
50
 73
     1
 44
1.0
  0
SOLID
  5
2018
330
18
100
AcDbEntity
  8
0
  6
ByBlock
 62
     0
 48
10.0
100
AcDbTrace
 10
5138.941264796641
 20
-921.5764898282142
 30
0.0
 11
5138.941264796641
 21
-909.0764898282142
 31
0.0
 12
5101.44126479664
 22
-915.3264898282142
 32
0.0
 13
5101.44126479664
 23
-915.3264898282142
 33
0.0
  0
MTEXT
  5
2019
330
18
100
AcDbEntity
  8
0
  6
ByBlock
 62
     0
 48
10.0
100
AcDbMText
 10
5546.441264796663
 20
-1005.326498591635
 30
0.0
 40
37.5
 41
0.0
 71
     5
 72
     1
  1
50
 73
     1
 44
1.0
  0
SOLID
  5
201A
330
18
100
AcDbEntity
  8
0
  6
ByBlock
 62
     0
 48
10.0
100
AcDbTrace
 10
5603.941264796641
 20
-921.5764898282142
 30
0.0
 11
5603.941264796641
 21
-909.0764898282142
 31
0.0
 12
5641.44126479664
 22
-915.3264898282142
 32
0.0
 13
5641.44126479664
 23
-915.3264898282142
 33
0.0
  0
LINE
  5
201B
330
18
100
AcDbEntity
  8
0
 48
10.0
100
AcDbLine
 10
5971.441264796631
 20
-1213.826481025258
 30
0.0
 11
5971.441264796631
 21
-883.8264810252585
 31
0.0
  0
SOLID
  5
201C
330
18
100
AcDbEntity
  8
0
  6
ByBlock
 62
     0
 48
10.0
100
AcDbTrace
 10
6008.941264796653
 20
-920.0764810252566
 30
0.0
 11
6008.941264796653
 21
-907.5764810252557
 31
0.0
 12
5971.441264796652
 22
-913.8264810252548
 32
0.0
 13
5971.441264796652
 23
-913.8264810252548
 33
0.0
  0
LINE
  5
201D
330
18
100
AcDbEntity
  8
上線
100
AcDbLine
 10
5498.196510771453
 20
-260.0126635078813
 30
0.0
 11
5242.686080511322
 21
-260.0126635078813
 31
0.0
  0
LINE
  5
201E
330
18
100
AcDbEntity
  8
上線
100
AcDbLine
 10
5501.196510771453
 20
-257.0126635078809
 30
0.0
 11
5239.686080511322
 21
-257.0126635078809
 31
0.0
  0
LINE
  5
201F
330
18
100
AcDbEntity
  8
上線
100
AcDbLine
 10
5242.686080511322
 20
-353.717046253887
 30
0.0
 11
5498.196510771453
 21
-353.717046253887
 31
0.0
  0
LINE
  5
2020
330
18
100
AcDbEntity
  8
上線
100
AcDbLine
 10
5239.686080511322
 20
-356.717046253887
 30
0.0
 11
5501.196510771453
 21
-356.717046253887
 31
0.0
  0
MTEXT
  5
2021
330
18
100
AcDbEntity
  8
上線
 48
10.0
100
AcDbMText
 10
5263.7409499364
 20
-274.5709942425946
 30
0.0
 40
50.0
 41
558.2059
 71
     1
 72
     5
  1
\fＭＳ Ｐ明朝|b0|i0|c128|p18;正面図
 73
     1
 44
1.0
  0
LINE
  5
2022
330
18
100
AcDbEntity
  8
上線
100
AcDbLine
 10
5239.686080511322
 20
-257.0126635078809
 30
0.0
 11
5239.686080511322
 21
-356.717046253887
 31
0.0
  0
LINE
  5
2023
330
18
100
AcDbEntity
  8
上線
100
AcDbLine
 10
5242.686080511322
 20
-260.0126635078813
 30
0.0
 11
5242.686080511322
 21
-353.717046253887
 31
0.0
  0
LINE
  5
2024
330
18
100
AcDbEntity
  8
上線
100
AcDbLine
 10
5498.196510771453
 20
-353.717046253887
 30
0.0
 11
5498.196510771453
 21
-260.0126635078813
 31
0.0
  0
LINE
  5
2025
330
18
100
AcDbEntity
  8
上線
100
AcDbLine
 10
5501.196510771453
 20
-356.717046253887
 30
0.0
 11
5501.196510771453
 21
-257.0126635078809
 31
0.0
  0
LINE
  5
2026
330
18
100
AcDbEntity
  8
上線
100
AcDbLine
 10
7090.934156960189
 20
-257.0126635078804
 30
0.0
 11
7090.934156960189
 21
-356.7170462538865
 31
0.0
  0
LINE
  5
2027
330
18
100
AcDbEntity
  8
上線
100
AcDbLine
 10
7093.934156960187
 20
-260.0126635078809
 30
0.0
 11
7093.934156960187
 21
-353.7170462538865
 31
0.0
  0
LINE
  5
2028
330
18
100
AcDbEntity
  8
0
 48
10.0
100
AcDbLine
 10
8471.441264796631
 20
-1213.826481025258
 30
0.0
 11
8471.441264796631
 21
-883.8264810252585
 31
0.0
  0
LINE
  5
2029
330
18
100
AcDbEntity
  8
上線
 48
10.0
100
AcDbLine
 10
8471.441264796631
 20
-1243.826481025259
 30
0.0
 11
7729.560692320134
 21
-1243.826481025258
 31
0.0
  0
LINE
  5
202A
330
18
100
AcDbEntity
  8
点線
 48
3.0
100
AcDbLine
 10
7718.452619035456
 20
-1293.826483617401
 30
0.0
 11
8471.441264796631
 21
-1293.826483617401
 31
0.0
  0
MTEXT
  5
202B
330
18
100
AcDbEntity
  8
0
  6
ByBlock
 62
     0
 48
10.0
100
AcDbMText
 10
7221.441264796631
 20
-883.8264810252576
 30
0.0
 40
37.5
 41
0.0
 71
     5
 72
     1
  1
4000
 73
     1
 44
1.0
  0
SOLID
  5
202C
330
18
100
AcDbEntity
  8
0
  6
ByBlock
 62
     0
 48
10.0
100
AcDbTrace
 10
8433.94126479661
 20
-920.0764810252566
 30
0.0
 11
8433.94126479661
 21
-907.5764810252557
 31
0.0
 12
8471.441264796609
 22
-913.8264810252548
 32
0.0
 13
8471.441264796609
 23
-913.8264810252548
 33
0.0
  0
LINE
  5
202D
330
18
100
AcDbEntity
  8
上線
100
AcDbLine
 10
7351.948372633073
 20
-356.7170462538865
 30
0.0
 11
7351.948372633073
 21
-257.0126635078804
 31
0.0
  0
LINE
  5
202E
330
18
100
AcDbEntity
  8
上線
100
AcDbLine
 10
7348.948372633073
 20
-353.7170462538865
 30
0.0
 11
7348.948372633073
 21
-260.0126635078809
 31
0.0
  0
LINE
  5
202F
330
18
100
AcDbEntity
  8
上線
 48
10.0
100
AcDbLine
 10
5531.090257192932
 20
-1293.826481025258
 30
0.0
 11
5526.909588888815
 21
-1544.673273923671
 31
0.0
  0
LINE
  5
2030
330
18
100
AcDbEntity
  8
上線
 48
10.0
100
AcDbLine
 10
5521.090257192931
 20
-1293.826481025258
 30
0.0
 11
5516.91060914082
 21
-1544.530431355841
 31
0.0
  0
LINE
  5
2031
330
18
100
AcDbEntity
  8
上線
 48
10.0
100
AcDbLine
 10
5521.090257192931
 20
-1293.826481025258
 30
0.0
 11
5571.804542907218
 21
-1293.826481025258
 31
0.0
  0
LINE
  5
2032
330
18
100
AcDbEntity
  8
上線
 48
10.0
100
AcDbLine
 10
5571.804542907218
 20
-1243.826481025258
 30
0.0
 11
5571.804542907218
 21
-1293.826481025258
 31
0.0
  0
ARC
  5
2033
330
18
100
AcDbEntity
  8
上線
100
AcDbCircle
 10
5466.915710400845
 20
-1543.816218516694
 30
0.0
 40
50.0
100
AcDbArc
 50
270.0
 51
359.1815445383054
  0
ARC
  5
2034
330
18
100
AcDbEntity
  8
上線
100
AcDbCircle
 10
5466.915710400845
 20
-1543.816218516694
 30
0.0
 40
60.0
100
AcDbArc
 50
270.0
 51
359.1815445383054
  0
ENDSEC
  0
SECTION
  2
OBJECTS
  0
DICTIONARY
  5
C
330
0
100
AcDbDictionary
281
     1
  3
ACAD_GROUP
350
D
  3
ACAD_LAYOUT
350
1659
  3
ACAD_MLINESTYLE
350
1B
  3
ACAD_PLOTSETTINGS
350
165A
  3
ACAD_PLOTSTYLENAME
350
1657
  3
DRAWINGVARIABLESDICT
350
E12
  0
DICTIONARY
  5
D
102
{ACAD_REACTORS
330
C
102
}
330
C
100
AcDbDictionary
281
     1
  0
DICTIONARY
  5
1659
102
{ACAD_REACTORS
330
C
102
}
330
C
100
AcDbDictionary
281
     1
  3
Model
350
165B
  3
ﾚｲｱｳﾄ1
350
165C
  0
DICTIONARY
  5
1B
102
{ACAD_REACTORS
330
C
102
}
330
C
100
AcDbDictionary
281
     1
  3
STANDARD
350
1C
  0
DICTIONARY
  5
165A
102
{ACAD_REACTORS
330
C
102
}
330
C
100
AcDbDictionary
281
     1
  0
ACDBDICTIONARYWDFLT
  5
1657
102
{ACAD_REACTORS
330
C
102
}
330
C
100
AcDbDictionary
281
     1
  3
Normal
350
1658
100
AcDbDictionaryWithDefault
340
1658
  0
DICTIONARY
  5
E12
102
{ACAD_REACTORS
330
C
102
}
330
C
100
AcDbDictionary
281
     1
1001
DRAWINGVARIABLESXDATA
1000
POLARANG
1000
0.785398
1000
POLARMODE
1000
0
  0
LAYOUT
  5
165B
102
{ACAD_REACTORS
330
1659
102
}
330
1659
100
AcDbPlotSettings
  1

  2
Canon LBP3800 LIPSLX
  4
A4
  6

 40
5.873749732971191
 41
5.873747825622558
 42
5.873748779296875
 43
5.873748779296875
 44
209.9733276367187
 45
296.9259948730469
 46
0.0
 47
0.0
 48
0.0
 49
0.0
140
0.0
141
0.0
142
1.0
143
1.0
 70
 11952
 72
     1
 73
     1
 74
     0
  7

 75
     0
147
1.0
148
-266.6037106573812
149
231.7688304748317
100
AcDbLayout
  1
Model
 70
     1
 71
     0
 10
0.0
 20
0.0
 11
12.0
 21
9.0
 12
0.0
 22
0.0
 32
0.0
 14
0.0
 24
0.0
 34
0.0
 15
0.0
 25
0.0
 35
0.0
146
0.0
 13
0.0
 23
0.0
 33
0.0
 16
1.0
 26
0.0
 36
0.0
 17
0.0
 27
1.0
 37
0.0
 76
     0
330
18
  0
LAYOUT
  5
165C
102
{ACAD_REACTORS
330
1659
102
}
330
1659
100
AcDbPlotSettings
  1

  2
Canon LBP3800 LIPSLX
  4

  6

 40
0.0
 41
0.0
 42
0.0
 43
0.0
 44
0.0
 45
0.0
 46
0.0
 47
0.0
 48
0.0
 49
0.0
140
0.0
141
0.0
142
1.0
143
1.0
 70
   688
 72
     0
 73
     0
 74
     5
  7

 75
    16
147
1.0
148
0.0
149
0.0
100
AcDbLayout
  1
ﾚｲｱｳﾄ1
 70
     1
 71
     1
 10
0.0
 20
0.0
 11
420.0
 21
297.0
 12
0.0
 22
0.0
 32
0.0
 14
1.000000000000000E+20
 24
1.000000000000000E+20
 34
1.000000000000000E+20
 15
-1.000000000000000E+20
 25
-1.000000000000000E+20
 35
-1.000000000000000E+20
146
0.0
 13
0.0
 23
0.0
 33
0.0
 16
1.0
 26
0.0
 36
0.0
 17
0.0
 27
1.0
 37
0.0
 76
     0
330
15
  0
MLINESTYLE
  5
1C
102
{ACAD_REACTORS
330
1B
102
}
330
1B
100
AcDbMlineStyle
  2
STANDARD
 70
     0
  3

 62
   256
 51
90.0
 52
90.0
 71
     2
 49
0.5
 62
   256
  6
BYLAYER
 49
-0.5
 62
   256
  6
BYLAYER
  0
ACDBPLACEHOLDER
  5
1658
102
{ACAD_REACTORS
330
1657
102
}
330
1657
  0
ENDSEC
  0
EOF
