  0
SECTION
  2
HEADER
  9
$ACADVER
  1
AC1015
  9
$ACADMAINTVER
 70
     6
  9
$DWGCODEPAGE
  3
ANSI_932
  9
$INSBASE
 10
0.0
 20
0.0
 30
0.0
  9
$EXTMIN
 10
141.1656031653292
 20
-1624.248347538328
 30
0.0
  9
$EXTMAX
 10
8755.390122025536
 20
2686.170489183679
 30
0.0
  9
$LIMMIN
 10
0.0
 20
0.0
  9
$LIMMAX
 10
4200.0
 20
2970.0
  9
$ORTHOMODE
 70
     0
  9
$REGENMODE
 70
     1
  9
$FILLMODE
 70
     1
  9
$QTEXTMODE
 70
     0
  9
$MIRRTEXT
 70
     1
  9
$LTSCALE
 40
1.0
  9
$ATTMODE
 70
     1
  9
$TEXTSIZE
 40
2.5
  9
$TRACEWID
 40
1.0
  9
$TEXTSTYLE
  7
STANDARD
  9
$CLAYER
  8
OBJECT
  9
$CELTYPE
  6
BYLAYER
  9
$CECOLOR
 62
   256
  9
$CELTSCALE
 40
10.0
  9
$DISPSILH
 70
     0
  9
$DIMSCALE
 40
15.0
  9
$DIMASZ
 40
2.5
  9
$DIMEXO
 40
0.625
  9
$DIMDLI
 40
3.75
  9
$DIMRND
 40
0.0
  9
$DIMDLE
 40
0.0
  9
$DIMEXE
 40
1.25
  9
$DIMTP
 40
0.0
  9
$DIMTM
 40
0.0
  9
$DIMTXT
 40
2.5
  9
$DIMCEN
 40
2.5
  9
$DIMTSZ
 40
0.0
  9
$DIMTOL
 70
     0
  9
$DIMLIM
 70
     0
  9
$DIMTIH
 70
     0
  9
$DIMTOH
 70
     0
  9
$DIMSE1
 70
     0
  9
$DIMSE2
 70
     0
  9
$DIMTAD
 70
     1
  9
$DIMZIN
 70
     8
  9
$DIMBLK
  1

  9
$DIMASO
 70
     1
  9
$DIMSHO
 70
     1
  9
$DIMPOST
  1

  9
$DIMAPOST
  1

  9
$DIMALT
 70
     0
  9
$DIMALTD
 70
     4
  9
$DIMALTF
 40
0.0394
  9
$DIMLFAC
 40
1.0
  9
$DIMTOFL
 70
     1
  9
$DIMTVP
 40
0.0
  9
$DIMTIX
 70
     0
  9
$DIMSOXD
 70
     0
  9
$DIMSAH
 70
     0
  9
$DIMBLK1
  1

  9
$DIMBLK2
  1

  9
$DIMSTYLE
  2
STANDARD
  9
$DIMCLRD
 70
     0
  9
$DIMCLRE
 70
     0
  9
$DIMCLRT
 70
     0
  9
$DIMTFAC
 40
1.0
  9
$DIMGAP
 40
0.625
  9
$DIMJUST
 70
     0
  9
$DIMSD1
 70
     0
  9
$DIMSD2
 70
     0
  9
$DIMTOLJ
 70
     1
  9
$DIMTZIN
 70
     0
  9
$DIMALTZ
 70
     0
  9
$DIMALTTZ
 70
     0
  9
$DIMUPT
 70
     0
  9
$DIMDEC
 70
     4
  9
$DIMTDEC
 70
     4
  9
$DIMALTU
 70
     8
  9
$DIMALTTD
 70
     4
  9
$DIMTXSTY
  7
STANDARD
  9
$DIMAUNIT
 70
     0
  9
$DIMADEC
 70
     0
  9
$DIMALTRND
 40
0.0
  9
$DIMAZIN
 70
     0
  9
$DIMDSEP
 70
    46
  9
$DIMATFIT
 70
     3
  9
$DIMFRAC
 70
     0
  9
$DIMLDRBLK
  1

  9
$DIMLUNIT
 70
     6
  9
$DIMLWD
 70
    -2
  9
$DIMLWE
 70
    -2
  9
$DIMTMOVE
 70
     0
  9
$LUNITS
 70
     2
  9
$LUPREC
 70
     4
  9
$SKETCHINC
 40
1.0
  9
$FILLETRAD
 40
50.0
  9
$AUNITS
 70
     0
  9
$AUPREC
 70
     0
  9
$MENU
  1
acad
  9
$ELEVATION
 40
0.0
  9
$PELEVATION
 40
0.0
  9
$THICKNESS
 40
0.0
  9
$LIMCHECK
 70
     0
  9
$CHAMFERA
 40
10.0
  9
$CHAMFERB
 40
10.0
  9
$CHAMFERC
 40
20.0
  9
$CHAMFERD
 40
0.0
  9
$SKPOLY
 70
     0
  9
$TDCREATE
 40
2452179.387794213
  9
$TDUCREATE
 40
2452179.012794213
  9
$TDUPDATE
 40
2454545.358766504
  9
$TDUUPDATE
 40
2454544.983766504
  9
$TDINDWG
 40
0.8499921412
  9
$TDUSRTIMER
 40
0.8499921412
  9
$USRTIMER
 70
     1
  9
$ANGBASE
 50
0.0
  9
$ANGDIR
 70
     0
  9
$PDMODE
 70
     0
  9
$PDSIZE
 40
0.0
  9
$PLINEWID
 40
0.0
  9
$SPLFRAME
 70
     0
  9
$SPLINETYPE
 70
     6
  9
$SPLINESEGS
 70
     8
  9
$HANDSEED
  5
19D9
  9
$SURFTAB1
 70
     6
  9
$SURFTAB2
 70
     6
  9
$SURFTYPE
 70
     6
  9
$SURFU
 70
     6
  9
$SURFV
 70
     6
  9
$UCSBASE
  2

  9
$UCSNAME
  2

  9
$UCSORG
 10
0.0
 20
0.0
 30
0.0
  9
$UCSXDIR
 10
1.0
 20
0.0
 30
0.0
  9
$UCSYDIR
 10
0.0
 20
1.0
 30
0.0
  9
$UCSORTHOREF
  2

  9
$UCSORTHOVIEW
 70
     0
  9
$UCSORGTOP
 10
0.0
 20
0.0
 30
0.0
  9
$UCSORGBOTTOM
 10
0.0
 20
0.0
 30
0.0
  9
$UCSORGLEFT
 10
0.0
 20
0.0
 30
0.0
  9
$UCSORGRIGHT
 10
0.0
 20
0.0
 30
0.0
  9
$UCSORGFRONT
 10
0.0
 20
0.0
 30
0.0
  9
$UCSORGBACK
 10
0.0
 20
0.0
 30
0.0
  9
$PUCSBASE
  2

  9
$PUCSNAME
  2

  9
$PUCSORG
 10
0.0
 20
0.0
 30
0.0
  9
$PUCSXDIR
 10
1.0
 20
0.0
 30
0.0
  9
$PUCSYDIR
 10
0.0
 20
1.0
 30
0.0
  9
$PUCSORTHOREF
  2

  9
$PUCSORTHOVIEW
 70
     0
  9
$PUCSORGTOP
 10
0.0
 20
0.0
 30
0.0
  9
$PUCSORGBOTTOM
 10
0.0
 20
0.0
 30
0.0
  9
$PUCSORGLEFT
 10
0.0
 20
0.0
 30
0.0
  9
$PUCSORGRIGHT
 10
0.0
 20
0.0
 30
0.0
  9
$PUCSORGFRONT
 10
0.0
 20
0.0
 30
0.0
  9
$PUCSORGBACK
 10
0.0
 20
0.0
 30
0.0
  9
$USERI1
 70
     0
  9
$USERI2
 70
     0
  9
$USERI3
 70
     0
  9
$USERI4
 70
     0
  9
$USERI5
 70
     0
  9
$USERR1
 40
0.0
  9
$USERR2
 40
0.0
  9
$USERR3
 40
0.0
  9
$USERR4
 40
0.0
  9
$USERR5
 40
0.0
  9
$WORLDVIEW
 70
     1
  9
$SHADEDGE
 70
     3
  9
$SHADEDIF
 70
    70
  9
$TILEMODE
 70
     1
  9
$MAXACTVP
 70
    48
  9
$PINSBASE
 10
0.0
 20
0.0
 30
0.0
  9
$PLIMCHECK
 70
     0
  9
$PEXTMIN
 10
1.000000000000000E+20
 20
1.000000000000000E+20
 30
1.000000000000000E+20
  9
$PEXTMAX
 10
-1.000000000000000E+20
 20
-1.000000000000000E+20
 30
-1.000000000000000E+20
  9
$PLIMMIN
 10
0.0
 20
0.0
  9
$PLIMMAX
 10
420.0
 20
297.0
  9
$UNITMODE
 70
     0
  9
$VISRETAIN
 70
     1
  9
$PLINEGEN
 70
     0
  9
$PSLTSCALE
 70
     1
  9
$TREEDEPTH
 70
  3020
  9
$CMLSTYLE
  2
STANDARD
  9
$CMLJUST
 70
     0
  9
$CMLSCALE
 40
20.0
  9
$PROXYGRAPHICS
 70
     1
  9
$MEASUREMENT
 70
     1
  9
$CELWEIGHT
370
    -1
  9
$ENDCAPS
280
     0
  9
$JOINSTYLE
280
     0
  9
$LWDISPLAY
290
     0
  9
$INSUNITS
 70
     0
  9
$HYPERLINKBASE
  1

  9
$STYLESHEET
  1

  9
$XEDIT
290
     1
  9
$CEPSNTYPE
380
     0
  9
$PSTYLEMODE
290
     1
  9
$FINGERPRINTGUID
  2
{FDD9A088-B45C-4B80-AE54-7DF7628E5E65}
  9
$VERSIONGUID
  2
{1B97EF84-F12C-413D-9E94-08A2599D7D08}
  9
$EXTNAMES
290
     1
  9
$PSVPSCALE
 40
0.0
  9
$OLESTARTUP
290
     0
  0
ENDSEC
  0
SECTION
  2
CLASSES
  0
CLASS
  1
LWPOLYLINE
  2
AcDbPolyline
  3
AutoCAD 2000
 90
    32768
280
     0
281
     1
  0
CLASS
  1
ACDBDICTIONARYWDFLT
  2
AcDbDictionaryWithDefault
  3
AutoCAD 2000
 90
        0
280
     0
281
     0
  0
CLASS
  1
ACDBPLACEHOLDER
  2
AcDbPlaceHolder
  3
AutoCAD 2000
 90
        0
280
     0
281
     0
  0
CLASS
  1
LAYOUT
  2
AcDbLayout
  3
AutoCAD 2000
 90
        0
280
     0
281
     0
  0
ENDSEC
  0
SECTION
  2
TABLES
  0
TABLE
  2
VPORT
  5
8
330
0
100
AcDbSymbolTable
 70
     2
  0
VPORT
  5
19D8
330
8
100
AcDbSymbolTableRecord
100
AcDbViewportTableRecord
  2
*Active
 70
     0
 10
0.0
 20
0.0
 11
1.0
 21
1.0
 12
6890.81216330147
 22
-117.0674011803757
 13
0.0
 23
0.0
 14
10.0
 24
10.0
 15
10.0
 25
10.0
 16
0.0
 26
0.0
 36
1.0
 17
0.0
 27
0.0
 37
0.0
 40
3240.182920036064
 41
1.731203007518796
 42
50.0
 43
0.0
 44
0.0
 50
0.0
 51
0.0
 71
     0
 72
   100
 73
     1
 74
     1
 75
     0
 76
     0
 77
     0
 78
     0
281
     0
 65
     1
110
0.0
120
0.0
130
0.0
111
1.0
121
0.0
131
0.0
112
0.0
122
1.0
132
0.0
 79
     0
146
0.0
  0
ENDTAB
  0
TABLE
  2
LTYPE
  5
5
330
0
100
AcDbSymbolTable
 70
    46
  0
LTYPE
  5
12
330
5
100
AcDbSymbolTableRecord
100
AcDbLinetypeTableRecord
  2
BYBLOCK
 70
     0
  3

 72
    65
 73
     0
 40
0.0
  0
LTYPE
  5
13
330
5
100
AcDbSymbolTableRecord
100
AcDbLinetypeTableRecord
  2
BYLAYER
 70
     0
  3

 72
    65
 73
     0
 40
0.0
  0
LTYPE
  5
14
330
5
100
AcDbSymbolTableRecord
100
AcDbLinetypeTableRecord
  2
CONTINUOUS
 70
     0
  3
Solid line
 72
    65
 73
     0
 40
0.0
  0
LTYPE
  5
BC
330
5
100
AcDbSymbolTableRecord
100
AcDbLinetypeTableRecord
  2
ACAD_ISO02W100
 70
     0
  3
ISO dash __ __ __ __ __ __ __ __ __ __ __ __ __
 72
    65
 73
     2
 40
15.0
 49
12.0
 74
     0
 49
-3.0
 74
     0
  0
LTYPE
  5
BD
330
5
100
AcDbSymbolTableRecord
100
AcDbLinetypeTableRecord
  2
ACAD_ISO03W100
 70
     0
  3
ISO dash space __    __    __    __    __    __
 72
    65
 73
     2
 40
30.0
 49
12.0
 74
     0
 49
-18.0
 74
     0
  0
LTYPE
  5
BE
330
5
100
AcDbSymbolTableRecord
100
AcDbLinetypeTableRecord
  2
ACAD_ISO04W100
 70
     0
  3
ISO long-dash dot ____ . ____ . ____ . ____ . _
 72
    65
 73
     4
 40
30.5
 49
24.0
 74
     0
 49
-3.0
 74
     0
 49
0.5
 74
     0
 49
-3.0
 74
     0
  0
LTYPE
  5
BF
330
5
100
AcDbSymbolTableRecord
100
AcDbLinetypeTableRecord
  2
ACAD_ISO05W100
 70
     0
  3
ISO long-dash double-dot ____ .. ____ .. ____ .
 72
    65
 73
     8
 40
37.5
 49
24.0
 74
     0
 49
-3.0
 74
     0
 49
0.5
 74
     0
 49
-3.0
 74
     0
 49
0.5
 74
     0
 49
-3.0
 74
     0
 49
0.5
 74
     0
 49
-3.0
 74
     0
  0
LTYPE
  5
C0
330
5
100
AcDbSymbolTableRecord
100
AcDbLinetypeTableRecord
  2
ACAD_ISO06W100
 70
     0
  3
ISO long-dash triple-dot ____ ... ____ ... ____
 72
    65
 73
     8
 40
37.5
 49
24.0
 74
     0
 49
-3.0
 74
     0
 49
0.5
 74
     0
 49
-3.0
 74
     0
 49
0.5
 74
     0
 49
-3.0
 74
     0
 49
0.5
 74
     0
 49
-3.0
 74
     0
  0
LTYPE
  5
C1
330
5
100
AcDbSymbolTableRecord
100
AcDbLinetypeTableRecord
  2
ACAD_ISO07W100
 70
     0
  3
ISO dot . . . . . . . . . . . . . . . . . . . .
 72
    65
 73
     2
 40
3.5
 49
0.5
 74
     0
 49
-3.0
 74
     0
  0
LTYPE
  5
C2
330
5
100
AcDbSymbolTableRecord
100
AcDbLinetypeTableRecord
  2
ACAD_ISO08W100
 70
     0
  3
ISO long-dash short-dash ____ __ ____ __ ____ _
 72
    65
 73
     4
 40
36.0
 49
24.0
 74
     0
 49
-3.0
 74
     0
 49
6.0
 74
     0
 49
-3.0
 74
     0
  0
LTYPE
  5
C3
330
5
100
AcDbSymbolTableRecord
100
AcDbLinetypeTableRecord
  2
ACAD_ISO09W100
 70
     0
  3
ISO long-dash double-short-dash ____ __ __ ____
 72
    65
 73
     6
 40
45.0
 49
24.0
 74
     0
 49
-3.0
 74
     0
 49
6.0
 74
     0
 49
-3.0
 74
     0
 49
6.0
 74
     0
 49
-3.0
 74
     0
  0
LTYPE
  5
C4
330
5
100
AcDbSymbolTableRecord
100
AcDbLinetypeTableRecord
  2
ACAD_ISO10W100
 70
     0
  3
ISO dash dot __ . __ . __ . __ . __ . __ . __ .
 72
    65
 73
     4
 40
18.5
 49
12.0
 74
     0
 49
-3.0
 74
     0
 49
0.5
 74
     0
 49
-3.0
 74
     0
  0
LTYPE
  5
C5
330
5
100
AcDbSymbolTableRecord
100
AcDbLinetypeTableRecord
  2
ACAD_ISO11W100
 70
     0
  3
ISO double-dash dot __ __ . __ __ . __ __ . __ 
 72
    65
 73
     6
 40
33.5
 49
12.0
 74
     0
 49
-3.0
 74
     0
 49
12.0
 74
     0
 49
-3.0
 74
     0
 49
0.5
 74
     0
 49
-3.0
 74
     0
  0
LTYPE
  5
C6
330
5
100
AcDbSymbolTableRecord
100
AcDbLinetypeTableRecord
  2
ACAD_ISO12W100
 70
     0
  3
ISO dash double-dot __ . . __ . . __ . . __ . .
 72
    65
 73
     6
 40
22.0
 49
12.0
 74
     0
 49
-3.0
 74
     0
 49
0.5
 74
     0
 49
-3.0
 74
     0
 49
0.5
 74
     0
 49
-3.0
 74
     0
  0
LTYPE
  5
C7
330
5
100
AcDbSymbolTableRecord
100
AcDbLinetypeTableRecord
  2
ACAD_ISO13W100
 70
     0
  3
ISO double-dash double-dot __ __ . . __ __ . . 
 72
    65
 73
     8
 40
37.0
 49
12.0
 74
     0
 49
-3.0
 74
     0
 49
12.0
 74
     0
 49
-3.0
 74
     0
 49
0.5
 74
     0
 49
-3.0
 74
     0
 49
0.5
 74
     0
 49
-3.0
 74
     0
  0
LTYPE
  5
C8
330
5
100
AcDbSymbolTableRecord
100
AcDbLinetypeTableRecord
  2
ACAD_ISO14W100
 70
     0
  3
ISO dash triple-dot __ . . . __ . . . __ . . . 
 72
    65
 73
     8
 40
25.5
 49
12.0
 74
     0
 49
-3.0
 74
     0
 49
0.5
 74
     0
 49
-3.0
 74
     0
 49
0.5
 74
     0
 49
-3.0
 74
     0
 49
0.5
 74
     0
 49
-3.0
 74
     0
  0
LTYPE
  5
C9
330
5
100
AcDbSymbolTableRecord
100
AcDbLinetypeTableRecord
  2
ACAD_ISO15W100
 70
     0
  3
ISO double-dash triple-dot __ __ . . . __ __ . 
 72
    65
 73
    10
 40
40.49999999999999
 49
12.0
 74
     0
 49
-3.0
 74
     0
 49
12.0
 74
     0
 49
-3.0
 74
     0
 49
0.5
 74
     0
 49
-3.0
 74
     0
 49
0.5
 74
     0
 49
-3.0
 74
     0
 49
0.5
 74
     0
 49
-3.0
 74
     0
  0
LTYPE
  5
CA
330
5
100
AcDbSymbolTableRecord
100
AcDbLinetypeTableRecord
  2
BATTING
 70
     0
  3
Batting SSSSSSSSSSSSSSSSSSSSSSSSSSSSSSSSSSSSSSS
 72
    65
 73
     4
 40
10.16253999999999
 49
0.00254
 74
     0
 49
-2.54
 74
     4
 75
   134
340
BB
 46
2.54
 50
0.0
 44
-2.54
 45
0.0
 49
-5.08
 74
     4
 75
   134
340
BB
 46
2.54
 50
180.0
 44
2.54
 45
0.0
 49
-2.54
 74
     0
  0
LTYPE
  5
CB
330
5
100
AcDbSymbolTableRecord
100
AcDbLinetypeTableRecord
  2
BORDER
 70
     0
  3
Border __ __ . __ __ . __ __ . __ __ . __ __ .
 72
    65
 73
     6
 40
44.45
 49
12.7
 74
     0
 49
-6.349999999999999
 74
     0
 49
12.7
 74
     0
 49
-6.349999999999999
 74
     0
 49
0.0
 74
     0
 49
-6.349999999999999
 74
     0
  0
LTYPE
  5
CC
330
5
100
AcDbSymbolTableRecord
100
AcDbLinetypeTableRecord
  2
BORDER2
 70
     0
  3
Border (.5x) __.__.__.__.__.__.__.__.__.__.__.
 72
    65
 73
     6
 40
22.225
 49
6.349999999999999
 74
     0
 49
-3.174999999999999
 74
     0
 49
6.349999999999999
 74
     0
 49
-3.174999999999999
 74
     0
 49
0.0
 74
     0
 49
-3.174999999999999
 74
     0
  0
LTYPE
  5
CD
330
5
100
AcDbSymbolTableRecord
100
AcDbLinetypeTableRecord
  2
BORDERX2
 70
     0
  3
Border (2x) ____  ____  .  ____  ____  .  ___
 72
    65
 73
     6
 40
88.9
 49
25.4
 74
     0
 49
-12.7
 74
     0
 49
25.4
 74
     0
 49
-12.7
 74
     0
 49
0.0
 74
     0
 49
-12.7
 74
     0
  0
LTYPE
  5
CE
330
5
100
AcDbSymbolTableRecord
100
AcDbLinetypeTableRecord
  2
CENTER
 70
     0
  3
Center ____ _ ____ _ ____ _ ____ _ ____ _ ____
 72
    65
 73
     4
 40
50.8
 49
31.75
 74
     0
 49
-6.349999999999999
 74
     0
 49
6.349999999999999
 74
     0
 49
-6.349999999999999
 74
     0
  0
LTYPE
  5
CF
330
5
100
AcDbSymbolTableRecord
100
AcDbLinetypeTableRecord
  2
CENTER2
 70
     0
  3
Center (.5x) ___ _ ___ _ ___ _ ___ _ ___ _ ___
 72
    65
 73
     4
 40
28.57499999999999
 49
19.05
 74
     0
 49
-3.174999999999999
 74
     0
 49
3.174999999999999
 74
     0
 49
-3.174999999999999
 74
     0
  0
LTYPE
  5
D0
330
5
100
AcDbSymbolTableRecord
100
AcDbLinetypeTableRecord
  2
CENTERX2
 70
     0
  3
Center (2x) ________  __  ________  __  _____
 72
    65
 73
     4
 40
101.6
 49
63.5
 74
     0
 49
-12.7
 74
     0
 49
12.7
 74
     0
 49
-12.7
 74
     0
  0
LTYPE
  5
D1
330
5
100
AcDbSymbolTableRecord
100
AcDbLinetypeTableRecord
  2
DASHDOT
 70
     0
  3
Dash dot __ . __ . __ . __ . __ . __ . __ . __
 72
    65
 73
     4
 40
25.4
 49
12.7
 74
     0
 49
-6.349999999999999
 74
     0
 49
0.0
 74
     0
 49
-6.349999999999999
 74
     0
  0
LTYPE
  5
D2
330
5
100
AcDbSymbolTableRecord
100
AcDbLinetypeTableRecord
  2
DASHDOT2
 70
     0
  3
Dash dot (.5x) _._._._._._._._._._._._._._._.
 72
    65
 73
     4
 40
12.7
 49
6.349999999999999
 74
     0
 49
-3.174999999999999
 74
     0
 49
0.0
 74
     0
 49
-3.174999999999999
 74
     0
  0
LTYPE
  5
D3
330
5
100
AcDbSymbolTableRecord
100
AcDbLinetypeTableRecord
  2
DASHDOTX2
 70
     0
  3
Dash dot (2x) ____  .  ____  .  ____  .  ___
 72
    65
 73
     4
 40
50.8
 49
25.4
 74
     0
 49
-12.7
 74
     0
 49
0.0
 74
     0
 49
-12.7
 74
     0
  0
LTYPE
  5
D4
330
5
100
AcDbSymbolTableRecord
100
AcDbLinetypeTableRecord
  2
DASHED
 70
     0
  3
Dashed __ __ __ __ __ __ __ __ __ __ __ __ __ _
 72
    65
 73
     2
 40
19.04999999999999
 49
12.7
 74
     0
 49
-6.349999999999999
 74
     0
  0
LTYPE
  5
D5
330
5
100
AcDbSymbolTableRecord
100
AcDbLinetypeTableRecord
  2
DASHED2
 70
     0
  3
Dashed (.5x) _ _ _ _ _ _ _ _ _ _ _ _ _ _ _ _ _
 72
    65
 73
     2
 40
9.524999999999998
 49
6.349999999999999
 74
     0
 49
-3.174999999999999
 74
     0
  0
LTYPE
  5
D6
330
5
100
AcDbSymbolTableRecord
100
AcDbLinetypeTableRecord
  2
DASHEDX2
 70
     0
  3
Dashed (2x) ____  ____  ____  ____  ____  ___
 72
    65
 73
     2
 40
38.09999999999999
 49
25.4
 74
     0
 49
-12.7
 74
     0
  0
LTYPE
  5
D7
330
5
100
AcDbSymbolTableRecord
100
AcDbLinetypeTableRecord
  2
DIVIDE
 70
     0
  3
Divide ____ . . ____ . . ____ . . ____ . . ____
 72
    65
 73
     6
 40
31.74999999999999
 49
12.7
 74
     0
 49
-6.349999999999999
 74
     0
 49
0.0
 74
     0
 49
-6.349999999999999
 74
     0
 49
0.0
 74
     0
 49
-6.349999999999999
 74
     0
  0
LTYPE
  5
D8
330
5
100
AcDbSymbolTableRecord
100
AcDbLinetypeTableRecord
  2
DIVIDE2
 70
     0
  3
Divide (.5x) __..__..__..__..__..__..__..__.._
 72
    65
 73
     6
 40
15.87499999999999
 49
6.349999999999999
 74
     0
 49
-3.174999999999999
 74
     0
 49
0.0
 74
     0
 49
-3.174999999999999
 74
     0
 49
0.0
 74
     0
 49
-3.174999999999999
 74
     0
  0
LTYPE
  5
D9
330
5
100
AcDbSymbolTableRecord
100
AcDbLinetypeTableRecord
  2
DIVIDEX2
 70
     0
  3
Divide (2x) ________  .  .  ________  .  .  _
 72
    65
 73
     6
 40
63.49999999999999
 49
25.4
 74
     0
 49
-12.7
 74
     0
 49
0.0
 74
     0
 49
-12.7
 74
     0
 49
0.0
 74
     0
 49
-12.7
 74
     0
  0
LTYPE
  5
DA
330
5
100
AcDbSymbolTableRecord
100
AcDbLinetypeTableRecord
  2
DOT
 70
     0
  3
Dot . . . . . . . . . . . . . . . . . . . . . .
 72
    65
 73
     2
 40
6.349999999999999
 49
0.0
 74
     0
 49
-6.349999999999999
 74
     0
  0
LTYPE
  5
DB
330
5
100
AcDbSymbolTableRecord
100
AcDbLinetypeTableRecord
  2
DOT2
 70
     0
  3
Dot (.5x) .....................................
 72
    65
 73
     2
 40
3.174999999999999
 49
0.0
 74
     0
 49
-3.174999999999999
 74
     0
  0
LTYPE
  5
DC
330
5
100
AcDbSymbolTableRecord
100
AcDbLinetypeTableRecord
  2
DOTX2
 70
     0
  3
Dot (2x) .  .  .  .  .  .  .  .  .  .  .  .  . 
 72
    65
 73
     2
 40
12.7
 49
0.0
 74
     0
 49
-12.7
 74
     0
  0
LTYPE
  5
DD
330
5
100
AcDbSymbolTableRecord
100
AcDbLinetypeTableRecord
  2
FENCELINE1
 70
     0
  3
Fenceline circle ----0-----0----0-----0----0---
 72
    65
 73
     4
 40
36.82999999999999
 49
6.349999999999999
 74
     0
 49
-2.54
 74
     4
 75
   133
340
BB
 46
2.54
 50
0.0
 44
-2.54
 45
0.0
 49
-2.54
 74
     0
 49
25.4
 74
     0
  0
LTYPE
  5
DE
330
5
100
AcDbSymbolTableRecord
100
AcDbLinetypeTableRecord
  2
FENCELINE2
 70
     0
  3
Fenceline square ----[]-----[]----[]-----[]----
 72
    65
 73
     4
 40
36.82999999999999
 49
6.349999999999999
 74
     0
 49
-2.54
 74
     4
 75
   132
340
BB
 46
2.54
 50
0.0
 44
-2.54
 45
0.0
 49
-2.54
 74
     0
 49
25.4
 74
     0
  0
LTYPE
  5
DF
330
5
100
AcDbSymbolTableRecord
100
AcDbLinetypeTableRecord
  2
GAS_LINE
 70
     0
  3
Gas line ----GAS----GAS----GAS----GAS----GAS---
 72
    65
 73
     3
 40
24.13
 49
12.7
 74
     0
 49
-5.08
 74
     2
 75
     0
340
F
 46
2.54
 50
0.0
 44
-2.54
 45
-1.27
  9
GAS
 49
-6.349999999999999
 74
     0
  0
LTYPE
  5
E0
330
5
100
AcDbSymbolTableRecord
100
AcDbLinetypeTableRecord
  2
HIDDEN
 70
     0
  3
Hidden __ __ __ __ __ __ __ __ __ __ __ __ __ _
 72
    65
 73
     2
 40
9.524999999999998
 49
6.349999999999999
 74
     0
 49
-3.174999999999999
 74
     0
  0
LTYPE
  5
E1
330
5
100
AcDbSymbolTableRecord
100
AcDbLinetypeTableRecord
  2
HIDDEN2
 70
     0
  3
Hidden (.5x) _ _ _ _ _ _ _ _ _ _ _ _ _ _ _ _ _
 72
    65
 73
     2
 40
4.762499999999999
 49
3.174999999999999
 74
     0
 49
-1.587499999999999
 74
     0
  0
LTYPE
  5
E2
330
5
100
AcDbSymbolTableRecord
100
AcDbLinetypeTableRecord
  2
HIDDENX2
 70
     0
  3
Hidden (2x) ____ ____ ____ ____ ____ ____ ____
 72
    65
 73
     2
 40
19.04999999999999
 49
12.7
 74
     0
 49
-6.349999999999999
 74
     0
  0
LTYPE
  5
E3
330
5
100
AcDbSymbolTableRecord
100
AcDbLinetypeTableRecord
  2
HOT_WATER_SUPPLY
 70
     0
  3
Hot water supply ---- HW ---- HW ---- HW ----
 72
    65
 73
     3
 40
22.86
 49
12.7
 74
     0
 49
-5.08
 74
     2
 75
     0
340
F
 46
2.54
 50
0.0
 44
-2.54
 45
-1.27
  9
HW
 49
-5.08
 74
     0
  0
LTYPE
  5
E4
330
5
100
AcDbSymbolTableRecord
100
AcDbLinetypeTableRecord
  2
PHANTOM
 70
     0
  3
Phantom ______  __  __  ______  __  __  ______
 72
    65
 73
     6
 40
63.5
 49
31.75
 74
     0
 49
-6.349999999999999
 74
     0
 49
6.349999999999999
 74
     0
 49
-6.349999999999999
 74
     0
 49
6.349999999999999
 74
     0
 49
-6.349999999999999
 74
     0
  0
LTYPE
  5
E5
330
5
100
AcDbSymbolTableRecord
100
AcDbLinetypeTableRecord
  2
PHANTOM2
 70
     0
  3
Phantom (.5x) ___ _ _ ___ _ _ ___ _ _ ___ _ _
 72
    65
 73
     6
 40
31.75
 49
15.875
 74
     0
 49
-3.174999999999999
 74
     0
 49
3.174999999999999
 74
     0
 49
-3.174999999999999
 74
     0
 49
3.174999999999999
 74
     0
 49
-3.174999999999999
 74
     0
  0
LTYPE
  5
E6
330
5
100
AcDbSymbolTableRecord
100
AcDbLinetypeTableRecord
  2
PHANTOMX2
 70
     0
  3
Phantom (2x) ____________    ____    ____   _
 72
    65
 73
     6
 40
127.0
 49
63.5
 74
     0
 49
-12.7
 74
     0
 49
12.7
 74
     0
 49
-12.7
 74
     0
 49
12.7
 74
     0
 49
-12.7
 74
     0
  0
LTYPE
  5
E7
330
5
100
AcDbSymbolTableRecord
100
AcDbLinetypeTableRecord
  2
TRACKS
 70
     0
  3
Tracks -|-|-|-|-|-|-|-|-|-|-|-|-|-|-|-|-|-|-|-|
 72
    65
 73
     2
 40
7.62
 49
3.81
 74
     4
 75
   130
340
BB
 46
6.349999999999999
 50
0.0
 44
0.0
 45
0.0
 49
3.81
 74
     0
  0
LTYPE
  5
E8
330
5
100
AcDbSymbolTableRecord
100
AcDbLinetypeTableRecord
  2
ZIGZAG
 70
     0
  3
Zig zag /\/\/\/\/\/\/\/\/\/\/\/\/\/\/\/\/\/\/\/
 72
    65
 73
     4
 40
20.32254
 49
0.00254
 74
     0
 49
-5.08
 74
     4
 75
   131
340
BB
 46
5.08
 50
0.0
 44
-5.08
 45
0.0
 49
-10.16
 74
     4
 75
   131
340
BB
 46
5.08
 50
180.0
 44
5.08
 45
0.0
 49
-5.08
 74
     0
  0
ENDTAB
  0
TABLE
  2
LAYER
  5
2
330
0
100
AcDbSymbolTable
 70
     9
  0
LAYER
  5
E
330
2
100
AcDbSymbolTableRecord
100
AcDbLayerTableRecord
  2
0
 70
     0
 62
     7
  6
CONTINUOUS
370
    -3
390
1642
  0
LAYER
  5
20
330
2
100
AcDbSymbolTableRecord
100
AcDbLayerTableRecord
  2
DEFPOINTS
 70
     0
 62
     7
  6
CONTINUOUS
290
     0
370
    -3
390
1642
  0
LAYER
  5
21
330
2
100
AcDbSymbolTableRecord
100
AcDbLayerTableRecord
  2
OBJECT
 70
     0
 62
     7
  6
CONTINUOUS
370
    -3
390
1642
  0
LAYER
  5
E9
330
2
100
AcDbSymbolTableRecord
100
AcDbLayerTableRecord
  2
基準線
 70
     0
 62
    -1
  6
CONTINUOUS
370
    -3
390
1642
  0
LAYER
  5
EA
330
2
100
AcDbSymbolTableRecord
100
AcDbLayerTableRecord
  2
上線
 70
     0
 62
     7
  6
CONTINUOUS
370
    -3
390
1642
  0
LAYER
  5
EB
330
2
100
AcDbSymbolTableRecord
100
AcDbLayerTableRecord
  2
点線
 70
     0
 62
     5
  6
HIDDEN
370
    -3
390
1642
  0
LAYER
  5
EC
330
2
100
AcDbSymbolTableRecord
100
AcDbLayerTableRecord
  2
中心線
 70
     0
 62
     6
  6
CENTER
370
    -3
390
1642
  0
LAYER
  5
17A7
330
2
100
AcDbSymbolTableRecord
100
AcDbLayerTableRecord
  2
上書線
 70
     0
 62
     7
  6
CONTINUOUS
370
    -3
390
1642
  0
LAYER
  5
17A8
330
2
100
AcDbSymbolTableRecord
100
AcDbLayerTableRecord
  2
WUWAGAKI
 70
     0
 62
     7
  6
CONTINUOUS
370
    -3
390
1642
  0
ENDTAB
  0
TABLE
  2
STYLE
  5
3
330
0
100
AcDbSymbolTable
 70
     3
  0
STYLE
  5
F
330
3
100
AcDbSymbolTableRecord
100
AcDbTextStyleTableRecord
  2
STANDARD
 70
     0
 40
0.0
 41
1.0
 50
0.0
 71
     0
 42
2.5
  3
MS PMincho.ttf
  4

1001
ACAD
1000
MS PMincho
1071
    32786
  0
STYLE
  5
22
330
3
100
AcDbSymbolTableRecord
100
AcDbTextStyleTableRecord
  2
ADESK1
 70
     0
 40
0.0
 41
1.0
 50
0.0
 71
     0
 42
5.0
  3
romans
  4
bigfont
  0
STYLE
  5
BB
330
3
100
AcDbSymbolTableRecord
100
AcDbTextStyleTableRecord
  2

 70
     1
 40
0.0
 41
1.0
 50
0.0
 71
     0
 42
2.5
  3
ltypeshp.shx
  4

  0
ENDTAB
  0
TABLE
  2
VIEW
  5
6
330
0
100
AcDbSymbolTable
 70
     0
  0
ENDTAB
  0
TABLE
  2
UCS
  5
7
330
0
100
AcDbSymbolTable
 70
     0
  0
ENDTAB
  0
TABLE
  2
APPID
  5
9
330
0
100
AcDbSymbolTable
 70
     1
  0
APPID
  5
10
330
9
100
AcDbSymbolTableRecord
100
AcDbRegAppTableRecord
  2
ACAD
 70
     0
  0
ENDTAB
  0
TABLE
  2
DIMSTYLE
  5
A
330
0
100
AcDbSymbolTable
 70
     2
100
AcDbDimStyleTable
 71
     0
  0
DIMSTYLE
105
1D
102
{ACAD_REACTORS
330
15FF
330
E54
330
E57
330
EC0
330
EC1
330
F20
102
}
330
A
100
AcDbSymbolTableRecord
100
AcDbDimStyleTableRecord
  2
STANDARD
 70
     0
340
F
  0
DIMSTYLE
105
23
330
A
100
AcDbSymbolTableRecord
100
AcDbDimStyleTableRecord
  2
JIS
 70
     0
 41
2.5
 42
1.0
 43
7.0
 44
1.0
 73
     0
 74
     0
 77
     1
 78
     8
140
2.5
141
0.0
143
0.0394
147
0.0
172
     1
174
     1
175
     1
340
F
  0
ENDTAB
  0
TABLE
  2
BLOCK_RECORD
  5
1
330
0
100
AcDbSymbolTable
 70
    16
  0
BLOCK_RECORD
  5
18
330
1
100
AcDbSymbolTableRecord
100
AcDbBlockTableRecord
  2
*MODEL_SPACE
340
1645
  0
BLOCK_RECORD
  5
15
330
1
100
AcDbSymbolTableRecord
100
AcDbBlockTableRecord
  2
*PAPER_SPACE
340
1646
  0
BLOCK_RECORD
  5
24
330
1
100
AcDbSymbolTableRecord
100
AcDbBlockTableRecord
  2
JIS_A3
340
0
  0
BLOCK_RECORD
  5
DF4
330
1
100
AcDbSymbolTableRecord
100
AcDbBlockTableRecord
  2
A$C76631095
340
0
  0
BLOCK_RECORD
  5
E0C
330
1
100
AcDbSymbolTableRecord
100
AcDbBlockTableRecord
  2
*D2
340
0
  0
BLOCK_RECORD
  5
E18
330
1
100
AcDbSymbolTableRecord
100
AcDbBlockTableRecord
  2
*D3
340
0
  0
BLOCK_RECORD
  5
E24
330
1
100
AcDbSymbolTableRecord
100
AcDbBlockTableRecord
  2
*D4
340
0
  0
BLOCK_RECORD
  5
E30
330
1
100
AcDbSymbolTableRecord
100
AcDbBlockTableRecord
  2
*D5
340
0
  0
BLOCK_RECORD
  5
E3E
330
1
100
AcDbSymbolTableRecord
100
AcDbBlockTableRecord
  2
*D6
340
0
  0
BLOCK_RECORD
  5
E4A
330
1
100
AcDbSymbolTableRecord
100
AcDbBlockTableRecord
  2
A$C140F7599
340
0
  0
BLOCK_RECORD
  5
11F9
330
1
100
AcDbSymbolTableRecord
100
AcDbBlockTableRecord
  2
A$C1CED3DE9
340
0
  0
BLOCK_RECORD
  5
1212
330
1
100
AcDbSymbolTableRecord
100
AcDbBlockTableRecord
  2
A$C6C1A04C6
340
0
  0
BLOCK_RECORD
  5
12E8
330
1
100
AcDbSymbolTableRecord
100
AcDbBlockTableRecord
  2
A$C6DC71FB5
340
0
  0
BLOCK_RECORD
  5
1300
330
1
100
AcDbSymbolTableRecord
100
AcDbBlockTableRecord
  2
A$C68884D68
340
0
  0
BLOCK_RECORD
  5
1319
330
1
100
AcDbSymbolTableRecord
100
AcDbBlockTableRecord
  2
A$C0F2D2D5E
340
0
  0
BLOCK_RECORD
  5
141A
330
1
100
AcDbSymbolTableRecord
100
AcDbBlockTableRecord
  2
A$C79862696
340
0
  0
BLOCK_RECORD
  5
15BF
330
1
100
AcDbSymbolTableRecord
100
AcDbBlockTableRecord
  2
A$C526D55D3
340
0
  0
BLOCK_RECORD
  5
15F3
330
1
100
AcDbSymbolTableRecord
100
AcDbBlockTableRecord
  2
*D15
340
0
  0
ENDTAB
  0
ENDSEC
  0
SECTION
  2
BLOCKS
  0
BLOCK
  5
19
330
18
100
AcDbEntity
  8
0
100
AcDbBlockBegin
  2
*MODEL_SPACE
 70
     0
 10
0.0
 20
0.0
 30
0.0
  3
*MODEL_SPACE
  1

  0
ENDBLK
  5
1A
330
18
100
AcDbEntity
  8
0
100
AcDbBlockEnd
  0
BLOCK
  5
16
330
15
100
AcDbEntity
 67
     1
  8
0
100
AcDbBlockBegin
  2
*PAPER_SPACE
 70
     0
 10
0.0
 20
0.0
 30
0.0
  3
*PAPER_SPACE
  1

  0
ENDBLK
  5
17
330
15
100
AcDbEntity
 67
     1
  8
0
100
AcDbBlockEnd
  0
BLOCK
  5
B1
330
24
100
AcDbEntity
  8
0
100
AcDbBlockBegin
  2
JIS_A3
 70
     2
 10
0.0
 20
0.0
 30
0.0
  3
JIS_A3
  1

  0
LINE
  5
25
330
24
100
AcDbEntity
  8
0
100
AcDbLine
 10
0.0
 20
0.0
 30
0.0
 11
0.0
 21
10.0
 31
0.0
  0
LINE
  5
26
330
24
100
AcDbEntity
  8
0
100
AcDbLine
 10
0.0
 20
297.0
 30
0.0
 11
25.0
 21
297.0
 31
0.0
  0
LINE
  5
27
330
24
100
AcDbEntity
  8
0
100
AcDbLine
 10
420.0
 20
297.0
 30
0.0
 11
420.0
 21
287.0
 31
0.0
  0
LINE
  5
28
330
24
100
AcDbEntity
  8
0
100
AcDbLine
 10
420.0
 20
0.0
 30
0.0
 11
410.0
 21
0.0
 31
0.0
  0
LINE
  5
29
330
24
100
AcDbEntity
  8
0
100
AcDbLine
 10
25.0
 20
10.0
 30
0.0
 11
25.0
 21
287.0
 31
0.0
  0
LINE
  5
2A
330
24
100
AcDbEntity
  8
0
100
AcDbLine
 10
410.0
 20
10.0
 30
0.0
 11
25.0
 21
10.0
 31
0.0
  0
LINE
  5
2B
330
24
100
AcDbEntity
  8
0
100
AcDbLine
 10
410.0
 20
287.0
 30
0.0
 11
410.0
 21
10.0
 31
0.0
  0
LINE
  5
2C
330
24
100
AcDbEntity
  8
0
100
AcDbLine
 10
25.0
 20
287.0
 30
0.0
 11
410.0
 21
287.0
 31
0.0
  0
LINE
  5
2D
330
24
100
AcDbEntity
  8
0
100
AcDbLine
 10
0.0
 20
287.0
 30
0.0
 11
0.0
 21
297.0
 31
0.0
  0
LINE
  5
2E
330
24
100
AcDbEntity
  8
0
100
AcDbLine
 10
25.0
 20
0.0
 30
0.0
 11
0.0
 21
0.0
 31
0.0
  0
LINE
  5
2F
330
24
100
AcDbEntity
  8
0
100
AcDbLine
 10
420.0
 20
10.0
 30
0.0
 11
420.0
 21
0.0
 31
0.0
  0
LINE
  5
30
330
24
100
AcDbEntity
  8
0
100
AcDbLine
 10
410.0
 20
297.0
 30
0.0
 11
420.0
 21
297.0
 31
0.0
  0
ATTDEF
  5
31
330
24
100
AcDbEntity
  8
0
 62
     0
100
AcDbText
 10
19.0
 20
10.0
 30
0.0
 40
3.0
  1

 50
90.0
  7
ADESK1
100
AcDbAttributeDefinition
  3

  2
USER
 70
     8
  0
ATTDEF
  5
32
330
24
100
AcDbEntity
  8
0
 62
     0
100
AcDbText
 10
19.0
 20
70.0
 30
0.0
 40
3.0
  1

 50
90.0
  7
ADESK1
100
AcDbAttributeDefinition
  3

  2
REVDATE
 70
     8
  0
ATTDEF
  5
33
330
24
100
AcDbEntity
  8
0
 62
     0
100
AcDbText
 10
19.0
 20
118.0
 30
0.0
 40
3.0
  1

 50
90.0
  7
ADESK1
100
AcDbAttributeDefinition
  3

  2
FNAME
 70
     8
  0
LINE
  5
34
330
24
100
AcDbEntity
  8
OBJECT
100
AcDbLine
 10
130.0
 20
16.0
 30
0.0
 11
25.0
 21
16.0
 31
0.0
  0
LINE
  5
35
330
24
100
AcDbEntity
  8
OBJECT
100
AcDbLine
 10
130.0
 20
22.0
 30
0.0
 11
25.0
 21
22.0
 31
0.0
  0
LINE
  5
36
330
24
100
AcDbEntity
  8
OBJECT
100
AcDbLine
 10
130.0
 20
28.0
 30
0.0
 11
25.0
 21
28.0
 31
0.0
  0
LINE
  5
37
330
24
100
AcDbEntity
  8
OBJECT
100
AcDbLine
 10
130.0
 20
34.0
 30
0.0
 11
25.0
 21
34.0
 31
0.0
  0
LINE
  5
38
330
24
100
AcDbEntity
  8
OBJECT
100
AcDbLine
 10
130.0
 20
40.0
 30
0.0
 11
25.0
 21
40.0
 31
0.0
  0
LINE
  5
39
330
24
100
AcDbEntity
  8
OBJECT
100
AcDbLine
 10
28.0
 20
11.53589799999999
 30
0.0
 11
30.0
 21
15.0
 31
0.0
  0
LINE
  5
3A
330
24
100
AcDbEntity
  8
OBJECT
100
AcDbLine
 10
32.0
 20
11.53589799999999
 30
0.0
 11
30.0
 21
15.0
 31
0.0
  0
LINE
  5
3B
330
24
100
AcDbEntity
  8
OBJECT
100
AcDbLine
 10
35.0
 20
10.0
 30
0.0
 11
35.0
 21
40.0
 31
0.0
  0
LINE
  5
3C
330
24
100
AcDbEntity
  8
OBJECT
100
AcDbLine
 10
50.0
 20
10.0
 30
0.0
 11
50.0
 21
40.0
 31
0.0
  0
LINE
  5
3D
330
24
100
AcDbEntity
  8
OBJECT
100
AcDbLine
 10
80.0
 20
10.0
 30
0.0
 11
80.0
 21
40.0
 31
0.0
  0
LINE
  5
3E
330
24
100
AcDbEntity
  8
OBJECT
100
AcDbLine
 10
28.0
 20
11.53589799999999
 30
0.0
 11
32.0
 21
11.53589799999999
 31
0.0
  0
LINE
  5
3F
330
24
100
AcDbEntity
  8
OBJECT
100
AcDbLine
 10
39.5
 20
13.0
 30
0.0
 11
40.49999999999999
 21
13.0
 31
0.0
  0
LINE
  5
40
330
24
100
AcDbEntity
  8
OBJECT
100
AcDbLine
 10
44.5
 20
13.0
 30
0.0
 11
45.49999999999999
 21
13.0
 31
0.0
  0
LINE
  5
41
330
24
100
AcDbEntity
  8
OBJECT
100
AcDbLine
 10
32.0
 20
17.535898
 30
0.0
 11
30.0
 21
20.99999999999999
 31
0.0
  0
LINE
  5
42
330
24
100
AcDbEntity
  8
OBJECT
100
AcDbLine
 10
28.0
 20
17.535898
 30
0.0
 11
32.0
 21
17.535898
 31
0.0
  0
LINE
  5
43
330
24
100
AcDbEntity
  8
OBJECT
100
AcDbLine
 10
28.0
 20
17.535898
 30
0.0
 11
30.0
 21
20.99999999999999
 31
0.0
  0
LINE
  5
44
330
24
100
AcDbEntity
  8
OBJECT
100
AcDbLine
 10
32.0
 20
23.53589799999999
 30
0.0
 11
30.0
 21
26.99999999999999
 31
0.0
  0
LINE
  5
45
330
24
100
AcDbEntity
  8
OBJECT
100
AcDbLine
 10
28.0
 20
23.53589799999999
 30
0.0
 11
32.0
 21
23.53589799999999
 31
0.0
  0
LINE
  5
46
330
24
100
AcDbEntity
  8
OBJECT
100
AcDbLine
 10
28.0
 20
23.53589799999999
 30
0.0
 11
30.0
 21
26.99999999999999
 31
0.0
  0
LINE
  5
47
330
24
100
AcDbEntity
  8
OBJECT
100
AcDbLine
 10
28.0
 20
35.53589799999999
 30
0.0
 11
30.0
 21
39.0
 31
0.0
  0
LINE
  5
48
330
24
100
AcDbEntity
  8
OBJECT
100
AcDbLine
 10
32.0
 20
35.53589799999999
 30
0.0
 11
30.0
 21
39.0
 31
0.0
  0
LINE
  5
49
330
24
100
AcDbEntity
  8
OBJECT
100
AcDbLine
 10
28.0
 20
35.53589799999999
 30
0.0
 11
32.0
 21
35.53589799999999
 31
0.0
  0
LINE
  5
4A
330
24
100
AcDbEntity
  8
OBJECT
100
AcDbLine
 10
32.0
 20
29.535898
 30
0.0
 11
30.0
 21
33.0
 31
0.0
  0
LINE
  5
4B
330
24
100
AcDbEntity
  8
OBJECT
100
AcDbLine
 10
28.0
 20
29.535898
 30
0.0
 11
32.0
 21
29.535898
 31
0.0
  0
LINE
  5
4C
330
24
100
AcDbEntity
  8
OBJECT
100
AcDbLine
 10
28.0
 20
29.535898
 30
0.0
 11
30.0
 21
33.0
 31
0.0
  0
LINE
  5
4D
330
24
100
AcDbEntity
  8
OBJECT
100
AcDbLine
 10
39.5
 20
19.0
 30
0.0
 11
40.49999999999999
 21
19.0
 31
0.0
  0
LINE
  5
4E
330
24
100
AcDbEntity
  8
OBJECT
100
AcDbLine
 10
44.5
 20
19.0
 30
0.0
 11
45.49999999999999
 21
19.0
 31
0.0
  0
LINE
  5
4F
330
24
100
AcDbEntity
  8
OBJECT
100
AcDbLine
 10
39.5
 20
25.0
 30
0.0
 11
40.49999999999999
 21
25.0
 31
0.0
  0
LINE
  5
50
330
24
100
AcDbEntity
  8
OBJECT
100
AcDbLine
 10
44.5
 20
25.0
 30
0.0
 11
45.49999999999999
 21
25.0
 31
0.0
  0
LINE
  5
51
330
24
100
AcDbEntity
  8
OBJECT
100
AcDbLine
 10
39.5
 20
31.0
 30
0.0
 11
40.49999999999999
 21
31.0
 31
0.0
  0
LINE
  5
52
330
24
100
AcDbEntity
  8
OBJECT
100
AcDbLine
 10
39.5
 20
37.0
 30
0.0
 11
40.49999999999999
 21
37.0
 31
0.0
  0
LINE
  5
53
330
24
100
AcDbEntity
  8
OBJECT
100
AcDbLine
 10
44.5
 20
31.0
 30
0.0
 11
45.49999999999999
 21
31.0
 31
0.0
  0
LINE
  5
54
330
24
100
AcDbEntity
  8
OBJECT
100
AcDbLine
 10
44.5
 20
37.0
 30
0.0
 11
45.49999999999999
 21
37.0
 31
0.0
  0
LINE
  5
55
330
24
100
AcDbEntity
  8
OBJECT
100
AcDbLine
 10
120.0
 20
10.0
 30
0.0
 11
120.0
 21
40.0
 31
0.0
  0
LINE
  5
56
330
24
100
AcDbEntity
  8
OBJECT
100
AcDbLine
 10
130.0
 20
40.0
 30
0.0
 11
130.0
 21
10.0
 31
0.0
  0
LINE
  5
57
330
24
100
AcDbEntity
  8
0
100
AcDbLine
 10
217.5
 20
10.0
 30
0.0
 11
217.5
 21
0.0
 31
0.0
  0
LINE
  5
58
330
24
100
AcDbEntity
  8
0
100
AcDbLine
 10
217.5
 20
287.0
 30
0.0
 11
217.5
 21
297.0
 31
0.0
  0
LINE
  5
59
330
24
100
AcDbEntity
  8
0
100
AcDbLine
 10
410.0
 20
148.5
 30
0.0
 11
420.0
 21
148.5
 31
0.0
  0
LINE
  5
5A
330
24
100
AcDbEntity
  8
0
100
AcDbLine
 10
25.0
 20
148.5
 30
0.0
 11
0.0
 21
148.5
 31
0.0
  0
TEXT
  5
5B
330
24
100
AcDbEntity
  8
0
100
AcDbText
 10
1.0
 20
1.0
 30
0.0
 40
3.0
  1
この図枠はサンプルです。社内の規格やプロッタの出力範囲に合わせて適当に変更してご利用ください。
  7
ADESK1
100
AcDbText
  0
LINE
  5
5C
330
24
100
AcDbEntity
  8
0
100
AcDbLine
 10
25.0
 20
240.8333333333333
 30
0.0
 11
20.0
 21
240.8333333333333
 31
0.0
  0
LINE
  5
5D
330
24
100
AcDbEntity
  8
0
100
AcDbLine
 10
25.0
 20
194.6666666666666
 30
0.0
 11
20.0
 21
194.6666666666666
 31
0.0
  0
LINE
  5
5E
330
24
100
AcDbEntity
  8
0
100
AcDbLine
 10
25.0
 20
148.5
 30
0.0
 11
20.0
 21
148.5
 31
0.0
  0
LINE
  5
5F
330
24
100
AcDbEntity
  8
0
100
AcDbLine
 10
25.0
 20
102.3333333333333
 30
0.0
 11
20.0
 21
102.3333333333333
 31
0.0
  0
LINE
  5
60
330
24
100
AcDbEntity
  8
0
100
AcDbLine
 10
25.0
 20
56.16666666666667
 30
0.0
 11
20.0
 21
56.16666666666667
 31
0.0
  0
LINE
  5
61
330
24
100
AcDbEntity
  8
0
100
AcDbLine
 10
410.0
 20
56.16666666666668
 30
0.0
 11
415.0
 21
56.16666666666668
 31
0.0
  0
LINE
  5
62
330
24
100
AcDbEntity
  8
0
100
AcDbLine
 10
410.0
 20
102.3333333333333
 30
0.0
 11
415.0
 21
102.3333333333333
 31
0.0
  0
LINE
  5
63
330
24
100
AcDbEntity
  8
0
100
AcDbLine
 10
410.0
 20
148.5
 30
0.0
 11
415.0
 21
148.5
 31
0.0
  0
LINE
  5
64
330
24
100
AcDbEntity
  8
0
100
AcDbLine
 10
410.0
 20
194.6666666666667
 30
0.0
 11
415.0
 21
194.6666666666667
 31
0.0
  0
LINE
  5
65
330
24
100
AcDbEntity
  8
0
100
AcDbLine
 10
410.0
 20
240.8333333333333
 30
0.0
 11
415.0
 21
240.8333333333333
 31
0.0
  0
LINE
  5
66
330
24
100
AcDbEntity
  8
0
100
AcDbLine
 10
73.125
 20
10.0
 30
0.0
 11
73.125
 21
5.0
 31
0.0
  0
LINE
  5
67
330
24
100
AcDbEntity
  8
0
100
AcDbLine
 10
121.25
 20
10.0
 30
0.0
 11
121.25
 21
5.0
 31
0.0
  0
LINE
  5
68
330
24
100
AcDbEntity
  8
0
100
AcDbLine
 10
169.375
 20
10.0
 30
0.0
 11
169.375
 21
5.0
 31
0.0
  0
LINE
  5
69
330
24
100
AcDbEntity
  8
0
100
AcDbLine
 10
217.5
 20
10.0
 30
0.0
 11
217.5
 21
5.0
 31
0.0
  0
LINE
  5
6A
330
24
100
AcDbEntity
  8
0
100
AcDbLine
 10
265.625
 20
10.0
 30
0.0
 11
265.625
 21
5.0
 31
0.0
  0
LINE
  5
6B
330
24
100
AcDbEntity
  8
0
100
AcDbLine
 10
313.75
 20
10.0
 30
0.0
 11
313.75
 21
5.0
 31
0.0
  0
LINE
  5
6C
330
24
100
AcDbEntity
  8
0
100
AcDbLine
 10
361.8749999999999
 20
10.0
 30
0.0
 11
361.8749999999999
 21
5.0
 31
0.0
  0
LINE
  5
6D
330
24
100
AcDbEntity
  8
0
100
AcDbLine
 10
361.8749999999999
 20
287.0
 30
0.0
 11
361.8749999999999
 21
292.0
 31
0.0
  0
LINE
  5
6E
330
24
100
AcDbEntity
  8
0
100
AcDbLine
 10
313.75
 20
287.0
 30
0.0
 11
313.75
 21
292.0
 31
0.0
  0
LINE
  5
6F
330
24
100
AcDbEntity
  8
0
100
AcDbLine
 10
265.625
 20
287.0
 30
0.0
 11
265.625
 21
292.0
 31
0.0
  0
LINE
  5
70
330
24
100
AcDbEntity
  8
0
100
AcDbLine
 10
217.5
 20
287.0
 30
0.0
 11
217.5
 21
292.0
 31
0.0
  0
LINE
  5
71
330
24
100
AcDbEntity
  8
0
100
AcDbLine
 10
169.375
 20
287.0
 30
0.0
 11
169.375
 21
292.0
 31
0.0
  0
LINE
  5
72
330
24
100
AcDbEntity
  8
0
100
AcDbLine
 10
121.25
 20
287.0
 30
0.0
 11
121.25
 21
292.0
 31
0.0
  0
LINE
  5
73
330
24
100
AcDbEntity
  8
0
100
AcDbLine
 10
73.125
 20
287.0
 30
0.0
 11
73.125
 21
292.0
 31
0.0
  0
TEXT
  5
74
330
24
100
AcDbEntity
  8
0
100
AcDbText
 10
47.84821428571429
 20
288.0
 30
0.0
 40
3.0
  1
1
  7
ADESK1
 72
     1
 11
49.0625
 21
288.0
 31
0.0
100
AcDbText
  0
TEXT
  5
75
330
24
100
AcDbEntity
  8
0
100
AcDbText
 10
21.32144707381961
 20
263.9166666666666
 30
0.0
 40
3.0
  1
A
  7
ADESK1
 72
     1
 11
22.60716135953389
 21
263.9166666666666
 31
0.0
100
AcDbText
  0
TEXT
  5
76
330
24
100
AcDbEntity
  8
0
100
AcDbText
 10
95.75892857142857
 20
288.0
 30
0.0
 40
3.0
  1
2
  7
ADESK1
 72
     1
 11
97.1875
 21
288.0
 31
0.0
100
AcDbText
  0
TEXT
  5
77
330
24
100
AcDbEntity
  8
0
100
AcDbText
 10
143.8839285714285
 20
288.0
 30
0.0
 40
3.0
  1
3
  7
ADESK1
 72
     1
 11
145.3125
 21
288.0
 31
0.0
100
AcDbText
  0
TEXT
  5
78
330
24
100
AcDbEntity
  8
0
100
AcDbText
 10
191.9375
 20
288.0
 30
0.0
 40
3.0
  1
4
  7
ADESK1
 72
     1
 11
193.4375
 21
288.0
 31
0.0
100
AcDbText
  0
TEXT
  5
79
330
24
100
AcDbEntity
  8
0
100
AcDbText
 10
240.1339285714285
 20
288.0
 30
0.0
 40
3.0
  1
5
  7
ADESK1
 72
     1
 11
241.5624999999999
 21
288.0
 31
0.0
100
AcDbText
  0
TEXT
  5
7A
330
24
100
AcDbEntity
  8
0
100
AcDbText
 10
288.1874999999999
 20
288.0
 30
0.0
 40
3.0
  1
6
  7
ADESK1
 72
     1
 11
289.6875
 21
288.0
 31
0.0
100
AcDbText
  0
TEXT
  5
7B
330
24
100
AcDbEntity
  8
0
100
AcDbText
 10
336.3839285714285
 20
288.0
 30
0.0
 40
3.0
  1
7
  7
ADESK1
 72
     1
 11
337.8125
 21
288.0
 31
0.0
100
AcDbText
  0
TEXT
  5
7C
330
24
100
AcDbEntity
  8
0
100
AcDbText
 10
384.5089285714285
 20
288.0
 30
0.0
 40
3.0
  1
8
  7
ADESK1
 72
     1
 11
385.9375
 21
288.0
 31
0.0
100
AcDbText
  0
TEXT
  5
7D
330
24
100
AcDbEntity
  8
0
100
AcDbText
 10
21.03573278810532
 20
217.7499999999999
 30
0.0
 40
3.0
  1
B
  7
ADESK1
 72
     1
 11
22.60716135953389
 21
217.7499999999999
 31
0.0
100
AcDbText
  0
TEXT
  5
7E
330
24
100
AcDbEntity
  8
0
100
AcDbText
 10
21.10716135953389
 20
171.5833333333333
 30
0.0
 40
3.0
  1
C
  7
ADESK1
 72
     1
 11
22.60716135953389
 21
171.5833333333333
 31
0.0
100
AcDbText
  0
TEXT
  5
7F
330
24
100
AcDbEntity
  8
0
100
AcDbText
 10
21.03573278810532
 20
125.4166666666666
 30
0.0
 40
3.0
  1
D
  7
ADESK1
 72
     1
 11
22.60716135953389
 21
125.4166666666666
 31
0.0
100
AcDbText
  0
TEXT
  5
80
330
24
100
AcDbEntity
  8
0
100
AcDbText
 10
21.10716135953389
 20
79.25
 30
0.0
 40
3.0
  1
E
  7
ADESK1
 72
     1
 11
22.60716135953389
 21
79.25
 31
0.0
100
AcDbText
  0
TEXT
  5
81
330
24
100
AcDbEntity
  8
0
100
AcDbText
 10
21.10716135953389
 20
33.08333333333334
 30
0.0
 40
3.0
  1
F
  7
ADESK1
 72
     1
 11
22.60716135953389
 21
33.08333333333334
 31
0.0
100
AcDbText
  0
TEXT
  5
82
330
24
100
AcDbEntity
  8
0
100
AcDbText
 10
47.84821428571429
 20
6.019997240728748
 30
0.0
 40
3.0
  1
1
  7
ADESK1
 72
     1
 11
49.0625
 21
6.019997240728748
 31
0.0
100
AcDbText
  0
TEXT
  5
83
330
24
100
AcDbEntity
  8
0
100
AcDbText
 10
95.75892857142857
 20
6.019997240728748
 30
0.0
 40
3.0
  1
2
  7
ADESK1
 72
     1
 11
97.1875
 21
6.019997240728748
 31
0.0
100
AcDbText
  0
TEXT
  5
84
330
24
100
AcDbEntity
  8
0
100
AcDbText
 10
143.8839285714285
 20
6.019997240728748
 30
0.0
 40
3.0
  1
3
  7
ADESK1
 72
     1
 11
145.3125
 21
6.019997240728748
 31
0.0
100
AcDbText
  0
TEXT
  5
85
330
24
100
AcDbEntity
  8
0
100
AcDbText
 10
191.9375
 20
6.019997240728748
 30
0.0
 40
3.0
  1
4
  7
ADESK1
 72
     1
 11
193.4375
 21
6.019997240728748
 31
0.0
100
AcDbText
  0
TEXT
  5
86
330
24
100
AcDbEntity
  8
0
100
AcDbText
 10
240.1339285714285
 20
6.019997240728748
 30
0.0
 40
3.0
  1
5
  7
ADESK1
 72
     1
 11
241.5624999999999
 21
6.019997240728748
 31
0.0
100
AcDbText
  0
TEXT
  5
87
330
24
100
AcDbEntity
  8
0
100
AcDbText
 10
288.1874999999999
 20
6.019997240728748
 30
0.0
 40
3.0
  1
6
  7
ADESK1
 72
     1
 11
289.6875
 21
6.019997240728748
 31
0.0
100
AcDbText
  0
TEXT
  5
88
330
24
100
AcDbEntity
  8
0
100
AcDbText
 10
336.3839285714285
 20
6.019997240728748
 30
0.0
 40
3.0
  1
7
  7
ADESK1
 72
     1
 11
337.8125
 21
6.019997240728748
 31
0.0
100
AcDbText
  0
TEXT
  5
89
330
24
100
AcDbEntity
  8
0
100
AcDbText
 10
384.5089285714285
 20
6.019997240728748
 30
0.0
 40
3.0
  1
8
  7
ADESK1
 72
     1
 11
385.9375
 21
6.019997240728748
 31
0.0
100
AcDbText
  0
TEXT
  5
8A
330
24
100
AcDbEntity
  8
0
100
AcDbText
 10
411.5851108826324
 20
263.9166666666666
 30
0.0
 40
3.0
  1
A
  7
ADESK1
 72
     1
 11
412.8708251683468
 21
263.9166666666666
 31
0.0
100
AcDbText
  0
TEXT
  5
8B
330
24
100
AcDbEntity
  8
0
100
AcDbText
 10
411.2993965969182
 20
217.7499999999999
 30
0.0
 40
3.0
  1
B
  7
ADESK1
 72
     1
 11
412.8708251683468
 21
217.7499999999999
 31
0.0
100
AcDbText
  0
TEXT
  5
8C
330
24
100
AcDbEntity
  8
0
100
AcDbText
 10
411.3708251683467
 20
171.5833333333333
 30
0.0
 40
3.0
  1
C
  7
ADESK1
 72
     1
 11
412.8708251683468
 21
171.5833333333333
 31
0.0
100
AcDbText
  0
TEXT
  5
8D
330
24
100
AcDbEntity
  8
0
100
AcDbText
 10
411.2993965969182
 20
125.4166666666666
 30
0.0
 40
3.0
  1
D
  7
ADESK1
 72
     1
 11
412.8708251683468
 21
125.4166666666666
 31
0.0
100
AcDbText
  0
TEXT
  5
8E
330
24
100
AcDbEntity
  8
0
100
AcDbText
 10
411.3708251683467
 20
79.25
 30
0.0
 40
3.0
  1
E
  7
ADESK1
 72
     1
 11
412.8708251683468
 21
79.25
 31
0.0
100
AcDbText
  0
TEXT
  5
8F
330
24
100
AcDbEntity
  8
0
100
AcDbText
 10
411.3708251683467
 20
33.08333333333334
 30
0.0
 40
3.0
  1
F
  7
ADESK1
 72
     1
 11
412.8708251683468
 21
33.08333333333334
 31
0.0
100
AcDbText
  0
LINE
  5
90
330
24
100
AcDbEntity
  8
0
 62
     0
100
AcDbLine
 10
280.2978723404241
 20
49.00000000000036
 30
0.0
 11
410.0
 21
49.00000000000036
 31
0.0
  0
LINE
  5
91
330
24
100
AcDbEntity
  8
0
 62
     0
100
AcDbLine
 10
280.2978723404241
 20
13.00000000000004
 30
0.0
 11
410.0
 21
13.00000000000004
 31
0.0
  0
LINE
  5
92
330
24
100
AcDbEntity
  8
0
 62
     0
100
AcDbLine
 10
280.2978723404241
 20
37.00000000000024
 30
0.0
 11
410.0
 21
37.00000000000024
 31
0.0
  0
LINE
  5
93
330
24
100
AcDbEntity
  8
0
 62
     0
100
AcDbLine
 10
318.1276595744673
 20
22.00000000000012
 30
0.0
 11
410.0
 21
22.00000000000012
 31
0.0
  0
LINE
  5
94
330
24
100
AcDbEntity
  8
0
 62
     0
100
AcDbLine
 10
280.2978723404241
 20
10.0
 30
0.0
 11
410.0
 21
10.0
 31
0.0
  0
LINE
  5
95
330
24
100
AcDbEntity
  8
0
 62
     0
100
AcDbLine
 10
410.0
 20
49.00000000000036
 30
0.0
 11
280.2978723404241
 21
49.00000000000036
 31
0.0
  0
LINE
  5
96
330
24
100
AcDbEntity
  8
0
 62
     0
100
AcDbLine
 10
303.7163120567365
 20
37.00000000000024
 30
0.0
 11
303.7163120567365
 21
10.0
 31
0.0
  0
LINE
  5
97
330
24
100
AcDbEntity
  8
0
 62
     0
100
AcDbLine
 10
285.702127659573
 20
37.00000000000024
 30
0.0
 11
285.702127659573
 21
10.0
 31
0.0
  0
LINE
  5
98
330
24
100
AcDbEntity
  8
0
 62
     0
100
AcDbLine
 10
312.7234042553184
 20
37.00000000000024
 30
0.0
 11
312.7234042553184
 21
10.0
 31
0.0
  0
LINE
  5
99
330
24
100
AcDbEntity
  8
0
 62
     0
100
AcDbLine
 10
318.1276595744673
 20
25.00000000000012
 30
0.0
 11
318.1276595744673
 21
10.0
 31
0.0
  0
LINE
  5
9A
330
24
100
AcDbEntity
  8
0
 62
     0
100
AcDbLine
 10
280.2978723404241
 20
49.00000000000036
 30
0.0
 11
280.2978723404241
 21
10.0
 31
0.0
  0
LINE
  5
9B
330
24
100
AcDbEntity
  8
0
 62
     0
100
AcDbLine
 10
348.7517730496447
 20
49.00000000000036
 30
0.0
 11
348.7517730496447
 21
10.0
 31
0.0
  0
LINE
  5
9C
330
24
100
AcDbEntity
  8
0
 62
     0
100
AcDbLine
 10
328.7659574468077
 20
22.00000000000007
 30
0.0
 11
328.7659574468077
 21
10.0
 31
0.0
  0
LINE
  5
9D
330
24
100
AcDbEntity
  8
0
 62
     0
100
AcDbLine
 10
339.4042553191484
 20
22.00000000000007
 30
0.0
 11
339.4042553191484
 21
10.0
 31
0.0
  0
LINE
  5
9E
330
24
100
AcDbEntity
  8
0
 62
     0
100
AcDbLine
 10
280.2978723404241
 20
16.00000000000008
 30
0.0
 11
318.1276595744673
 21
16.00000000000008
 31
0.0
  0
LINE
  5
9F
330
24
100
AcDbEntity
  8
0
 62
     0
100
AcDbLine
 10
280.2978723404241
 20
10.0
 30
0.0
 11
280.2978723404241
 21
13.00000000000004
 31
0.0
  0
TEXT
  5
A0
330
24
100
AcDbEntity
  8
0
 62
     0
100
AcDbText
 10
321.7174935280942
 20
10.48329012996929
 30
0.0
 40
1.791674070777747
  1
製図
  7
ADESK1
 72
     1
 11
323.5688900678979
 21
10.48329012996929
 31
0.0
100
AcDbText
  0
TEXT
  5
A1
330
24
100
AcDbEntity
  8
0
 62
     0
100
AcDbText
 10
332.2960689314087
 20
10.48329012996929
 30
0.0
 40
1.791674070777747
  1
設計
  7
ADESK1
 72
     1
 11
334.2071879402383
 21
10.48329012996929
 31
0.0
100
AcDbText
  0
TEXT
  5
A2
330
24
100
AcDbEntity
  8
0
 62
     0
100
AcDbText
 10
342.2447163844405
 20
10.55220101068186
 30
0.0
 40
1.791674070777747
  1
照査
  7
ADESK1
 72
     1
 11
344.1558353932701
 21
10.55220101068186
 31
0.0
100
AcDbText
  0
LINE
  5
A3
330
24
100
AcDbEntity
  8
0
 62
     0
100
AcDbLine
 10
280.2978723404241
 20
25.00000000000012
 30
0.0
 11
318.1276595744673
 21
25.00000000000012
 31
0.0
  0
LINE
  5
A4
330
24
100
AcDbEntity
  8
0
 62
     0
100
AcDbLine
 10
280.2978723404241
 20
22.00000000000007
 30
0.0
 11
318.1276595744673
 21
22.00000000000012
 31
0.0
  0
LINE
  5
A5
330
24
100
AcDbEntity
  8
0
 62
     0
100
AcDbLine
 10
280.2978723404241
 20
19.00000000000007
 30
0.0
 11
318.1276595744673
 21
19.00000000000012
 31
0.0
  0
LINE
  5
A6
330
24
100
AcDbEntity
  8
0
 62
     0
100
AcDbLine
 10
280.2978723404241
 20
34.00000000000024
 30
0.0
 11
348.7517730496447
 21
34.00000000000024
 31
0.0
  0
LINE
  5
A7
330
24
100
AcDbEntity
  8
0
 62
     0
100
AcDbLine
 10
280.2978723404241
 20
31.0000000000002
 30
0.0
 11
348.7517730496447
 21
31.0000000000002
 31
0.0
  0
LINE
  5
A8
330
24
100
AcDbEntity
  8
0
 62
     0
100
AcDbLine
 10
280.2978723404241
 20
28.00000000000015
 30
0.0
 11
348.7517730496447
 21
28.00000000000015
 31
0.0
  0
LINE
  5
A9
330
24
100
AcDbEntity
  8
0
 62
     0
100
AcDbLine
 10
318.1276595744673
 20
25.00000000000012
 30
0.0
 11
348.7517730496447
 21
25.00000000000012
 31
0.0
  0
LINE
  5
AA
330
24
100
AcDbEntity
  8
0
 62
     0
100
AcDbLine
 10
318.1276595744673
 20
49.00000000000036
 30
0.0
 11
318.1276595744673
 21
25.00000000000012
 31
0.0
  0
LINE
  5
AB
330
24
100
AcDbEntity
  8
0
 62
     0
100
AcDbLine
 10
325.3333333333325
 20
37.00000000000024
 30
0.0
 11
325.3333333333325
 21
25.00000000000012
 31
0.0
  0
LINE
  5
AC
330
24
100
AcDbEntity
  8
0
 62
     0
100
AcDbLine
 10
336.1418439716306
 20
49.00000000000036
 30
0.0
 11
336.1418439716306
 21
22.00000000000012
 31
0.0
  0
LINE
  5
AD
330
24
100
AcDbEntity
  8
0
 62
     0
100
AcDbLine
 10
402.7943262411347
 20
22.00000000000012
 30
0.0
 11
402.7943262411347
 21
10.0
 31
0.0
  0
LINE
  5
AE
330
24
100
AcDbEntity
  8
0
 62
     0
100
AcDbLine
 10
410.0
 20
49.00000000000036
 30
0.0
 11
410.0
 21
10.0
 31
0.0
  0
LINE
  5
AF
330
24
100
AcDbEntity
  8
0
 62
     0
100
AcDbLine
 10
410.0
 20
10.0
 30
0.0
 11
410.0
 21
49.00000000000036
 31
0.0
  0
LINE
  5
B0
330
24
100
AcDbEntity
  8
0
 62
     0
100
AcDbLine
 10
402.7943262411347
 20
16.00000000000008
 30
0.0
 11
410.0
 21
16.00000000000008
 31
0.0
  0
ENDBLK
  5
B2
330
24
100
AcDbEntity
  8
0
100
AcDbBlockEnd
  0
BLOCK
  5
E09
330
DF4
100
AcDbEntity
  8
0
 48
10.0
100
AcDbBlockBegin
  2
A$C76631095
 70
     0
 10
0.0
 20
0.0
 30
0.0
  3
A$C76631095
  1

  0
MTEXT
  5
DF5
330
DF4
100
AcDbEntity
  8
上線
 48
10.0
100
AcDbMText
 10
213.9511483416536
 20
83.43253345968605
 30
0.0
 40
50.0
 41
1003.0154
 71
     1
 72
     5
  1
\fＭＳ Ｐ明朝|b0|i0|c128|p18;㈱　ウ　チ　コ　ン
 73
     1
 44
1.0
  0
LINE
  5
DF6
330
DF4
100
AcDbEntity
  8
上線
100
AcDbLine
 10
0.0000018820305741
 20
347.6075602303617
 30
0.0
 11
0.0000018820296646
 21
-0.0000026841717045
 31
0.0
  0
LINE
  5
DF7
330
DF4
100
AcDbEntity
  8
上線
100
AcDbLine
 10
947.3264000794097
 20
-0.0000026841717045
 30
0.0
 11
947.3264000794097
 21
347.6075602303617
 31
0.0
  0
LINE
  5
DF8
330
DF4
100
AcDbEntity
  8
上線
100
AcDbLine
 10
947.3264000794097
 20
-0.0000026841717045
 30
0.0
 11
0.0000018820296646
 21
-0.0000026841717045
 31
0.0
  0
LINE
  5
DF9
330
DF4
100
AcDbEntity
  8
上線
100
AcDbLine
 10
947.3264000794097
 20
102.6542732834659
 30
0.0
 11
0.0000018820296646
 21
102.6542732834659
 31
0.0
  0
LINE
  5
DFA
330
DF4
100
AcDbEntity
  8
上線
100
AcDbLine
 10
947.3264000794097
 20
171.0515387448985
 30
0.0
 11
0.0000018820296646
 21
171.0515387448985
 31
0.0
  0
LINE
  5
DFB
330
DF4
100
AcDbEntity
  8
上線
100
AcDbLine
 10
947.3264000794097
 20
247.8754820659969
 30
0.0
 11
0.0000018820296646
 21
247.8754820659969
 31
0.0
  0
LINE
  5
DFC
330
DF4
100
AcDbEntity
  8
上線
100
AcDbLine
 10
947.3264000794097
 20
347.6075602303617
 30
0.0
 11
0.0000018820296646
 21
347.6075602303617
 31
0.0
  0
MTEXT
  5
DFD
330
DF4
100
AcDbEntity
  8
上線
 48
10.0
100
AcDbMText
 10
36.95012512673929
 20
155.8003766621732
 30
0.0
 40
35.0
 41
241.0562
 71
     1
 72
     5
  1
\fＭＳ Ｐ明朝|b0|i0|c128|p18;ｓ；1/15
 73
     1
 44
1.0
  0
MTEXT
  5
DFE
330
DF4
100
AcDbEntity
  8
上線
 48
10.0
100
AcDbMText
 10
20.90609954212232
 20
226.1317266854475
 30
0.0
 40
30.0
 41
241.0562
 71
     1
 72
     5
  1
\fＭＳ Ｐ明朝|b0|i0|c128|p18;寸　法
 73
     1
 44
1.0
  0
MTEXT
  5
DFF
330
DF4
100
AcDbEntity
  8
上線
 48
10.0
100
AcDbMText
 10
20.90609954212232
 20
319.6553279599529
 30
0.0
 40
30.0
 41
241.0562
 71
     1
 72
     5
  1
\fＭＳ Ｐ明朝|b0|i0|c128|p18;呼び名
 73
     1
 44
1.0
  0
MTEXT
  5
E00
330
DF4
100
AcDbEntity
  8
上線
 48
10.0
100
AcDbMText
 10
207.0566595292039
 20
329.5381109258059
 30
0.0
 40
50.0
 41
1003.0154
 71
     1
 72
     5
  1
長尺U字溝　 （H4-30）
 73
     1
 44
1.0
  0
LINE
  5
E01
330
DF4
100
AcDbEntity
  8
上線
100
AcDbLine
 10
166.7361091301863
 20
347.6075602303617
 30
0.0
 11
166.7361091301863
 21
171.0515387448985
 31
0.0
  0
MTEXT
  5
E02
330
DF4
100
AcDbEntity
  8
上線
 48
10.0
100
AcDbMText
 10
193.3162125716371
 20
237.1889393689198
 30
0.0
 40
45.0
 41
1003.0154
 71
     1
 72
     5
  1
300×300×120/120×4000
 73
     1
 44
1.0
  0
MTEXT
  5
E03
330
DF4
100
AcDbEntity
  8
上線
 48
10.0
100
AcDbMText
 10
491.4800048269862
 20
153.8123139598656
 30
0.0
 40
35.0
 41
241.0562
 71
     1
 72
     5
  1
W=1350㎏
 73
     1
 44
1.0
  0
MTEXT
  5
E04
330
DF4
100
AcDbEntity
  8
上線
 48
10.0
100
AcDbMText
 10
267.8121528552182
 20
155.8003766621723
 30
0.0
 40
35.0
 41
241.0562
 71
     1
 72
     5
  1
\fＭＳ Ｐ明朝|b0|i0|c128|p18;単位；㎜
 73
     1
 44
1.0
  0
LINE
  5
E05
330
DF4
100
AcDbEntity
  8
上線
 48
10.0
100
AcDbLine
 10
236.831601431375
 20
171.0515387448985
 30
0.0
 11
236.8316014313754
 21
102.6542732834659
 31
0.0
  0
LINE
  5
E06
330
DF4
100
AcDbEntity
  8
上線
 48
10.0
100
AcDbLine
 10
473.6632009807199
 20
171.0515387448985
 30
0.0
 11
473.6632009807199
 21
102.6542732834659
 31
0.0
  0
LINE
  5
E07
330
DF4
100
AcDbEntity
  8
上線
 48
10.0
100
AcDbLine
 10
729.2924737461508
 20
171.0515387448985
 30
0.0
 11
729.2924737461508
 21
102.6542732834659
 31
0.0
  0
MTEXT
  5
E08
330
DF4
100
AcDbEntity
  8
上線
 48
10.0
100
AcDbMText
 10
755.3963111996981
 20
152.8704052015728
 30
0.0
 40
35.0
 41
241.0562
 71
     1
 72
     5
  1
S=7.8㎏
 73
     1
 44
1.0
  0
ENDBLK
  5
E0A
330
DF4
100
AcDbEntity
  8
0
 48
10.0
100
AcDbBlockEnd
  0
BLOCK
  5
E16
330
E0C
100
AcDbEntity
  8
0
 48
10.0
100
AcDbBlockBegin
  2
*D2
 70
     1
 10
0.0
 20
0.0
 30
0.0
  3
*D2
  1

  0
LINE
  5
E0D
330
E0C
100
AcDbEntity
  8
0
  6
ByBlock
 62
     0
 48
10.0
100
AcDbLine
 10
6488.570487269344
 20
1700.65551464037
 30
0.0
 11
6488.570487269344
 21
2063.78051464037
 31
0.0
  0
LINE
  5
E0E
330
E0C
100
AcDbEntity
  8
0
  6
ByBlock
 62
     0
 48
10.0
100
AcDbLine
 10
8785.058566304215
 20
1704.40551464037
 30
0.0
 11
8785.058566304215
 21
2063.78051464037
 31
0.0
  0
LINE
  5
E0F
330
E0C
100
AcDbEntity
  8
0
  6
ByBlock
 62
     0
 48
10.0
100
AcDbLine
 10
6526.070487269343
 20
2045.03051464037
 30
0.0
 11
8747.558566304215
 21
2045.03051464037
 31
0.0
  0
SOLID
  5
E10
330
E0C
100
AcDbEntity
  8
0
  6
ByBlock
 62
     0
 48
10.0
100
AcDbTrace
 10
6526.070487269343
 20
2051.28051464037
 30
0.0
 11
6526.070487269343
 21
2038.78051464037
 31
0.0
 12
6488.570487269344
 22
2045.03051464037
 32
0.0
 13
6488.570487269344
 23
2045.03051464037
 33
0.0
  0
SOLID
  5
E11
330
E0C
100
AcDbEntity
  8
0
  6
ByBlock
 62
     0
 48
10.0
100
AcDbTrace
 10
8747.558566304215
 20
2051.28051464037
 30
0.0
 11
8747.558566304215
 21
2038.78051464037
 31
0.0
 12
8785.058566304215
 22
2045.03051464037
 32
0.0
 13
8785.058566304215
 23
2045.03051464037
 33
0.0
  0
MTEXT
  5
E12
330
E0C
100
AcDbEntity
  8
0
  6
ByBlock
 62
     0
 48
10.0
100
AcDbMText
 10
7636.81452678678
 20
2076.420964078573
 30
0.0
 40
37.5
 41
0.0
 71
     5
 72
     1
  1
\A1;4,000
 73
     1
 44
1.0
  0
POINT
  5
E13
330
E0C
100
AcDbEntity
  8
DEFPOINTS
  6
ByBlock
 62
     0
 48
10.0
100
AcDbPoint
 10
6488.570487269344
 20
1691.28051464037
 30
0.0
  0
POINT
  5
E14
330
E0C
100
AcDbEntity
  8
DEFPOINTS
  6
ByBlock
 62
     0
 48
10.0
100
AcDbPoint
 10
8785.058566304215
 20
1695.03051464037
 30
0.0
  0
POINT
  5
E15
330
E0C
100
AcDbEntity
  8
DEFPOINTS
  6
ByBlock
 62
     0
 48
10.0
100
AcDbPoint
 10
8785.058566304215
 20
2045.03051464037
 30
0.0
  0
ENDBLK
  5
E17
330
E0C
100
AcDbEntity
  8
0
 48
10.0
100
AcDbBlockEnd
  0
BLOCK
  5
E22
330
E18
100
AcDbEntity
  8
0
 48
10.0
100
AcDbBlockBegin
  2
*D3
 70
     1
 10
0.0
 20
0.0
 30
0.0
  3
*D3
  1

  0
LINE
  5
E19
330
E18
100
AcDbEntity
  8
0
  6
ByBlock
 62
     0
 48
10.0
100
AcDbLine
 10
597.0366775704097
 20
1465.03051464037
 30
0.0
 11
237.6616775704096
 21
1465.03051464037
 31
0.0
  0
LINE
  5
E1A
330
E18
100
AcDbEntity
  8
0
  6
ByBlock
 62
     0
 48
10.0
100
AcDbLine
 10
597.0366775704096
 20
965.0305146403711
 30
0.0
 11
237.6616775704096
 21
965.0305146403711
 31
0.0
  0
LINE
  5
E1B
330
E18
100
AcDbEntity
  8
0
  6
ByBlock
 62
     0
 48
10.0
100
AcDbLine
 10
256.4116775704097
 20
1427.530514640371
 30
0.0
 11
256.4116775704096
 21
1002.530514640371
 31
0.0
  0
SOLID
  5
E1C
330
E18
100
AcDbEntity
  8
0
  6
ByBlock
 62
     0
 48
10.0
100
AcDbTrace
 10
250.1616775704097
 20
1427.530514640371
 30
0.0
 11
262.6616775704097
 21
1427.530514640371
 31
0.0
 12
256.4116775704097
 22
1465.03051464037
 32
0.0
 13
256.4116775704097
 23
1465.03051464037
 33
0.0
  0
SOLID
  5
E1D
330
E18
100
AcDbEntity
  8
0
  6
ByBlock
 62
     0
 48
10.0
100
AcDbTrace
 10
250.1616775704096
 20
1002.530514640371
 30
0.0
 11
262.6616775704096
 21
1002.530514640371
 31
0.0
 12
256.4116775704096
 22
965.0305146403711
 32
0.0
 13
256.4116775704096
 23
965.0305146403711
 33
0.0
  0
MTEXT
  5
E1E
330
E18
100
AcDbEntity
  8
0
  6
ByBlock
 62
     0
 48
10.0
100
AcDbMText
 10
228.2866775704096
 20
1215.030514640371
 30
0.0
 40
37.5
 41
0.0
 71
     5
 72
     1
  1
\A1;500
 11
0.0000000000000001
 21
1.0
 31
0.0
 73
     1
 44
1.0
  0
POINT
  5
E1F
330
E18
100
AcDbEntity
  8
DEFPOINTS
  6
ByBlock
 62
     0
 48
10.0
100
AcDbPoint
 10
606.4116775704097
 20
1465.03051464037
 30
0.0
  0
POINT
  5
E20
330
E18
100
AcDbEntity
  8
DEFPOINTS
  6
ByBlock
 62
     0
 48
10.0
100
AcDbPoint
 10
606.4116775704096
 20
965.0305146403711
 30
0.0
  0
POINT
  5
E21
330
E18
100
AcDbEntity
  8
DEFPOINTS
  6
ByBlock
 62
     0
 48
10.0
100
AcDbPoint
 10
256.4116775704096
 20
965.0305146403711
 30
0.0
  0
ENDBLK
  5
E23
330
E18
100
AcDbEntity
  8
0
 48
10.0
100
AcDbBlockEnd
  0
BLOCK
  5
E2E
330
E24
100
AcDbEntity
  8
0
 48
10.0
100
AcDbBlockBegin
  2
*D4
 70
     1
 10
0.0
 20
0.0
 30
0.0
  3
*D4
  1

  0
LINE
  5
E25
330
E24
100
AcDbEntity
  8
0
  6
ByBlock
 62
     0
 48
10.0
100
AcDbLine
 10
6508.570487269344
 20
925.6555146403709
 30
0.0
 11
6508.570487269344
 21
716.2805146403708
 31
0.0
  0
LINE
  5
E26
330
E24
100
AcDbEntity
  8
0
  6
ByBlock
 62
     0
 48
10.0
100
AcDbLine
 10
6772.570487269344
 20
925.6555146403709
 30
0.0
 11
6772.570487269344
 21
716.2805146403708
 31
0.0
  0
LINE
  5
E27
330
E24
100
AcDbEntity
  8
0
  6
ByBlock
 62
     0
 48
10.0
100
AcDbLine
 10
6546.070487269344
 20
735.0305146403708
 30
0.0
 11
6735.070487269344
 21
735.0305146403708
 31
0.0
  0
SOLID
  5
E28
330
E24
100
AcDbEntity
  8
0
  6
ByBlock
 62
     0
 48
10.0
100
AcDbTrace
 10
6546.070487269344
 20
741.2805146403708
 30
0.0
 11
6546.070487269344
 21
728.7805146403708
 31
0.0
 12
6508.570487269344
 22
735.0305146403708
 32
0.0
 13
6508.570487269344
 23
735.0305146403708
 33
0.0
  0
SOLID
  5
E29
330
E24
100
AcDbEntity
  8
0
  6
ByBlock
 62
     0
 48
10.0
100
AcDbTrace
 10
6735.070487269344
 20
741.2805146403708
 30
0.0
 11
6735.070487269344
 21
728.7805146403708
 31
0.0
 12
6772.570487269344
 22
735.0305146403708
 32
0.0
 13
6772.570487269344
 23
735.0305146403708
 33
0.0
  0
MTEXT
  5
E2A
330
E24
100
AcDbEntity
  8
0
  6
ByBlock
 62
     0
 48
10.0
100
AcDbMText
 10
6640.570487269345
 20
763.1555146403708
 30
0.0
 40
37.5
 41
0.0
 71
     5
 72
     1
  1
\A1;264
 73
     1
 44
1.0
  0
POINT
  5
E2B
330
E24
100
AcDbEntity
  8
DEFPOINTS
  6
ByBlock
 62
     0
 48
10.0
100
AcDbPoint
 10
6508.570487269344
 20
935.0305146403709
 30
0.0
  0
POINT
  5
E2C
330
E24
100
AcDbEntity
  8
DEFPOINTS
  6
ByBlock
 62
     0
 48
10.0
100
AcDbPoint
 10
6772.570487269344
 20
935.0305146403709
 30
0.0
  0
POINT
  5
E2D
330
E24
100
AcDbEntity
  8
DEFPOINTS
  6
ByBlock
 62
     0
 48
10.0
100
AcDbPoint
 10
6772.570487269344
 20
735.0305146403708
 30
0.0
  0
ENDBLK
  5
E2F
330
E24
100
AcDbEntity
  8
0
 48
10.0
100
AcDbBlockEnd
  0
BLOCK
  5
E3C
330
E30
100
AcDbEntity
  8
0
 48
10.0
100
AcDbBlockBegin
  2
*D5
 70
     1
 10
0.0
 20
0.0
 30
0.0
  3
*D5
  1

  0
LINE
  5
E31
330
E30
100
AcDbEntity
  8
0
  6
ByBlock
 62
     0
 48
10.0
100
AcDbLine
 10
6508.570487269344
 20
925.6555146403709
 30
0.0
 11
6508.570487269344
 21
716.2805146403708
 31
0.0
  0
LINE
  5
E32
330
E30
100
AcDbEntity
  8
0
  6
ByBlock
 62
     0
 48
10.0
100
AcDbLine
 10
6488.570487269344
 20
925.6555146403709
 30
0.0
 11
6488.570487269344
 21
716.2805146403708
 31
0.0
  0
LINE
  5
E33
330
E30
100
AcDbEntity
  8
0
  6
ByBlock
 62
     0
 48
10.0
100
AcDbLine
 10
6546.070487269344
 20
735.0305146403708
 30
0.0
 11
6583.570487269344
 21
735.0305146403708
 31
0.0
  0
LINE
  5
E34
330
E30
100
AcDbEntity
  8
0
  6
ByBlock
 62
     0
 48
10.0
100
AcDbLine
 10
6451.070487269344
 20
735.0305146403708
 30
0.0
 11
6346.365431089569
 21
735.0305146403708
 31
0.0
  0
LINE
  5
E35
330
E30
100
AcDbEntity
  8
0
  6
ByBlock
 62
     0
 48
10.0
100
AcDbLine
 10
6508.570487269344
 20
735.0305146403708
 30
0.0
 11
6488.570487269344
 21
735.0305146403708
 31
0.0
  0
SOLID
  5
E36
330
E30
100
AcDbEntity
  8
0
  6
ByBlock
 62
     0
 48
10.0
100
AcDbTrace
 10
6546.070487269344
 20
741.2805146403708
 30
0.0
 11
6546.070487269344
 21
728.7805146403708
 31
0.0
 12
6508.570487269344
 22
735.0305146403708
 32
0.0
 13
6508.570487269344
 23
735.0305146403708
 33
0.0
  0
SOLID
  5
E37
330
E30
100
AcDbEntity
  8
0
  6
ByBlock
 62
     0
 48
10.0
100
AcDbTrace
 10
6451.070487269344
 20
741.2805146403708
 30
0.0
 11
6451.070487269344
 21
728.7805146403708
 31
0.0
 12
6488.570487269344
 22
735.0305146403708
 32
0.0
 13
6488.570487269344
 23
735.0305146403708
 33
0.0
  0
MTEXT
  5
E38
330
E30
100
AcDbEntity
  8
0
  6
ByBlock
 62
     0
 48
10.0
100
AcDbMText
 10
6379.967959179456
 20
763.1555146403708
 30
0.0
 40
37.5
 41
0.0
 71
     5
 72
     1
  1
\A1;20
 73
     1
 44
1.0
  0
POINT
  5
E39
330
E30
100
AcDbEntity
  8
DEFPOINTS
  6
ByBlock
 62
     0
 48
10.0
100
AcDbPoint
 10
6508.570487269344
 20
935.0305146403709
 30
0.0
  0
POINT
  5
E3A
330
E30
100
AcDbEntity
  8
DEFPOINTS
  6
ByBlock
 62
     0
 48
10.0
100
AcDbPoint
 10
6488.570487269344
 20
935.0305146403709
 30
0.0
  0
POINT
  5
E3B
330
E30
100
AcDbEntity
  8
DEFPOINTS
  6
ByBlock
 62
     0
 48
10.0
100
AcDbPoint
 10
6488.570487269344
 20
735.0305146403708
 30
0.0
  0
ENDBLK
  5
E3D
330
E30
100
AcDbEntity
  8
0
 48
10.0
100
AcDbBlockEnd
  0
BLOCK
  5
E48
330
E3E
100
AcDbEntity
  8
0
 48
10.0
100
AcDbBlockBegin
  2
*D6
 70
     1
 10
0.0
 20
0.0
 30
0.0
  3
*D6
  1

  0
LINE
  5
E3F
330
E3E
100
AcDbEntity
  8
0
  6
ByBlock
 62
     0
 48
10.0
100
AcDbLine
 10
597.0366775704096
 20
1065.03051464037
 30
0.0
 11
387.6616775704096
 21
1065.03051464037
 31
0.0
  0
LINE
  5
E40
330
E3E
100
AcDbEntity
  8
0
  6
ByBlock
 62
     0
 48
10.0
100
AcDbLine
 10
597.0366775704096
 20
1365.03051464037
 30
0.0
 11
387.6616775704096
 21
1365.03051464037
 31
0.0
  0
LINE
  5
E41
330
E3E
100
AcDbEntity
  8
0
  6
ByBlock
 62
     0
 48
10.0
100
AcDbLine
 10
406.4116775704095
 20
1102.53051464037
 30
0.0
 11
406.4116775704095
 21
1327.53051464037
 31
0.0
  0
SOLID
  5
E42
330
E3E
100
AcDbEntity
  8
0
  6
ByBlock
 62
     0
 48
10.0
100
AcDbTrace
 10
400.1616775704095
 20
1102.53051464037
 30
0.0
 11
412.6616775704095
 21
1102.53051464037
 31
0.0
 12
406.4116775704095
 22
1065.03051464037
 32
0.0
 13
406.4116775704095
 23
1065.03051464037
 33
0.0
  0
SOLID
  5
E43
330
E3E
100
AcDbEntity
  8
0
  6
ByBlock
 62
     0
 48
10.0
100
AcDbTrace
 10
400.1616775704095
 20
1327.53051464037
 30
0.0
 11
412.6616775704095
 21
1327.53051464037
 31
0.0
 12
406.4116775704095
 22
1365.03051464037
 32
0.0
 13
406.4116775704095
 23
1365.03051464037
 33
0.0
  0
MTEXT
  5
E44
330
E3E
100
AcDbEntity
  8
0
  6
ByBlock
 62
     0
 48
10.0
100
AcDbMText
 10
378.2866775704096
 20
1215.03051464037
 30
0.0
 40
37.5
 41
0.0
 71
     5
 72
     1
  1
\A1;300
 11
0.0000000000000001
 21
1.0
 31
0.0
 73
     1
 44
1.0
  0
POINT
  5
E45
330
E3E
100
AcDbEntity
  8
DEFPOINTS
  6
ByBlock
 62
     0
 48
10.0
100
AcDbPoint
 10
606.4116775704096
 20
1065.03051464037
 30
0.0
  0
POINT
  5
E46
330
E3E
100
AcDbEntity
  8
DEFPOINTS
  6
ByBlock
 62
     0
 48
10.0
100
AcDbPoint
 10
606.4116775704096
 20
1365.03051464037
 30
0.0
  0
POINT
  5
E47
330
E3E
100
AcDbEntity
  8
DEFPOINTS
  6
ByBlock
 62
     0
 48
10.0
100
AcDbPoint
 10
406.4116775704095
 20
1365.03051464037
 30
0.0
  0
ENDBLK
  5
E49
330
E3E
100
AcDbEntity
  8
0
 48
10.0
100
AcDbBlockEnd
  0
BLOCK
  5
F9B
330
E4A
100
AcDbEntity
  8
0
 48
10.0
100
AcDbBlockBegin
  2
A$C140F7599
 70
     0
 10
0.0
 20
0.0
 30
0.0
  3
A$C140F7599
  1

  0
LINE
  5
E4B
330
E4A
100
AcDbEntity
  8
上線
 48
10.0
100
AcDbLine
 10
547.517266880443
 20
735.9749143240299
 30
0.0
 11
551.0988984924306
 21
485.260701484887
 31
0.0
  0
TEXT
  5
E4C
330
E4A
100
AcDbEntity
  8
点線
 62
     0
100
AcDbText
 10
510.1173756487551
 20
1106.578712713323
 30
0.0
 40
37.5
  1
50
100
AcDbText
  0
LINE
  5
E4D
330
E4A
100
AcDbEntity
  8
上線
 48
10.0
100
AcDbLine
 10
557.5162466284382
 20
736.1177568918583
 30
0.0
 11
506.8019609141519
 21
736.1177568918583
 31
0.0
  0
LINE
  5
E4E
330
E4A
100
AcDbEntity
  8
0
  6
ByBlock
 62
     0
 48
10.0
100
AcDbLine
 10
474.3019609141519
 20
1216.117756891858
 30
0.0
 11
976.801960914152
 21
1216.117756891858
 31
0.0
  0
LINE
  5
E4F
330
E4A
100
AcDbEntity
  8
0
  6
ByBlock
 62
     0
 48
10.0
100
AcDbLine
 10
506.8019609141519
 20
1066.117756891858
 30
0.0
 11
581.8019609141519
 21
1066.117756891858
 31
0.0
  0
LINE
  5
E50
330
E4A
100
AcDbEntity
  8
上線
 48
10.0
100
AcDbLine
 10
446.801960914152
 20
336.1177568918585
 30
0.0
 11
966.8019609141518
 21
336.1177568918581
 31
0.0
  0
ARC
  5
E51
330
E4A
100
AcDbEntity
  8
上線
100
AcDbCircle
 10
611.0927769804011
 20
486.1177568918581
 30
0.0
 40
60.0
100
AcDbArc
 50
180.8184554616886
 51
270.0
  0
LINE
  5
E52
330
E4A
100
AcDbEntity
  8
0
  6
ByBlock
 62
     0
 48
10.0
100
AcDbLine
 10
676.3855835293216
 20
106.1177568918585
 30
0.0
 11
474.3019609141519
 21
106.1177568918585
 31
0.0
  0
MTEXT
  5
E53
330
E4A
100
AcDbEntity
  8
0
  6
ByBlock
 62
     0
 48
10.0
100
AcDbMText
 10
586.5937722217368
 20
134.2427568918585
 30
0.0
 40
37.5
 41
0.0
 71
     5
 72
     1
  1
\A1;540
 73
     1
 44
1.0
  0
DIMENSION
  5
E54
330
E4A
100
AcDbEntity
  8
上線
 48
10.0
100
AcDbDimension
  2
*D6
 10
206.8019609141519
 20
736.1177568918583
 30
0.0
 11
178.676960914152
 21
586.1177568918583
 31
0.0
 12
-199.6097166562576
 22
-628.9127577485124
 32
0.0
 71
     5
 42
-1.0
  3
STANDARD
100
AcDbAlignedDimension
 13
406.8019609141519
 23
436.1177568918581
 33
0.0
 14
406.8019609141519
 24
736.1177568918583
 34
0.0
 50
90.0
100
AcDbRotatedDimension
1001
ACAD
1000
DSTYLE
1002
{
1070
    40
1040
15.0
1070
    41
1040
2.5
1070
    42
1040
0.625
1070
    43
1040
3.75
1070
    44
1040
1.25
1070
    73
1070
     0
1070
    74
1070
     0
1070
    77
1070
     1
1070
    78
1070
     8
1070
   140
1040
2.5
1070
   141
1040
2.5
1070
   143
1040
0.0394
1070
   147
1040
0.625
1070
   171
1070
     4
1070
   172
1070
     1
1070
   273
1070
     8
1070
   274
1070
     4
1070
   277
1070
     6
1002
}
  0
SOLID
  5
E55
330
E4A
100
AcDbEntity
  8
0
  6
ByBlock
 62
     0
 48
10.0
100
AcDbTrace
 10
200.5519609141519
 20
473.6177568918581
 30
0.0
 11
213.0519609141519
 21
473.6177568918581
 31
0.0
 12
206.8019609141519
 22
436.1177568918581
 32
0.0
 13
206.8019609141519
 23
436.1177568918581
 33
0.0
  0
LINE
  5
E56
330
E4A
100
AcDbEntity
  8
上線
100
AcDbLine
 10
436.8019609141519
 20
836.1177568918582
 30
0.0
 11
436.8019609141519
 21
346.1177568918583
 31
0.0
  0
DIMENSION
  5
E57
330
E4A
100
AcDbEntity
  8
上線
 48
10.0
100
AcDbDimension
  2
*D3
 10
56.80196091415201
 20
336.1177568918587
 30
0.0
 11
28.676960914152
 21
586.1177568918588
 31
0.0
 12
-199.6097166562576
 22
-628.9127577485124
 32
0.0
 71
     5
 42
-1.0
  3
STANDARD
100
AcDbAlignedDimension
 13
406.8019609141519
 23
836.1177568918586
 33
0.0
 14
406.8019609141519
 24
336.1177568918587
 34
0.0
 50
90.0
100
AcDbRotatedDimension
1001
ACAD
1000
DSTYLE
1002
{
1070
    40
1040
15.0
1070
    41
1040
2.5
1070
    42
1040
0.625
1070
    43
1040
3.75
1070
    44
1040
1.25
1070
    73
1070
     0
1070
    74
1070
     0
1070
    77
1070
     1
1070
    78
1070
     8
1070
   140
1040
2.5
1070
   141
1040
2.5
1070
   143
1040
0.0394
1070
   147
1040
0.625
1070
   171
1070
     4
1070
   172
1070
     1
1070
   273
1070
     8
1070
   274
1070
     4
1070
   277
1070
     6
1002
}
  0
LINE
  5
E58
330
E4A
100
AcDbEntity
  8
0
  6
ByBlock
 62
     0
 48
10.0
100
AcDbLine
 10
436.8019609141519
 20
296.7427568918585
 30
0.0
 11
436.8019609141519
 21
87.36775689185856
 31
0.0
  0
POINT
  5
E59
330
E4A
100
AcDbEntity
  8
DEFPOINTS
  6
ByBlock
 62
     0
 48
10.0
100
AcDbPoint
 10
406.8019609141519
 20
166.2776989779308
 30
0.0
  0
POINT
  5
E5A
330
E4A
100
AcDbEntity
  8
DEFPOINTS
  6
ByBlock
 62
     0
 48
10.0
100
AcDbPoint
 10
436.8019609141519
 20
106.1177568918585
 30
0.0
  0
SOLID
  5
E5B
330
E4A
100
AcDbEntity
  8
0
  6
ByBlock
 62
     0
 48
10.0
100
AcDbTrace
 10
474.3019609141519
 20
112.3677568918585
 30
0.0
 11
474.3019609141519
 21
99.86775689185856
 31
0.0
 12
436.8019609141519
 22
106.1177568918585
 32
0.0
 13
436.8019609141519
 23
106.1177568918585
 33
0.0
  0
LINE
  5
E5C
330
E4A
100
AcDbEntity
  8
0
  6
ByBlock
 62
     0
 48
10.0
100
AcDbLine
 10
406.8019609141519
 20
436.1177568918581
 30
0.0
 11
254.3019615121475
 21
436.1177568918581
 31
0.0
  0
LINE
  5
E5D
330
E4A
100
AcDbEntity
  8
0
  6
ByBlock
 62
     0
 48
10.0
100
AcDbLine
 10
397.4269609141519
 20
436.1177568918581
 30
0.0
 11
188.051960914152
 21
436.1177568918581
 31
0.0
  0
LINE
  5
E5E
330
E4A
100
AcDbEntity
  8
0
  6
ByBlock
 62
     0
 48
10.0
100
AcDbLine
 10
397.4269609141519
 20
436.1177568918581
 30
0.0
 11
188.051960914152
 21
436.1177568918581
 31
0.0
  0
LINE
  5
E5F
330
E4A
100
AcDbEntity
  8
0
  6
ByBlock
 62
     0
 48
10.0
100
AcDbLine
 10
329.7806778650701
 20
336.1177568918583
 30
0.0
 11
137.1998332421444
 21
336.1177568918583
 31
0.0
  0
LINE
  5
E60
330
E4A
100
AcDbEntity
  8
0
  6
ByBlock
 62
     0
 48
10.0
100
AcDbLine
 10
406.8019609141519
 20
336.1177568918587
 30
0.0
 11
134.301960914152
 21
336.1177568918585
 31
0.0
  0
LINE
  5
E61
330
E4A
100
AcDbEntity
  8
0
  6
ByBlock
 62
     0
 48
10.0
100
AcDbLine
 10
406.8019609141519
 20
336.1177568918585
 30
0.0
 11
134.301960914152
 21
336.1177568918585
 31
0.0
  0
LINE
  5
E62
330
E4A
100
AcDbEntity
  8
0
  6
ByBlock
 62
     0
 48
10.0
100
AcDbLine
 10
397.4269609141519
 20
336.1177568918585
 30
0.0
 11
188.051960914152
 21
336.1177568918585
 31
0.0
  0
LINE
  5
E63
330
E4A
100
AcDbEntity
  8
0
  6
ByBlock
 62
     0
 48
10.0
100
AcDbLine
 10
206.8019609141519
 20
398.6177568918581
 30
0.0
 11
206.8019609141519
 21
373.6177568918585
 31
0.0
  0
MTEXT
  5
E64
330
E4A
100
AcDbEntity
  8
0
  6
ByBlock
 62
     0
 48
10.0
100
AcDbMText
 10
178.676960914152
 20
386.1177568918583
 30
0.0
 40
37.5
 41
0.0
 71
     5
 72
     1
  1
\A1;100
 11
0.0000000000000001
 21
1.0
 31
0.0
 73
     1
 44
1.0
  0
SOLID
  5
E65
330
E4A
100
AcDbEntity
  8
0
  6
ByBlock
 62
     0
 48
10.0
100
AcDbTrace
 10
200.5519609141519
 20
373.6177568918585
 30
0.0
 11
213.0519609141519
 21
373.6177568918585
 31
0.0
 12
206.8019609141519
 22
336.1177568918585
 32
0.0
 13
206.8019609141519
 23
336.1177568918585
 33
0.0
  0
POINT
  5
E66
330
E4A
100
AcDbEntity
  8
DEFPOINTS
  6
ByBlock
 62
     0
 48
10.0
100
AcDbPoint
 10
206.8019609141519
 20
336.1177568918585
 30
0.0
  0
POINT
  5
E67
330
E4A
100
AcDbEntity
  8
DEFPOINTS
  6
ByBlock
 62
     0
 48
10.0
100
AcDbPoint
 10
149.6998332421444
 20
336.1177568918583
 30
0.0
  0
POINT
  5
E68
330
E4A
100
AcDbEntity
  8
DEFPOINTS
  6
ByBlock
 62
     0
 48
10.0
100
AcDbPoint
 10
146.801960914152
 20
336.1177568918585
 30
0.0
  0
SOLID
  5
E69
330
E4A
100
AcDbEntity
  8
0
  6
ByBlock
 62
     0
 48
10.0
100
AcDbTrace
 10
200.5519609141519
 20
398.6177568918581
 30
0.0
 11
213.0519609141519
 21
398.6177568918581
 31
0.0
 12
206.8019609141519
 22
436.1177568918581
 32
0.0
 13
206.8019609141519
 23
436.1177568918581
 33
0.0
  0
POINT
  5
E6A
330
E4A
100
AcDbEntity
  8
DEFPOINTS
  6
ByBlock
 62
     0
 48
10.0
100
AcDbPoint
 10
206.8019609141519
 20
436.1177568918581
 30
0.0
  0
POINT
  5
E6B
330
E4A
100
AcDbEntity
  8
DEFPOINTS
  6
ByBlock
 62
     0
 48
10.0
100
AcDbPoint
 10
266.8019615121475
 20
436.1177568918581
 30
0.0
  0
POINT
  5
E6C
330
E4A
100
AcDbEntity
  8
DEFPOINTS
  6
ByBlock
 62
     0
 48
10.0
100
AcDbPoint
 10
406.8351599232155
 20
286.1177568918583
 30
0.0
  0
POINT
  5
E6D
330
E4A
100
AcDbEntity
  8
DEFPOINTS
  6
ByBlock
 62
     0
 48
10.0
100
AcDbPoint
 10
436.8019609141519
 20
315.9935143979187
 30
0.0
  0
POINT
  5
E6E
330
E4A
100
AcDbEntity
  8
DEFPOINTS
  6
ByBlock
 62
     0
 48
10.0
100
AcDbPoint
 10
436.8019609141519
 20
306.1177568918585
 30
0.0
  0
POINT
  5
E6F
330
E4A
100
AcDbEntity
  8
DEFPOINTS
  6
ByBlock
 62
     0
 48
10.0
100
AcDbPoint
 10
466.801960914152
 20
258.8432365438338
 30
0.0
  0
POINT
  5
E70
330
E4A
100
AcDbEntity
  8
DEFPOINTS
  6
ByBlock
 62
     0
 48
10.0
100
AcDbPoint
 10
466.801960914152
 20
267.9120056030542
 30
0.0
  0
POINT
  5
E71
330
E4A
100
AcDbEntity
  8
DEFPOINTS
  6
ByBlock
 62
     0
 48
10.0
100
AcDbPoint
 10
436.8019609141519
 20
267.9120056030542
 30
0.0
  0
LINE
  5
E72
330
E4A
100
AcDbEntity
  8
0
  6
ByBlock
 62
     0
 48
10.0
100
AcDbLine
 10
400.5851599232155
 20
336.1177568918583
 30
0.0
 11
301.6505506229496
 21
336.1177568918583
 31
0.0
  0
POINT
  5
E73
330
E4A
100
AcDbEntity
  8
DEFPOINTS
  6
ByBlock
 62
     0
 48
10.0
100
AcDbPoint
 10
314.1505506229496
 20
336.1177568918583
 30
0.0
  0
POINT
  5
E74
330
E4A
100
AcDbEntity
  8
DEFPOINTS
  6
ByBlock
 62
     0
 48
10.0
100
AcDbPoint
 10
406.8351599232155
 20
336.1177568918583
 30
0.0
  0
POINT
  5
E75
330
E4A
100
AcDbEntity
  8
DEFPOINTS
  6
ByBlock
 62
     0
 48
10.0
100
AcDbPoint
 10
400.5851599232155
 20
336.1177568918585
 30
0.0
  0
POINT
  5
E76
330
E4A
100
AcDbEntity
  8
DEFPOINTS
  6
ByBlock
 62
     0
 48
10.0
100
AcDbPoint
 10
406.8019609141519
 20
336.1177568918585
 30
0.0
  0
POINT
  5
E77
330
E4A
100
AcDbEntity
  8
DEFPOINTS
  6
ByBlock
 62
     0
 48
10.0
100
AcDbPoint
 10
406.8019609141519
 20
436.1177568918581
 30
0.0
  0
POINT
  5
E78
330
E4A
100
AcDbEntity
  8
DEFPOINTS
  6
ByBlock
 62
     0
 48
10.0
100
AcDbPoint
 10
406.8019609141519
 20
436.1177568918581
 30
0.0
  0
LINE
  5
E79
330
E4A
100
AcDbEntity
  8
上線
100
AcDbLine
 10
436.8019609141519
 20
346.1177568918585
 30
0.0
 11
446.801960914152
 21
336.1177568918585
 31
0.0
  0
POINT
  5
E7A
330
E4A
100
AcDbEntity
  8
DEFPOINTS
  6
ByBlock
 62
     0
 48
10.0
100
AcDbPoint
 10
416.801960914152
 20
336.1177568918585
 30
0.0
  0
POINT
  5
E7B
330
E4A
100
AcDbEntity
  8
DEFPOINTS
  6
ByBlock
 62
     0
 48
10.0
100
AcDbPoint
 10
416.2986554462341
 20
436.1177568918581
 30
0.0
  0
LINE
  5
E7C
330
E4A
100
AcDbEntity
  8
0
  6
ByBlock
 62
     0
 48
10.0
100
AcDbLine
 10
436.8019609141519
 20
866.1177568918585
 30
0.0
 11
436.8019609141519
 21
1084.867756891858
 31
0.0
  0
LINE
  5
E7D
330
E4A
100
AcDbEntity
  8
0
  6
ByBlock
 62
     0
 48
10.0
100
AcDbLine
 10
506.8019609141519
 20
866.1177568918585
 30
0.0
 11
506.8019609141519
 21
1084.867756891858
 31
0.0
  0
LINE
  5
E7E
330
E4A
100
AcDbEntity
  8
0
  6
ByBlock
 62
     0
 48
10.0
100
AcDbLine
 10
436.8019609141519
 20
875.4927568918583
 30
0.0
 11
436.8019609141519
 21
1234.867756891858
 31
0.0
  0
LINE
  5
E7F
330
E4A
100
AcDbEntity
  8
上線
 48
10.0
100
AcDbLine
 10
506.8019609141519
 20
836.1177568918582
 30
0.0
 11
506.8019609141519
 21
736.1177568918583
 31
0.0
  0
SOLID
  5
E80
330
E4A
100
AcDbEntity
  8
0
  6
ByBlock
 62
     0
 48
10.0
100
AcDbTrace
 10
200.5519609141519
 20
773.6177568918583
 30
0.0
 11
213.0519609141519
 21
773.6177568918583
 31
0.0
 12
206.8019609141519
 22
736.1177568918583
 32
0.0
 13
206.8019609141519
 23
736.1177568918583
 33
0.0
  0
LINE
  5
E81
330
E4A
100
AcDbEntity
  8
0
  6
ByBlock
 62
     0
 48
10.0
100
AcDbLine
 10
391.801960914152
 20
736.1177568918583
 30
0.0
 11
188.051960914152
 21
736.1177568918583
 31
0.0
  0
LINE
  5
E82
330
E4A
100
AcDbEntity
  8
0
  6
ByBlock
 62
     0
 48
10.0
100
AcDbLine
 10
406.8019609141519
 20
736.1177568918583
 30
0.0
 11
188.051960914152
 21
736.1177568918583
 31
0.0
  0
LINE
  5
E83
330
E4A
100
AcDbEntity
  8
0
  6
ByBlock
 62
     0
 48
10.0
100
AcDbLine
 10
206.8019609141519
 20
736.1177568918585
 30
0.0
 11
206.8019609141519
 21
473.6177568918581
 31
0.0
  0
POINT
  5
E84
330
E4A
100
AcDbEntity
  8
DEFPOINTS
  6
ByBlock
 62
     0
 48
10.0
100
AcDbPoint
 10
406.8351599232155
 20
736.1177568918583
 30
0.0
  0
POINT
  5
E85
330
E4A
100
AcDbEntity
  8
DEFPOINTS
  6
ByBlock
 62
     0
 48
10.0
100
AcDbPoint
 10
416.2986554462341
 20
676.1177568918583
 30
0.0
  0
LINE
  5
E86
330
E4A
100
AcDbEntity
  8
0
  6
ByBlock
 62
     0
 48
10.0
100
AcDbLine
 10
401.176960914152
 20
836.1177568918581
 30
0.0
 11
188.051960914152
 21
836.1177568918581
 31
0.0
  0
SOLID
  5
E87
330
E4A
100
AcDbEntity
  8
0
  6
ByBlock
 62
     0
 48
10.0
100
AcDbTrace
 10
200.5519609141519
 20
798.6177568918581
 30
0.0
 11
213.0519609141519
 21
798.6177568918581
 31
0.0
 12
206.8019609141519
 22
836.1177568918581
 32
0.0
 13
206.8019609141519
 23
836.1177568918581
 33
0.0
  0
MTEXT
  5
E88
330
E4A
100
AcDbEntity
  8
0
  6
ByBlock
 62
     0
 48
10.0
100
AcDbMText
 10
178.676960914152
 20
786.1177568918583
 30
0.0
 40
37.5
 41
0.0
 71
     5
 72
     1
  1
\A1;100
 11
0.0000000000000001
 21
1.0
 31
0.0
 73
     1
 44
1.0
  0
LINE
  5
E89
330
E4A
100
AcDbEntity
  8
0
  6
ByBlock
 62
     0
 48
10.0
100
AcDbLine
 10
206.8019609141519
 20
773.6177568918583
 30
0.0
 11
206.8019609141519
 21
798.6177568918581
 31
0.0
  0
POINT
  5
E8A
330
E4A
100
AcDbEntity
  8
DEFPOINTS
  6
ByBlock
 62
     0
 48
10.0
100
AcDbPoint
 10
206.8019609141519
 20
836.1177568918581
 30
0.0
  0
POINT
  5
E8B
330
E4A
100
AcDbEntity
  8
DEFPOINTS
  6
ByBlock
 62
     0
 48
10.0
100
AcDbPoint
 10
406.8351599232155
 20
786.1177568918583
 30
0.0
  0
POINT
  5
E8C
330
E4A
100
AcDbEntity
  8
DEFPOINTS
  6
ByBlock
 62
     0
 48
10.0
100
AcDbPoint
 10
400.5851599232155
 20
776.1177568918583
 30
0.0
  0
POINT
  5
E8D
330
E4A
100
AcDbEntity
  8
DEFPOINTS
  6
ByBlock
 62
     0
 48
10.0
100
AcDbPoint
 10
406.8351599232155
 20
836.1177568918582
 30
0.0
  0
POINT
  5
E8E
330
E4A
100
AcDbEntity
  8
DEFPOINTS
  6
ByBlock
 62
     0
 48
10.0
100
AcDbPoint
 10
406.8351599232155
 20
836.1177568918582
 30
0.0
  0
LINE
  5
E8F
330
E4A
100
AcDbEntity
  8
上線
100
AcDbLine
 10
506.8019609141519
 20
836.1177568918582
 30
0.0
 11
436.8019609141519
 21
836.1177568918582
 31
0.0
  0
POINT
  5
E90
330
E4A
100
AcDbEntity
  8
DEFPOINTS
  6
ByBlock
 62
     0
 48
10.0
100
AcDbPoint
 10
436.8019609141519
 20
833.8736429367436
 30
0.0
  0
POINT
  5
E91
330
E4A
100
AcDbEntity
  8
DEFPOINTS
  6
ByBlock
 62
     0
 48
10.0
100
AcDbPoint
 10
436.8019609141519
 20
833.8736429367436
 30
0.0
  0
POINT
  5
E92
330
E4A
100
AcDbEntity
  8
DEFPOINTS
  6
ByBlock
 62
     0
 48
10.0
100
AcDbPoint
 10
436.8019609141519
 20
815.4023429367438
 30
0.0
  0
POINT
  5
E93
330
E4A
100
AcDbEntity
  8
DEFPOINTS
  6
ByBlock
 62
     0
 48
10.0
100
AcDbPoint
 10
506.8019609141519
 20
833.8736429367436
 30
0.0
  0
POINT
  5
E94
330
E4A
100
AcDbEntity
  8
DEFPOINTS
  6
ByBlock
 62
     0
 48
10.0
100
AcDbPoint
 10
506.8019609141519
 20
833.8736429367436
 30
0.0
  0
POINT
  5
E95
330
E4A
100
AcDbEntity
  8
DEFPOINTS
  6
ByBlock
 62
     0
 48
10.0
100
AcDbPoint
 10
401.176960914152
 20
936.1177568918582
 30
0.0
  0
POINT
  5
E96
330
E4A
100
AcDbEntity
  8
DEFPOINTS
  6
ByBlock
 62
     0
 48
10.0
100
AcDbPoint
 10
410.551960914152
 20
936.1177568918582
 30
0.0
  0
LINE
  5
E97
330
E4A
100
AcDbEntity
  8
0
  6
ByBlock
 62
     0
 48
10.0
100
AcDbLine
 10
506.8019609141519
 20
934.3812258188917
 30
0.0
 11
506.8019609141519
 21
1018.61777210726
 31
0.0
  0
POINT
  5
E98
330
E4A
100
AcDbEntity
  8
DEFPOINTS
  6
ByBlock
 62
     0
 48
10.0
100
AcDbPoint
 10
436.8019609141519
 20
901.8601892251126
 30
0.0
  0
LINE
  5
E99
330
E4A
100
AcDbEntity
  8
上線
100
AcDbLine
 10
506.8019609141519
 20
996.1177568918584
 30
0.0
 11
506.8019609141519
 21
996.1177568918584
 31
0.0
  0
POINT
  5
E9A
330
E4A
100
AcDbEntity
  8
DEFPOINTS
  6
ByBlock
 62
     0
 48
10.0
100
AcDbPoint
 10
146.801960914152
 20
1036.117756891858
 30
0.0
  0
SOLID
  5
E9B
330
E4A
100
AcDbEntity
  8
0
  6
ByBlock
 62
     0
 48
10.0
100
AcDbTrace
 10
399.301960914152
 20
1072.367756891858
 30
0.0
 11
399.301960914152
 21
1059.867756891858
 31
0.0
 12
436.8019609141519
 22
1066.117756891858
 32
0.0
 13
436.8019609141519
 23
1066.117756891858
 33
0.0
  0
LINE
  5
E9C
330
E4A
100
AcDbEntity
  8
0
  6
ByBlock
 62
     0
 48
10.0
100
AcDbLine
 10
399.301960914152
 20
1066.117756891858
 30
0.0
 11
361.801960914152
 21
1066.117756891858
 31
0.0
  0
POINT
  5
E9D
330
E4A
100
AcDbEntity
  8
DEFPOINTS
  6
ByBlock
 62
     0
 48
10.0
100
AcDbPoint
 10
410.551960914152
 20
1036.117756891858
 30
0.0
  0
MTEXT
  5
E9E
330
E4A
100
AcDbEntity
  8
0
  6
ByBlock
 62
     0
 48
10.0
100
AcDbMText
 10
471.801960914152
 20
1094.242756891858
 30
0.0
 40
37.5
 41
0.0
 71
     5
 72
     1
  1
\A1;70
 73
     1
 44
1.0
  0
LINE
  5
E9F
330
E4A
100
AcDbEntity
  8
0
  6
ByBlock
 62
     0
 48
10.0
100
AcDbLine
 10
436.8019609141519
 20
1066.117756891858
 30
0.0
 11
506.8019609141519
 21
1066.117756891858
 31
0.0
  0
POINT
  5
EA0
330
E4A
100
AcDbEntity
  8
DEFPOINTS
  6
ByBlock
 62
     0
 48
10.0
100
AcDbPoint
 10
436.8019609141519
 20
1066.117756891858
 30
0.0
  0
POINT
  5
EA1
330
E4A
100
AcDbEntity
  8
DEFPOINTS
  6
ByBlock
 62
     0
 48
10.0
100
AcDbPoint
 10
436.8019609141519
 20
1066.117756891858
 30
0.0
  0
POINT
  5
EA2
330
E4A
100
AcDbEntity
  8
DEFPOINTS
  6
ByBlock
 62
     0
 48
10.0
100
AcDbPoint
 10
416.801960914152
 20
1036.117756891858
 30
0.0
  0
POINT
  5
EA3
330
E4A
100
AcDbEntity
  8
DEFPOINTS
  6
ByBlock
 62
     0
 48
10.0
100
AcDbPoint
 10
506.8019609141519
 20
1066.117756891858
 30
0.0
  0
LWPOLYLINE
  5
EA4
330
E4A
100
AcDbEntity
  8
上線
 48
10.0
100
AcDbPolyline
 90
        2
 70
     1
 43
5.0
 10
504.301960914152
 20
1066.117756891858
 42
1.0
 10
509.301960914152
 20
1066.117756891858
 42
1.0
  0
POINT
  5
EA5
330
E4A
100
AcDbEntity
  8
DEFPOINTS
  6
ByBlock
 62
     0
 48
10.0
100
AcDbPoint
 10
506.8019609141519
 20
1066.117756891858
 30
0.0
  0
SOLID
  5
EA6
330
E4A
100
AcDbEntity
  8
0
  6
ByBlock
 62
     0
 48
10.0
100
AcDbTrace
 10
474.3019609141519
 20
1222.367756891858
 30
0.0
 11
474.3019609141519
 21
1209.867756891858
 31
0.0
 12
436.8019609141519
 22
1216.117756891858
 32
0.0
 13
436.8019609141519
 23
1216.117756891858
 33
0.0
  0
SPLINE
  5
EA7
330
E4A
100
AcDbEntity
  8
上線
 48
10.0
100
AcDbSpline
210
0.0
220
0.0
230
1.0
 70
     8
 71
     3
 72
    10
 73
     6
 74
     0
 42
0.0000000001
 43
0.0000000001
 40
197.2422459363112
 40
197.2422459363112
 40
197.2422459363112
 40
197.2422459363112
 40
220.5413135163642
 40
397.3917699938457
 40
607.6874310862709
 40
607.6874310862709
 40
607.6874310862709
 40
607.6874310862709
 10
3099.270387978295
 20
686.117756891859
 30
0.0
 10
3098.553612731175
 20
679.9497870230852
 30
0.0
 10
3084.93522489124
 20
628.2312515577325
 30
0.0
 10
2910.04726028749
 20
547.1311503077544
 30
0.0
 10
2977.038904469674
 20
403.6822005133619
 30
0.0
 10
3018.011430460622
 20
336.117756891859
 30
0.0
  0
SPLINE
  5
EA8
330
E4A
100
AcDbEntity
  8
上線
 48
10.0
100
AcDbSpline
210
0.0
220
0.0
230
1.0
 70
     8
 71
     3
 72
    10
 73
     6
 74
     0
 42
0.0000000001
 43
0.0000000001
 40
197.242245936312
 40
197.242245936312
 40
197.242245936312
 40
197.242245936312
 40
220.5413135163642
 40
397.3917699938457
 40
607.6874310862709
 40
607.6874310862709
 40
607.6874310862709
 40
607.6874310862709
 10
3127.515063100598
 20
686.1177568918588
 30
0.0
 10
3126.798287853478
 20
679.9497870230852
 30
0.0
 10
3113.179900013541
 20
628.2312515577325
 30
0.0
 10
2938.291935409793
 20
547.1311503077544
 30
0.0
 10
3005.283579591978
 20
403.6822005133619
 30
0.0
 10
3046.256105582925
 20
336.117756891859
 30
0.0
  0
LINE
  5
EA9
330
E4A
100
AcDbEntity
  8
上線
 48
10.0
100
AcDbLine
 10
2299.146799036744
 20
586.1177568918583
 30
0.0
 11
2389.637603683425
 21
106.1177568918585
 31
0.0
1001
ACAD
1000
DSTYLE
1002
{
1070
    78
1070
     8
1070
   270
1070
     8
1070
   140
1040
2.5
1070
    74
1070
     0
1070
   172
1070
     1
1070
    73
1070
     0
1070
    77
1070
     1
1070
    40
1040
10.0
1070
   147
1040
0.625
1070
    42
1040
0.625
1070
    44
1040
1.25
1070
    43
1040
3.75
1070
   141
1040
2.5
1070
    41
1040
2.5
1070
   273
1070
     8
1070
   274
1070
     4
1070
   143
1040
0.0394
1070
   171
1070
     4
1002
}
  0
LINE
  5
EAA
330
E4A
100
AcDbEntity
  8
上線
 48
10.0
100
AcDbLine
 10
3916.193897220793
 20
836.1177568918582
 30
0.0
 11
3916.193897220793
 21
336.1177568918585
 31
0.0
  0
LINE
  5
EAB
330
E4A
100
AcDbEntity
  8
中心線
 48
10.0
100
AcDbLine
 10
2619.705818185923
 20
1148.988670344
 30
0.0
 11
2619.705818185923
 21
184.1648525024279
 31
0.0
  0
LINE
  5
EAC
330
E4A
100
AcDbEntity
  8
上線
 48
10.0
100
AcDbLine
 10
2167.705818185923
 20
806.1177568918585
 30
0.0
 11
2167.705818185923
 21
366.1177568918585
 31
0.0
  0
LINE
  5
EAD
330
E4A
100
AcDbEntity
  8
上線
 48
10.0
100
AcDbLine
 10
2431.705818185923
 20
806.1177568918585
 30
0.0
 11
2431.705818185923
 21
366.1177568918585
 31
0.0
  0
SOLID
  5
EAE
330
E4A
100
AcDbEntity
  8
上線
 48
10.0
100
AcDbTrace
 10
1906.866469431046
 20
447.5683855562174
 30
0.0
 11
1903.79526303157
 21
472.7264618412382
 31
0.0
 12
1914.859834366757
 22
449.9243485119945
 32
0.0
 13
1914.859834366757
 23
449.9243485119945
 33
0.0
1001
ACAD
1000
DSTYLE
1002
{
1070
    78
1070
     8
1070
   270
1070
     8
1070
   140
1040
2.5
1070
    74
1070
     0
1070
   172
1070
     1
1070
    73
1070
     0
1070
    77
1070
     1
1070
    40
1040
10.0
1070
   147
1040
0.625
1070
    42
1040
0.625
1070
    44
1040
1.25
1070
    43
1040
3.75
1070
   141
1040
2.5
1070
    41
1040
2.5
1070
   273
1070
     8
1070
   274
1070
     4
1070
   143
1040
0.0394
1070
   171
1070
     4
1002
}
  0
LINE
  5
EAF
330
E4A
100
AcDbEntity
  8
上線
 48
10.0
100
AcDbLine
 10
1619.705818185923
 20
776.1177568918583
 30
0.0
 11
1619.705818185923
 21
336.1177568918585
 31
0.0
  0
MTEXT
  5
EB0
330
E4A
100
AcDbEntity
  8
0
  6
ByBlock
 62
     0
 48
10.0
100
AcDbMText
 10
1178.676960914152
 20
586.1177568918583
 30
0.0
 40
37.5
 41
0.0
 71
     5
 72
     1
  1
2@220=440
 11
0.0000000000000001
 21
1.0
 31
0.0
 73
     1
 44
1.0
  0
ARC
  5
EB1
330
E4A
100
AcDbEntity
  8
上線
100
AcDbCircle
 10
802.5111448479028
 20
486.1177568918583
 30
0.0
 40
50.0
100
AcDbArc
 50
270.0
 51
359.1815445383113
  0
MTEXT
  5
EB2
102
{ACAD_REACTORS
330
EB3
102
}
330
E4A
100
AcDbEntity
  8
上線
 48
10.0
100
AcDbMText
 10
669.3019683833353
 20
569.4682309097961
 30
0.0
 40
35.0
 41
0.0
 71
     4
 72
     1
  1
\A1;\fＭＳ Ｐ明朝|b0|i0|c128|p18;R=50
 73
     1
 44
1.0
  0
LEADER
  5
EB3
330
E4A
100
AcDbEntity
  8
上線
 48
10.0
100
AcDbLeader
  3
STANDARD
 73
     0
 74
     0
 75
     1
 40
35.0
 41
100.8707865168539
 76
     3
 10
579.1086019785452
 20
450.5097161500361
 30
0.0
 10
638.0519683833353
 20
545.7182309097961
 30
0.0
 10
663.0519683833353
 20
545.7182309097961
 30
0.0
340
EB2
1001
ACAD
1000
DSTYLE
1002
{
1070
    78
1070
     8
1070
   270
1070
     8
1070
   140
1040
2.5
1070
    74
1070
     0
1070
   172
1070
     1
1070
    73
1070
     0
1070
    77
1070
     1
1070
    40
1040
10.0
1070
   147
1040
0.625
1070
    42
1040
0.625
1070
    44
1040
1.25
1070
    43
1040
3.75
1070
   141
1040
2.5
1070
    41
1040
2.5
1070
   273
1070
     8
1070
   274
1070
     4
1070
   143
1040
0.0394
1070
   171
1070
     4
1002
}
  0
LINE
  5
EB4
330
E4A
100
AcDbEntity
  8
中心線
100
AcDbLine
 10
706.3855835293216
 20
514.8375437550032
 30
0.0
 11
706.3855835293216
 21
61.98612246455377
 31
0.0
  0
ARC
  5
EB5
330
E4A
100
AcDbEntity
  8
上線
100
AcDbCircle
 10
611.0927769804011
 20
486.1177568918581
 30
0.0
 40
50.0
100
AcDbArc
 50
180.8184554616886
 51
270.0
  0
LINE
  5
EB6
330
E4A
100
AcDbEntity
  8
上線
100
AcDbLine
 10
976.801960914152
 20
836.1177568918581
 30
0.0
 11
976.8019609141518
 21
346.1177568918579
 31
0.0
  0
LINE
  5
EB7
330
E4A
100
AcDbEntity
  8
上線
 48
10.0
100
AcDbLine
 10
946.8019609141519
 20
806.1177568918584
 30
0.0
 11
946.8019609141519
 21
366.1177568918583
 31
0.0
  0
LINE
  5
EB8
330
E4A
100
AcDbEntity
  8
上線
 48
10.0
100
AcDbLine
 10
1639.705818185922
 20
806.1177568918585
 30
0.0
 11
1639.705818185922
 21
366.1177568918585
 31
0.0
  0
LINE
  5
EB9
330
E4A
100
AcDbEntity
  8
上線
 48
10.0
100
AcDbLine
 10
1619.705818185923
 20
836.1177568918582
 30
0.0
 11
1619.705818185923
 21
336.1177568918585
 31
0.0
  0
LINE
  5
EBA
330
E4A
100
AcDbEntity
  8
上線
 48
10.0
100
AcDbLine
 10
1903.705818185922
 20
806.1177568918585
 30
0.0
 11
1903.705818185922
 21
366.1177568918585
 31
0.0
  0
LINE
  5
EBB
330
E4A
100
AcDbEntity
  8
0
  6
ByBlock
 62
     0
 48
10.0
100
AcDbLine
 10
1206.801960914152
 20
836.1177568918586
 30
0.0
 11
1206.801960914152
 21
403.6177568918585
 31
0.0
  0
LINE
  5
EBC
330
E4A
100
AcDbEntity
  8
上線
 48
10.0
100
AcDbLine
 10
1903.705818185922
 20
472.9042208291671
 30
0.0
 11
2011.812395161567
 21
106.1177568918585
 31
0.0
1001
ACAD
1000
DSTYLE
1002
{
1070
    78
1070
     8
1070
   270
1070
     8
1070
   140
1040
2.5
1070
    74
1070
     0
1070
   172
1070
     1
1070
    73
1070
     0
1070
    77
1070
     1
1070
    40
1040
10.0
1070
   147
1040
0.625
1070
    42
1040
0.625
1070
    44
1040
1.25
1070
    43
1040
3.75
1070
   141
1040
2.5
1070
    41
1040
2.5
1070
   273
1070
     8
1070
   274
1070
     4
1070
   143
1040
0.0394
1070
   171
1070
     4
1002
}
  0
LINE
  5
EBD
330
E4A
100
AcDbEntity
  8
点線
 48
10.0
100
AcDbLine
 10
2727.094753588171
 20
436.1177568918585
 30
0.0
 11
2830.686132923294
 21
436.1177568918585
 31
0.0
  0
LINE
  5
EBE
330
E4A
100
AcDbEntity
  8
上線
 48
10.0
100
AcDbLine
 10
2619.705818185923
 20
346.1177568918587
 30
0.0
 11
3012.030776973523
 21
346.1177568918587
 31
0.0
  0
LINE
  5
EBF
330
E4A
100
AcDbEntity
  8
上線
 48
10.0
100
AcDbLine
 10
1619.705818185923
 20
336.1177568918585
 30
0.0
 11
3018.011430460622
 21
336.1177568918587
 31
0.0
  0
DIMENSION
  5
EC0
330
E4A
100
AcDbEntity
  8
上線
 48
10.0
100
AcDbDimension
  2
*D5
 10
1619.705818185923
 20
106.1177568918583
 30
0.0
 11
1511.103290096035
 21
134.2427568918583
 31
0.0
 12
-4868.864669083421
 22
-628.9127577485124
 32
0.0
 71
     5
 42
-1.0
  3
STANDARD
100
AcDbAlignedDimension
 13
1639.705818185922
 23
306.1177568918585
 33
0.0
 14
1619.705818185923
 24
306.1177568918585
 34
0.0
100
AcDbRotatedDimension
1001
ACAD
1000
DSTYLE
1002
{
1070
    40
1040
15.0
1070
    41
1040
2.5
1070
    42
1040
0.625
1070
    43
1040
3.75
1070
    44
1040
1.25
1070
    73
1070
     0
1070
    74
1070
     0
1070
    77
1070
     1
1070
    78
1070
     8
1070
   140
1040
2.5
1070
   141
1040
2.5
1070
   143
1040
0.0394
1070
   147
1040
0.625
1070
   171
1070
     4
1070
   172
1070
     1
1070
   273
1070
     8
1070
   274
1070
     4
1070
   277
1070
     6
1002
}
  0
DIMENSION
  5
EC1
330
E4A
100
AcDbEntity
  8
上線
 48
10.0
100
AcDbDimension
  2
*D4
 10
1903.705818185922
 20
106.1177568918583
 30
0.0
 11
1771.705818185923
 21
134.2427568918583
 31
0.0
 12
-4868.864669083421
 22
-628.9127577485124
 32
0.0
 71
     5
 42
-1.0
  3
STANDARD
100
AcDbAlignedDimension
 13
1639.705818185922
 23
306.1177568918585
 33
0.0
 14
1903.705818185922
 24
306.1177568918585
 34
0.0
100
AcDbRotatedDimension
1001
ACAD
1000
DSTYLE
1002
{
1070
    40
1040
15.0
1070
    41
1040
2.5
1070
    42
1040
0.625
1070
    43
1040
3.75
1070
    44
1040
1.25
1070
    73
1070
     0
1070
    74
1070
     0
1070
    77
1070
     1
1070
    78
1070
     8
1070
   140
1040
2.5
1070
   141
1040
2.5
1070
   143
1040
0.0394
1070
   147
1040
0.625
1070
   171
1070
     4
1070
   172
1070
     1
1070
   273
1070
     8
1070
   274
1070
     4
1070
   277
1070
     6
1002
}
  0
LINE
  5
EC2
330
E4A
100
AcDbEntity
  8
上線
 48
10.0
100
AcDbLine
 10
1639.705818185922
 20
366.1177568918585
 30
0.0
 11
2619.705818185923
 21
366.1177568918585
 31
0.0
  0
MTEXT
  5
EC3
330
E4A
100
AcDbEntity
  8
0
  6
ByBlock
 62
     0
 48
10.0
100
AcDbMText
 10
1085.193814846736
 20
134.2427568918585
 30
0.0
 40
37.5
 41
0.0
 71
     5
 72
     1
  1
\A1;30
 73
     1
 44
1.0
  0
LINE
  5
EC4
330
E4A
100
AcDbEntity
  8
0
  6
ByBlock
 62
     0
 48
10.0
100
AcDbLine
 10
1014.301960914152
 20
106.1177568918585
 30
0.0
 11
1118.58566877932
 21
106.1177568918585
 31
0.0
  0
LINE
  5
EC5
330
E4A
100
AcDbEntity
  8
0
  6
ByBlock
 62
     0
 48
10.0
100
AcDbLine
 10
1016.176960914152
 20
366.1177568918585
 30
0.0
 11
1225.551960914152
 21
366.1177568918585
 31
0.0
  0
LINE
  5
EC6
330
E4A
100
AcDbEntity
  8
0
  6
ByBlock
 62
     0
 48
10.0
100
AcDbLine
 10
1006.801960914152
 20
366.1177568918585
 30
0.0
 11
1225.551960914152
 21
366.1177568918585
 31
0.0
  0
LINE
  5
EC7
330
E4A
100
AcDbEntity
  8
0
  6
ByBlock
 62
     0
 48
10.0
100
AcDbLine
 10
1006.801960914152
 20
336.1177568918585
 30
0.0
 11
1225.551960914152
 21
336.1177568918585
 31
0.0
  0
LINE
  5
EC8
330
E4A
100
AcDbEntity
  8
0
  6
ByBlock
 62
     0
 48
10.0
100
AcDbLine
 10
976.801960914152
 20
296.7427568918585
 30
0.0
 11
976.801960914152
 21
87.36775689185856
 31
0.0
  0
LINE
  5
EC9
330
E4A
100
AcDbEntity
  8
0
  6
ByBlock
 62
     0
 48
10.0
100
AcDbLine
 10
946.8019609141519
 20
296.7427568918585
 30
0.0
 11
946.8019609141519
 21
87.36775689185856
 31
0.0
  0
MTEXT
  5
ECA
330
E4A
100
AcDbEntity
  8
0
  6
ByBlock
 62
     0
 48
10.0
100
AcDbMText
 10
841.5937722217368
 20
165.4927568918585
 30
0.0
 40
37.5
 41
0.0
 71
     5
 72
     1
  1
\A1;2@240\P=480
 73
     1
 44
1.0
  0
LINE
  5
ECB
330
E4A
100
AcDbEntity
  8
0
  6
ByBlock
 62
     0
 48
10.0
100
AcDbLine
 10
946.8019609141519
 20
106.1177568918585
 30
0.0
 11
676.3855835293216
 21
106.1177568918585
 31
0.0
  0
MTEXT
  5
ECC
330
E4A
100
AcDbEntity
  8
上線
 48
10.0
100
AcDbMText
 10
678.9181565729577
 20
28.69629709482888
 30
0.0
 40
40.0
 41
0.0
 71
     4
 72
     1
  1
￡
 73
     1
 44
1.0
  0
POINT
  5
ECD
330
E4A
100
AcDbEntity
  8
DEFPOINTS
  6
ByBlock
 62
     0
 48
10.0
100
AcDbPoint
 10
676.3855835293216
 20
106.1177568918585
 30
0.0
  0
POINT
  5
ECE
330
E4A
100
AcDbEntity
  8
DEFPOINTS
  6
ByBlock
 62
     0
 48
10.0
100
AcDbPoint
 10
676.3855835293216
 20
141.4756162212374
 30
0.0
  0
LINE
  5
ECF
330
E4A
100
AcDbEntity
  8
0
  6
ByBlock
 62
     0
 48
10.0
100
AcDbLine
 10
946.8019609141519
 20
106.1177568918585
 30
0.0
 11
976.801960914152
 21
106.1177568918585
 31
0.0
  0
LINE
  5
ED0
330
E4A
100
AcDbEntity
  8
0
  6
ByBlock
 62
     0
 48
10.0
100
AcDbLine
 10
909.3019609141519
 20
106.1177568918585
 30
0.0
 11
871.8019609141519
 21
106.1177568918585
 31
0.0
  0
SOLID
  5
ED1
330
E4A
100
AcDbEntity
  8
0
  6
ByBlock
 62
     0
 48
10.0
100
AcDbTrace
 10
909.3019609141519
 20
112.3677568918585
 30
0.0
 11
909.3019609141519
 21
99.86775689185856
 31
0.0
 12
946.8019609141519
 22
106.1177568918585
 32
0.0
 13
946.8019609141519
 23
106.1177568918585
 33
0.0
  0
POINT
  5
ED2
330
E4A
100
AcDbEntity
  8
DEFPOINTS
  6
ByBlock
 62
     0
 48
10.0
100
AcDbPoint
 10
976.801960914152
 20
106.1177568918585
 30
0.0
  0
SOLID
  5
ED3
330
E4A
100
AcDbEntity
  8
0
  6
ByBlock
 62
     0
 48
10.0
100
AcDbTrace
 10
1014.301960914152
 20
112.3677568918585
 30
0.0
 11
1014.301960914152
 21
99.86775689185856
 31
0.0
 12
976.801960914152
 22
106.1177568918585
 32
0.0
 13
976.801960914152
 23
106.1177568918585
 33
0.0
  0
LINE
  5
ED4
330
E4A
100
AcDbEntity
  8
上線
 48
10.0
100
AcDbLine
 10
946.8019609141519
 20
366.1177568918583
 30
0.0
 11
706.3855835293216
 21
366.1177568918583
 31
0.0
  0
POINT
  5
ED5
330
E4A
100
AcDbEntity
  8
DEFPOINTS
  6
ByBlock
 62
     0
 48
10.0
100
AcDbPoint
 10
676.3855835293216
 20
315.9935143979187
 30
0.0
  0
POINT
  5
ED6
330
E4A
100
AcDbEntity
  8
DEFPOINTS
  6
ByBlock
 62
     0
 48
10.0
100
AcDbPoint
 10
676.3855835293216
 20
306.1177568918588
 30
0.0
  0
POINT
  5
ED7
330
E4A
100
AcDbEntity
  8
DEFPOINTS
  6
ByBlock
 62
     0
 48
10.0
100
AcDbPoint
 10
676.3855835293216
 20
306.1177568918585
 30
0.0
  0
LINE
  5
ED8
330
E4A
100
AcDbEntity
  8
上線
 48
10.0
100
AcDbLine
 10
611.0927769804011
 20
426.1177568918583
 30
0.0
 11
706.3855835293216
 21
426.1177568918583
 31
0.0
  0
LINE
  5
ED9
330
E4A
100
AcDbEntity
  8
上線
100
AcDbLine
 10
802.5111448479028
 20
436.1177568918581
 30
0.0
 11
611.0927769804011
 21
436.1177568918581
 31
0.0
  0
LWPOLYLINE
  5
EDA
330
E4A
100
AcDbEntity
  8
上線
 48
10.0
100
AcDbPolyline
 90
        2
 70
     1
 43
5.0
 10
703.5933591788325
 20
370.9719469530127
 42
1.0
 10
708.5933591788325
 20
370.9719469530127
 42
1.0
  0
POINT
  5
EDB
330
E4A
100
AcDbEntity
  8
DEFPOINTS
  6
ByBlock
 62
     0
 48
10.0
100
AcDbPoint
 10
886.8019609141519
 20
306.1177568918585
 30
0.0
  0
POINT
  5
EDC
330
E4A
100
AcDbEntity
  8
DEFPOINTS
  6
ByBlock
 62
     0
 48
10.0
100
AcDbPoint
 10
946.8019609141519
 20
306.1177568918585
 30
0.0
  0
POINT
  5
EDD
330
E4A
100
AcDbEntity
  8
DEFPOINTS
  6
ByBlock
 62
     0
 48
10.0
100
AcDbPoint
 10
946.8019609141519
 20
305.7581189813511
 30
0.0
  0
POINT
  5
EDE
330
E4A
100
AcDbEntity
  8
DEFPOINTS
  6
ByBlock
 62
     0
 48
10.0
100
AcDbPoint
 10
976.801960914152
 20
306.1177568918585
 30
0.0
  0
POINT
  5
EDF
330
E4A
100
AcDbEntity
  8
DEFPOINTS
  6
ByBlock
 62
     0
 48
10.0
100
AcDbPoint
 10
976.3855835293215
 20
269.8179362752562
 30
0.0
  0
POINT
  5
EE0
330
E4A
100
AcDbEntity
  8
DEFPOINTS
  6
ByBlock
 62
     0
 48
10.0
100
AcDbPoint
 10
1038.307535856016
 20
316.1177568918583
 30
0.0
  0
POINT
  5
EE1
330
E4A
100
AcDbEntity
  8
DEFPOINTS
  6
ByBlock
 62
     0
 48
10.0
100
AcDbPoint
 10
1038.307535856016
 20
316.1177568918583
 30
0.0
  0
POINT
  5
EE2
330
E4A
100
AcDbEntity
  8
DEFPOINTS
  6
ByBlock
 62
     0
 48
10.0
100
AcDbPoint
 10
1038.307535856016
 20
286.1177568918583
 30
0.0
  0
LWPOLYLINE
  5
EE3
330
E4A
100
AcDbEntity
  8
上線
 48
10.0
100
AcDbPolyline
 90
        2
 70
     1
 43
5.0
 10
939.52310065673
 20
370.9719469530127
 42
1.0
 10
944.5231006567301
 20
370.9719469530127
 42
1.0
  0
POINT
  5
EE4
330
E4A
100
AcDbEntity
  8
DEFPOINTS
  6
ByBlock
 62
     0
 48
10.0
100
AcDbPoint
 10
1003.051960914151
 20
366.1177568918585
 30
0.0
  0
POINT
  5
EE5
330
E4A
100
AcDbEntity
  8
DEFPOINTS
  6
ByBlock
 62
     0
 48
10.0
100
AcDbPoint
 10
996.8019609141519
 20
366.1177568918585
 30
0.0
  0
POINT
  5
EE6
330
E4A
100
AcDbEntity
  8
DEFPOINTS
  6
ByBlock
 62
     0
 48
10.0
100
AcDbPoint
 10
996.8019609141519
 20
366.1177568918585
 30
0.0
  0
POINT
  5
EE7
330
E4A
100
AcDbEntity
  8
DEFPOINTS
  6
ByBlock
 62
     0
 48
10.0
100
AcDbPoint
 10
1006.801960914152
 20
366.1177568918585
 30
0.0
  0
POINT
  5
EE8
330
E4A
100
AcDbEntity
  8
DEFPOINTS
  6
ByBlock
 62
     0
 48
10.0
100
AcDbPoint
 10
1006.801960914152
 20
366.1177568918585
 30
0.0
  0
POINT
  5
EE9
330
E4A
100
AcDbEntity
  8
DEFPOINTS
  6
ByBlock
 62
     0
 48
10.0
100
AcDbPoint
 10
996.8019609141519
 20
336.1177568918585
 30
0.0
  0
POINT
  5
EEA
330
E4A
100
AcDbEntity
  8
DEFPOINTS
  6
ByBlock
 62
     0
 48
10.0
100
AcDbPoint
 10
1006.801960914152
 20
336.1177568918585
 30
0.0
  0
LINE
  5
EEB
330
E4A
100
AcDbEntity
  8
上線
100
AcDbLine
 10
976.801960914152
 20
346.1177568918581
 30
0.0
 11
966.801960914152
 21
336.1177568918581
 31
0.0
  0
LINE
  5
EEC
330
E4A
100
AcDbEntity
  8
上線
100
AcDbLine
 10
976.801960914152
 20
346.1177568918581
 30
0.0
 11
976.801960914152
 21
386.1177568918583
 31
0.0
  0
POINT
  5
EED
330
E4A
100
AcDbEntity
  8
DEFPOINTS
  6
ByBlock
 62
     0
 48
10.0
100
AcDbPoint
 10
1038.307535856016
 20
386.1177568918583
 30
0.0
  0
POINT
  5
EEE
330
E4A
100
AcDbEntity
  8
DEFPOINTS
  6
ByBlock
 62
     0
 48
10.0
100
AcDbPoint
 10
1086.801960914151
 20
336.1177568918585
 30
0.0
  0
POINT
  5
EEF
330
E4A
100
AcDbEntity
  8
DEFPOINTS
  6
ByBlock
 62
     0
 48
10.0
100
AcDbPoint
 10
1038.307535856016
 20
356.1177568918583
 30
0.0
  0
POINT
  5
EF0
330
E4A
100
AcDbEntity
  8
DEFPOINTS
  6
ByBlock
 62
     0
 48
10.0
100
AcDbPoint
 10
1038.307535856016
 20
356.1177568918583
 30
0.0
  0
LINE
  5
EF1
330
E4A
100
AcDbEntity
  8
0
  6
ByBlock
 62
     0
 48
10.0
100
AcDbLine
 10
1639.705818185922
 20
276.9857952249303
 30
0.0
 11
1639.705818185922
 21
153.617746375673
 31
0.0
  0
LINE
  5
EF2
330
E4A
100
AcDbEntity
  8
0
  6
ByBlock
 62
     0
 48
10.0
100
AcDbLine
 10
1639.705818185922
 20
306.1177568918585
 30
0.0
 11
1639.705818185922
 21
153.617746375673
 31
0.0
  0
LINE
  5
EF3
330
E4A
100
AcDbEntity
  8
0
  6
ByBlock
 62
     0
 48
10.0
100
AcDbLine
 10
1619.705818185923
 20
306.1177568918585
 30
0.0
 11
1619.705818185923
 21
153.617746375673
 31
0.0
  0
POINT
  5
EF4
330
E4A
100
AcDbEntity
  8
DEFPOINTS
  6
ByBlock
 62
     0
 48
10.0
100
AcDbPoint
 10
1609.679500914288
 20
114.8605570636018
 30
0.0
  0
POINT
  5
EF5
330
E4A
100
AcDbEntity
  8
DEFPOINTS
  6
ByBlock
 62
     0
 48
10.0
100
AcDbPoint
 10
1619.705818185923
 20
166.117746375673
 30
0.0
  0
SOLID
  5
EF6
330
E4A
100
AcDbEntity
  8
0
  6
ByBlock
 62
     0
 48
10.0
100
AcDbTrace
 10
1200.551960914152
 20
298.6177568918585
 30
0.0
 11
1213.051960914152
 21
298.6177568918585
 31
0.0
 12
1206.801960914152
 22
336.1177568918585
 32
0.0
 13
1206.801960914152
 23
336.1177568918585
 33
0.0
  0
LINE
  5
EF7
330
E4A
100
AcDbEntity
  8
0
  6
ByBlock
 62
     0
 48
10.0
100
AcDbLine
 10
1206.801960914152
 20
298.6177568918585
 30
0.0
 11
1206.801960914152
 21
194.33404902669
 31
0.0
  0
MTEXT
  5
EF8
330
E4A
100
AcDbEntity
  8
0
  6
ByBlock
 62
     0
 48
10.0
100
AcDbMText
 10
1178.676960914152
 20
227.7259029592743
 30
0.0
 40
37.5
 41
0.0
 71
     5
 72
     1
  1
\A1;30
 11
0.0000000000000001
 21
1.0
 31
0.0
 73
     1
 44
1.0
  0
SOLID
  5
EF9
330
E4A
100
AcDbEntity
  8
0
  6
ByBlock
 62
     0
 48
10.0
100
AcDbTrace
 10
1200.551960914152
 20
403.6177568918585
 30
0.0
 11
1213.051960914152
 21
403.6177568918585
 31
0.0
 12
1206.801960914152
 22
366.1177568918585
 32
0.0
 13
1206.801960914152
 23
366.1177568918585
 33
0.0
  0
SOLID
  5
EFA
330
E4A
100
AcDbEntity
  8
0
  6
ByBlock
 62
     0
 48
10.0
100
AcDbTrace
 10
1200.551960914152
 20
403.6177568918585
 30
0.0
 11
1213.051960914152
 21
403.6177568918585
 31
0.0
 12
1206.801960914152
 22
366.1177568918585
 32
0.0
 13
1206.801960914152
 23
366.1177568918585
 33
0.0
  0
POINT
  5
EFB
330
E4A
100
AcDbEntity
  8
DEFPOINTS
  6
ByBlock
 62
     0
 48
10.0
100
AcDbPoint
 10
1206.801960914152
 20
366.1177568918585
 30
0.0
  0
POINT
  5
EFC
330
E4A
100
AcDbEntity
  8
DEFPOINTS
  6
ByBlock
 62
     0
 48
10.0
100
AcDbPoint
 10
1206.801960914152
 20
336.1177568918585
 30
0.0
  0
LINE
  5
EFD
330
E4A
100
AcDbEntity
  8
0
  6
ByBlock
 62
     0
 48
10.0
100
AcDbLine
 10
1206.801960914152
 20
366.1177568918585
 30
0.0
 11
1206.801960914152
 21
336.1177568918585
 31
0.0
  0
POINT
  5
EFE
330
E4A
100
AcDbEntity
  8
DEFPOINTS
  6
ByBlock
 62
     0
 48
10.0
100
AcDbPoint
 10
1224.697957398511
 20
406.1177568918583
 30
0.0
  0
LINE
  5
EFF
330
E4A
100
AcDbEntity
  8
0
  6
ByBlock
 62
     0
 48
10.0
100
AcDbLine
 10
1206.801960914152
 20
403.6177568918585
 30
0.0
 11
1206.801960914152
 21
441.1177568918585
 31
0.0
  0
POINT
  5
F00
330
E4A
100
AcDbEntity
  8
DEFPOINTS
  6
ByBlock
 62
     0
 48
10.0
100
AcDbPoint
 10
1629.679500914288
 20
262.7501738605135
 30
0.0
  0
POINT
  5
F01
330
E4A
100
AcDbEntity
  8
DEFPOINTS
  6
ByBlock
 62
     0
 48
10.0
100
AcDbPoint
 10
1639.705818185922
 20
260.3296952249304
 30
0.0
  0
POINT
  5
F02
330
E4A
100
AcDbEntity
  8
DEFPOINTS
  6
ByBlock
 62
     0
 48
10.0
100
AcDbPoint
 10
1639.705818185922
 20
260.3296952249304
 30
0.0
  0
POINT
  5
F03
330
E4A
100
AcDbEntity
  8
DEFPOINTS
  6
ByBlock
 62
     0
 48
10.0
100
AcDbPoint
 10
1619.705818185923
 20
260.3296952249304
 30
0.0
  0
LINE
  5
F04
330
E4A
100
AcDbEntity
  8
上線
 48
10.0
100
AcDbLine
 10
2011.812395161567
 20
106.1177568918585
 30
0.0
 11
2202.5209718151
 21
106.1177568918585
 31
0.0
  0
MTEXT
  5
F05
330
E4A
100
AcDbEntity
  8
上線
 48
10.0
100
AcDbMText
 10
2032.030652121969
 20
136.4021531213056
 30
0.0
 40
40.0
 41
0.0
 71
     4
 72
     1
  1
16-Φ5
 73
     1
 44
1.0
  0
MTEXT
  5
F06
330
E4A
100
AcDbEntity
  8
上線
 48
10.0
100
AcDbMText
 10
2032.030652121969
 20
201.6776014081906
 30
0.0
 40
40.0
 41
0.0
 71
     4
 72
     1
  1
\fＭＳ Ｐ明朝|b0|i0|c128|p18;縦筋
 73
     1
 44
1.0
  0
LINE
  5
F07
330
E4A
100
AcDbEntity
  8
0
  6
ByBlock
 62
     0
 48
10.0
100
AcDbLine
 10
1903.705818185922
 20
306.1177568918585
 30
0.0
 11
1903.705818185922
 21
153.617746375673
 31
0.0
  0
POINT
  5
F08
330
E4A
100
AcDbEntity
  8
DEFPOINTS
  6
ByBlock
 62
     0
 48
10.0
100
AcDbPoint
 10
1903.705818185922
 20
166.117746375673
 30
0.0
  0
POINT
  5
F09
330
E4A
100
AcDbEntity
  8
DEFPOINTS
  6
ByBlock
 62
     0
 48
10.0
100
AcDbPoint
 10
1893.679500914288
 20
262.7501738605135
 30
0.0
  0
POINT
  5
F0A
330
E4A
100
AcDbEntity
  8
DEFPOINTS
  6
ByBlock
 62
     0
 48
10.0
100
AcDbPoint
 10
1903.705818185922
 20
260.3296952249304
 30
0.0
  0
MTEXT
  5
F0B
330
E4A
100
AcDbEntity
  8
上線
 48
10.0
100
AcDbMText
 10
2413.026589489342
 20
198.1511008875486
 30
0.0
 40
40.0
 41
0.0
 71
     4
 72
     1
  1
\fＭＳ Ｐ明朝|b0|i0|c128|p18;横筋
 73
     1
 44
1.0
  0
LINE
  5
F0C
330
E4A
100
AcDbEntity
  8
上線
 48
10.0
100
AcDbLine
 10
2389.637603683425
 20
106.1177568918585
 30
0.0
 11
2558.621714440329
 21
106.1177568918583
 31
0.0
  0
MTEXT
  5
F0D
330
E4A
100
AcDbEntity
  8
上線
 48
10.0
100
AcDbMText
 10
2413.026589489342
 20
135.8295345692004
 30
0.0
 40
40.0
 41
0.0
 71
     4
 72
     1
  1
7-Φ5
 73
     1
 44
1.0
  0
LINE
  5
F0E
330
E4A
100
AcDbEntity
  8
点線
 48
10.0
100
AcDbLine
 10
2619.705818185923
 20
436.1177568918585
 30
0.0
 11
2673.00044941005
 21
436.1177568918585
 31
0.0
  0
LINE
  5
F0F
330
E4A
100
AcDbEntity
  8
点線
 48
10.0
100
AcDbLine
 10
2997.835601905981
 20
436.1177568918585
 30
0.0
 11
3916.193897220793
 21
436.1177568918585
 31
0.0
  0
LINE
  5
F10
330
E4A
100
AcDbEntity
  8
上線
 48
10.0
100
AcDbLine
 10
3046.256105582925
 20
336.1177568918585
 30
0.0
 11
3916.193897220793
 21
336.1177568918583
 31
0.0
  0
LINE
  5
F11
330
E4A
100
AcDbEntity
  8
上線
 48
10.0
100
AcDbLine
 10
3040.275452095826
 20
346.1177568918585
 30
0.0
 11
3916.193897220793
 21
346.1177568918583
 31
0.0
  0
LINE
  5
F12
330
E4A
100
AcDbEntity
  8
上線
 48
10.0
100
AcDbLine
 10
3046.256105582925
 20
336.1177568918587
 30
0.0
 11
3619.703816584241
 21
336.1177568918587
 31
0.0
  0
LINE
  5
F13
330
E4A
100
AcDbEntity
  8
上線
 48
10.0
100
AcDbLine
 10
3046.256105582925
 20
346.1177568918587
 30
0.0
 11
3619.703816584241
 21
346.1177568918587
 31
0.0
  0
POINT
  5
F14
330
E4A
100
AcDbEntity
  8
DEFPOINTS
  6
ByBlock
 62
     0
 48
10.0
100
AcDbPoint
 10
2921.34681658424
 20
336.1177568918585
 30
0.0
  0
POINT
  5
F15
330
E4A
100
AcDbEntity
  8
DEFPOINTS
  6
ByBlock
 62
     0
 48
10.0
100
AcDbPoint
 10
2921.34681658424
 20
336.1177568918585
 30
0.0
  0
POINT
  5
F16
330
E4A
100
AcDbEntity
  8
DEFPOINTS
  6
ByBlock
 62
     0
 48
10.0
100
AcDbPoint
 10
2871.346816584241
 20
336.1177568918585
 30
0.0
  0
LINE
  5
F17
330
E4A
100
AcDbEntity
  8
点線
 48
10.0
100
AcDbLine
 10
2886.290165013979
 20
436.1177568918585
 30
0.0
 11
2969.590926783677
 21
436.1177568918585
 31
0.0
  0
POINT
  5
F18
330
E4A
100
AcDbEntity
  8
DEFPOINTS
  6
ByBlock
 62
     0
 48
10.0
100
AcDbPoint
 10
3221.34681658424
 20
336.1177568918585
 30
0.0
  0
POINT
  5
F19
330
E4A
100
AcDbEntity
  8
DEFPOINTS
  6
ByBlock
 62
     0
 48
10.0
100
AcDbPoint
 10
3619.705799312606
 20
23.98524201874443
 30
0.0
  0
POINT
  5
F1A
330
E4A
100
AcDbEntity
  8
DEFPOINTS
  6
ByBlock
 62
     0
 48
10.0
100
AcDbPoint
 10
3561.32051658424
 20
336.1177701528315
 30
0.0
  0
MTEXT
  5
F1B
330
E4A
100
AcDbEntity
  8
上線
 48
10.0
100
AcDbMText
 10
2617.132362064657
 20
1712.813466449936
 30
0.0
 40
40.0
 41
558.2059
 71
     1
 72
     5
  1
\fＭＳ Ｐ明朝|b0|i0|c128|p18;側面図
 73
     1
 44
1.0
  0
LWPOLYLINE
  5
F1C
330
E4A
100
AcDbEntity
  8
上線
100
AcDbPolyline
 90
        4
 70
     1
 43
0.0
 10
2593.077492639579
 20
1642.131183452896
 10
2802.354428808604
 20
1642.131183452896
 10
2802.354428808604
 20
1741.835566198902
 10
2593.077492639579
 20
1741.835566198902
  0
LWPOLYLINE
  5
F1D
330
E4A
100
AcDbEntity
  8
上線
100
AcDbPolyline
 90
        4
 70
     1
 43
0.0
 10
2596.077492639579
 20
1645.131183452896
 10
2799.354428808604
 20
1645.131183452896
 10
2799.354428808604
 20
1738.835566198901
 10
2596.077492639579
 20
1738.835566198901
  0
LINE
  5
F1E
330
E4A
100
AcDbEntity
  8
点線
 48
10.0
100
AcDbLine
 10
2619.705818185923
 20
736.1177568918581
 30
0.0
 11
3070.962486642967
 21
736.1177568918581
 31
0.0
  0
LINE
  5
F1F
330
E4A
100
AcDbEntity
  8
上線
 48
10.0
100
AcDbLine
 10
1619.705818185923
 20
836.1177568918582
 30
0.0
 11
2970.790108537208
 21
836.1177568918582
 31
0.0
  0
DIMENSION
  5
F20
330
E4A
100
AcDbEntity
  8
上線
 48
10.0
100
AcDbDimension
  2
*D2
 10
3916.193897220793
 20
1216.117756891858
 30
0.0
 11
2767.949857703358
 21
1247.50820633006
 31
0.0
 12
-4868.864669083421
 22
-828.9127577485123
 32
0.0
  1
4,000
 71
     5
 42
-1.0
  3
STANDARD
100
AcDbAlignedDimension
 13
1619.705818185923
 23
862.3677568918584
 33
0.0
 14
3916.193897220793
 24
866.1177568918583
 34
0.0
100
AcDbRotatedDimension
1001
ACAD
1000
DSTYLE
1002
{
1070
    40
1040
15.0
1070
    41
1040
2.5
1070
    42
1040
0.625
1070
    43
1040
3.75
1070
    44
1040
1.25
1070
    73
1070
     0
1070
    74
1070
     0
1070
    77
1070
     1
1070
    78
1070
     8
1070
   140
1040
2.5
1070
   141
1040
2.5
1070
   143
1040
0.0394
1070
   147
1040
0.625
1070
   171
1070
     4
1070
   172
1070
     1
1070
   273
1070
     8
1070
   274
1070
     4
1070
   277
1070
     6
1002
}
  0
LINE
  5
F21
330
E4A
100
AcDbEntity
  8
上線
 48
10.0
100
AcDbLine
 10
1639.705818185922
 20
586.1177568918583
 30
0.0
 11
2619.705818185923
 21
586.1177568918583
 31
0.0
  0
SOLID
  5
F22
330
E4A
100
AcDbEntity
  8
0
  6
ByBlock
 62
     0
 48
10.0
100
AcDbTrace
 10
1657.205818185923
 20
1072.367756891858
 30
0.0
 11
1657.205818185923
 21
1059.867756891858
 31
0.0
 12
1619.705818185923
 22
1066.117756891858
 32
0.0
 13
1619.705818185923
 23
1066.117756891858
 33
0.0
  0
LINE
  5
F23
330
E4A
100
AcDbEntity
  8
上線
 48
10.0
100
AcDbLine
 10
1639.705818185922
 20
806.1177568918584
 30
0.0
 11
2619.705818185923
 21
806.1177568918584
 31
0.0
  0
LINE
  5
F24
330
E4A
100
AcDbEntity
  8
0
  6
ByBlock
 62
     0
 48
10.0
100
AcDbLine
 10
1619.705818185923
 20
875.4927568918583
 30
0.0
 11
1619.705818185923
 21
1084.867756891858
 31
0.0
  0
LINE
  5
F25
330
E4A
100
AcDbEntity
  8
0
  6
ByBlock
 62
     0
 48
10.0
100
AcDbLine
 10
976.801960914152
 20
866.1177568918585
 30
0.0
 11
976.801960914152
 21
1084.867756891858
 31
0.0
  0
LINE
  5
F26
330
E4A
100
AcDbEntity
  8
0
  6
ByBlock
 62
     0
 48
10.0
100
AcDbLine
 10
906.801960914152
 20
934.3812258188917
 30
0.0
 11
906.801960914152
 21
1020.264521580408
 31
0.0
  0
LINE
  5
F27
330
E4A
100
AcDbEntity
  8
0
  6
ByBlock
 62
     0
 48
10.0
100
AcDbLine
 10
856.801960914152
 20
875.4927568918583
 30
0.0
 11
856.801960914152
 21
1084.867756891858
 31
0.0
  0
LINE
  5
F28
330
E4A
100
AcDbEntity
  8
0
  6
ByBlock
 62
     0
 48
10.0
100
AcDbLine
 10
906.801960914152
 20
866.1177568918585
 30
0.0
 11
906.801960914152
 21
1084.867756891858
 31
0.0
  0
LINE
  5
F29
330
E4A
100
AcDbEntity
  8
0
  6
ByBlock
 62
     0
 48
10.0
100
AcDbLine
 10
556.8019609141519
 20
866.1177568918585
 30
0.0
 11
556.8019609141519
 21
1084.867756891858
 31
0.0
  0
LINE
  5
F2A
330
E4A
100
AcDbEntity
  8
0
  6
ByBlock
 62
     0
 48
10.0
100
AcDbLine
 10
976.801960914152
 20
966.5888808702449
 30
0.0
 11
976.801960914152
 21
1138.617774482816
 31
0.0
  0
LINE
  5
F2B
330
E4A
100
AcDbEntity
  8
0
  6
ByBlock
 62
     0
 48
10.0
100
AcDbLine
 10
976.801960914152
 20
875.4927568918583
 30
0.0
 11
976.801960914152
 21
1234.867756891858
 31
0.0
  0
LINE
  5
F2C
330
E4A
100
AcDbEntity
  8
0
  6
ByBlock
 62
     0
 48
10.0
100
AcDbLine
 10
1006.801960914151
 20
806.117756891858
 30
0.0
 11
1225.551960914152
 21
806.117756891858
 31
0.0
  0
LINE
  5
F2D
330
E4A
100
AcDbEntity
  8
0
  6
ByBlock
 62
     0
 48
10.0
100
AcDbLine
 10
1006.801960914152
 20
836.1177568918581
 30
0.0
 11
1225.551960914152
 21
836.1177568918581
 31
0.0
  0
LINE
  5
F2E
330
E4A
100
AcDbEntity
  8
0
  6
ByBlock
 62
     0
 48
10.0
100
AcDbLine
 10
1016.176960914152
 20
806.1177568918584
 30
0.0
 11
1225.551960914152
 21
806.1177568918584
 31
0.0
  0
LINE
  5
F2F
330
E4A
100
AcDbEntity
  8
上線
 48
10.0
100
AcDbLine
 10
906.801960914152
 20
836.1177568918582
 30
0.0
 11
906.801960914152
 21
736.1177568918583
 31
0.0
  0
SOLID
  5
F30
330
E4A
100
AcDbEntity
  8
0
  6
ByBlock
 62
     0
 48
10.0
100
AcDbTrace
 10
814.301960914152
 20
672.3224861185172
 30
0.0
 11
814.301960914152
 21
659.8224861185172
 31
0.0
 12
851.801960914152
 22
666.0724861185172
 32
0.0
 13
851.801960914152
 23
666.0724861185172
 33
0.0
  0
LINE
  5
F31
330
E4A
100
AcDbEntity
  8
0
  6
ByBlock
 62
     0
 48
10.0
100
AcDbLine
 10
586.8019609141519
 20
666.0724861185172
 30
0.0
 11
851.801960914152
 21
666.0724861185173
 31
0.0
  0
LINE
  5
F32
330
E4A
100
AcDbEntity
  8
0
  6
ByBlock
 62
     0
 48
10.0
100
AcDbLine
 10
561.8019609141519
 20
531.2533398473442
 30
0.0
 11
561.8019609141519
 21
684.8224861185172
 31
0.0
  0
LINE
  5
F33
330
E4A
100
AcDbEntity
  8
上線
 48
10.0
100
AcDbLine
 10
557.5162466284382
 20
736.1177568918583
 30
0.0
 11
561.0978782404256
 21
485.4035440527154
 31
0.0
  0
LINE
  5
F34
330
E4A
100
AcDbEntity
  8
0
  6
ByBlock
 62
     0
 48
10.0
100
AcDbLine
 10
561.8019609141519
 20
521.8783398473442
 30
0.0
 11
561.8019609141519
 21
678.5724861185172
 31
0.0
  0
POINT
  5
F35
330
E4A
100
AcDbEntity
  8
DEFPOINTS
  6
ByBlock
 62
     0
 48
10.0
100
AcDbPoint
 10
561.8019609141519
 20
521.8783398473442
 30
0.0
  0
POINT
  5
F36
330
E4A
100
AcDbEntity
  8
DEFPOINTS
  6
ByBlock
 62
     0
 48
10.0
100
AcDbPoint
 10
561.8019609141519
 20
482.5025636627851
 30
0.0
  0
POINT
  5
F37
330
E4A
100
AcDbEntity
  8
DEFPOINTS
  6
ByBlock
 62
     0
 48
10.0
100
AcDbPoint
 10
791.801960914152
 20
521.8783398473442
 30
0.0
  0
MTEXT
  5
F38
330
E4A
100
AcDbEntity
  8
0
  6
ByBlock
 62
     0
 48
10.0
100
AcDbMText
 10
706.8019609141519
 20
694.1974861185172
 30
0.0
 40
37.5
 41
0.0
 71
     5
 72
     1
  1
\A1;390
 73
     1
 44
1.0
  0
LINE
  5
F39
330
E4A
100
AcDbEntity
  8
0
  6
ByBlock
 62
     0
 48
10.0
100
AcDbLine
 10
599.3019609141519
 20
666.0724861185172
 30
0.0
 11
754.301960914152
 21
666.0724861185172
 31
0.0
  0
SOLID
  5
F3A
330
E4A
100
AcDbEntity
  8
0
  6
ByBlock
 62
     0
 48
10.0
100
AcDbTrace
 10
599.3019609141519
 20
672.3224861185172
 30
0.0
 11
599.3019609141519
 21
659.8224861185172
 31
0.0
 12
561.8019609141519
 22
666.0724861185172
 32
0.0
 13
561.8019609141519
 23
666.0724861185172
 33
0.0
  0
SOLID
  5
F3B
330
E4A
100
AcDbEntity
  8
0
  6
ByBlock
 62
     0
 48
10.0
100
AcDbTrace
 10
586.8019609141519
 20
670.2391527851839
 30
0.0
 11
586.8019609141519
 21
661.9058194518504
 31
0.0
 12
561.8019609141519
 22
666.0724861185172
 32
0.0
 13
561.8019609141519
 23
666.0724861185172
 33
0.0
  0
LINE
  5
F3C
330
E4A
100
AcDbEntity
  8
上線
100
AcDbLine
 10
556.8019609141519
 20
736.1177568918583
 30
0.0
 11
556.8019609141519
 21
736.1177568918583
 31
0.0
  0
POINT
  5
F3D
330
E4A
100
AcDbEntity
  8
DEFPOINTS
  6
ByBlock
 62
     0
 48
10.0
100
AcDbPoint
 10
791.801960914152
 20
666.0724861185172
 30
0.0
  0
LINE
  5
F3E
330
E4A
100
AcDbEntity
  8
0
  6
ByBlock
 62
     0
 48
10.0
100
AcDbLine
 10
851.801960914152
 20
531.2533398473442
 30
0.0
 11
851.801960914152
 21
684.8224861185172
 31
0.0
  0
LINE
  5
F3F
330
E4A
100
AcDbEntity
  8
上線
 48
10.0
100
AcDbLine
 10
856.0876751998657
 20
736.1177568918583
 30
0.0
 11
852.5060435878783
 21
485.4035440527159
 31
0.0
  0
LINE
  5
F40
330
E4A
100
AcDbEntity
  8
0
  6
ByBlock
 62
     0
 48
10.0
100
AcDbLine
 10
851.801960914152
 20
521.8783398473442
 30
0.0
 11
851.801960914152
 21
678.5724861185172
 31
0.0
  0
POINT
  5
F41
330
E4A
100
AcDbEntity
  8
DEFPOINTS
  6
ByBlock
 62
     0
 48
10.0
100
AcDbPoint
 10
851.801960914152
 20
482.5025636627851
 30
0.0
  0
LWPOLYLINE
  5
F42
330
E4A
100
AcDbEntity
  8
上線
 48
10.0
100
AcDbPolyline
 90
        2
 70
     1
 43
5.0
 10
939.2442218308605
 20
585.7065350564544
 42
1.0
 10
944.2442218308606
 20
585.7065350564544
 42
1.0
  0
POINT
  5
F43
330
E4A
100
AcDbEntity
  8
DEFPOINTS
  6
ByBlock
 62
     0
 48
10.0
100
AcDbPoint
 10
851.801960914152
 20
632.9467099339581
 30
0.0
  0
LINE
  5
F44
330
E4A
100
AcDbEntity
  8
上線
 48
10.0
100
AcDbLine
 10
906.801960914152
 20
736.1177568918583
 30
0.0
 11
856.0876751998657
 21
736.1177568918583
 31
0.0
  0
LINE
  5
F45
330
E4A
100
AcDbEntity
  8
上線
100
AcDbLine
 10
916.801960914152
 20
736.1177568918583
 30
0.0
 11
916.801960914152
 21
736.1177568918583
 31
0.0
  0
LINE
  5
F46
330
E4A
100
AcDbEntity
  8
上線
100
AcDbLine
 10
966.801960914152
 20
736.1177568918583
 30
0.0
 11
966.801960914152
 21
736.1177568918583
 31
0.0
  0
LINE
  5
F47
330
E4A
100
AcDbEntity
  8
0
  6
ByBlock
 62
     0
 48
10.0
100
AcDbLine
 10
556.8019609141519
 20
862.4713429367433
 30
0.0
 11
556.8019609141519
 21
1018.61777210726
 31
0.0
  0
POINT
  5
F48
330
E4A
100
AcDbEntity
  8
DEFPOINTS
  6
ByBlock
 62
     0
 48
10.0
100
AcDbPoint
 10
556.8019609141519
 20
830.1236429367433
 30
0.0
  0
LINE
  5
F49
330
E4A
100
AcDbEntity
  8
0
  6
ByBlock
 62
     0
 48
10.0
100
AcDbLine
 10
556.8019609141519
 20
934.3812258188917
 30
0.0
 11
556.8019609141519
 21
1018.61777210726
 31
0.0
  0
POINT
  5
F4A
330
E4A
100
AcDbEntity
  8
DEFPOINTS
  6
ByBlock
 62
     0
 48
10.0
100
AcDbPoint
 10
556.8019609141519
 20
1006.11777210726
 30
0.0
  0
POINT
  5
F4B
330
E4A
100
AcDbEntity
  8
DEFPOINTS
  6
ByBlock
 62
     0
 48
10.0
100
AcDbPoint
 10
796.801960914152
 20
1006.11777210726
 30
0.0
  0
LINE
  5
F4C
330
E4A
100
AcDbEntity
  8
0
  6
ByBlock
 62
     0
 48
10.0
100
AcDbLine
 10
856.801960914152
 20
862.4713429367433
 30
0.0
 11
856.801960914152
 21
1018.61777210726
 31
0.0
  0
LINE
  5
F4D
330
E4A
100
AcDbEntity
  8
上線
100
AcDbLine
 10
906.801960914152
 20
836.1177568918582
 30
0.0
 11
976.801960914152
 21
836.1177568918582
 31
0.0
  0
LINE
  5
F4E
330
E4A
100
AcDbEntity
  8
上線
 48
10.0
100
AcDbLine
 10
916.801960914152
 20
791.1177568918583
 30
0.0
 11
916.7305323427235
 21
791.1177568918583
 31
0.0
  0
LWPOLYLINE
  5
F4F
330
E4A
100
AcDbEntity
  8
上線
 48
10.0
100
AcDbPolyline
 90
        2
 70
     1
 43
5.0
 10
939.2442218308605
 20
805.7065350564544
 42
1.0
 10
944.2442218308606
 20
805.7065350564544
 42
1.0
  0
POINT
  5
F50
330
E4A
100
AcDbEntity
  8
DEFPOINTS
  6
ByBlock
 62
     0
 48
10.0
100
AcDbPoint
 10
856.801960914152
 20
830.1236429367433
 30
0.0
  0
POINT
  5
F51
330
E4A
100
AcDbEntity
  8
DEFPOINTS
  6
ByBlock
 62
     0
 48
10.0
100
AcDbPoint
 10
996.8019609141519
 20
776.1177568918583
 30
0.0
  0
POINT
  5
F52
330
E4A
100
AcDbEntity
  8
DEFPOINTS
  6
ByBlock
 62
     0
 48
10.0
100
AcDbPoint
 10
1003.051960914151
 20
746.117756891858
 30
0.0
  0
POINT
  5
F53
330
E4A
100
AcDbEntity
  8
DEFPOINTS
  6
ByBlock
 62
     0
 48
10.0
100
AcDbPoint
 10
996.8019609141519
 20
746.1177568918583
 30
0.0
  0
POINT
  5
F54
330
E4A
100
AcDbEntity
  8
DEFPOINTS
  6
ByBlock
 62
     0
 48
10.0
100
AcDbPoint
 10
976.801960914152
 20
833.8736429367436
 30
0.0
  0
POINT
  5
F55
330
E4A
100
AcDbEntity
  8
DEFPOINTS
  6
ByBlock
 62
     0
 48
10.0
100
AcDbPoint
 10
976.801960914152
 20
833.8736429367436
 30
0.0
  0
POINT
  5
F56
330
E4A
100
AcDbEntity
  8
DEFPOINTS
  6
ByBlock
 62
     0
 48
10.0
100
AcDbPoint
 10
976.801960914152
 20
815.4023429367438
 30
0.0
  0
LINE
  5
F57
330
E4A
100
AcDbEntity
  8
0
  6
ByBlock
 62
     0
 48
10.0
100
AcDbLine
 10
856.801960914152
 20
934.3812258188917
 30
0.0
 11
856.801960914152
 21
1018.61777210726
 31
0.0
  0
POINT
  5
F58
330
E4A
100
AcDbEntity
  8
DEFPOINTS
  6
ByBlock
 62
     0
 48
10.0
100
AcDbPoint
 10
916.801960914152
 20
903.5069386982604
 30
0.0
  0
POINT
  5
F59
330
E4A
100
AcDbEntity
  8
DEFPOINTS
  6
ByBlock
 62
     0
 48
10.0
100
AcDbPoint
 10
856.801960914152
 20
1006.11777210726
 30
0.0
  0
POINT
  5
F5A
330
E4A
100
AcDbEntity
  8
DEFPOINTS
  6
ByBlock
 62
     0
 48
10.0
100
AcDbPoint
 10
936.8019609141519
 20
1006.117756891858
 30
0.0
  0
POINT
  5
F5B
330
E4A
100
AcDbEntity
  8
DEFPOINTS
  6
ByBlock
 62
     0
 48
10.0
100
AcDbPoint
 10
946.8019609141519
 20
1006.117756891858
 30
0.0
  0
POINT
  5
F5C
330
E4A
100
AcDbEntity
  8
DEFPOINTS
  6
ByBlock
 62
     0
 48
10.0
100
AcDbPoint
 10
946.8019609141519
 20
1006.117756891858
 30
0.0
  0
LINE
  5
F5D
330
E4A
100
AcDbEntity
  8
0
  6
ByBlock
 62
     0
 48
10.0
100
AcDbLine
 10
976.801960914152
 20
890.1236429367436
 30
0.0
 11
976.801960914152
 21
976.0069386982605
 31
0.0
  0
POINT
  5
F5E
330
E4A
100
AcDbEntity
  8
DEFPOINTS
  6
ByBlock
 62
     0
 48
10.0
100
AcDbPoint
 10
996.8019609141519
 20
1006.117756891858
 30
0.0
  0
POINT
  5
F5F
330
E4A
100
AcDbEntity
  8
DEFPOINTS
  6
ByBlock
 62
     0
 48
10.0
100
AcDbPoint
 10
1086.801960914151
 20
1006.117756891858
 30
0.0
  0
LINE
  5
F60
330
E4A
100
AcDbEntity
  8
0
  6
ByBlock
 62
     0
 48
10.0
100
AcDbLine
 10
1206.801960914152
 20
768.6177568918581
 30
0.0
 11
1206.801960914152
 21
731.1177568918581
 31
0.0
  0
LINE
  5
F61
330
E4A
100
AcDbEntity
  8
0
  6
ByBlock
 62
     0
 48
10.0
100
AcDbLine
 10
1206.801960914152
 20
873.6177568918581
 30
0.0
 11
1206.801960914152
 21
977.9014647570265
 31
0.0
  0
LINE
  5
F62
330
E4A
100
AcDbEntity
  8
0
  6
ByBlock
 62
     0
 48
10.0
100
AcDbLine
 10
1206.801960914152
 20
806.117756891858
 30
0.0
 11
1206.801960914152
 21
836.1177568918581
 31
0.0
  0
SOLID
  5
F63
330
E4A
100
AcDbEntity
  8
0
  6
ByBlock
 62
     0
 48
10.0
100
AcDbTrace
 10
1200.551960914152
 20
768.6177568918581
 30
0.0
 11
1213.051960914152
 21
768.6177568918581
 31
0.0
 12
1206.801960914152
 22
806.117756891858
 32
0.0
 13
1206.801960914152
 23
806.117756891858
 33
0.0
  0
SOLID
  5
F64
330
E4A
100
AcDbEntity
  8
0
  6
ByBlock
 62
     0
 48
10.0
100
AcDbTrace
 10
1200.551960914152
 20
768.6177568918583
 30
0.0
 11
1213.051960914152
 21
768.6177568918583
 31
0.0
 12
1206.801960914152
 22
806.1177568918584
 32
0.0
 13
1206.801960914152
 23
806.1177568918584
 33
0.0
  0
POINT
  5
F65
330
E4A
100
AcDbEntity
  8
DEFPOINTS
  6
ByBlock
 62
     0
 48
10.0
100
AcDbPoint
 10
1206.801960914152
 20
836.1177568918581
 30
0.0
  0
SOLID
  5
F66
330
E4A
100
AcDbEntity
  8
0
  6
ByBlock
 62
     0
 48
10.0
100
AcDbTrace
 10
1200.551960914152
 20
873.6177568918581
 30
0.0
 11
1213.051960914152
 21
873.6177568918581
 31
0.0
 12
1206.801960914152
 22
836.1177568918581
 32
0.0
 13
1206.801960914152
 23
836.1177568918581
 33
0.0
  0
MTEXT
  5
F67
330
E4A
100
AcDbEntity
  8
0
  6
ByBlock
 62
     0
 48
10.0
100
AcDbMText
 10
1178.676960914152
 20
944.5096108244424
 30
0.0
 40
37.5
 41
0.0
 71
     5
 72
     1
  1
\A1;30
 11
0.0000000000000001
 21
1.0
 31
0.0
 73
     1
 44
1.0
  0
LINE
  5
F68
330
E4A
100
AcDbEntity
  8
0
  6
ByBlock
 62
     0
 48
10.0
100
AcDbLine
 10
1619.705818185923
 20
868.6177568918584
 30
0.0
 11
1619.705818185923
 21
1018.617756891858
 31
0.0
  0
POINT
  5
F69
330
E4A
100
AcDbEntity
  8
DEFPOINTS
  6
ByBlock
 62
     0
 48
10.0
100
AcDbPoint
 10
1619.705818185923
 20
802.3677568918582
 30
0.0
  0
POINT
  5
F6A
330
E4A
100
AcDbEntity
  8
DEFPOINTS
  6
ByBlock
 62
     0
 48
10.0
100
AcDbPoint
 10
1619.705818185923
 20
880.8465327405064
 30
0.0
  0
SOLID
  5
F6B
330
E4A
100
AcDbEntity
  8
0
  6
ByBlock
 62
     0
 48
10.0
100
AcDbTrace
 10
819.301960914152
 20
1072.367756891858
 30
0.0
 11
819.301960914152
 21
1059.867756891858
 31
0.0
 12
856.801960914152
 22
1066.117756891858
 32
0.0
 13
856.801960914152
 23
1066.117756891858
 33
0.0
  0
LINE
  5
F6C
330
E4A
100
AcDbEntity
  8
0
  6
ByBlock
 62
     0
 48
10.0
100
AcDbLine
 10
594.3019609141519
 20
1066.117756891858
 30
0.0
 11
856.801960914152
 21
1066.117756891858
 31
0.0
  0
MTEXT
  5
F6D
330
E4A
100
AcDbEntity
  8
0
  6
ByBlock
 62
     0
 48
10.0
100
AcDbMText
 10
706.8019609141519
 20
1094.242756891858
 30
0.0
 40
37.5
 41
0.0
 71
     5
 72
     1
  1
\A1;300
 73
     1
 44
1.0
  0
SOLID
  5
F6E
330
E4A
100
AcDbEntity
  8
0
  6
ByBlock
 62
     0
 48
10.0
100
AcDbTrace
 10
594.3019609141519
 20
1072.367756891858
 30
0.0
 11
594.3019609141519
 21
1059.867756891858
 31
0.0
 12
556.8019609141519
 22
1066.117756891858
 32
0.0
 13
556.8019609141519
 23
1066.117756891858
 33
0.0
  0
POINT
  5
F6F
330
E4A
100
AcDbEntity
  8
DEFPOINTS
  6
ByBlock
 62
     0
 48
10.0
100
AcDbPoint
 10
556.8019609141519
 20
1066.117756891858
 30
0.0
  0
POINT
  5
F70
330
E4A
100
AcDbEntity
  8
DEFPOINTS
  6
ByBlock
 62
     0
 48
10.0
100
AcDbPoint
 10
796.801960914152
 20
1066.117756891858
 30
0.0
  0
POINT
  5
F71
330
E4A
100
AcDbEntity
  8
DEFPOINTS
  6
ByBlock
 62
     0
 48
10.0
100
AcDbPoint
 10
796.801960914152
 20
1066.117756891858
 30
0.0
  0
MTEXT
  5
F72
330
E4A
100
AcDbEntity
  8
0
  6
ByBlock
 62
     0
 48
10.0
100
AcDbMText
 10
706.8019609141519
 20
1244.242756891858
 30
0.0
 40
37.5
 41
0.0
 71
     5
 72
     1
  1
\A1;540
 73
     1
 44
1.0
  0
LINE
  5
F73
330
E4A
100
AcDbEntity
  8
0
  6
ByBlock
 62
     0
 48
10.0
100
AcDbLine
 10
906.801960914152
 20
1066.117756891858
 30
0.0
 11
976.801960914152
 21
1066.117756891858
 31
0.0
  0
MTEXT
  5
F74
330
E4A
100
AcDbEntity
  8
0
  6
ByBlock
 62
     0
 48
10.0
100
AcDbMText
 10
941.801960914152
 20
1094.242756891858
 30
0.0
 40
37.5
 41
0.0
 71
     5
 72
     1
  1
\A1;70
 73
     1
 44
1.0
  0
LINE
  5
F75
330
E4A
100
AcDbEntity
  8
0
  6
ByBlock
 62
     0
 48
10.0
100
AcDbLine
 10
906.801960914152
 20
1066.117756891858
 30
0.0
 11
831.801960914152
 21
1066.117756891858
 31
0.0
  0
POINT
  5
F76
330
E4A
100
AcDbEntity
  8
DEFPOINTS
  6
ByBlock
 62
     0
 48
10.0
100
AcDbPoint
 10
906.801960914152
 20
1040.02007210726
 30
0.0
  0
POINT
  5
F77
330
E4A
100
AcDbEntity
  8
DEFPOINTS
  6
ByBlock
 62
     0
 48
10.0
100
AcDbPoint
 10
916.801960914152
 20
1066.117756891858
 30
0.0
  0
POINT
  5
F78
330
E4A
100
AcDbEntity
  8
DEFPOINTS
  6
ByBlock
 62
     0
 48
10.0
100
AcDbPoint
 10
916.801960914152
 20
1066.117756891858
 30
0.0
  0
POINT
  5
F79
330
E4A
100
AcDbEntity
  8
DEFPOINTS
  6
ByBlock
 62
     0
 48
10.0
100
AcDbPoint
 10
916.801960914152
 20
1066.117756891858
 30
0.0
  0
POINT
  5
F7A
330
E4A
100
AcDbEntity
  8
DEFPOINTS
  6
ByBlock
 62
     0
 48
10.0
100
AcDbPoint
 10
936.8019609141519
 20
1036.117756891858
 30
0.0
  0
LWPOLYLINE
  5
F7B
330
E4A
100
AcDbEntity
  8
上線
 48
10.0
100
AcDbPolyline
 90
        2
 70
     1
 43
5.0
 10
904.301960914152
 20
1066.117756891858
 42
1.0
 10
909.3019609141519
 20
1066.117756891858
 42
1.0
  0
POINT
  5
F7C
330
E4A
100
AcDbEntity
  8
DEFPOINTS
  6
ByBlock
 62
     0
 48
10.0
100
AcDbPoint
 10
906.801960914152
 20
1066.117756891858
 30
0.0
  0
MTEXT
  5
F7D
330
E4A
100
AcDbEntity
  8
0
  6
ByBlock
 62
     0
 48
10.0
100
AcDbMText
 10
882.8106099211344
 20
1119.078712713323
 30
0.0
 40
37.5
 41
0.0
 71
     5
 72
     1
  1
\A1;50
 73
     1
 44
1.0
  0
POINT
  5
F7E
330
E4A
100
AcDbEntity
  8
DEFPOINTS
  6
ByBlock
 62
     0
 48
10.0
100
AcDbPoint
 10
916.801960914152
 20
1126.117774482816
 30
0.0
  0
LINE
  5
F7F
330
E4A
100
AcDbEntity
  8
0
  6
ByBlock
 62
     0
 48
10.0
100
AcDbLine
 10
1014.301960914152
 20
1066.117756891858
 30
0.0
 11
1051.801960914152
 21
1066.117756891858
 31
0.0
  0
SOLID
  5
F80
330
E4A
100
AcDbEntity
  8
0
  6
ByBlock
 62
     0
 48
10.0
100
AcDbTrace
 10
1014.301960914152
 20
1072.367756891858
 30
0.0
 11
1014.301960914152
 21
1059.867756891858
 31
0.0
 12
976.801960914152
 22
1066.117756891858
 32
0.0
 13
976.801960914152
 23
1066.117756891858
 33
0.0
  0
POINT
  5
F81
330
E4A
100
AcDbEntity
  8
DEFPOINTS
  6
ByBlock
 62
     0
 48
10.0
100
AcDbPoint
 10
1006.801960914152
 20
1036.117756891858
 30
0.0
  0
POINT
  5
F82
330
E4A
100
AcDbEntity
  8
DEFPOINTS
  6
ByBlock
 62
     0
 48
10.0
100
AcDbPoint
 10
1086.801960914151
 20
1036.117756891858
 30
0.0
  0
POINT
  5
F83
330
E4A
100
AcDbEntity
  8
DEFPOINTS
  6
ByBlock
 62
     0
 48
10.0
100
AcDbPoint
 10
976.801960914152
 20
1140.839074482816
 30
0.0
  0
SOLID
  5
F84
330
E4A
100
AcDbEntity
  8
0
  6
ByBlock
 62
     0
 48
10.0
100
AcDbTrace
 10
939.301960914152
 20
1222.367756891858
 30
0.0
 11
939.301960914152
 21
1209.867756891858
 31
0.0
 12
976.801960914152
 22
1216.117756891858
 32
0.0
 13
976.801960914152
 23
1216.117756891858
 33
0.0
  0
POINT
  5
F85
330
E4A
100
AcDbEntity
  8
DEFPOINTS
  6
ByBlock
 62
     0
 48
10.0
100
AcDbPoint
 10
916.801960914152
 20
1216.117756891858
 30
0.0
  0
POINT
  5
F86
330
E4A
100
AcDbEntity
  8
DEFPOINTS
  6
ByBlock
 62
     0
 48
10.0
100
AcDbPoint
 10
1619.705818185923
 20
1063.601349840117
 30
0.0
  0
POINT
  5
F87
330
E4A
100
AcDbEntity
  8
DEFPOINTS
  6
ByBlock
 62
     0
 48
10.0
100
AcDbPoint
 10
1619.705818185923
 20
1066.117756891858
 30
0.0
  0
POINT
  5
F88
330
E4A
100
AcDbEntity
  8
DEFPOINTS
  6
ByBlock
 62
     0
 48
10.0
100
AcDbPoint
 10
1619.705818185923
 20
1066.117756891858
 30
0.0
  0
SOLID
  5
F89
330
E4A
100
AcDbEntity
  8
上線
 48
10.0
100
AcDbTrace
 10
2299.569303637308
 20
561.0305941029525
 30
0.0
 11
2299.032365839573
 21
586.3697497501416
 31
0.0
 12
2307.758384506789
 22
562.5744201804443
 32
0.0
 13
2307.758384506789
 23
562.5744201804443
 33
0.0
1001
ACAD
1000
DSTYLE
1002
{
1070
    78
1070
     8
1070
   270
1070
     8
1070
   140
1040
2.5
1070
    74
1070
     0
1070
   172
1070
     1
1070
    73
1070
     0
1070
    77
1070
     1
1070
    40
1040
10.0
1070
   147
1040
0.625
1070
    42
1040
0.625
1070
    44
1040
1.25
1070
    43
1040
3.75
1070
   141
1040
2.5
1070
    41
1040
2.5
1070
   273
1070
     8
1070
   274
1070
     4
1070
   143
1040
0.0394
1070
   171
1070
     4
1002
}
  0
POINT
  5
F8A
330
E4A
100
AcDbEntity
  8
DEFPOINTS
  6
ByBlock
 62
     0
 48
10.0
100
AcDbPoint
 10
2619.705818185923
 20
796.1177568918583
 30
0.0
  0
LINE
  5
F8B
330
E4A
100
AcDbEntity
  8
0
  6
ByBlock
 62
     0
 48
10.0
100
AcDbLine
 10
2582.205818185923
 20
1066.117756891858
 30
0.0
 11
1657.205818185923
 21
1066.117756891858
 31
0.0
  0
MTEXT
  5
F8C
330
E4A
100
AcDbEntity
  8
0
  6
ByBlock
 62
     0
 48
10.0
100
AcDbMText
 10
2119.705818185923
 20
1097.50820633006
 30
0.0
 40
37.5
 41
0.0
 71
     5
 72
     1
  1
\A1;1,000
 73
     1
 44
1.0
  0
SOLID
  5
F8D
330
E4A
100
AcDbEntity
  8
0
  6
ByBlock
 62
     0
 48
10.0
100
AcDbTrace
 10
2582.205818185923
 20
1072.367756891858
 30
0.0
 11
2582.205818185923
 21
1059.867756891858
 31
0.0
 12
2619.705818185923
 22
1066.117756891858
 32
0.0
 13
2619.705818185923
 23
1066.117756891858
 33
0.0
  0
POINT
  5
F8E
330
E4A
100
AcDbEntity
  8
DEFPOINTS
  6
ByBlock
 62
     0
 48
10.0
100
AcDbPoint
 10
2619.705818185923
 20
1066.117756891858
 30
0.0
  0
POINT
  5
F8F
330
E4A
100
AcDbEntity
  8
DEFPOINTS
  6
ByBlock
 62
     0
 48
10.0
100
AcDbPoint
 10
2555.246620693766
 20
1252.615413408179
 30
0.0
  0
POINT
  5
F90
330
E4A
100
AcDbEntity
  8
DEFPOINTS
  6
ByBlock
 62
     0
 48
10.0
100
AcDbPoint
 10
2619.705818185923
 20
1206.117756891858
 30
0.0
  0
POINT
  5
F91
330
E4A
100
AcDbEntity
  8
DEFPOINTS
  6
ByBlock
 62
     0
 48
10.0
100
AcDbPoint
 10
2619.705818185923
 20
1263.601349840117
 30
0.0
  0
MTEXT
  5
F92
330
E4A
100
AcDbEntity
  8
上線
 48
10.0
100
AcDbMText
 10
634.7576835871314
 20
1713.094246389872
 30
0.0
 40
40.0
 41
558.2059
 71
     1
 72
     5
  1
\fＭＳ Ｐ明朝|b0|i0|c128|p18;正面図
 73
     1
 44
1.0
  0
LWPOLYLINE
  5
F93
330
E4A
100
AcDbEntity
  8
上線
100
AcDbPolyline
 90
        4
 70
     1
 43
0.0
 10
613.702814162054
 20
1645.411963392832
 10
816.9797503310784
 20
1645.411963392832
 10
816.9797503310784
 20
1739.116346138837
 10
613.702814162054
 20
1739.116346138837
  0
LWPOLYLINE
  5
F94
330
E4A
100
AcDbEntity
  8
上線
100
AcDbPolyline
 90
        4
 70
     1
 43
0.0
 10
610.7028141620539
 20
1642.411963392832
 10
819.9797503310783
 20
1642.411963392832
 10
819.9797503310783
 20
1742.116346138838
 10
610.7028141620539
 20
1742.116346138838
  0
LINE
  5
F95
330
E4A
100
AcDbEntity
  8
点線
 48
10.0
100
AcDbLine
 10
3099.207161765268
 20
736.1177568918581
 30
0.0
 11
3916.193897220793
 21
736.1177568918581
 31
0.0
  0
LINE
  5
F96
330
E4A
100
AcDbEntity
  8
上線
 48
10.0
100
AcDbLine
 10
3094.227339841081
 20
836.1177568918582
 30
0.0
 11
3916.193897220793
 21
836.1177568918586
 31
0.0
  0
LINE
  5
F97
330
E4A
100
AcDbEntity
  8
上線
 48
10.0
100
AcDbLine
 10
2999.03478365951
 20
836.1177568918588
 30
0.0
 11
3619.703816584241
 21
836.1177568918588
 31
0.0
  0
SPLINE
  5
F98
330
E4A
100
AcDbEntity
  8
上線
 48
10.0
100
AcDbSpline
210
0.0
220
0.0
230
1.0
 70
     8
 71
     3
 72
    10
 73
     6
 74
     0
 42
0.0000000001
 43
0.0000000001
 40
197.242245936312
 40
197.242245936312
 40
197.242245936312
 40
197.242245936312
 40
220.5413135163642
 40
397.3917699938457
 40
401.7610218859336
 40
401.7610218859336
 40
401.7610218859336
 40
401.7610218859336
 10
3127.515063100598
 20
686.1177568918583
 30
0.0
 10
3126.798287853478
 20
692.2857267606318
 30
0.0
 10
3113.179900013541
 20
744.0042622259843
 30
0.0
 10
3026.035809296504
 20
784.4152453173704
 30
0.0
 10
2999.64216999078
 20
834.8924806618168
 30
0.0
 10
2999.03478365951
 20
836.1177568918588
 30
0.0
  0
SPLINE
  5
F99
330
E4A
100
AcDbEntity
  8
上線
 48
10.0
100
AcDbSpline
210
0.0
220
0.0
230
1.0
 70
     8
 71
     3
 72
    10
 73
     6
 74
     0
 42
0.0000000001
 43
0.0000000001
 40
197.2422459363112
 40
197.2422459363112
 40
197.2422459363112
 40
197.2422459363112
 40
220.5413135163642
 40
397.3917699938457
 40
401.7610218859329
 40
401.7610218859329
 40
401.7610218859329
 40
401.7610218859329
 10
3099.270387978295
 20
686.1177568918578
 30
0.0
 10
3098.553612731175
 20
692.2857267606314
 30
0.0
 10
3084.93522489124
 20
744.0042622259843
 30
0.0
 10
2997.791134174201
 20
784.4152453173704
 30
0.0
 10
2971.397494868476
 20
834.8924806618162
 30
0.0
 10
2970.790108537208
 20
836.1177568918582
 30
0.0
  0
POINT
  5
F9A
330
E4A
100
AcDbEntity
  8
DEFPOINTS
  6
ByBlock
 62
     0
 48
10.0
100
AcDbPoint
 10
3614.153015462727
 20
880.8465327405064
 30
0.0
  0
ENDBLK
  5
F9C
330
E4A
100
AcDbEntity
  8
0
 48
10.0
100
AcDbBlockEnd
  0
BLOCK
  5
120F
330
11F9
100
AcDbEntity
  8
0
 48
10.0
100
AcDbBlockBegin
  2
A$C1CED3DE9
 70
     0
 10
0.0
 20
0.0
 30
0.0
  3
A$C1CED3DE9
  1

  0
LINE
  5
11FA
330
11F9
100
AcDbEntity
  8
上線
100
AcDbLine
 10
1146.954623483747
 20
410.0000012727577
 30
0.0
 11
0.0000028775198189
 21
410.0000012727577
 31
0.0
  0
LINE
  5
11FB
330
11F9
100
AcDbEntity
  8
上線
100
AcDbLine
 10
1146.954623483747
 20
300.0000012727578
 30
0.0
 11
0.0000028775198189
 21
300.0000012727578
 31
0.0
  0
LINE
  5
11FC
330
11F9
100
AcDbEntity
  8
上線
100
AcDbLine
 10
1146.954623483748
 20
200.0000012727577
 30
0.0
 11
0.0000028775198189
 21
200.0000012727578
 31
0.0
  0
LINE
  5
11FD
330
11F9
100
AcDbEntity
  8
上線
100
AcDbLine
 10
1146.954623483748
 20
110.0000012727577
 30
0.0
 11
0.0000028775198189
 21
110.0000012727577
 31
0.0
  0
MTEXT
  5
11FE
330
11F9
100
AcDbEntity
  8
上線
 48
10.0
100
AcDbMText
 10
287.2898841716996
 20
90.42100403926088
 30
0.0
 40
55.0
 41
1003.0154
 71
     1
 72
     5
  1
\fＭＳ Ｐ明朝|b0|i0|c128|p18;㈱　ウ　チ　コ　ン
 73
     1
 44
1.0
  0
LINE
  5
11FF
330
11F9
100
AcDbEntity
  8
上線
100
AcDbLine
 10
1146.954623483748
 20
0.0000012727577996
 30
0.0
 11
0.0000028775198189
 21
0.0000012727577996
 31
0.0
  0
MTEXT
  5
1200
330
11F9
100
AcDbEntity
  8
上線
 48
10.0
100
AcDbMText
 10
280.425363145845
 20
185.9977949755411
 30
0.0
 40
45.0
 41
241.0562
 71
     1
 72
     5
  1
\fＭＳ Ｐ明朝|b0|i0|c128|p18;単位；㎜
 73
     1
 44
1.0
  0
MTEXT
  5
1201
330
11F9
100
AcDbEntity
  8
上線
 48
10.0
100
AcDbMText
 10
257.0896302081346
 20
281.5684136637892
 30
0.0
 40
50.0
 41
1003.0154
 71
     1
 72
     5
  1
240×600×120/120×2000
 73
     1
 44
1.0
  0
MTEXT
  5
1202
330
11F9
100
AcDbEntity
  8
上線
 48
10.0
100
AcDbMText
 10
253.6646397016684
 20
391.6112741931056
 30
0.0
 40
55.0
 41
1003.0154
 71
     1
 72
     5
  1
長 尺 U 字 溝  （H2-24E）
 73
     1
 44
1.0
  0
LINE
  5
1203
330
11F9
100
AcDbEntity
  8
上線
100
AcDbLine
 10
0.0000028775189094
 20
410.0000012727577
 30
0.0
 11
0.0000028775193641
 21
0.0000012727577996
 31
0.0
  0
MTEXT
  5
1204
330
11F9
100
AcDbEntity
  8
上線
 48
10.0
100
AcDbMText
 10
40.40026972538908
 20
185.9977949755411
 30
0.0
 40
45.0
 41
241.0562
 71
     1
 72
     5
  1
\fＭＳ Ｐ明朝|b0|i0|c128|p18;ｓ；1/15
 73
     1
 44
1.0
  0
MTEXT
  5
1205
330
11F9
100
AcDbEntity
  8
上線
 48
10.0
100
AcDbMText
 10
33.28332422160201
 20
270.9650432799044
 30
0.0
 40
30.0
 41
241.0562
 71
     1
 72
     5
  1
\fＭＳ Ｐ明朝|b0|i0|c128|p18;寸　法
 73
     1
 44
1.0
  0
MTEXT
  5
1206
330
11F9
100
AcDbEntity
  8
上線
 48
10.0
100
AcDbMText
 10
33.28332422160201
 20
375.5257053946934
 30
0.0
 40
30.0
 41
241.0562
 71
     1
 72
     5
  1
\fＭＳ Ｐ明朝|b0|i0|c128|p18;呼び名
 73
     1
 44
1.0
  0
LINE
  5
1207
330
11F9
100
AcDbEntity
  8
上線
100
AcDbLine
 10
197.7705567116463
 20
410.0000012727578
 30
0.0
 11
197.7705567116468
 21
200.0000012727578
 31
0.0
  0
LINE
  5
1208
330
11F9
100
AcDbEntity
  8
上線
100
AcDbLine
 10
267.9578680020722
 20
200.0000012727578
 30
0.0
 11
267.9578680020722
 21
110.0000012727577
 31
0.0
  0
MTEXT
  5
1209
330
11F9
100
AcDbEntity
  8
上線
 48
10.0
100
AcDbMText
 10
900.7153566420747
 20
177.416404665686
 30
0.0
 40
45.0
 41
241.0562
 71
     1
 72
     5
  1
S=4.5㎏
 73
     1
 44
1.0
  0
MTEXT
  5
120A
330
11F9
100
AcDbEntity
  8
上線
100
AcDbMText
 10
559.7665922418
 20
179.3156714542519
 30
0.0
 40
45.0
 41
364.4508999999999
 71
     1
 72
     5
  1
W=990㎏
 73
     1
 44
1.0
  0
LINE
  5
120B
330
11F9
100
AcDbEntity
  8
上線
100
AcDbLine
 10
535.9157331266251
 20
200.0000012727578
 30
0.0
 11
535.9157331266251
 21
110.0000012727577
 31
0.0
  0
POINT
  5
120C
330
11F9
100
AcDbEntity
  8
DEFPOINTS
  6
ByBlock
 62
     0
 48
10.0
100
AcDbPoint
 10
682.7997048355773
 20
338.0351527200573
 30
0.0
  0
LINE
  5
120D
330
11F9
100
AcDbEntity
  8
上線
100
AcDbLine
 10
852.6502837258895
 20
200.0000012727578
 30
0.0
 11
852.6502837258895
 21
110.0000012727577
 31
0.0
  0
LINE
  5
120E
330
11F9
100
AcDbEntity
  8
上線
100
AcDbLine
 10
1146.954623483748
 20
0.0000012727577996
 30
0.0
 11
1146.954623483747
 21
410.0000012727577
 31
0.0
  0
ENDBLK
  5
1210
330
11F9
100
AcDbEntity
  8
0
 48
10.0
100
AcDbBlockEnd
  0
BLOCK
  5
1228
330
1212
100
AcDbEntity
  8
0
 48
10.0
100
AcDbBlockBegin
  2
A$C6C1A04C6
 70
     0
 10
0.0
 20
0.0
 30
0.0
  3
A$C6C1A04C6
  1

  0
LINE
  5
1213
330
1212
100
AcDbEntity
  8
上線
100
AcDbLine
 10
1146.954623483745
 20
0.0000012727577996
 30
0.0
 11
1146.954623483743
 21
410.0000012727577
 31
0.0
  0
LINE
  5
1214
330
1212
100
AcDbEntity
  8
上線
100
AcDbLine
 10
0.0000028775152714
 20
410.0000012727577
 30
0.0
 11
0.0000028775157261
 21
0.0000012727577996
 31
0.0
  0
MTEXT
  5
1215
330
1212
100
AcDbEntity
  8
上線
 48
10.0
100
AcDbMText
 10
287.289884171696
 20
90.42100403926088
 30
0.0
 40
55.0
 41
1003.0154
 71
     1
 72
     5
  1
\fＭＳ Ｐ明朝|b0|i0|c128|p18;㈱　ウ　チ　コ　ン
 73
     1
 44
1.0
  0
LINE
  5
1216
330
1212
100
AcDbEntity
  8
上線
100
AcDbLine
 10
1146.954623483745
 20
0.0000012727577996
 30
0.0
 11
0.0000028775161809
 21
0.0000012727577996
 31
0.0
  0
MTEXT
  5
1217
330
1212
100
AcDbEntity
  8
上線
 48
10.0
100
AcDbMText
 10
900.7153566420711
 20
177.416404665686
 30
0.0
 40
45.0
 41
241.0562
 71
     1
 72
     5
  1
S=7.8㎏
 73
     1
 44
1.0
  0
MTEXT
  5
1218
330
1212
100
AcDbEntity
  8
上線
 48
10.0
100
AcDbMText
 10
257.089630208131
 20
281.5684136637892
 30
0.0
 40
50.0
 41
1003.0154
 71
     1
 72
     5
  1
300×300×120/120×4000
 73
     1
 44
1.0
  0
MTEXT
  5
1219
330
1212
100
AcDbEntity
  8
上線
 48
10.0
100
AcDbMText
 10
258.5487403453753
 20
391.6112741931056
 30
0.0
 40
55.0
 41
1003.0154
 71
     1
 72
     5
  1
長 尺 U 字 溝   （H4-30）
 73
     1
 44
1.0
  0
LINE
  5
121A
330
1212
100
AcDbEntity
  8
上線
100
AcDbLine
 10
1146.954623483745
 20
110.0000012727577
 30
0.0
 11
0.0000028775161809
 21
110.0000012727577
 31
0.0
  0
LINE
  5
121B
330
1212
100
AcDbEntity
  8
上線
100
AcDbLine
 10
1146.954623483745
 20
200.0000012727577
 30
0.0
 11
0.0000028775161809
 21
200.0000012727578
 31
0.0
  0
LINE
  5
121C
330
1212
100
AcDbEntity
  8
上線
100
AcDbLine
 10
1146.954623483744
 20
300.0000012727578
 30
0.0
 11
0.0000028775161809
 21
300.0000012727578
 31
0.0
  0
LINE
  5
121D
330
1212
100
AcDbEntity
  8
上線
100
AcDbLine
 10
1146.954623483743
 20
410.0000012727577
 30
0.0
 11
0.0000028775161809
 21
410.0000012727577
 31
0.0
  0
MTEXT
  5
121E
330
1212
100
AcDbEntity
  8
上線
 48
10.0
100
AcDbMText
 10
280.4253631458414
 20
185.9977949755411
 30
0.0
 40
45.0
 41
241.0562
 71
     1
 72
     5
  1
\fＭＳ Ｐ明朝|b0|i0|c128|p18;単位；㎜
 73
     1
 44
1.0
  0
LINE
  5
121F
330
1212
100
AcDbEntity
  8
上線
100
AcDbLine
 10
197.7705567116427
 20
410.0000012727578
 30
0.0
 11
197.7705567116431
 21
200.0000012727578
 31
0.0
  0
MTEXT
  5
1220
330
1212
100
AcDbEntity
  8
上線
 48
10.0
100
AcDbMText
 10
40.40026972538544
 20
185.9977949755411
 30
0.0
 40
45.0
 41
241.0562
 71
     1
 72
     5
  1
\fＭＳ Ｐ明朝|b0|i0|c128|p18;ｓ；1/15
 73
     1
 44
1.0
  0
MTEXT
  5
1221
330
1212
100
AcDbEntity
  8
上線
 48
10.0
100
AcDbMText
 10
33.28332422159837
 20
270.9650432799044
 30
0.0
 40
30.0
 41
241.0562
 71
     1
 72
     5
  1
\fＭＳ Ｐ明朝|b0|i0|c128|p18;寸　法
 73
     1
 44
1.0
  0
LINE
  5
1222
330
1212
100
AcDbEntity
  8
上線
100
AcDbLine
 10
267.9578680020686
 20
200.0000012727578
 30
0.0
 11
267.9578680020686
 21
110.0000012727577
 31
0.0
  0
MTEXT
  5
1223
330
1212
100
AcDbEntity
  8
上線
 48
10.0
100
AcDbMText
 10
33.28332422159837
 20
375.5257053946934
 30
0.0
 40
30.0
 41
241.0562
 71
     1
 72
     5
  1
\fＭＳ Ｐ明朝|b0|i0|c128|p18;呼び名
 73
     1
 44
1.0
  0
MTEXT
  5
1224
330
1212
100
AcDbEntity
  8
上線
100
AcDbMText
 10
559.7665922417964
 20
179.3156714542519
 30
0.0
 40
45.0
 41
364.4508999999999
 71
     1
 72
     5
  1
W=1350㎏
 73
     1
 44
1.0
  0
LINE
  5
1225
330
1212
100
AcDbEntity
  8
上線
100
AcDbLine
 10
535.9157331266215
 20
200.0000012727578
 30
0.0
 11
535.9157331266215
 21
110.0000012727577
 31
0.0
  0
LINE
  5
1226
330
1212
100
AcDbEntity
  8
上線
100
AcDbLine
 10
852.6502837258858
 20
200.0000012727578
 30
0.0
 11
852.6502837258858
 21
110.0000012727577
 31
0.0
  0
POINT
  5
1227
330
1212
100
AcDbEntity
  8
DEFPOINTS
  6
ByBlock
 62
     0
 48
10.0
100
AcDbPoint
 10
682.7997048355737
 20
338.0351527200573
 30
0.0
  0
ENDBLK
  5
1229
330
1212
100
AcDbEntity
  8
0
 48
10.0
100
AcDbBlockEnd
  0
BLOCK
  5
12FE
330
12E8
100
AcDbEntity
  8
0
 48
10.0
100
AcDbBlockBegin
  2
A$C6DC71FB5
 70
     0
 10
0.0
 20
0.0
 30
0.0
  3
A$C6DC71FB5
  1

  0
LINE
  5
12E9
330
12E8
100
AcDbEntity
  8
上線
100
AcDbLine
 10
1146.954623483745
 20
0.0000012727577996
 30
0.0
 11
1146.954623483743
 21
410.0000012727577
 31
0.0
  0
LINE
  5
12EA
330
12E8
100
AcDbEntity
  8
上線
100
AcDbLine
 10
0.0000028775152714
 20
410.0000012727577
 30
0.0
 11
0.0000028775157261
 21
0.0000012727577996
 31
0.0
  0
MTEXT
  5
12EB
330
12E8
100
AcDbEntity
  8
上線
 48
10.0
100
AcDbMText
 10
287.289884171696
 20
90.42100403926088
 30
0.0
 40
55.0
 41
1003.0154
 71
     1
 72
     5
  1
\fＭＳ Ｐ明朝|b0|i0|c128|p18;㈱　ウ　チ　コ　ン
 73
     1
 44
1.0
  0
LINE
  5
12EC
330
12E8
100
AcDbEntity
  8
上線
100
AcDbLine
 10
1146.954623483745
 20
0.0000012727577996
 30
0.0
 11
0.0000028775161809
 21
0.0000012727577996
 31
0.0
  0
MTEXT
  5
12ED
330
12E8
100
AcDbEntity
  8
上線
 48
10.0
100
AcDbMText
 10
900.7153566420711
 20
177.416404665686
 30
0.0
 40
45.0
 41
241.0562
 71
     1
 72
     5
  1
S=7.8㎏
 73
     1
 44
1.0
  0
MTEXT
  5
12EE
330
12E8
100
AcDbEntity
  8
上線
 48
10.0
100
AcDbMText
 10
257.089630208131
 20
281.5684136637892
 30
0.0
 40
50.0
 41
1003.0154
 71
     1
 72
     5
  1
300×300×120/120×4000
 73
     1
 44
1.0
  0
MTEXT
  5
12EF
330
12E8
100
AcDbEntity
  8
上線
 48
10.0
100
AcDbMText
 10
258.5487403453753
 20
391.6112741931056
 30
0.0
 40
55.0
 41
1003.0154
 71
     1
 72
     5
  1
長 尺 U 字 溝   （H4-30）
 73
     1
 44
1.0
  0
LINE
  5
12F0
330
12E8
100
AcDbEntity
  8
上線
100
AcDbLine
 10
1146.954623483745
 20
110.0000012727577
 30
0.0
 11
0.0000028775161809
 21
110.0000012727577
 31
0.0
  0
LINE
  5
12F1
330
12E8
100
AcDbEntity
  8
上線
100
AcDbLine
 10
1146.954623483745
 20
200.0000012727577
 30
0.0
 11
0.0000028775161809
 21
200.0000012727578
 31
0.0
  0
LINE
  5
12F2
330
12E8
100
AcDbEntity
  8
上線
100
AcDbLine
 10
1146.954623483744
 20
300.0000012727578
 30
0.0
 11
0.0000028775161809
 21
300.0000012727578
 31
0.0
  0
LINE
  5
12F3
330
12E8
100
AcDbEntity
  8
上線
100
AcDbLine
 10
1146.954623483743
 20
410.0000012727577
 30
0.0
 11
0.0000028775161809
 21
410.0000012727577
 31
0.0
  0
MTEXT
  5
12F4
330
12E8
100
AcDbEntity
  8
上線
 48
10.0
100
AcDbMText
 10
280.4253631458414
 20
185.9977949755411
 30
0.0
 40
45.0
 41
241.0562
 71
     1
 72
     5
  1
\fＭＳ Ｐ明朝|b0|i0|c128|p18;単位；㎜
 73
     1
 44
1.0
  0
LINE
  5
12F5
330
12E8
100
AcDbEntity
  8
上線
100
AcDbLine
 10
197.7705567116427
 20
410.0000012727578
 30
0.0
 11
197.7705567116431
 21
200.0000012727578
 31
0.0
  0
MTEXT
  5
12F6
330
12E8
100
AcDbEntity
  8
上線
 48
10.0
100
AcDbMText
 10
40.40026972538544
 20
185.9977949755411
 30
0.0
 40
45.0
 41
241.0562
 71
     1
 72
     5
  1
\fＭＳ Ｐ明朝|b0|i0|c128|p18;ｓ；1/15
 73
     1
 44
1.0
  0
MTEXT
  5
12F7
330
12E8
100
AcDbEntity
  8
上線
 48
10.0
100
AcDbMText
 10
33.28332422159837
 20
270.9650432799044
 30
0.0
 40
30.0
 41
241.0562
 71
     1
 72
     5
  1
\fＭＳ Ｐ明朝|b0|i0|c128|p18;寸　法
 73
     1
 44
1.0
  0
LINE
  5
12F8
330
12E8
100
AcDbEntity
  8
上線
100
AcDbLine
 10
267.9578680020686
 20
200.0000012727578
 30
0.0
 11
267.9578680020686
 21
110.0000012727577
 31
0.0
  0
MTEXT
  5
12F9
330
12E8
100
AcDbEntity
  8
上線
 48
10.0
100
AcDbMText
 10
33.28332422159837
 20
375.5257053946934
 30
0.0
 40
30.0
 41
241.0562
 71
     1
 72
     5
  1
\fＭＳ Ｐ明朝|b0|i0|c128|p18;呼び名
 73
     1
 44
1.0
  0
MTEXT
  5
12FA
330
12E8
100
AcDbEntity
  8
上線
100
AcDbMText
 10
559.7665922417964
 20
179.3156714542519
 30
0.0
 40
45.0
 41
364.4508999999999
 71
     1
 72
     5
  1
W=1350㎏
 73
     1
 44
1.0
  0
LINE
  5
12FB
330
12E8
100
AcDbEntity
  8
上線
100
AcDbLine
 10
535.9157331266215
 20
200.0000012727578
 30
0.0
 11
535.9157331266215
 21
110.0000012727577
 31
0.0
  0
LINE
  5
12FC
330
12E8
100
AcDbEntity
  8
上線
100
AcDbLine
 10
852.6502837258858
 20
200.0000012727578
 30
0.0
 11
852.6502837258858
 21
110.0000012727577
 31
0.0
  0
POINT
  5
12FD
330
12E8
100
AcDbEntity
  8
DEFPOINTS
  6
ByBlock
 62
     0
 48
10.0
100
AcDbPoint
 10
682.7997048355737
 20
338.0351527200573
 30
0.0
  0
ENDBLK
  5
12FF
330
12E8
100
AcDbEntity
  8
0
 48
10.0
100
AcDbBlockEnd
  0
BLOCK
  5
1316
330
1300
100
AcDbEntity
  8
0
 48
10.0
100
AcDbBlockBegin
  2
A$C68884D68
 70
     0
 10
0.0
 20
0.0
 30
0.0
  3
A$C68884D68
  1

  0
LINE
  5
1301
330
1300
100
AcDbEntity
  8
上線
100
AcDbLine
 10
1146.954623483745
 20
0.0000012727577996
 30
0.0
 11
1146.954623483743
 21
410.0000012727577
 31
0.0
  0
LINE
  5
1302
330
1300
100
AcDbEntity
  8
上線
100
AcDbLine
 10
0.0000028775152714
 20
410.0000012727577
 30
0.0
 11
0.0000028775157261
 21
0.0000012727577996
 31
0.0
  0
MTEXT
  5
1303
330
1300
100
AcDbEntity
  8
上線
 48
10.0
100
AcDbMText
 10
287.289884171696
 20
90.42100403926088
 30
0.0
 40
55.0
 41
1003.0154
 71
     1
 72
     5
  1
\fＭＳ Ｐ明朝|b0|i0|c128|p18;㈱　ウ　チ　コ　ン
 73
     1
 44
1.0
  0
LINE
  5
1304
330
1300
100
AcDbEntity
  8
上線
100
AcDbLine
 10
1146.954623483745
 20
0.0000012727577996
 30
0.0
 11
0.0000028775161809
 21
0.0000012727577996
 31
0.0
  0
MTEXT
  5
1305
330
1300
100
AcDbEntity
  8
上線
 48
10.0
100
AcDbMText
 10
900.7153566420711
 20
177.416404665686
 30
0.0
 40
45.0
 41
241.0562
 71
     1
 72
     5
  1
S=7.8㎏
 73
     1
 44
1.0
  0
MTEXT
  5
1306
330
1300
100
AcDbEntity
  8
上線
 48
10.0
100
AcDbMText
 10
257.089630208131
 20
281.5684136637892
 30
0.0
 40
50.0
 41
1003.0154
 71
     1
 72
     5
  1
300×300×120/120×4000
 73
     1
 44
1.0
  0
MTEXT
  5
1307
330
1300
100
AcDbEntity
  8
上線
 48
10.0
100
AcDbMText
 10
258.5487403453753
 20
391.6112741931056
 30
0.0
 40
55.0
 41
1003.0154
 71
     1
 72
     5
  1
長 尺 U 字 溝   （H4-30）
 73
     1
 44
1.0
  0
LINE
  5
1308
330
1300
100
AcDbEntity
  8
上線
100
AcDbLine
 10
1146.954623483745
 20
110.0000012727577
 30
0.0
 11
0.0000028775161809
 21
110.0000012727577
 31
0.0
  0
LINE
  5
1309
330
1300
100
AcDbEntity
  8
上線
100
AcDbLine
 10
1146.954623483745
 20
200.0000012727577
 30
0.0
 11
0.0000028775161809
 21
200.0000012727578
 31
0.0
  0
LINE
  5
130A
330
1300
100
AcDbEntity
  8
上線
100
AcDbLine
 10
1146.954623483744
 20
300.0000012727578
 30
0.0
 11
0.0000028775161809
 21
300.0000012727578
 31
0.0
  0
LINE
  5
130B
330
1300
100
AcDbEntity
  8
上線
100
AcDbLine
 10
1146.954623483743
 20
410.0000012727577
 30
0.0
 11
0.0000028775161809
 21
410.0000012727577
 31
0.0
  0
MTEXT
  5
130C
330
1300
100
AcDbEntity
  8
上線
 48
10.0
100
AcDbMText
 10
280.4253631458414
 20
185.9977949755411
 30
0.0
 40
45.0
 41
241.0562
 71
     1
 72
     5
  1
\fＭＳ Ｐ明朝|b0|i0|c128|p18;単位；㎜
 73
     1
 44
1.0
  0
LINE
  5
130D
330
1300
100
AcDbEntity
  8
上線
100
AcDbLine
 10
197.7705567116427
 20
410.0000012727578
 30
0.0
 11
197.7705567116431
 21
200.0000012727578
 31
0.0
  0
MTEXT
  5
130E
330
1300
100
AcDbEntity
  8
上線
 48
10.0
100
AcDbMText
 10
40.40026972538544
 20
185.9977949755411
 30
0.0
 40
45.0
 41
241.0562
 71
     1
 72
     5
  1
\fＭＳ Ｐ明朝|b0|i0|c128|p18;ｓ；1/15
 73
     1
 44
1.0
  0
MTEXT
  5
130F
330
1300
100
AcDbEntity
  8
上線
 48
10.0
100
AcDbMText
 10
33.28332422159837
 20
270.9650432799044
 30
0.0
 40
30.0
 41
241.0562
 71
     1
 72
     5
  1
\fＭＳ Ｐ明朝|b0|i0|c128|p18;寸　法
 73
     1
 44
1.0
  0
LINE
  5
1310
330
1300
100
AcDbEntity
  8
上線
100
AcDbLine
 10
267.9578680020686
 20
200.0000012727578
 30
0.0
 11
267.9578680020686
 21
110.0000012727577
 31
0.0
  0
MTEXT
  5
1311
330
1300
100
AcDbEntity
  8
上線
 48
10.0
100
AcDbMText
 10
33.28332422159837
 20
375.5257053946934
 30
0.0
 40
30.0
 41
241.0562
 71
     1
 72
     5
  1
\fＭＳ Ｐ明朝|b0|i0|c128|p18;呼び名
 73
     1
 44
1.0
  0
MTEXT
  5
1312
330
1300
100
AcDbEntity
  8
上線
100
AcDbMText
 10
559.7665922417964
 20
179.3156714542519
 30
0.0
 40
45.0
 41
364.4508999999999
 71
     1
 72
     5
  1
W=1350㎏
 73
     1
 44
1.0
  0
LINE
  5
1313
330
1300
100
AcDbEntity
  8
上線
100
AcDbLine
 10
535.9157331266215
 20
200.0000012727578
 30
0.0
 11
535.9157331266215
 21
110.0000012727577
 31
0.0
  0
LINE
  5
1314
330
1300
100
AcDbEntity
  8
上線
100
AcDbLine
 10
852.6502837258858
 20
200.0000012727578
 30
0.0
 11
852.6502837258858
 21
110.0000012727577
 31
0.0
  0
POINT
  5
1315
330
1300
100
AcDbEntity
  8
DEFPOINTS
  6
ByBlock
 62
     0
 48
10.0
100
AcDbPoint
 10
682.7997048355737
 20
338.0351527200573
 30
0.0
  0
ENDBLK
  5
1317
330
1300
100
AcDbEntity
  8
0
 48
10.0
100
AcDbBlockEnd
  0
BLOCK
  5
131E
330
1319
100
AcDbEntity
  8
0
 48
10.0
100
AcDbBlockBegin
  2
A$C0F2D2D5E
 70
     0
 10
0.0
 20
0.0
 30
0.0
  3
A$C0F2D2D5E
  1

  0
MTEXT
  5
131A
102
{ACAD_REACTORS
330
131B
102
}
330
1319
100
AcDbEntity
  8
上線
100
AcDbMText
 10
238.839502896315
 20
68.78511025822172
 30
0.0
 40
37.5
 41
0.0
 71
     4
 72
     1
  1
縦　筋\P16-φ5
 73
     1
 44
1.0
  0
LEADER
  5
131B
330
1319
100
AcDbEntity
  8
上線
100
AcDbLeader
  3
STANDARD
 73
     0
 74
     0
 75
     1
 40
118.8202247191011
 41
152.317415730337
 76
     3
 10
0.000003806870609
 20
452.5234384752211
 30
0.0
 10
191.964502896315
 20
-0.0000021013288318
 30
0.0
 10
229.464502896315
 20
-0.0000021013288318
 30
0.0
340
131A
1001
ACAD
1000
DSTYLE
1002
{
1070
    78
1070
     8
1070
   270
1070
     8
1070
   140
1040
2.5
1070
    74
1070
     0
1070
   172
1070
     1
1070
    73
1070
     0
1070
    77
1070
     1
1070
    40
1040
15.0
1070
   147
1040
0.625
1070
    42
1040
0.625
1070
    44
1040
1.25
1070
    43
1040
3.75
1070
   141
1040
2.5
1070
    41
1040
2.5
1070
   273
1070
     8
1070
   274
1070
     4
1070
   143
1040
0.0394
1070
   171
1070
     4
1002
}
  0
MTEXT
  5
131C
102
{ACAD_REACTORS
330
131D
102
}
330
1319
100
AcDbEntity
  8
上線
100
AcDbMText
 10
565.1610966160842
 20
68.89066905041818
 30
0.0
 40
37.5
 41
0.0
 71
     4
 72
     1
  1
横　筋\P7-φ5
 73
     1
 44
1.0
  0
LEADER
  5
131D
330
1319
100
AcDbEntity
  8
上線
100
AcDbLeader
  3
STANDARD
 73
     0
 74
     0
 75
     1
 40
119.0308988764044
 41
137.7808988764044
 76
     3
 10
382.6959432697226
 20
557.5099543452224
 30
0.0
 10
518.2860966160842
 20
0.000219612215929
 30
0.0
 10
555.7860966160842
 20
0.000219612215929
 30
0.0
340
131C
1001
ACAD
1000
DSTYLE
1002
{
1070
    78
1070
     8
1070
   270
1070
     8
1070
   140
1040
2.5
1070
    74
1070
     0
1070
   172
1070
     1
1070
    73
1070
     0
1070
    77
1070
     1
1070
    40
1040
15.0
1070
   147
1040
0.625
1070
    42
1040
0.625
1070
    44
1040
1.25
1070
    43
1040
3.75
1070
   141
1040
2.5
1070
    41
1040
2.5
1070
   273
1070
     8
1070
   274
1070
     4
1070
   143
1040
0.0394
1070
   171
1070
     4
1002
}
  0
ENDBLK
  5
131F
330
1319
100
AcDbEntity
  8
0
 48
10.0
100
AcDbBlockEnd
  0
BLOCK
  5
142F
330
141A
100
AcDbEntity
  8
0
 48
10.0
100
AcDbBlockBegin
  2
A$C79862696
 70
     0
 10
0.0
 20
0.0
 30
0.0
  3
A$C79862696
  1

  0
LINE
  5
141B
330
141A
100
AcDbEntity
  8
上線
 48
10.0
100
AcDbLine
 10
-0.0000014610832295
 20
327.3673173498865
 30
0.0
 11
831.8657006862013
 21
327.3673173498865
 31
0.0
  0
LINE
  5
141C
330
141A
100
AcDbEntity
  8
上線
100
AcDbLine
 10
831.8657006862013
 20
0.0000053245084928
 30
0.0
 11
-0.0000014610832295
 21
0.0000053245084928
 31
0.0
  0
MTEXT
  5
141D
330
141A
100
AcDbEntity
  8
上線
 48
10.0
100
AcDbMText
 10
36.52160722174812
 20
138.3462189779659
 30
0.0
 40
30.0
 41
241.0562
 71
     1
 72
     5
  1
\fＭＳ Ｐ明朝|b0|i0|c128|p18;ｓ；1/10
 73
     1
 44
1.0
  0
LINE
  5
141E
330
141A
100
AcDbEntity
  8
上線
100
AcDbLine
 10
831.8657006862013
 20
84.91936993071703
 30
0.0
 11
-0.0000014610832295
 21
84.91936993071703
 31
0.0
  0
MTEXT
  5
141F
330
141A
100
AcDbEntity
  8
上線
 48
10.0
100
AcDbMText
 10
17.53429600077652
 20
210.8602163781733
 30
0.0
 40
30.0
 41
241.0562
 71
     1
 72
     5
  1
\fＭＳ Ｐ明朝|b0|i0|c128|p18;寸　法
 73
     1
 44
1.0
  0
LINE
  5
1420
330
141A
100
AcDbEntity
  8
上線
100
AcDbLine
 10
831.8657006862013
 20
153.0248540109332
 30
0.0
 11
-0.0000014610832295
 21
153.0248540109333
 31
0.0
  0
MTEXT
  5
1421
330
141A
100
AcDbEntity
  8
上線
 48
10.0
100
AcDbMText
 10
17.53429600077652
 20
299.4151754341537
 30
0.0
 40
30.0
 41
241.0562
 71
     1
 72
     5
  1
\fＭＳ Ｐ明朝|b0|i0|c128|p18;呼び名
 73
     1
 44
1.0
  0
LINE
  5
1422
330
141A
100
AcDbEntity
  8
上線
100
AcDbLine
 10
831.8657006862013
 20
236.0451260698873
 30
0.0
 11
-0.0000014610832295
 21
236.0451260698874
 31
0.0
  0
LINE
  5
1423
330
141A
100
AcDbEntity
  8
上線
100
AcDbLine
 10
-0.0000014610832295
 20
327.3673173498865
 30
0.0
 11
-0.0000014610827748
 21
0.000005324508507
 31
0.0
  0
MTEXT
  5
1424
330
141A
100
AcDbEntity
  8
上線
 48
10.0
100
AcDbMText
 10
655.7260233940796
 20
129.7648453862593
 30
0.0
 40
30.0
 41
241.0562
 71
     1
 72
     5
  1
S=4.5 ㎏
 73
     1
 44
1.0
  0
MTEXT
  5
1425
330
141A
100
AcDbEntity
  8
上線
 48
10.0
100
AcDbMText
 10
216.6153452485395
 20
64.15726347589225
 30
0.0
 40
40.0
 41
1003.0154
 71
     1
 72
     5
  1
\fＭＳ Ｐ明朝|b0|i0|c128|p18;㈱　ウ　チ　コ　ン
 73
     1
 44
1.0
  0
MTEXT
  5
1426
330
141A
100
AcDbEntity
  8
上線
 48
10.0
100
AcDbMText
 10
438.6340053445783
 20
129.7648453862593
 30
0.0
 40
30.0
 41
241.0562
 71
     1
 72
     5
  1
W=960㎏
 73
     1
 44
1.0
  0
MTEXT
  5
1427
330
141A
100
AcDbEntity
  8
上線
 48
10.0
100
AcDbMText
 10
200.2873014751294
 20
219.1622546349553
 30
0.0
 40
35.0
 41
1003.0154
 71
     1
 72
     5
  1
300×550×120/120×2000
 73
     1
 44
1.0
  0
MTEXT
  5
1428
330
141A
100
AcDbEntity
  8
上線
 48
10.0
100
AcDbMText
 10
246.1210189130306
 20
310.5274263210772
 30
0.0
 40
40.0
 41
1003.0154
 71
     1
 72
     5
  1
長尺U字溝　（H2-55）
 73
     1
 44
1.0
  0
LINE
  5
1429
330
141A
100
AcDbEntity
  8
上線
100
AcDbLine
 10
177.9297346341609
 20
327.3674253347371
 30
0.0
 11
177.9297346341609
 21
153.0248540109332
 31
0.0
  0
MTEXT
  5
142A
330
141A
100
AcDbEntity
  8
上線
 48
10.0
100
AcDbMText
 10
230.924892461413
 20
138.3461588709267
 30
0.0
 40
30.0
 41
241.0562
 71
     1
 72
     5
  1
\fＭＳ Ｐ明朝|b0|i0|c128|p18;単位；㎜
 73
     1
 44
1.0
  0
LINE
  5
142B
330
141A
100
AcDbEntity
  8
上線
 48
10.0
100
AcDbLine
 10
208.7326254426352
 20
153.0247515773496
 30
0.0
 11
208.7326254426352
 21
84.91936993071703
 31
0.0
  0
LINE
  5
142C
330
141A
100
AcDbEntity
  8
上線
 48
10.0
100
AcDbLine
 10
416.114235117946
 20
153.0247997814045
 30
0.0
 11
416.1142351179464
 21
84.91936993071703
 31
0.0
  0
LINE
  5
142D
330
141A
100
AcDbEntity
  8
上線
 48
10.0
100
AcDbLine
 10
624.0356658879445
 20
153.0248540109332
 30
0.0
 11
624.0356658879449
 21
84.91936993071703
 31
0.0
  0
LINE
  5
142E
330
141A
100
AcDbEntity
  8
上線
100
AcDbLine
 10
831.8657006862013
 20
0.000005324508507
 30
0.0
 11
831.8657006862013
 21
327.3674253347371
 31
0.0
  0
ENDBLK
  5
1430
330
141A
100
AcDbEntity
  8
0
 48
10.0
100
AcDbBlockEnd
  0
BLOCK
  5
15C3
330
15BF
100
AcDbEntity
  8
0
 48
10.0
100
AcDbBlockBegin
  2
A$C526D55D3
 70
     0
 10
0.0
 20
0.0
 30
0.0
  3
A$C526D55D3
  1

  0
LINE
  5
15C0
330
15BF
100
AcDbEntity
  8
0
  6
ByBlock
 62
     0
100
AcDbLine
 10
3.935974525062192
 20
6.250002103565748
 30
0.0
 11
540.8495038269324
 21
6.250002103565748
 31
0.0
  0
MTEXT
  5
15C1
330
15BF
100
AcDbEntity
  8
上線
100
AcDbMText
 10
4.79915254367188
 20
81.15259059753862
 30
0.0
 40
37.5
 41
0.0
 71
     4
 72
     1
  1
斜　筋\P4-D10
 73
     1
 44
1.0
  0
SOLID
  5
15C2
330
15BF
100
AcDbEntity
  8
0
  6
ByBlock
 62
     0
100
AcDbTrace
 10
540.8495038269324
 20
12.50000210356574
 30
0.0
 11
540.8495038269324
 21
0.0000021035657483
 31
0.0
 12
578.3495038269324
 22
6.250002103565748
 32
0.0
 13
578.3495038269324
 23
6.250002103565748
 33
0.0
  0
ENDBLK
  5
15C4
330
15BF
100
AcDbEntity
  8
0
 48
10.0
100
AcDbBlockEnd
  0
BLOCK
  5
15F4
330
15F3
100
AcDbEntity
  8
0
 48
10.0
100
AcDbBlockBegin
  2
*D15
 70
     1
 10
0.0
 20
0.0
 30
0.0
  3
*D15
  1

  0
LINE
  5
15F5
330
15F3
100
AcDbEntity
  8
0
  6
ByBlock
 62
     0
 48
10.0
100
AcDbLine
 10
1122.495129637
 20
1212.591594164947
 30
0.0
 11
1114.876754271317
 21
1218.055199365504
 31
0.0
  0
LINE
  5
15F6
330
15F3
100
AcDbEntity
  8
0
  6
ByBlock
 62
     0
 48
10.0
100
AcDbLine
 10
964.5434504834843
 20
992.345961975254
 30
0.0
 11
956.925075117801
 21
997.8095671758106
 31
0.0
  0
LINE
  5
15F7
330
15F3
100
AcDbEntity
  8
0
  6
ByBlock
 62
     0
 48
10.0
100
AcDbLine
 10
1108.259084200458
 20
1176.654487501658
 30
0.0
 11
994.0162466513939
 21
1017.355858237431
 31
0.0
  0
SOLID
  5
15F8
330
15F3
100
AcDbEntity
  8
0
  6
ByBlock
 62
     0
 48
10.0
100
AcDbTrace
 10
1103.180167290002
 20
1180.296890968695
 30
0.0
 11
1113.338001110913
 21
1173.01208403462
 31
0.0
 12
1130.113505002684
 22
1207.127988964391
 32
0.0
 13
1130.113505002684
 23
1207.127988964391
 33
0.0
  0
SOLID
  5
15F9
330
15F3
100
AcDbEntity
  8
0
  6
ByBlock
 62
     0
 48
10.0
100
AcDbTrace
 10
988.9373297409383
 20
1020.998261704468
 30
0.0
 11
999.0951635618497
 21
1013.713454770393
 31
0.0
 12
972.1618258491679
 22
986.8823567746975
 32
0.0
 13
972.1618258491679
 23
986.8823567746975
 33
0.0
  0
MTEXT
  5
15FA
330
15F3
100
AcDbEntity
  8
0
  6
ByBlock
 62
     0
 48
10.0
100
AcDbMText
 10
1028.282539328875
 20
1113.395988471214
 30
0.0
 40
37.5
 41
0.0
 71
     5
 72
     1
  1
\A1;271.0293
 11
0.5827845547260312
 21
0.8126267056728947
 31
0.0
 73
     1
 44
1.0
  0
POINT
  5
15FB
330
15F3
100
AcDbEntity
  8
DEFPOINTS
  6
ByBlock
 62
     0
 48
10.0
100
AcDbPoint
 10
1130.113505002684
 20
1207.127988964391
 30
0.0
  0
POINT
  5
15FC
330
15F3
100
AcDbEntity
  8
DEFPOINTS
  6
ByBlock
 62
     0
 48
10.0
100
AcDbPoint
 10
972.1618258491679
 20
986.8823567746973
 30
0.0
  0
POINT
  5
15FD
330
15F3
100
AcDbEntity
  8
DEFPOINTS
  6
ByBlock
 62
     0
 48
10.0
100
AcDbPoint
 10
972.1618258491679
 20
986.8823567746975
 30
0.0
  0
ENDBLK
  5
15FE
330
15F3
100
AcDbEntity
  8
0
 48
10.0
100
AcDbBlockEnd
  0
ENDSEC
  0
SECTION
  2
ENTITIES
  0
MTEXT
  5
479
330
18
100
AcDbEntity
  8
上線
 48
10.0
100
AcDbMText
 10
2253.72144281457
 20
1430.035937614872
 30
0.0
 40
25.0
 41
0.0
 71
     4
 72
     1
  1
\A1;
 73
     1
 44
1.0
  0
MTEXT
  5
482
330
18
100
AcDbEntity
  8
上線
 48
10.0
100
AcDbMText
 10
2528.397580071227
 20
1457.117940756564
 30
0.0
 40
25.0
 41
0.0
 71
     4
 72
     1
  1
\A1;
 73
     1
 44
1.0
  0
LINE
  5
1519
330
18
100
AcDbEntity
  8
基準線
 48
10.0
100
AcDbLine
 10
630.1135050026841
 20
956.8823567746978
 30
0.0
 11
141.1656031653292
 21
956.8823567746978
 31
0.0
  0
LINE
  5
1525
330
18
100
AcDbEntity
  8
基準線
 48
10.0
100
AcDbLine
 10
390.1135050026841
 20
1106.882356774697
 30
0.0
 11
390.1135050026841
 21
930.3176770484551
 31
0.0
  0
DIMENSION
  5
15FF
330
18
100
AcDbEntity
  8
基準線
 48
10.0
100
AcDbDimension
  2
*D15
 10
972.1618258491679
 20
986.8823567746975
 30
0.0
 11
1028.282539328875
 21
1113.395988471214
 31
0.0
 70
    33
 71
     5
 42
-1.0
  3
STANDARD
100
AcDbAlignedDimension
 13
1130.113505002684
 23
1207.127988964391
 33
0.0
 14
972.161825849168
 24
986.8823567746977
 34
0.0
1001
ACAD
1000
DSTYLE
1002
{
1070
    40
1040
15.0
1070
    41
1040
2.5
1070
    42
1040
0.625
1070
    43
1040
3.75
1070
    44
1040
1.25
1070
    73
1070
     0
1070
    74
1070
     0
1070
    77
1070
     1
1070
    78
1070
     8
1070
   140
1040
2.5
1070
   141
1040
2.5
1070
   143
1040
0.0394
1070
   147
1040
0.625
1070
   171
1070
     4
1070
   172
1070
     1
1070
   273
1070
     8
1070
   274
1070
     4
1070
   277
1070
     6
1002
}
  0
LINE
  5
1608
330
18
100
AcDbEntity
  8
基準線
 48
10.0
100
AcDbLine
 10
2984.508169774264
 20
781.1708277045018
 30
0.0
 11
3189.285723765877
 21
781.1708277045018
 31
0.0
  0
LINE
  5
1610
330
18
100
AcDbEntity
  8
基準線
 48
10.0
100
AcDbLine
 10
3034.012275881896
 20
2219.75327022684
 30
0.0
 11
3034.012275881896
 21
2686.170489183679
 31
0.0
  0
LINE
  5
1611
330
18
100
AcDbEntity
  8
基準線
 48
10.0
100
AcDbLine
 10
3034.112542829878
 20
2516.722262581635
 30
0.0
 11
3034.112542829878
 21
2430.780795517481
 31
0.0
  0
LINE
  5
1868
330
18
100
AcDbEntity
  8
上線
 48
10.0
100
AcDbLine
 10
5420.423297099514
 20
44.2585838214245
 30
0.0
 11
5369.709011385228
 21
44.2585838214245
 31
0.0
  0
LINE
  5
186D
330
18
100
AcDbEntity
  8
上線
 48
10.0
100
AcDbLine
 10
5369.709011385228
 20
94.2585838214245
 30
0.0
 11
5369.709011385228
 21
44.2585838214245
 31
0.0
  0
TEXT
  5
18A5
330
18
100
AcDbEntity
  8
WUWAGAKI
100
AcDbText
 10
7873.207005685663
 20
-1206.591941390637
 30
0.0
 40
45.0
  1
長尺Ｕ字溝（F2-75）
100
AcDbText
  0
LINE
  5
1938
330
18
100
AcDbEntity
  8
WUWAGAKI
100
AcDbLine
 10
4484.671203398617
 20
1301.901504257794
 30
0.0
 11
4484.671203398617
 21
-1624.248347538328
 31
0.0
  0
LINE
  5
1939
330
18
100
AcDbEntity
  8
OBJECT
 48
10.0
100
AcDbLine
 10
4971.209020188183
 20
-855.7414161786196
 30
0.0
 11
4971.209020188183
 21
94.2585838214245
 31
0.0
  0
LINE
  5
193A
330
18
100
AcDbEntity
  8
上線
 48
10.0
100
AcDbLine
 10
5420.423297099514
 20
44.2585838214245
 30
0.0
 11
5424.602945151625
 21
-656.4453665091584
 31
0.0
  0
LINE
  5
193B
330
18
100
AcDbEntity
  8
上線
 48
10.0
100
AcDbLine
 10
5410.423297099513
 20
44.2585838214245
 30
0.0
 11
5414.603965403631
 21
-656.588209076988
 31
0.0
  0
LINE
  5
193C
330
18
100
AcDbEntity
  8
OBJECT
 48
10.0
100
AcDbLine
 10
5121.209028951606
 20
-855.7414161786196
 30
0.0
 11
5121.209028951605
 21
94.2585838214245
 31
0.0
  0
LINE
  5
193D
330
18
100
AcDbEntity
  8
OBJECT
100
AcDbLine
 10
5299.709011385227
 20
94.2585838214245
 30
0.0
 11
5299.709011385226
 21
-845.7414161785754
 31
0.0
  0
LINE
  5
1940
330
18
100
AcDbEntity
  8
OBJECT
100
AcDbLine
 10
5839.709011385227
 20
94.2585838214245
 30
0.0
 11
5839.709011385227
 21
-845.7414161785754
 31
0.0
  0
LINE
  5
1941
330
18
100
AcDbEntity
  8
OBJECT
100
AcDbLine
 10
6169.709011385228
 20
94.2585838214245
 30
0.0
 11
6169.709011385228
 21
-855.7414161785764
 31
0.0
  0
LINE
  5
1942
330
18
100
AcDbEntity
  8
WUWAGAKI
100
AcDbLine
 10
8755.390122025536
 20
-1624.248347538328
 30
0.0
 11
8755.390122025536
 21
1301.901504257794
 31
0.0
  0
LINE
  5
1943
330
18
100
AcDbEntity
  8
OBJECT
100
AcDbLine
 10
8169.709011385227
 20
94.25858382142406
 30
0.0
 11
8169.709011385227
 21
-855.7414161785736
 31
0.0
  0
LINE
  5
1944
330
18
100
AcDbEntity
  8
WUWAGAKI
100
AcDbLine
 10
4484.671203398617
 20
-1624.248347538328
 30
0.0
 11
8755.390122025536
 21
-1624.248347538328
 31
0.0
  0
LINE
  5
1945
330
18
100
AcDbEntity
  8
点線
 48
3.0
100
AcDbLine
 10
8169.709011385227
 20
-705.741416178575
 30
0.0
 11
6169.709011385228
 21
-705.741416178575
 31
0.0
  0
LINE
  5
1946
330
18
100
AcDbEntity
  8
上線
 48
10.0
100
AcDbLine
 10
6169.709011385228
 20
-855.7414161785764
 30
0.0
 11
8169.709011385227
 21
-855.7414161785736
 31
0.0
  0
LINE
  5
1947
330
18
100
AcDbEntity
  8
上線
 48
10.0
100
AcDbLine
 10
6169.709011385228
 20
-845.7414161785754
 30
0.0
 11
8169.709011385227
 21
-845.7414161785754
 31
0.0
  0
LINE
  5
1948
330
18
100
AcDbEntity
  8
OBJECT
100
AcDbLine
 10
5309.709011385226
 20
-855.7414161785755
 30
0.0
 11
5829.709011385228
 21
-855.7414161785755
 31
0.0
  0
MTEXT
  5
1949
330
18
100
AcDbEntity
  8
0
  6
ByBlock
 62
     0
 48
10.0
100
AcDbMText
 10
5091.209026975072
 20
-780.7414161786196
 30
0.0
 40
37.5
 41
0.0
 71
     5
 72
     1
  1
150
 11
0.0000000000000001
 21
1.0
 31
0.0
 73
     1
 44
1.0
  0
LINE
  5
194A
330
18
100
AcDbEntity
  8
0
 48
10.0
100
AcDbLine
 10
5271.209020188186
 20
-855.7414161786196
 30
0.0
 11
4941.209020188186
 21
-855.7414161786196
 31
0.0
  0
SOLID
  5
194B
330
18
100
AcDbEntity
  8
0
  6
ByBlock
 62
     0
 48
10.0
100
AcDbTrace
 10
4977.459020188182
 20
-818.2414161785978
 30
0.0
 11
4964.959020188182
 21
-818.2414161785978
 31
0.0
 12
4971.209020188182
 22
-855.7414161785978
 32
0.0
 13
4971.209020188182
 23
-855.7414161785978
 33
0.0
  0
SOLID
  5
194C
330
18
100
AcDbEntity
  8
0
  6
ByBlock
 62
     0
 48
10.0
100
AcDbTrace
 10
5114.959028951608
 20
-818.2414043194652
 30
0.0
 11
5127.459028951608
 21
-818.2414043194652
 31
0.0
 12
5121.209028951607
 22
-855.7414043194652
 32
0.0
 13
5121.209028951607
 23
-855.7414043194652
 33
0.0
  0
LINE
  5
194D
330
18
100
AcDbEntity
  8
上線
100
AcDbLine
 10
5299.709011385226
 20
-845.7414161785754
 30
0.0
 11
5309.709011385226
 21
-855.7414161785755
 31
0.0
  0
LINE
  5
194E
330
18
100
AcDbEntity
  8
0
 48
10.0
100
AcDbLine
 10
5271.209030283378
 20
-705.7414161786196
 30
0.0
 11
5091.209030283377
 21
-705.7414161786196
 31
0.0
  0
MTEXT
  5
194F
330
18
100
AcDbEntity
  8
0
  6
ByBlock
 62
     0
 48
10.0
100
AcDbMText
 10
5091.209020188187
 20
-330.7414161785755
 30
0.0
 40
37.5
 41
0.0
 71
     5
 72
     1
  1
750
 11
0.0000000000000001
 21
1.0
 31
0.0
 73
     1
 44
1.0
  0
MTEXT
  5
1950
330
18
100
AcDbEntity
  8
0
  6
ByBlock
 62
     0
 48
10.0
100
AcDbMText
 10
4941.209020188183
 20
-380.7414161785755
 30
0.0
 40
37.5
 41
0.0
 71
     5
 72
     1
  1
950
 11
0.0000000000000001
 21
1.0
 31
0.0
 73
     1
 44
1.0
  0
ARC
  5
1951
330
18
100
AcDbEntity
  8
上線
100
AcDbCircle
 10
5474.597843891601
 20
-655.7311536700108
 30
0.0
 40
60.0
100
AcDbArc
 50
180.8184554616945
 51
270.0
  0
ARC
  5
1952
330
18
100
AcDbEntity
  8
上線
100
AcDbCircle
 10
5474.597843891601
 20
-655.7311536700108
 30
0.0
 40
50.0
100
AcDbArc
 50
180.8184554616945
 51
270.0
  0
SOLID
  5
1953
330
18
100
AcDbEntity
  8
0
  6
ByBlock
 62
     0
 48
10.0
100
AcDbTrace
 10
5127.459011424763
 20
-743.241416178625
 30
0.0
 11
5114.959011424765
 21
-743.241416178625
 31
0.0
 12
5121.209011424761
 22
-705.741416178625
 32
0.0
 13
5121.209011424761
 23
-705.741416178625
 33
0.0
  0
SOLID
  5
1954
330
18
100
AcDbEntity
  8
0
  6
ByBlock
 62
     0
 48
10.0
100
AcDbTrace
 10
5127.459011424763
 20
-668.2414161786141
 30
0.0
 11
5114.959011424765
 21
-668.2414161786141
 31
0.0
 12
5121.209011424761
 22
-705.7414161786141
 32
0.0
 13
5121.209011424761
 23
-705.7414161786141
 33
0.0
  0
LINE
  5
1955
330
18
100
AcDbEntity
  8
WUWAGAKI
 48
10.0
100
AcDbLine
 10
5454.418409002729
 20
-679.9335899272955
 30
0.0
 11
5500.57014379141
 21
-645.7345305466833
 31
0.0
210
0.0
220
0.0
230
-1.0
1001
ACAD
1000
DSTYLE
1002
{
1070
    78
1070
     8
1070
   270
1070
     8
1070
   140
1040
2.5
1070
    74
1070
     0
1070
   172
1070
     1
1070
    73
1070
     0
1070
    77
1070
     1
1070
    40
1040
10.0
1070
   147
1040
0.625
1070
    42
1040
0.625
1070
    44
1040
1.25
1070
    43
1040
3.75
1070
   141
1040
2.5
1070
    41
1040
2.5
1070
   273
1070
     8
1070
   274
1070
     4
1070
   143
1040
0.0394
1070
   171
1070
     4
1002
}
  0
LINE
  5
1956
330
18
100
AcDbEntity
  8
上線
100
AcDbLine
 10
5474.597843891601
 20
-705.7311536700108
 30
0.0
 11
5665.183456989442
 21
-705.7311536700108
 31
0.0
  0
LINE
  5
1957
330
18
100
AcDbEntity
  8
上線
 48
10.0
100
AcDbLine
 10
5665.183456989442
 20
-715.7311536700108
 30
0.0
 11
5474.597843891601
 21
-715.7311536700108
 31
0.0
  0
SOLID
  5
1958
330
18
100
AcDbEntity
  8
0
  6
ByBlock
 62
     0
 48
10.0
100
AcDbTrace
 10
5465.89966633994
 20
-663.8823707394877
 30
0.0
 11
5473.291036339221
 21
-673.9629287366279
 31
0.0
 12
5439.353677348163
 22
-691.0967597359122
 32
0.0
 13
5439.353677348163
 23
-691.0967597359122
 33
0.0
  0
LINE
  5
195B
330
18
100
AcDbEntity
  8
OBJECT
 48
10.0
100
AcDbLine
 10
5500.57014379141
 20
-645.7345305466833
 30
0.0
 11
5605.57014379141
 21
-645.7345305466833
 31
0.0
  0
MTEXT
  5
195C
330
18
100
AcDbEntity
  8
0
  6
ByBlock
 62
     0
 48
10.0
100
AcDbMText
 10
5553.070143791409
 20
-615.7345305466833
 30
0.0
 40
30.0
 41
0.0
 71
     5
 72
     1
  1
50R
 73
     1
 44
1.0
  0
LINE
  5
195D
330
18
100
AcDbEntity
  8
上線
100
AcDbLine
 10
5839.709011385227
 20
-845.7414161785754
 30
0.0
 11
5829.709011385228
 21
-855.7414161785755
 31
0.0
  0
TEXT
  5
195E
330
18
100
AcDbEntity
  8
WUWAGAKI
100
AcDbText
 10
7640.968977879436
 20
-1305.15162123156
 30
0.0
 40
45.0
  1
寸　法
100
AcDbText
  0
TEXT
  5
195F
330
18
100
AcDbEntity
  8
WUWAGAKI
100
AcDbText
 10
7873.207005685663
 20
-1304.60718364962
 30
0.0
 40
47.25
  1
300×750×120/120×2000
100
AcDbText
  0
LINE
  5
1960
330
18
100
AcDbEntity
  8
WUWAGAKI
100
AcDbLine
 10
7596.090534117156
 20
-1135.768380466956
 30
0.0
 11
7596.090534117156
 21
-1555.748813096526
 31
0.0
  0
LINE
  5
1961
330
18
100
AcDbEntity
  8
WUWAGAKI
100
AcDbLine
 10
7848.207005685662
 20
-1135.768380466956
 30
0.0
 11
7848.207005685662
 21
-1424.720117541314
 31
0.0
  0
LINE
  5
1962
330
18
100
AcDbEntity
  8
WUWAGAKI
100
AcDbLine
 10
8688.88710921758
 20
-1555.748813096526
 30
0.0
 11
8688.88710921758
 21
-1135.768380466956
 31
0.0
  0
TEXT
  5
1963
330
18
100
AcDbEntity
  8
WUWAGAKI
100
AcDbText
 10
8466.604918631892
 20
-1402.236606758606
 30
0.0
 40
45.0
  1
1290㎏
100
AcDbText
  0
LINE
  5
1964
330
18
100
AcDbEntity
  8
WUWAGAKI
100
AcDbLine
 10
7596.090534117156
 20
-1326.205053376708
 30
0.0
 11
8688.887109217576
 21
-1326.205053376708
 31
0.0
  0
LINE
  5
1965
330
18
100
AcDbEntity
  8
WUWAGAKI
100
AcDbLine
 10
7596.090534117156
 20
-1424.720117541314
 30
0.0
 11
8688.887109217576
 21
-1424.720117541314
 31
0.0
  0
LINE
  5
1966
330
18
100
AcDbEntity
  8
WUWAGAKI
100
AcDbLine
 10
7596.090534117156
 20
-1555.748813096526
 30
0.0
 11
8688.88710921758
 21
-1555.748813096526
 31
0.0
  0
TEXT
  5
1967
330
18
100
AcDbEntity
  8
WUWAGAKI
100
AcDbText
 10
7668.616735640516
 20
-1401.649574223041
 30
0.0
 40
45.0
  1
縮尺
100
AcDbText
  0
TEXT
  5
1968
330
18
100
AcDbEntity
  8
WUWAGAKI
100
AcDbText
 10
7834.795967016631
 20
-1524.14124629014
 30
0.0
 40
60.0
  1
㈱　ウ　チ　コ　ン
100
AcDbText
  0
TEXT
  5
1969
330
18
100
AcDbEntity
  8
WUWAGAKI
100
AcDbText
 10
7913.899278431212
 20
-1400.347658793584
 30
0.0
 40
45.0
  1
S＝　1：15
100
AcDbText
  0
TEXT
  5
196A
330
18
100
AcDbEntity
  8
WUWAGAKI
100
AcDbText
 10
8269.304267621718
 20
-1400.298221282042
 30
0.0
 40
45.0
  1
重量
100
AcDbText
  0
LINE
  5
196B
330
18
100
AcDbEntity
  8
WUWAGAKI
100
AcDbLine
 10
8426.604918631891
 20
-1326.205053376708
 30
0.0
 11
8426.604918631891
 21
-1424.720117541314
 31
0.0
  0
LINE
  5
196C
330
18
100
AcDbEntity
  8
WUWAGAKI
100
AcDbLine
 10
8242.376491869572
 20
-1326.205053376708
 30
0.0
 11
8242.376491869572
 21
-1424.720117541314
 31
0.0
  0
LINE
  5
196D
330
18
100
AcDbEntity
  8
WUWAGAKI
100
AcDbLine
 10
7596.090534117156
 20
-1230.298668412094
 30
0.0
 11
8686.255286881817
 21
-1230.298668412094
 31
0.0
  0
LINE
  5
196E
330
18
100
AcDbEntity
  8
WUWAGAKI
100
AcDbLine
 10
7596.090534117156
 20
-1230.298668412094
 30
0.0
 11
8686.255286881817
 21
-1230.298668412094
 31
0.0
  0
LINE
  5
196F
330
18
100
AcDbEntity
  8
WUWAGAKI
100
AcDbLine
 10
7596.090534117156
 20
-1135.768380466956
 30
0.0
 11
8688.88710921758
 21
-1135.768380466956
 31
0.0
  0
TEXT
  5
1970
330
18
100
AcDbEntity
  8
WUWAGAKI
100
AcDbText
 10
7643.624189765856
 20
-1204.012781194578
 30
0.0
 40
45.0
  1
種　別
100
AcDbText
  0
LINE
  5
1972
330
18
100
AcDbEntity
  8
上線
100
AcDbLine
 10
7039.201903548786
 20
831.3680185927964
 30
0.0
 11
7300.21611922167
 21
831.3680185927964
 31
0.0
  0
LINE
  5
1973
330
18
100
AcDbEntity
  8
上線
100
AcDbLine
 10
7300.21611922167
 20
931.0724013388025
 30
0.0
 11
7039.201903548786
 21
931.0724013388025
 31
0.0
  0
LINE
  5
1974
330
18
100
AcDbEntity
  8
上線
100
AcDbLine
 10
7042.201903548786
 20
834.3680185927965
 30
0.0
 11
7297.21611922167
 21
834.3680185927965
 31
0.0
  0
LINE
  5
1975
330
18
100
AcDbEntity
  8
上線
100
AcDbLine
 10
7297.21611922167
 20
928.0724013388022
 30
0.0
 11
7042.201903548786
 21
928.0724013388022
 31
0.0
  0
LINE
  5
1976
330
18
100
AcDbEntity
  8
上線
 48
10.0
100
AcDbLine
 10
6169.709011385228
 20
94.2585838214245
 30
0.0
 11
8169.709011385227
 21
94.25858382142406
 31
0.0
  0
LINE
  5
1977
330
18
100
AcDbEntity
  8
点線
 48
3.0
100
AcDbLine
 10
8169.709011385227
 20
44.25858122928184
 30
0.0
 11
6169.709011385228
 21
44.25858122928184
 31
0.0
  0
LINE
  5
1978
330
18
100
AcDbEntity
  8
WUWAGAKI
100
AcDbLine
 10
8755.390122025536
 20
1301.901504257794
 30
0.0
 11
4484.671203398617
 21
1301.901504257794
 31
0.0
  0
LINE
  5
1979
330
18
100
AcDbEntity
  8
OBJECT
 48
10.0
100
AcDbLine
 10
8169.709011385227
 20
424.2585750580028
 30
0.0
 11
6169.709011385228
 21
424.2585750580047
 31
0.0
  0
MTEXT
  5
197A
330
18
100
AcDbEntity
  8
上線
 48
10.0
100
AcDbMText
 10
7063.256772973862
 20
913.5140706040887
 30
0.0
 40
50.0
 41
558.2059
 71
     1
 72
     5
  1
\fＭＳ Ｐ明朝|b0|i0|c128|p18;側面図
 73
     1
 44
1.0
  0
MTEXT
  5
197B
330
18
100
AcDbEntity
  8
0
  6
ByBlock
 62
     0
 48
10.0
100
AcDbMText
 10
7169.709011385228
 20
454.2585838214254
 30
0.0
 40
37.5
 41
0.0
 71
     5
 72
     1
  1
2000
 73
     1
 44
1.0
  0
LINE
  5
197C
330
18
100
AcDbEntity
  8
上線
100
AcDbLine
 10
5769.709011385227
 20
94.2585838214245
 30
0.0
 11
5839.709011385227
 21
94.2585838214245
 31
0.0
  0
LINE
  5
197D
330
18
100
AcDbEntity
  8
OBJECT
 48
10.0
100
AcDbLine
 10
5299.709011385217
 20
272.7585662550454
 30
0.0
 11
5839.709011385259
 21
272.7585662550473
 31
0.0
  0
LINE
  5
197E
330
18
100
AcDbEntity
  8
OBJECT
 48
10.0
100
AcDbLine
 10
5299.709011385217
 20
422.7585750184689
 30
0.0
 11
5839.709011385259
 21
422.7585750184689
 31
0.0
  0
LINE
  5
197F
330
18
100
AcDbEntity
  8
0
 48
10.0
100
AcDbLine
 10
5769.70901138526
 20
122.7585750184653
 30
0.0
 11
5769.70901138526
 21
302.7585750184653
 31
0.0
  0
LINE
  5
1980
330
18
100
AcDbEntity
  8
0
 48
10.0
100
AcDbLine
 10
5769.709018098355
 20
122.7585589597106
 30
0.0
 11
5769.709018098355
 21
302.7585589597106
 31
0.0
  0
LINE
  5
1981
330
18
100
AcDbEntity
  8
0
 48
10.0
100
AcDbLine
 10
5719.70901138526
 20
122.7585649232742
 30
0.0
 11
5719.70901138526
 21
302.7585649232741
 31
0.0
  0
LINE
  5
1982
330
18
100
AcDbEntity
  8
0
 48
10.0
100
AcDbLine
 10
5419.709011385216
 20
122.7585649232742
 30
0.0
 11
5419.709011385216
 21
302.7585649232741
 31
0.0
  0
LINE
  5
1983
330
18
100
AcDbEntity
  8
0
 48
10.0
100
AcDbLine
 10
5369.709004672121
 20
122.7585589597106
 30
0.0
 11
5369.709004672121
 21
302.7585589597106
 31
0.0
  0
LINE
  5
1984
330
18
100
AcDbEntity
  8
0
 48
10.0
100
AcDbLine
 10
5299.709011385217
 20
122.7585750184653
 30
0.0
 11
5299.709011385217
 21
452.7585750184653
 31
0.0
  0
LINE
  5
1985
330
18
100
AcDbEntity
  8
0
 48
10.0
100
AcDbLine
 10
5271.209030283378
 20
44.2585838214245
 30
0.0
 11
5091.209030283377
 21
44.2585838214245
 31
0.0
  0
LINE
  5
1986
330
18
100
AcDbEntity
  8
0
 48
10.0
100
AcDbLine
 10
5271.209020188183
 20
94.2585838214245
 30
0.0
 11
4941.209020188183
 21
94.2585838214245
 31
0.0
  0
MTEXT
  5
1987
330
18
100
AcDbEntity
  8
0
  6
ByBlock
 62
     0
 48
10.0
100
AcDbMText
 10
5091.209028951604
 20
169.2585838214245
 30
0.0
 40
37.5
 41
0.0
 71
     5
 72
     1
  1
50
 11
0.0000000000000001
 21
1.0
 31
0.0
 73
     1
 44
1.0
  0
SOLID
  5
1988
330
18
100
AcDbEntity
  8
0
  6
ByBlock
 62
     0
 48
10.0
100
AcDbTrace
 10
4977.459020188183
 20
56.75858382140223
 30
0.0
 11
4964.959020188183
 21
56.75858382140223
 31
0.0
 12
4971.209020188183
 22
94.25858382140223
 32
0.0
 13
4971.209020188183
 23
94.25858382140223
 33
0.0
  0
MTEXT
  5
1989
330
18
100
AcDbEntity
  8
0
  6
ByBlock
 62
     0
 48
10.0
100
AcDbMText
 10
5569.709042230007
 20
-41.74142067658249
 30
0.0
 40
37.5
 41
0.0
 71
     5
 72
     1
  1
290
 73
     1
 44
1.0
  0
SOLID
  5
198A
330
18
100
AcDbEntity
  8
0
  6
ByBlock
 62
     0
 48
10.0
100
AcDbTrace
 10
5462.209042229971
 20
-77.99141191315993
 30
0.0
 11
5462.209042229971
 21
-65.49141191316175
 31
0.0
 12
5424.70904222997
 22
-71.74141191315811
 32
0.0
 13
5424.70904222997
 23
-71.74141191315811
 33
0.0
  0
LINE
  5
198B
330
18
100
AcDbEntity
  8
OBJECT
 48
10.0
100
AcDbLine
 10
5424.709042229963
 20
-71.74142944000232
 30
0.0
 11
5714.709042230007
 21
-71.7414294400005
 31
0.0
  0
LINE
  5
198C
330
18
100
AcDbEntity
  8
0
 48
10.0
100
AcDbLine
 10
5424.709042229963
 20
-161.7414307717754
 30
0.0
 11
5424.709042229963
 21
-41.74143077177541
 31
0.0
  0
LINE
  5
198D
330
18
100
AcDbEntity
  8
0
 48
10.0
100
AcDbLine
 10
5714.709042230007
 20
-161.7414307717754
 30
0.0
 11
5714.709042230007
 21
-41.74143077177541
 31
0.0
  0
SOLID
  5
198E
330
18
100
AcDbEntity
  8
0
  6
ByBlock
 62
     0
 48
10.0
100
AcDbTrace
 10
5677.209147391052
 20
-77.99142067658067
 30
0.0
 11
5677.209147391052
 21
-65.49142067658249
 31
0.0
 12
5714.709147391052
 22
-71.74142067657886
 32
0.0
 13
5714.709147391052
 23
-71.74142067657886
 33
0.0
  0
SOLID
  5
1990
330
18
100
AcDbEntity
  8
0
  6
ByBlock
 62
     0
 48
10.0
100
AcDbTrace
 10
5127.459020188183
 20
6.758688982469266
 30
0.0
 11
5114.959020188186
 21
6.758688982469266
 31
0.0
 12
5121.209020188183
 22
44.25868898246926
 32
0.0
 13
5121.209020188183
 23
44.25868898246926
 33
0.0
  0
LINE
  5
1994
330
18
100
AcDbEntity
  8
OBJECT
 48
10.0
100
AcDbLine
 10
5121.209030928134
 20
94.25857196227026
 30
0.0
 11
5121.209030928134
 21
206.7585719622702
 31
0.0
  0
SOLID
  5
1995
330
18
100
AcDbEntity
  8
0
  6
ByBlock
 62
     0
 48
10.0
100
AcDbTrace
 10
5127.45903092813
 20
131.7585838214245
 30
0.0
 11
5114.95903092813
 21
131.7585838214245
 31
0.0
 12
5121.20903092813
 22
94.2585838214245
 32
0.0
 13
5121.20903092813
 23
94.2585838214245
 33
0.0
  0
LINE
  5
1996
330
18
100
AcDbEntity
  8
上線
100
AcDbLine
 10
5369.709011385228
 20
94.2585838214245
 30
0.0
 11
5299.709011385227
 21
94.2585838214245
 31
0.0
  0
MTEXT
  5
199B
330
18
100
AcDbEntity
  8
0
  6
ByBlock
 62
     0
 48
10.0
100
AcDbMText
 10
5569.70901138526
 20
452.7585750184689
 30
0.0
 40
37.5
 41
0.0
 71
     5
 72
     1
  1
540
 73
     1
 44
1.0
  0
SOLID
  5
199C
330
18
100
AcDbEntity
  8
0
  6
ByBlock
 62
     0
 48
10.0
100
AcDbTrace
 10
5457.209011385222
 20
266.5085837818887
 30
0.0
 11
5457.209011385222
 21
279.0085837818869
 31
0.0
 12
5419.709011385222
 22
272.7585837818906
 32
0.0
 13
5419.709011385222
 23
272.7585837818906
 33
0.0
  0
MTEXT
  5
199D
330
18
100
AcDbEntity
  8
0
  6
ByBlock
 62
     0
 48
10.0
100
AcDbMText
 10
5394.709011385216
 20
332.7585662550473
 30
0.0
 40
37.5
 41
0.0
 71
     5
 72
     1
  1
50
 73
     1
 44
1.0
  0
SOLID
  5
199E
330
18
100
AcDbEntity
  8
0
  6
ByBlock
 62
     0
 48
10.0
100
AcDbTrace
 10
5262.20898766693
 20
279.0085662550418
 30
0.0
 11
5262.20898766693
 21
266.5085662550418
 31
0.0
 12
5299.70898766693
 22
272.7585662550418
 32
0.0
 13
5299.70898766693
 23
272.7585662550418
 33
0.0
  0
LINE
  5
199F
330
18
100
AcDbEntity
  8
OBJECT
 48
10.0
100
AcDbLine
 10
5299.708999526084
 20
272.7585662550454
 30
0.0
 11
5187.208999526085
 21
272.7585662550454
 31
0.0
  0
LWPOLYLINE
  5
19A0
330
18
100
AcDbEntity
  8
上書線
100
AcDbPolyline
 90
        2
 70
     1
 43
3.75
 10
5367.834004672122
 20
272.7585662550454
 42
1.0
 10
5371.584004672121
 20
272.7585662550454
 42
1.0
  0
MTEXT
  5
19A1
330
18
100
AcDbEntity
  8
0
  6
ByBlock
 62
     0
 48
10.0
100
AcDbMText
 10
5334.709011385217
 20
302.7585682315793
 30
0.0
 40
37.5
 41
0.0
 71
     5
 72
     1
  1
70
 73
     1
 44
1.0
  0
SOLID
  5
19A2
330
18
100
AcDbEntity
  8
0
  6
ByBlock
 62
     0
 48
10.0
100
AcDbTrace
 10
5337.209011385238
 20
416.5085750184689
 30
0.0
 11
5337.209011385238
 21
429.0085750184689
 31
0.0
 12
5299.709011385238
 22
422.7585750184689
 32
0.0
 13
5299.709011385238
 23
422.7585750184689
 33
0.0
  0
MTEXT
  5
19A3
330
18
100
AcDbEntity
  8
0
  6
ByBlock
 62
     0
 48
10.0
100
AcDbMText
 10
5744.709011385261
 20
332.7585662550473
 30
0.0
 40
37.5
 41
0.0
 71
     5
 72
     1
  1
50
 73
     1
 44
1.0
  0
MTEXT
  5
19A4
330
18
100
AcDbEntity
  8
0
  6
ByBlock
 62
     0
 48
10.0
100
AcDbMText
 10
5569.70901138526
 20
302.7585750184653
 30
0.0
 40
37.5
 41
0.0
 71
     5
 72
     1
  1
300
 73
     1
 44
1.0
  0
LWPOLYLINE
  5
19A5
330
18
100
AcDbEntity
  8
上書線
100
AcDbPolyline
 90
        2
 70
     1
 43
3.75
 10
5771.584018098355
 20
272.7585662550454
 42
-1.0
 10
5767.834018098355
 20
272.7585662550454
 42
-1.0
  0
SOLID
  5
19A6
330
18
100
AcDbEntity
  8
0
  6
ByBlock
 62
     0
 48
10.0
100
AcDbTrace
 10
5682.209116546306
 20
266.5085750184689
 30
0.0
 11
5682.209116546306
 21
279.0085750184652
 31
0.0
 12
5719.709116546305
 22
272.7585750184689
 32
0.0
 13
5719.709116546305
 23
272.7585750184689
 33
0.0
  0
LINE
  5
19A7
330
18
100
AcDbEntity
  8
0
 48
10.0
100
AcDbLine
 10
5839.709011385259
 20
122.7585750184689
 30
0.0
 11
5839.709011385259
 21
452.7585750184689
 31
0.0
  0
LINE
  5
19A8
330
18
100
AcDbEntity
  8
0
 48
10.0
100
AcDbLine
 10
6169.709011385228
 20
124.2585838214245
 30
0.0
 11
6169.709011385228
 21
454.2585838214245
 31
0.0
  0
LINE
  5
19A9
330
18
100
AcDbEntity
  8
OBJECT
 48
10.0
100
AcDbLine
 10
5839.709023244393
 20
272.7585662550454
 30
0.0
 11
5952.209023244392
 21
272.7585662550454
 31
0.0
  0
SOLID
  5
19AA
330
18
100
AcDbEntity
  8
0
  6
ByBlock
 62
     0
 48
10.0
100
AcDbTrace
 10
5877.209035103547
 20
279.0085662550418
 30
0.0
 11
5877.209035103547
 21
266.5085662550418
 31
0.0
 12
5839.709035103546
 22
272.7585662550418
 32
0.0
 13
5839.709035103546
 23
272.7585662550418
 33
0.0
  0
MTEXT
  5
19AB
330
18
100
AcDbEntity
  8
0
  6
ByBlock
 62
     0
 48
10.0
100
AcDbMText
 10
5804.70901138526
 20
302.7585662550472
 30
0.0
 40
37.5
 41
0.0
 71
     5
 72
     1
  1
70
 73
     1
 44
1.0
  0
SOLID
  5
19AC
330
18
100
AcDbEntity
  8
0
  6
ByBlock
 62
     0
 48
10.0
100
AcDbTrace
 10
5802.209011385238
 20
416.5085750184689
 30
0.0
 11
5802.209011385238
 21
429.0085750184689
 31
0.0
 12
5839.709011385238
 22
422.7585750184689
 32
0.0
 13
5839.709011385238
 23
422.7585750184689
 33
0.0
  0
SOLID
  5
19AD
330
18
100
AcDbEntity
  8
0
  6
ByBlock
 62
     0
 48
10.0
100
AcDbTrace
 10
6207.20901138525
 20
418.0085838214263
 30
0.0
 11
6207.20901138525
 21
430.5085838214272
 31
0.0
 12
6169.709011385251
 22
424.2585838214281
 32
0.0
 13
6169.709011385251
 23
424.2585838214281
 33
0.0
  0
LINE
  5
19AE
330
18
100
AcDbEntity
  8
上線
100
AcDbLine
 10
5426.95382709992
 20
834.368018592796
 30
0.0
 11
5682.464257360051
 21
834.368018592796
 31
0.0
  0
LINE
  5
19AF
330
18
100
AcDbEntity
  8
上線
100
AcDbLine
 10
5423.953827099921
 20
831.368018592796
 30
0.0
 11
5685.464257360051
 21
831.368018592796
 31
0.0
  0
LINE
  5
19B0
330
18
100
AcDbEntity
  8
上線
100
AcDbLine
 10
5682.464257360051
 20
928.0724013388017
 30
0.0
 11
5426.95382709992
 21
928.0724013388017
 31
0.0
  0
LINE
  5
19B1
330
18
100
AcDbEntity
  8
上線
100
AcDbLine
 10
5685.464257360051
 20
931.0724013388021
 30
0.0
 11
5423.953827099921
 21
931.0724013388021
 31
0.0
  0
LINE
  5
19B2
330
18
100
AcDbEntity
  8
上線
100
AcDbLine
 10
5426.95382709992
 20
928.0724013388017
 30
0.0
 11
5426.95382709992
 21
834.368018592796
 31
0.0
  0
LINE
  5
19B3
330
18
100
AcDbEntity
  8
上線
100
AcDbLine
 10
5423.953827099921
 20
931.0724013388021
 30
0.0
 11
5423.953827099921
 21
831.368018592796
 31
0.0
  0
MTEXT
  5
19B4
330
18
100
AcDbEntity
  8
上線
 48
10.0
100
AcDbMText
 10
5448.008696524997
 20
913.5140706040884
 30
0.0
 40
50.0
 41
558.2059
 71
     1
 72
     5
  1
\fＭＳ Ｐ明朝|b0|i0|c128|p18;正面図
 73
     1
 44
1.0
  0
LINE
  5
19B5
330
18
100
AcDbEntity
  8
上線
100
AcDbLine
 10
5682.464257360051
 20
834.368018592796
 30
0.0
 11
5682.464257360051
 21
928.0724013388017
 31
0.0
  0
LINE
  5
19B6
330
18
100
AcDbEntity
  8
上線
100
AcDbLine
 10
5685.464257360051
 20
831.368018592796
 30
0.0
 11
5685.464257360051
 21
931.0724013388021
 31
0.0
  0
LINE
  5
19B7
330
18
100
AcDbEntity
  8
上線
100
AcDbLine
 10
7039.201903548786
 20
931.0724013388025
 30
0.0
 11
7039.201903548786
 21
831.3680185927964
 31
0.0
  0
LINE
  5
19B8
330
18
100
AcDbEntity
  8
上線
100
AcDbLine
 10
7042.201903548786
 20
928.0724013388022
 30
0.0
 11
7042.201903548786
 21
834.3680185927965
 31
0.0
  0
LINE
  5
19B9
330
18
100
AcDbEntity
  8
0
 48
10.0
100
AcDbLine
 10
8169.709011385227
 20
124.2585838214245
 30
0.0
 11
8169.709011385227
 21
454.2585838214245
 31
0.0
  0
SOLID
  5
19BA
330
18
100
AcDbEntity
  8
0
  6
ByBlock
 62
     0
 48
10.0
100
AcDbTrace
 10
8132.209011385207
 20
418.0085838214263
 30
0.0
 11
8132.209011385207
 21
430.5085838214272
 31
0.0
 12
8169.709011385206
 22
424.2585838214281
 32
0.0
 13
8169.709011385206
 23
424.2585838214281
 33
0.0
  0
LINE
  5
19BB
330
18
100
AcDbEntity
  8
上線
100
AcDbLine
 10
7297.216119221672
 20
834.3680185927965
 30
0.0
 11
7297.216119221672
 21
928.0724013388022
 31
0.0
  0
LINE
  5
19BC
330
18
100
AcDbEntity
  8
上線
100
AcDbLine
 10
7300.21611922167
 20
831.3680185927964
 30
0.0
 11
7300.21611922167
 21
931.0724013388025
 31
0.0
  0
LINE
  5
19BD
330
18
100
AcDbEntity
  8
上線
 48
10.0
100
AcDbLine
 10
5729.358003781529
 20
44.2585838214245
 30
0.0
 11
5725.177335477412
 21
-656.588209076988
 31
0.0
  0
LINE
  5
19BE
330
18
100
AcDbEntity
  8
上線
 48
10.0
100
AcDbLine
 10
5719.358003781529
 20
44.2585838214245
 30
0.0
 11
5715.178355729417
 21
-656.4453665091584
 31
0.0
  0
LINE
  5
19BF
330
18
100
AcDbEntity
  8
上線
 48
10.0
100
AcDbLine
 10
5719.358003781529
 20
44.2585838214245
 30
0.0
 11
5770.072289495815
 21
44.2585838214245
 31
0.0
  0
LINE
  5
19C0
330
18
100
AcDbEntity
  8
上線
 48
10.0
100
AcDbLine
 10
5770.072289495815
 20
94.2585838214245
 30
0.0
 11
5770.072289495815
 21
44.2585838214245
 31
0.0
  0
ARC
  5
19C1
330
18
100
AcDbEntity
  8
上線
100
AcDbCircle
 10
5665.183456989442
 20
-655.7311536700108
 30
0.0
 40
60.0
100
AcDbArc
 50
270.0
 51
359.1815445383054
  0
ARC
  5
19C2
330
18
100
AcDbEntity
  8
上線
100
AcDbCircle
 10
5665.183456989442
 20
-655.7311536700108
 30
0.0
 40
50.0
100
AcDbArc
 50
270.0
 51
359.1815445383054
  0
ENDSEC
  0
SECTION
  2
OBJECTS
  0
DICTIONARY
  5
C
330
0
100
AcDbDictionary
281
     1
  3
ACAD_GROUP
350
D
  3
ACAD_LAYOUT
350
1643
  3
ACAD_MLINESTYLE
350
1B
  3
ACAD_PLOTSETTINGS
350
1644
  3
ACAD_PLOTSTYLENAME
350
1641
  0
DICTIONARY
  5
D
102
{ACAD_REACTORS
330
C
102
}
330
C
100
AcDbDictionary
281
     1
  0
DICTIONARY
  5
1643
102
{ACAD_REACTORS
330
C
102
}
330
C
100
AcDbDictionary
281
     1
  3
Model
350
1645
  3
ﾚｲｱｳﾄ1
350
1646
  0
DICTIONARY
  5
1B
102
{ACAD_REACTORS
330
C
102
}
330
C
100
AcDbDictionary
281
     1
  3
STANDARD
350
1C
  0
DICTIONARY
  5
1644
102
{ACAD_REACTORS
330
C
102
}
330
C
100
AcDbDictionary
281
     1
  0
ACDBDICTIONARYWDFLT
  5
1641
102
{ACAD_REACTORS
330
C
102
}
330
C
100
AcDbDictionary
281
     1
  3
Normal
350
1642
100
AcDbDictionaryWithDefault
340
1642
  0
LAYOUT
  5
1645
102
{ACAD_REACTORS
330
1643
102
}
330
1643
100
AcDbPlotSettings
  1

  2
Canon LBP3800 LIPSLX
  4
A4
  6

 40
5.873749732971191
 41
5.873747825622558
 42
5.873748779296875
 43
5.873748779296875
 44
209.9733276367187
 45
296.9259948730469
 46
0.0
 47
0.0
 48
0.0
 49
0.0
140
0.0
141
0.0
142
1.0
143
1.0
 70
 11952
 72
     1
 73
     1
 74
     0
  7

 75
     0
147
1.0
148
-637.2800072311447
149
1035.014703343033
100
AcDbLayout
  1
Model
 70
     1
 71
     0
 10
0.0
 20
0.0
 11
12.0
 21
9.0
 12
0.0
 22
0.0
 32
0.0
 14
0.0
 24
0.0
 34
0.0
 15
0.0
 25
0.0
 35
0.0
146
0.0
 13
0.0
 23
0.0
 33
0.0
 16
1.0
 26
0.0
 36
0.0
 17
0.0
 27
1.0
 37
0.0
 76
     0
330
18
  0
LAYOUT
  5
1646
102
{ACAD_REACTORS
330
1643
102
}
330
1643
100
AcDbPlotSettings
  1

  2
Canon LBP3800 LIPSLX
  4

  6

 40
0.0
 41
0.0
 42
0.0
 43
0.0
 44
0.0
 45
0.0
 46
0.0
 47
0.0
 48
0.0
 49
0.0
140
0.0
141
0.0
142
1.0
143
1.0
 70
   688
 72
     0
 73
     0
 74
     5
  7

 75
    16
147
1.0
148
0.0
149
0.0
100
AcDbLayout
  1
ﾚｲｱｳﾄ1
 70
     1
 71
     1
 10
0.0
 20
0.0
 11
420.0
 21
297.0
 12
0.0
 22
0.0
 32
0.0
 14
1.000000000000000E+20
 24
1.000000000000000E+20
 34
1.000000000000000E+20
 15
-1.000000000000000E+20
 25
-1.000000000000000E+20
 35
-1.000000000000000E+20
146
0.0
 13
0.0
 23
0.0
 33
0.0
 16
1.0
 26
0.0
 36
0.0
 17
0.0
 27
1.0
 37
0.0
 76
     0
330
15
  0
MLINESTYLE
  5
1C
102
{ACAD_REACTORS
330
1B
102
}
330
1B
100
AcDbMlineStyle
  2
STANDARD
 70
     0
  3

 62
   256
 51
90.0
 52
90.0
 71
     2
 49
0.5
 62
   256
  6
BYLAYER
 49
-0.5
 62
   256
  6
BYLAYER
  0
ACDBPLACEHOLDER
  5
1642
102
{ACAD_REACTORS
330
1641
102
}
330
1641
  0
ENDSEC
  0
EOF
