  0
SECTION
  2
HEADER
  9
$ACADVER
  1
AC1015
  9
$ACADMAINTVER
 70
     6
  9
$DWGCODEPAGE
  3
ANSI_932
  9
$INSBASE
 10
0.0
 20
0.0
 30
0.0
  9
$EXTMIN
 10
1835.422671043039
 20
-1738.443194009047
 30
0.0
  9
$EXTMAX
 10
8843.013393934125
 20
1356.882356774697
 30
0.0
  9
$LIMMIN
 10
0.0
 20
0.0
  9
$LIMMAX
 10
4200.0
 20
2970.0
  9
$ORTHOMODE
 70
     0
  9
$REGENMODE
 70
     1
  9
$FILLMODE
 70
     1
  9
$QTEXTMODE
 70
     0
  9
$MIRRTEXT
 70
     1
  9
$LTSCALE
 40
1.0
  9
$ATTMODE
 70
     1
  9
$TEXTSIZE
 40
2.5
  9
$TRACEWID
 40
1.0
  9
$TEXTSTYLE
  7
STANDARD
  9
$CLAYER
  8
OBJECT
  9
$CELTYPE
  6
BYLAYER
  9
$CECOLOR
 62
   256
  9
$CELTSCALE
 40
10.0
  9
$DISPSILH
 70
     0
  9
$DIMSCALE
 40
15.0
  9
$DIMASZ
 40
2.5
  9
$DIMEXO
 40
0.625
  9
$DIMDLI
 40
3.75
  9
$DIMRND
 40
0.0
  9
$DIMDLE
 40
0.0
  9
$DIMEXE
 40
1.25
  9
$DIMTP
 40
0.0
  9
$DIMTM
 40
0.0
  9
$DIMTXT
 40
2.5
  9
$DIMCEN
 40
2.5
  9
$DIMTSZ
 40
0.0
  9
$DIMTOL
 70
     0
  9
$DIMLIM
 70
     0
  9
$DIMTIH
 70
     0
  9
$DIMTOH
 70
     0
  9
$DIMSE1
 70
     0
  9
$DIMSE2
 70
     0
  9
$DIMTAD
 70
     1
  9
$DIMZIN
 70
     8
  9
$DIMBLK
  1

  9
$DIMASO
 70
     1
  9
$DIMSHO
 70
     1
  9
$DIMPOST
  1

  9
$DIMAPOST
  1

  9
$DIMALT
 70
     0
  9
$DIMALTD
 70
     4
  9
$DIMALTF
 40
0.0394
  9
$DIMLFAC
 40
1.0
  9
$DIMTOFL
 70
     1
  9
$DIMTVP
 40
0.0
  9
$DIMTIX
 70
     0
  9
$DIMSOXD
 70
     0
  9
$DIMSAH
 70
     0
  9
$DIMBLK1
  1

  9
$DIMBLK2
  1

  9
$DIMSTYLE
  2
STANDARD
  9
$DIMCLRD
 70
     0
  9
$DIMCLRE
 70
     0
  9
$DIMCLRT
 70
     0
  9
$DIMTFAC
 40
1.0
  9
$DIMGAP
 40
0.625
  9
$DIMJUST
 70
     0
  9
$DIMSD1
 70
     0
  9
$DIMSD2
 70
     0
  9
$DIMTOLJ
 70
     1
  9
$DIMTZIN
 70
     0
  9
$DIMALTZ
 70
     0
  9
$DIMALTTZ
 70
     0
  9
$DIMUPT
 70
     0
  9
$DIMDEC
 70
     4
  9
$DIMTDEC
 70
     4
  9
$DIMALTU
 70
     8
  9
$DIMALTTD
 70
     4
  9
$DIMTXSTY
  7
STANDARD
  9
$DIMAUNIT
 70
     0
  9
$DIMADEC
 70
     0
  9
$DIMALTRND
 40
0.0
  9
$DIMAZIN
 70
     0
  9
$DIMDSEP
 70
    46
  9
$DIMATFIT
 70
     3
  9
$DIMFRAC
 70
     0
  9
$DIMLDRBLK
  1

  9
$DIMLUNIT
 70
     6
  9
$DIMLWD
 70
    -2
  9
$DIMLWE
 70
    -2
  9
$DIMTMOVE
 70
     0
  9
$LUNITS
 70
     2
  9
$LUPREC
 70
     4
  9
$SKETCHINC
 40
1.0
  9
$FILLETRAD
 40
50.0
  9
$AUNITS
 70
     0
  9
$AUPREC
 70
     0
  9
$MENU
  1
acad
  9
$ELEVATION
 40
0.0
  9
$PELEVATION
 40
0.0
  9
$THICKNESS
 40
0.0
  9
$LIMCHECK
 70
     0
  9
$CHAMFERA
 40
10.0
  9
$CHAMFERB
 40
10.0
  9
$CHAMFERC
 40
20.0
  9
$CHAMFERD
 40
0.0
  9
$SKPOLY
 70
     0
  9
$TDCREATE
 40
2452179.387794213
  9
$TDUCREATE
 40
2452179.012794213
  9
$TDUPDATE
 40
2454545.352072523
  9
$TDUUPDATE
 40
2454544.977072523
  9
$TDINDWG
 40
0.7340714815
  9
$TDUSRTIMER
 40
0.7340714815
  9
$USRTIMER
 70
     1
  9
$ANGBASE
 50
0.0
  9
$ANGDIR
 70
     0
  9
$PDMODE
 70
     0
  9
$PDSIZE
 40
0.0
  9
$PLINEWID
 40
0.0
  9
$SPLFRAME
 70
     0
  9
$SPLINETYPE
 70
     6
  9
$SPLINESEGS
 70
     8
  9
$HANDSEED
  5
1BD2
  9
$SURFTAB1
 70
     6
  9
$SURFTAB2
 70
     6
  9
$SURFTYPE
 70
     6
  9
$SURFU
 70
     6
  9
$SURFV
 70
     6
  9
$UCSBASE
  2

  9
$UCSNAME
  2

  9
$UCSORG
 10
0.0
 20
0.0
 30
0.0
  9
$UCSXDIR
 10
1.0
 20
0.0
 30
0.0
  9
$UCSYDIR
 10
0.0
 20
1.0
 30
0.0
  9
$UCSORTHOREF
  2

  9
$UCSORTHOVIEW
 70
     0
  9
$UCSORGTOP
 10
0.0
 20
0.0
 30
0.0
  9
$UCSORGBOTTOM
 10
0.0
 20
0.0
 30
0.0
  9
$UCSORGLEFT
 10
0.0
 20
0.0
 30
0.0
  9
$UCSORGRIGHT
 10
0.0
 20
0.0
 30
0.0
  9
$UCSORGFRONT
 10
0.0
 20
0.0
 30
0.0
  9
$UCSORGBACK
 10
0.0
 20
0.0
 30
0.0
  9
$PUCSBASE
  2

  9
$PUCSNAME
  2

  9
$PUCSORG
 10
0.0
 20
0.0
 30
0.0
  9
$PUCSXDIR
 10
1.0
 20
0.0
 30
0.0
  9
$PUCSYDIR
 10
0.0
 20
1.0
 30
0.0
  9
$PUCSORTHOREF
  2

  9
$PUCSORTHOVIEW
 70
     0
  9
$PUCSORGTOP
 10
0.0
 20
0.0
 30
0.0
  9
$PUCSORGBOTTOM
 10
0.0
 20
0.0
 30
0.0
  9
$PUCSORGLEFT
 10
0.0
 20
0.0
 30
0.0
  9
$PUCSORGRIGHT
 10
0.0
 20
0.0
 30
0.0
  9
$PUCSORGFRONT
 10
0.0
 20
0.0
 30
0.0
  9
$PUCSORGBACK
 10
0.0
 20
0.0
 30
0.0
  9
$USERI1
 70
     0
  9
$USERI2
 70
     0
  9
$USERI3
 70
     0
  9
$USERI4
 70
     0
  9
$USERI5
 70
     0
  9
$USERR1
 40
0.0
  9
$USERR2
 40
0.0
  9
$USERR3
 40
0.0
  9
$USERR4
 40
0.0
  9
$USERR5
 40
0.0
  9
$WORLDVIEW
 70
     1
  9
$SHADEDGE
 70
     3
  9
$SHADEDIF
 70
    70
  9
$TILEMODE
 70
     1
  9
$MAXACTVP
 70
    48
  9
$PINSBASE
 10
0.0
 20
0.0
 30
0.0
  9
$PLIMCHECK
 70
     0
  9
$PEXTMIN
 10
1.000000000000000E+20
 20
1.000000000000000E+20
 30
1.000000000000000E+20
  9
$PEXTMAX
 10
-1.000000000000000E+20
 20
-1.000000000000000E+20
 30
-1.000000000000000E+20
  9
$PLIMMIN
 10
0.0
 20
0.0
  9
$PLIMMAX
 10
420.0
 20
297.0
  9
$UNITMODE
 70
     0
  9
$VISRETAIN
 70
     1
  9
$PLINEGEN
 70
     0
  9
$PSLTSCALE
 70
     1
  9
$TREEDEPTH
 70
  3020
  9
$CMLSTYLE
  2
STANDARD
  9
$CMLJUST
 70
     0
  9
$CMLSCALE
 40
20.0
  9
$PROXYGRAPHICS
 70
     1
  9
$MEASUREMENT
 70
     1
  9
$CELWEIGHT
370
    -1
  9
$ENDCAPS
280
     0
  9
$JOINSTYLE
280
     0
  9
$LWDISPLAY
290
     0
  9
$INSUNITS
 70
     0
  9
$HYPERLINKBASE
  1

  9
$STYLESHEET
  1

  9
$XEDIT
290
     1
  9
$CEPSNTYPE
380
     0
  9
$PSTYLEMODE
290
     1
  9
$FINGERPRINTGUID
  2
{830C8195-80E7-4A89-B8C1-3DDFFB28B88A}
  9
$VERSIONGUID
  2
{C461A27B-8311-4C72-82A6-A34E5D23B389}
  9
$EXTNAMES
290
     1
  9
$PSVPSCALE
 40
0.0
  9
$OLESTARTUP
290
     0
  0
ENDSEC
  0
SECTION
  2
CLASSES
  0
CLASS
  1
LWPOLYLINE
  2
AcDbPolyline
  3
AutoCAD 2000
 90
    32768
280
     0
281
     1
  0
CLASS
  1
ACDBDICTIONARYWDFLT
  2
AcDbDictionaryWithDefault
  3
AutoCAD 2000
 90
        0
280
     0
281
     0
  0
CLASS
  1
ACDBPLACEHOLDER
  2
AcDbPlaceHolder
  3
AutoCAD 2000
 90
        0
280
     0
281
     0
  0
CLASS
  1
LAYOUT
  2
AcDbLayout
  3
AutoCAD 2000
 90
        0
280
     0
281
     0
  0
ENDSEC
  0
SECTION
  2
TABLES
  0
TABLE
  2
VPORT
  5
8
330
0
100
AcDbSymbolTable
 70
     2
  0
VPORT
  5
1BD1
330
8
100
AcDbSymbolTableRecord
100
AcDbViewportTableRecord
  2
*Active
 70
     0
 10
0.0
 20
0.0
 11
1.0
 21
1.0
 12
6934.895763493521
 22
-310.0230670954251
 13
0.0
 23
0.0
 14
10.0
 24
10.0
 15
10.0
 25
10.0
 16
0.0
 26
0.0
 36
1.0
 17
0.0
 27
0.0
 37
0.0
 40
3463.772713669817
 41
1.731203007518796
 42
50.0
 43
0.0
 44
0.0
 50
0.0
 51
0.0
 71
     0
 72
   100
 73
     1
 74
     1
 75
     0
 76
     0
 77
     0
 78
     0
281
     0
 65
     1
110
0.0
120
0.0
130
0.0
111
1.0
121
0.0
131
0.0
112
0.0
122
1.0
132
0.0
 79
     0
146
0.0
  0
ENDTAB
  0
TABLE
  2
LTYPE
  5
5
330
0
100
AcDbSymbolTable
 70
    46
  0
LTYPE
  5
12
330
5
100
AcDbSymbolTableRecord
100
AcDbLinetypeTableRecord
  2
BYBLOCK
 70
     0
  3

 72
    65
 73
     0
 40
0.0
  0
LTYPE
  5
13
330
5
100
AcDbSymbolTableRecord
100
AcDbLinetypeTableRecord
  2
BYLAYER
 70
     0
  3

 72
    65
 73
     0
 40
0.0
  0
LTYPE
  5
14
330
5
100
AcDbSymbolTableRecord
100
AcDbLinetypeTableRecord
  2
CONTINUOUS
 70
     0
  3
Solid line
 72
    65
 73
     0
 40
0.0
  0
LTYPE
  5
BC
330
5
100
AcDbSymbolTableRecord
100
AcDbLinetypeTableRecord
  2
ACAD_ISO02W100
 70
     0
  3
ISO dash __ __ __ __ __ __ __ __ __ __ __ __ __
 72
    65
 73
     2
 40
15.0
 49
12.0
 74
     0
 49
-3.0
 74
     0
  0
LTYPE
  5
BD
330
5
100
AcDbSymbolTableRecord
100
AcDbLinetypeTableRecord
  2
ACAD_ISO03W100
 70
     0
  3
ISO dash space __    __    __    __    __    __
 72
    65
 73
     2
 40
30.0
 49
12.0
 74
     0
 49
-18.0
 74
     0
  0
LTYPE
  5
BE
330
5
100
AcDbSymbolTableRecord
100
AcDbLinetypeTableRecord
  2
ACAD_ISO04W100
 70
     0
  3
ISO long-dash dot ____ . ____ . ____ . ____ . _
 72
    65
 73
     4
 40
30.5
 49
24.0
 74
     0
 49
-3.0
 74
     0
 49
0.5
 74
     0
 49
-3.0
 74
     0
  0
LTYPE
  5
BF
330
5
100
AcDbSymbolTableRecord
100
AcDbLinetypeTableRecord
  2
ACAD_ISO05W100
 70
     0
  3
ISO long-dash double-dot ____ .. ____ .. ____ .
 72
    65
 73
     8
 40
37.5
 49
24.0
 74
     0
 49
-3.0
 74
     0
 49
0.5
 74
     0
 49
-3.0
 74
     0
 49
0.5
 74
     0
 49
-3.0
 74
     0
 49
0.5
 74
     0
 49
-3.0
 74
     0
  0
LTYPE
  5
C0
330
5
100
AcDbSymbolTableRecord
100
AcDbLinetypeTableRecord
  2
ACAD_ISO06W100
 70
     0
  3
ISO long-dash triple-dot ____ ... ____ ... ____
 72
    65
 73
     8
 40
37.5
 49
24.0
 74
     0
 49
-3.0
 74
     0
 49
0.5
 74
     0
 49
-3.0
 74
     0
 49
0.5
 74
     0
 49
-3.0
 74
     0
 49
0.5
 74
     0
 49
-3.0
 74
     0
  0
LTYPE
  5
C1
330
5
100
AcDbSymbolTableRecord
100
AcDbLinetypeTableRecord
  2
ACAD_ISO07W100
 70
     0
  3
ISO dot . . . . . . . . . . . . . . . . . . . .
 72
    65
 73
     2
 40
3.5
 49
0.5
 74
     0
 49
-3.0
 74
     0
  0
LTYPE
  5
C2
330
5
100
AcDbSymbolTableRecord
100
AcDbLinetypeTableRecord
  2
ACAD_ISO08W100
 70
     0
  3
ISO long-dash short-dash ____ __ ____ __ ____ _
 72
    65
 73
     4
 40
36.0
 49
24.0
 74
     0
 49
-3.0
 74
     0
 49
6.0
 74
     0
 49
-3.0
 74
     0
  0
LTYPE
  5
C3
330
5
100
AcDbSymbolTableRecord
100
AcDbLinetypeTableRecord
  2
ACAD_ISO09W100
 70
     0
  3
ISO long-dash double-short-dash ____ __ __ ____
 72
    65
 73
     6
 40
45.0
 49
24.0
 74
     0
 49
-3.0
 74
     0
 49
6.0
 74
     0
 49
-3.0
 74
     0
 49
6.0
 74
     0
 49
-3.0
 74
     0
  0
LTYPE
  5
C4
330
5
100
AcDbSymbolTableRecord
100
AcDbLinetypeTableRecord
  2
ACAD_ISO10W100
 70
     0
  3
ISO dash dot __ . __ . __ . __ . __ . __ . __ .
 72
    65
 73
     4
 40
18.5
 49
12.0
 74
     0
 49
-3.0
 74
     0
 49
0.5
 74
     0
 49
-3.0
 74
     0
  0
LTYPE
  5
C5
330
5
100
AcDbSymbolTableRecord
100
AcDbLinetypeTableRecord
  2
ACAD_ISO11W100
 70
     0
  3
ISO double-dash dot __ __ . __ __ . __ __ . __ 
 72
    65
 73
     6
 40
33.5
 49
12.0
 74
     0
 49
-3.0
 74
     0
 49
12.0
 74
     0
 49
-3.0
 74
     0
 49
0.5
 74
     0
 49
-3.0
 74
     0
  0
LTYPE
  5
C6
330
5
100
AcDbSymbolTableRecord
100
AcDbLinetypeTableRecord
  2
ACAD_ISO12W100
 70
     0
  3
ISO dash double-dot __ . . __ . . __ . . __ . .
 72
    65
 73
     6
 40
22.0
 49
12.0
 74
     0
 49
-3.0
 74
     0
 49
0.5
 74
     0
 49
-3.0
 74
     0
 49
0.5
 74
     0
 49
-3.0
 74
     0
  0
LTYPE
  5
C7
330
5
100
AcDbSymbolTableRecord
100
AcDbLinetypeTableRecord
  2
ACAD_ISO13W100
 70
     0
  3
ISO double-dash double-dot __ __ . . __ __ . . 
 72
    65
 73
     8
 40
37.0
 49
12.0
 74
     0
 49
-3.0
 74
     0
 49
12.0
 74
     0
 49
-3.0
 74
     0
 49
0.5
 74
     0
 49
-3.0
 74
     0
 49
0.5
 74
     0
 49
-3.0
 74
     0
  0
LTYPE
  5
C8
330
5
100
AcDbSymbolTableRecord
100
AcDbLinetypeTableRecord
  2
ACAD_ISO14W100
 70
     0
  3
ISO dash triple-dot __ . . . __ . . . __ . . . 
 72
    65
 73
     8
 40
25.5
 49
12.0
 74
     0
 49
-3.0
 74
     0
 49
0.5
 74
     0
 49
-3.0
 74
     0
 49
0.5
 74
     0
 49
-3.0
 74
     0
 49
0.5
 74
     0
 49
-3.0
 74
     0
  0
LTYPE
  5
C9
330
5
100
AcDbSymbolTableRecord
100
AcDbLinetypeTableRecord
  2
ACAD_ISO15W100
 70
     0
  3
ISO double-dash triple-dot __ __ . . . __ __ . 
 72
    65
 73
    10
 40
40.49999999999999
 49
12.0
 74
     0
 49
-3.0
 74
     0
 49
12.0
 74
     0
 49
-3.0
 74
     0
 49
0.5
 74
     0
 49
-3.0
 74
     0
 49
0.5
 74
     0
 49
-3.0
 74
     0
 49
0.5
 74
     0
 49
-3.0
 74
     0
  0
LTYPE
  5
CA
330
5
100
AcDbSymbolTableRecord
100
AcDbLinetypeTableRecord
  2
BATTING
 70
     0
  3
Batting SSSSSSSSSSSSSSSSSSSSSSSSSSSSSSSSSSSSSSS
 72
    65
 73
     4
 40
10.16253999999999
 49
0.00254
 74
     0
 49
-2.54
 74
     4
 75
   134
340
BB
 46
2.54
 50
0.0
 44
-2.54
 45
0.0
 49
-5.08
 74
     4
 75
   134
340
BB
 46
2.54
 50
180.0
 44
2.54
 45
0.0
 49
-2.54
 74
     0
  0
LTYPE
  5
CB
330
5
100
AcDbSymbolTableRecord
100
AcDbLinetypeTableRecord
  2
BORDER
 70
     0
  3
Border __ __ . __ __ . __ __ . __ __ . __ __ .
 72
    65
 73
     6
 40
44.45
 49
12.7
 74
     0
 49
-6.349999999999999
 74
     0
 49
12.7
 74
     0
 49
-6.349999999999999
 74
     0
 49
0.0
 74
     0
 49
-6.349999999999999
 74
     0
  0
LTYPE
  5
CC
330
5
100
AcDbSymbolTableRecord
100
AcDbLinetypeTableRecord
  2
BORDER2
 70
     0
  3
Border (.5x) __.__.__.__.__.__.__.__.__.__.__.
 72
    65
 73
     6
 40
22.225
 49
6.349999999999999
 74
     0
 49
-3.174999999999999
 74
     0
 49
6.349999999999999
 74
     0
 49
-3.174999999999999
 74
     0
 49
0.0
 74
     0
 49
-3.174999999999999
 74
     0
  0
LTYPE
  5
CD
330
5
100
AcDbSymbolTableRecord
100
AcDbLinetypeTableRecord
  2
BORDERX2
 70
     0
  3
Border (2x) ____  ____  .  ____  ____  .  ___
 72
    65
 73
     6
 40
88.9
 49
25.4
 74
     0
 49
-12.7
 74
     0
 49
25.4
 74
     0
 49
-12.7
 74
     0
 49
0.0
 74
     0
 49
-12.7
 74
     0
  0
LTYPE
  5
CE
330
5
100
AcDbSymbolTableRecord
100
AcDbLinetypeTableRecord
  2
CENTER
 70
     0
  3
Center ____ _ ____ _ ____ _ ____ _ ____ _ ____
 72
    65
 73
     4
 40
50.8
 49
31.75
 74
     0
 49
-6.349999999999999
 74
     0
 49
6.349999999999999
 74
     0
 49
-6.349999999999999
 74
     0
  0
LTYPE
  5
CF
330
5
100
AcDbSymbolTableRecord
100
AcDbLinetypeTableRecord
  2
CENTER2
 70
     0
  3
Center (.5x) ___ _ ___ _ ___ _ ___ _ ___ _ ___
 72
    65
 73
     4
 40
28.57499999999999
 49
19.05
 74
     0
 49
-3.174999999999999
 74
     0
 49
3.174999999999999
 74
     0
 49
-3.174999999999999
 74
     0
  0
LTYPE
  5
D0
330
5
100
AcDbSymbolTableRecord
100
AcDbLinetypeTableRecord
  2
CENTERX2
 70
     0
  3
Center (2x) ________  __  ________  __  _____
 72
    65
 73
     4
 40
101.6
 49
63.5
 74
     0
 49
-12.7
 74
     0
 49
12.7
 74
     0
 49
-12.7
 74
     0
  0
LTYPE
  5
D1
330
5
100
AcDbSymbolTableRecord
100
AcDbLinetypeTableRecord
  2
DASHDOT
 70
     0
  3
Dash dot __ . __ . __ . __ . __ . __ . __ . __
 72
    65
 73
     4
 40
25.4
 49
12.7
 74
     0
 49
-6.349999999999999
 74
     0
 49
0.0
 74
     0
 49
-6.349999999999999
 74
     0
  0
LTYPE
  5
D2
330
5
100
AcDbSymbolTableRecord
100
AcDbLinetypeTableRecord
  2
DASHDOT2
 70
     0
  3
Dash dot (.5x) _._._._._._._._._._._._._._._.
 72
    65
 73
     4
 40
12.7
 49
6.349999999999999
 74
     0
 49
-3.174999999999999
 74
     0
 49
0.0
 74
     0
 49
-3.174999999999999
 74
     0
  0
LTYPE
  5
D3
330
5
100
AcDbSymbolTableRecord
100
AcDbLinetypeTableRecord
  2
DASHDOTX2
 70
     0
  3
Dash dot (2x) ____  .  ____  .  ____  .  ___
 72
    65
 73
     4
 40
50.8
 49
25.4
 74
     0
 49
-12.7
 74
     0
 49
0.0
 74
     0
 49
-12.7
 74
     0
  0
LTYPE
  5
D4
330
5
100
AcDbSymbolTableRecord
100
AcDbLinetypeTableRecord
  2
DASHED
 70
     0
  3
Dashed __ __ __ __ __ __ __ __ __ __ __ __ __ _
 72
    65
 73
     2
 40
19.04999999999999
 49
12.7
 74
     0
 49
-6.349999999999999
 74
     0
  0
LTYPE
  5
D5
330
5
100
AcDbSymbolTableRecord
100
AcDbLinetypeTableRecord
  2
DASHED2
 70
     0
  3
Dashed (.5x) _ _ _ _ _ _ _ _ _ _ _ _ _ _ _ _ _
 72
    65
 73
     2
 40
9.524999999999998
 49
6.349999999999999
 74
     0
 49
-3.174999999999999
 74
     0
  0
LTYPE
  5
D6
330
5
100
AcDbSymbolTableRecord
100
AcDbLinetypeTableRecord
  2
DASHEDX2
 70
     0
  3
Dashed (2x) ____  ____  ____  ____  ____  ___
 72
    65
 73
     2
 40
38.09999999999999
 49
25.4
 74
     0
 49
-12.7
 74
     0
  0
LTYPE
  5
D7
330
5
100
AcDbSymbolTableRecord
100
AcDbLinetypeTableRecord
  2
DIVIDE
 70
     0
  3
Divide ____ . . ____ . . ____ . . ____ . . ____
 72
    65
 73
     6
 40
31.74999999999999
 49
12.7
 74
     0
 49
-6.349999999999999
 74
     0
 49
0.0
 74
     0
 49
-6.349999999999999
 74
     0
 49
0.0
 74
     0
 49
-6.349999999999999
 74
     0
  0
LTYPE
  5
D8
330
5
100
AcDbSymbolTableRecord
100
AcDbLinetypeTableRecord
  2
DIVIDE2
 70
     0
  3
Divide (.5x) __..__..__..__..__..__..__..__.._
 72
    65
 73
     6
 40
15.87499999999999
 49
6.349999999999999
 74
     0
 49
-3.174999999999999
 74
     0
 49
0.0
 74
     0
 49
-3.174999999999999
 74
     0
 49
0.0
 74
     0
 49
-3.174999999999999
 74
     0
  0
LTYPE
  5
D9
330
5
100
AcDbSymbolTableRecord
100
AcDbLinetypeTableRecord
  2
DIVIDEX2
 70
     0
  3
Divide (2x) ________  .  .  ________  .  .  _
 72
    65
 73
     6
 40
63.49999999999999
 49
25.4
 74
     0
 49
-12.7
 74
     0
 49
0.0
 74
     0
 49
-12.7
 74
     0
 49
0.0
 74
     0
 49
-12.7
 74
     0
  0
LTYPE
  5
DA
330
5
100
AcDbSymbolTableRecord
100
AcDbLinetypeTableRecord
  2
DOT
 70
     0
  3
Dot . . . . . . . . . . . . . . . . . . . . . .
 72
    65
 73
     2
 40
6.349999999999999
 49
0.0
 74
     0
 49
-6.349999999999999
 74
     0
  0
LTYPE
  5
DB
330
5
100
AcDbSymbolTableRecord
100
AcDbLinetypeTableRecord
  2
DOT2
 70
     0
  3
Dot (.5x) .....................................
 72
    65
 73
     2
 40
3.174999999999999
 49
0.0
 74
     0
 49
-3.174999999999999
 74
     0
  0
LTYPE
  5
DC
330
5
100
AcDbSymbolTableRecord
100
AcDbLinetypeTableRecord
  2
DOTX2
 70
     0
  3
Dot (2x) .  .  .  .  .  .  .  .  .  .  .  .  . 
 72
    65
 73
     2
 40
12.7
 49
0.0
 74
     0
 49
-12.7
 74
     0
  0
LTYPE
  5
DD
330
5
100
AcDbSymbolTableRecord
100
AcDbLinetypeTableRecord
  2
FENCELINE1
 70
     0
  3
Fenceline circle ----0-----0----0-----0----0---
 72
    65
 73
     4
 40
36.82999999999999
 49
6.349999999999999
 74
     0
 49
-2.54
 74
     4
 75
   133
340
BB
 46
2.54
 50
0.0
 44
-2.54
 45
0.0
 49
-2.54
 74
     0
 49
25.4
 74
     0
  0
LTYPE
  5
DE
330
5
100
AcDbSymbolTableRecord
100
AcDbLinetypeTableRecord
  2
FENCELINE2
 70
     0
  3
Fenceline square ----[]-----[]----[]-----[]----
 72
    65
 73
     4
 40
36.82999999999999
 49
6.349999999999999
 74
     0
 49
-2.54
 74
     4
 75
   132
340
BB
 46
2.54
 50
0.0
 44
-2.54
 45
0.0
 49
-2.54
 74
     0
 49
25.4
 74
     0
  0
LTYPE
  5
DF
330
5
100
AcDbSymbolTableRecord
100
AcDbLinetypeTableRecord
  2
GAS_LINE
 70
     0
  3
Gas line ----GAS----GAS----GAS----GAS----GAS---
 72
    65
 73
     3
 40
24.13
 49
12.7
 74
     0
 49
-5.08
 74
     2
 75
     0
340
F
 46
2.54
 50
0.0
 44
-2.54
 45
-1.27
  9
GAS
 49
-6.349999999999999
 74
     0
  0
LTYPE
  5
E0
330
5
100
AcDbSymbolTableRecord
100
AcDbLinetypeTableRecord
  2
HIDDEN
 70
     0
  3
Hidden __ __ __ __ __ __ __ __ __ __ __ __ __ _
 72
    65
 73
     2
 40
9.524999999999998
 49
6.349999999999999
 74
     0
 49
-3.174999999999999
 74
     0
  0
LTYPE
  5
E1
330
5
100
AcDbSymbolTableRecord
100
AcDbLinetypeTableRecord
  2
HIDDEN2
 70
     0
  3
Hidden (.5x) _ _ _ _ _ _ _ _ _ _ _ _ _ _ _ _ _
 72
    65
 73
     2
 40
4.762499999999999
 49
3.174999999999999
 74
     0
 49
-1.587499999999999
 74
     0
  0
LTYPE
  5
E2
330
5
100
AcDbSymbolTableRecord
100
AcDbLinetypeTableRecord
  2
HIDDENX2
 70
     0
  3
Hidden (2x) ____ ____ ____ ____ ____ ____ ____
 72
    65
 73
     2
 40
19.04999999999999
 49
12.7
 74
     0
 49
-6.349999999999999
 74
     0
  0
LTYPE
  5
E3
330
5
100
AcDbSymbolTableRecord
100
AcDbLinetypeTableRecord
  2
HOT_WATER_SUPPLY
 70
     0
  3
Hot water supply ---- HW ---- HW ---- HW ----
 72
    65
 73
     3
 40
22.86
 49
12.7
 74
     0
 49
-5.08
 74
     2
 75
     0
340
F
 46
2.54
 50
0.0
 44
-2.54
 45
-1.27
  9
HW
 49
-5.08
 74
     0
  0
LTYPE
  5
E4
330
5
100
AcDbSymbolTableRecord
100
AcDbLinetypeTableRecord
  2
PHANTOM
 70
     0
  3
Phantom ______  __  __  ______  __  __  ______
 72
    65
 73
     6
 40
63.5
 49
31.75
 74
     0
 49
-6.349999999999999
 74
     0
 49
6.349999999999999
 74
     0
 49
-6.349999999999999
 74
     0
 49
6.349999999999999
 74
     0
 49
-6.349999999999999
 74
     0
  0
LTYPE
  5
E5
330
5
100
AcDbSymbolTableRecord
100
AcDbLinetypeTableRecord
  2
PHANTOM2
 70
     0
  3
Phantom (.5x) ___ _ _ ___ _ _ ___ _ _ ___ _ _
 72
    65
 73
     6
 40
31.75
 49
15.875
 74
     0
 49
-3.174999999999999
 74
     0
 49
3.174999999999999
 74
     0
 49
-3.174999999999999
 74
     0
 49
3.174999999999999
 74
     0
 49
-3.174999999999999
 74
     0
  0
LTYPE
  5
E6
330
5
100
AcDbSymbolTableRecord
100
AcDbLinetypeTableRecord
  2
PHANTOMX2
 70
     0
  3
Phantom (2x) ____________    ____    ____   _
 72
    65
 73
     6
 40
127.0
 49
63.5
 74
     0
 49
-12.7
 74
     0
 49
12.7
 74
     0
 49
-12.7
 74
     0
 49
12.7
 74
     0
 49
-12.7
 74
     0
  0
LTYPE
  5
E7
330
5
100
AcDbSymbolTableRecord
100
AcDbLinetypeTableRecord
  2
TRACKS
 70
     0
  3
Tracks -|-|-|-|-|-|-|-|-|-|-|-|-|-|-|-|-|-|-|-|
 72
    65
 73
     2
 40
7.62
 49
3.81
 74
     4
 75
   130
340
BB
 46
6.349999999999999
 50
0.0
 44
0.0
 45
0.0
 49
3.81
 74
     0
  0
LTYPE
  5
E8
330
5
100
AcDbSymbolTableRecord
100
AcDbLinetypeTableRecord
  2
ZIGZAG
 70
     0
  3
Zig zag /\/\/\/\/\/\/\/\/\/\/\/\/\/\/\/\/\/\/\/
 72
    65
 73
     4
 40
20.32254
 49
0.00254
 74
     0
 49
-5.08
 74
     4
 75
   131
340
BB
 46
5.08
 50
0.0
 44
-5.08
 45
0.0
 49
-10.16
 74
     4
 75
   131
340
BB
 46
5.08
 50
180.0
 44
5.08
 45
0.0
 49
-5.08
 74
     0
  0
ENDTAB
  0
TABLE
  2
LAYER
  5
2
330
0
100
AcDbSymbolTable
 70
     8
  0
LAYER
  5
E
330
2
100
AcDbSymbolTableRecord
100
AcDbLayerTableRecord
  2
0
 70
     0
 62
     7
  6
CONTINUOUS
370
    -3
390
148A
  0
LAYER
  5
20
330
2
100
AcDbSymbolTableRecord
100
AcDbLayerTableRecord
  2
DEFPOINTS
 70
     0
 62
     7
  6
CONTINUOUS
290
     0
370
    -3
390
148A
  0
LAYER
  5
21
330
2
100
AcDbSymbolTableRecord
100
AcDbLayerTableRecord
  2
OBJECT
 70
     0
 62
     7
  6
CONTINUOUS
370
    -3
390
148A
  0
LAYER
  5
E9
330
2
100
AcDbSymbolTableRecord
100
AcDbLayerTableRecord
  2
基準線
 70
     0
 62
    -1
  6
CONTINUOUS
370
    -3
390
148A
  0
LAYER
  5
EA
330
2
100
AcDbSymbolTableRecord
100
AcDbLayerTableRecord
  2
上線
 70
     0
 62
     7
  6
CONTINUOUS
370
    -3
390
148A
  0
LAYER
  5
EB
330
2
100
AcDbSymbolTableRecord
100
AcDbLayerTableRecord
  2
点線
 70
     0
 62
     5
  6
HIDDEN
370
    -3
390
148A
  0
LAYER
  5
EC
330
2
100
AcDbSymbolTableRecord
100
AcDbLayerTableRecord
  2
中心線
 70
     0
 62
     6
  6
CENTER
370
    -3
390
148A
  0
LAYER
  5
199B
330
2
100
AcDbSymbolTableRecord
100
AcDbLayerTableRecord
  2
WUWAGAKI
 70
     0
 62
     7
  6
CONTINUOUS
370
    -3
390
148A
  0
ENDTAB
  0
TABLE
  2
STYLE
  5
3
330
0
100
AcDbSymbolTable
 70
     3
  0
STYLE
  5
F
330
3
100
AcDbSymbolTableRecord
100
AcDbTextStyleTableRecord
  2
STANDARD
 70
     0
 40
0.0
 41
1.0
 50
0.0
 71
     0
 42
2.5
  3
MS PMincho.ttf
  4

1001
ACAD
1000
MS PMincho
1071
    32786
  0
STYLE
  5
22
330
3
100
AcDbSymbolTableRecord
100
AcDbTextStyleTableRecord
  2
ADESK1
 70
     0
 40
0.0
 41
1.0
 50
0.0
 71
     0
 42
5.0
  3
romans
  4
bigfont
  0
STYLE
  5
BB
330
3
100
AcDbSymbolTableRecord
100
AcDbTextStyleTableRecord
  2

 70
     1
 40
0.0
 41
1.0
 50
0.0
 71
     0
 42
2.5
  3
ltypeshp.shx
  4

  0
ENDTAB
  0
TABLE
  2
VIEW
  5
6
330
0
100
AcDbSymbolTable
 70
     0
  0
ENDTAB
  0
TABLE
  2
UCS
  5
7
330
0
100
AcDbSymbolTable
 70
     0
  0
ENDTAB
  0
TABLE
  2
APPID
  5
9
330
0
100
AcDbSymbolTable
 70
     1
  0
APPID
  5
10
330
9
100
AcDbSymbolTableRecord
100
AcDbRegAppTableRecord
  2
ACAD
 70
     0
  0
ENDTAB
  0
TABLE
  2
DIMSTYLE
  5
A
330
0
100
AcDbSymbolTable
 70
     2
100
AcDbDimStyleTable
 71
     1
340
1D
  0
DIMSTYLE
105
1D
102
{ACAD_REACTORS
330
E54
330
E57
330
EC0
330
EC1
330
F20
102
}
330
A
100
AcDbSymbolTableRecord
100
AcDbDimStyleTableRecord
  2
STANDARD
 70
     0
340
F
  0
DIMSTYLE
105
23
330
A
100
AcDbSymbolTableRecord
100
AcDbDimStyleTableRecord
  2
JIS
 70
     0
 41
2.5
 42
1.0
 43
7.0
 44
1.0
 73
     0
 74
     0
 77
     1
 78
     8
140
2.5
141
0.0
143
0.0394
147
0.0
172
     1
174
     1
175
     1
340
F
  0
ENDTAB
  0
TABLE
  2
BLOCK_RECORD
  5
1
330
0
100
AcDbSymbolTable
 70
    17
  0
BLOCK_RECORD
  5
18
330
1
100
AcDbSymbolTableRecord
100
AcDbBlockTableRecord
  2
*MODEL_SPACE
340
148D
  0
BLOCK_RECORD
  5
15
330
1
100
AcDbSymbolTableRecord
100
AcDbBlockTableRecord
  2
*PAPER_SPACE
340
148E
  0
BLOCK_RECORD
  5
24
330
1
100
AcDbSymbolTableRecord
100
AcDbBlockTableRecord
  2
JIS_A3
340
0
  0
BLOCK_RECORD
  5
DF4
330
1
100
AcDbSymbolTableRecord
100
AcDbBlockTableRecord
  2
A$C76631095
340
0
  0
BLOCK_RECORD
  5
E0C
330
1
100
AcDbSymbolTableRecord
100
AcDbBlockTableRecord
  2
*D2
340
0
  0
BLOCK_RECORD
  5
E18
330
1
100
AcDbSymbolTableRecord
100
AcDbBlockTableRecord
  2
*D3
340
0
  0
BLOCK_RECORD
  5
E24
330
1
100
AcDbSymbolTableRecord
100
AcDbBlockTableRecord
  2
*D4
340
0
  0
BLOCK_RECORD
  5
E30
330
1
100
AcDbSymbolTableRecord
100
AcDbBlockTableRecord
  2
*D5
340
0
  0
BLOCK_RECORD
  5
E3E
330
1
100
AcDbSymbolTableRecord
100
AcDbBlockTableRecord
  2
*D6
340
0
  0
BLOCK_RECORD
  5
E4A
330
1
100
AcDbSymbolTableRecord
100
AcDbBlockTableRecord
  2
A$C140F7599
340
0
  0
BLOCK_RECORD
  5
11F9
330
1
100
AcDbSymbolTableRecord
100
AcDbBlockTableRecord
  2
A$C1CED3DE9
340
0
  0
BLOCK_RECORD
  5
1212
330
1
100
AcDbSymbolTableRecord
100
AcDbBlockTableRecord
  2
A$C6C1A04C6
340
0
  0
BLOCK_RECORD
  5
12E8
330
1
100
AcDbSymbolTableRecord
100
AcDbBlockTableRecord
  2
A$C6DC71FB5
340
0
  0
BLOCK_RECORD
  5
1300
330
1
100
AcDbSymbolTableRecord
100
AcDbBlockTableRecord
  2
A$C68884D68
340
0
  0
BLOCK_RECORD
  5
1319
330
1
100
AcDbSymbolTableRecord
100
AcDbBlockTableRecord
  2
A$C0F2D2D5E
340
0
  0
BLOCK_RECORD
  5
1437
330
1
100
AcDbSymbolTableRecord
100
AcDbBlockTableRecord
  2
A$C61605247
340
0
102
{BLKREFS
331
1465
102
}
  0
BLOCK_RECORD
  5
1464
330
1
100
AcDbSymbolTableRecord
100
AcDbBlockTableRecord
  2
A$C199E4B44
340
0
  0
BLOCK_RECORD
  5
1473
330
1
100
AcDbSymbolTableRecord
100
AcDbBlockTableRecord
  2
A$C01B71BA1
340
0
  0
BLOCK_RECORD
  5
17EC
330
1
100
AcDbSymbolTableRecord
100
AcDbBlockTableRecord
  2
A$C61606E03
340
0
  0
ENDTAB
  0
ENDSEC
  0
SECTION
  2
BLOCKS
  0
BLOCK
  5
19
330
18
100
AcDbEntity
  8
0
100
AcDbBlockBegin
  2
*MODEL_SPACE
 70
     0
 10
0.0
 20
0.0
 30
0.0
  3
*MODEL_SPACE
  1

  0
ENDBLK
  5
1A
330
18
100
AcDbEntity
  8
0
100
AcDbBlockEnd
  0
BLOCK
  5
16
330
15
100
AcDbEntity
 67
     1
  8
0
100
AcDbBlockBegin
  2
*PAPER_SPACE
 70
     0
 10
0.0
 20
0.0
 30
0.0
  3
*PAPER_SPACE
  1

  0
ENDBLK
  5
17
330
15
100
AcDbEntity
 67
     1
  8
0
100
AcDbBlockEnd
  0
BLOCK
  5
B1
330
24
100
AcDbEntity
  8
0
100
AcDbBlockBegin
  2
JIS_A3
 70
     2
 10
0.0
 20
0.0
 30
0.0
  3
JIS_A3
  1

  0
LINE
  5
25
330
24
100
AcDbEntity
  8
0
100
AcDbLine
 10
0.0
 20
0.0
 30
0.0
 11
0.0
 21
10.0
 31
0.0
  0
LINE
  5
26
330
24
100
AcDbEntity
  8
0
100
AcDbLine
 10
0.0
 20
297.0
 30
0.0
 11
25.0
 21
297.0
 31
0.0
  0
LINE
  5
27
330
24
100
AcDbEntity
  8
0
100
AcDbLine
 10
420.0
 20
297.0
 30
0.0
 11
420.0
 21
287.0
 31
0.0
  0
LINE
  5
28
330
24
100
AcDbEntity
  8
0
100
AcDbLine
 10
420.0
 20
0.0
 30
0.0
 11
410.0
 21
0.0
 31
0.0
  0
LINE
  5
29
330
24
100
AcDbEntity
  8
0
100
AcDbLine
 10
25.0
 20
10.0
 30
0.0
 11
25.0
 21
287.0
 31
0.0
  0
LINE
  5
2A
330
24
100
AcDbEntity
  8
0
100
AcDbLine
 10
410.0
 20
10.0
 30
0.0
 11
25.0
 21
10.0
 31
0.0
  0
LINE
  5
2B
330
24
100
AcDbEntity
  8
0
100
AcDbLine
 10
410.0
 20
287.0
 30
0.0
 11
410.0
 21
10.0
 31
0.0
  0
LINE
  5
2C
330
24
100
AcDbEntity
  8
0
100
AcDbLine
 10
25.0
 20
287.0
 30
0.0
 11
410.0
 21
287.0
 31
0.0
  0
LINE
  5
2D
330
24
100
AcDbEntity
  8
0
100
AcDbLine
 10
0.0
 20
287.0
 30
0.0
 11
0.0
 21
297.0
 31
0.0
  0
LINE
  5
2E
330
24
100
AcDbEntity
  8
0
100
AcDbLine
 10
25.0
 20
0.0
 30
0.0
 11
0.0
 21
0.0
 31
0.0
  0
LINE
  5
2F
330
24
100
AcDbEntity
  8
0
100
AcDbLine
 10
420.0
 20
10.0
 30
0.0
 11
420.0
 21
0.0
 31
0.0
  0
LINE
  5
30
330
24
100
AcDbEntity
  8
0
100
AcDbLine
 10
410.0
 20
297.0
 30
0.0
 11
420.0
 21
297.0
 31
0.0
  0
ATTDEF
  5
31
330
24
100
AcDbEntity
  8
0
 62
     0
100
AcDbText
 10
19.0
 20
10.0
 30
0.0
 40
3.0
  1

 50
90.0
  7
ADESK1
100
AcDbAttributeDefinition
  3

  2
USER
 70
     8
  0
ATTDEF
  5
32
330
24
100
AcDbEntity
  8
0
 62
     0
100
AcDbText
 10
19.0
 20
70.0
 30
0.0
 40
3.0
  1

 50
90.0
  7
ADESK1
100
AcDbAttributeDefinition
  3

  2
REVDATE
 70
     8
  0
ATTDEF
  5
33
330
24
100
AcDbEntity
  8
0
 62
     0
100
AcDbText
 10
19.0
 20
118.0
 30
0.0
 40
3.0
  1

 50
90.0
  7
ADESK1
100
AcDbAttributeDefinition
  3

  2
FNAME
 70
     8
  0
LINE
  5
34
330
24
100
AcDbEntity
  8
OBJECT
100
AcDbLine
 10
130.0
 20
16.0
 30
0.0
 11
25.0
 21
16.0
 31
0.0
  0
LINE
  5
35
330
24
100
AcDbEntity
  8
OBJECT
100
AcDbLine
 10
130.0
 20
22.0
 30
0.0
 11
25.0
 21
22.0
 31
0.0
  0
LINE
  5
36
330
24
100
AcDbEntity
  8
OBJECT
100
AcDbLine
 10
130.0
 20
28.0
 30
0.0
 11
25.0
 21
28.0
 31
0.0
  0
LINE
  5
37
330
24
100
AcDbEntity
  8
OBJECT
100
AcDbLine
 10
130.0
 20
34.0
 30
0.0
 11
25.0
 21
34.0
 31
0.0
  0
LINE
  5
38
330
24
100
AcDbEntity
  8
OBJECT
100
AcDbLine
 10
130.0
 20
40.0
 30
0.0
 11
25.0
 21
40.0
 31
0.0
  0
LINE
  5
39
330
24
100
AcDbEntity
  8
OBJECT
100
AcDbLine
 10
28.0
 20
11.53589799999999
 30
0.0
 11
30.0
 21
15.0
 31
0.0
  0
LINE
  5
3A
330
24
100
AcDbEntity
  8
OBJECT
100
AcDbLine
 10
32.0
 20
11.53589799999999
 30
0.0
 11
30.0
 21
15.0
 31
0.0
  0
LINE
  5
3B
330
24
100
AcDbEntity
  8
OBJECT
100
AcDbLine
 10
35.0
 20
10.0
 30
0.0
 11
35.0
 21
40.0
 31
0.0
  0
LINE
  5
3C
330
24
100
AcDbEntity
  8
OBJECT
100
AcDbLine
 10
50.0
 20
10.0
 30
0.0
 11
50.0
 21
40.0
 31
0.0
  0
LINE
  5
3D
330
24
100
AcDbEntity
  8
OBJECT
100
AcDbLine
 10
80.0
 20
10.0
 30
0.0
 11
80.0
 21
40.0
 31
0.0
  0
LINE
  5
3E
330
24
100
AcDbEntity
  8
OBJECT
100
AcDbLine
 10
28.0
 20
11.53589799999999
 30
0.0
 11
32.0
 21
11.53589799999999
 31
0.0
  0
LINE
  5
3F
330
24
100
AcDbEntity
  8
OBJECT
100
AcDbLine
 10
39.5
 20
13.0
 30
0.0
 11
40.49999999999999
 21
13.0
 31
0.0
  0
LINE
  5
40
330
24
100
AcDbEntity
  8
OBJECT
100
AcDbLine
 10
44.5
 20
13.0
 30
0.0
 11
45.49999999999999
 21
13.0
 31
0.0
  0
LINE
  5
41
330
24
100
AcDbEntity
  8
OBJECT
100
AcDbLine
 10
32.0
 20
17.535898
 30
0.0
 11
30.0
 21
20.99999999999999
 31
0.0
  0
LINE
  5
42
330
24
100
AcDbEntity
  8
OBJECT
100
AcDbLine
 10
28.0
 20
17.535898
 30
0.0
 11
32.0
 21
17.535898
 31
0.0
  0
LINE
  5
43
330
24
100
AcDbEntity
  8
OBJECT
100
AcDbLine
 10
28.0
 20
17.535898
 30
0.0
 11
30.0
 21
20.99999999999999
 31
0.0
  0
LINE
  5
44
330
24
100
AcDbEntity
  8
OBJECT
100
AcDbLine
 10
32.0
 20
23.53589799999999
 30
0.0
 11
30.0
 21
26.99999999999999
 31
0.0
  0
LINE
  5
45
330
24
100
AcDbEntity
  8
OBJECT
100
AcDbLine
 10
28.0
 20
23.53589799999999
 30
0.0
 11
32.0
 21
23.53589799999999
 31
0.0
  0
LINE
  5
46
330
24
100
AcDbEntity
  8
OBJECT
100
AcDbLine
 10
28.0
 20
23.53589799999999
 30
0.0
 11
30.0
 21
26.99999999999999
 31
0.0
  0
LINE
  5
47
330
24
100
AcDbEntity
  8
OBJECT
100
AcDbLine
 10
28.0
 20
35.53589799999999
 30
0.0
 11
30.0
 21
39.0
 31
0.0
  0
LINE
  5
48
330
24
100
AcDbEntity
  8
OBJECT
100
AcDbLine
 10
32.0
 20
35.53589799999999
 30
0.0
 11
30.0
 21
39.0
 31
0.0
  0
LINE
  5
49
330
24
100
AcDbEntity
  8
OBJECT
100
AcDbLine
 10
28.0
 20
35.53589799999999
 30
0.0
 11
32.0
 21
35.53589799999999
 31
0.0
  0
LINE
  5
4A
330
24
100
AcDbEntity
  8
OBJECT
100
AcDbLine
 10
32.0
 20
29.535898
 30
0.0
 11
30.0
 21
33.0
 31
0.0
  0
LINE
  5
4B
330
24
100
AcDbEntity
  8
OBJECT
100
AcDbLine
 10
28.0
 20
29.535898
 30
0.0
 11
32.0
 21
29.535898
 31
0.0
  0
LINE
  5
4C
330
24
100
AcDbEntity
  8
OBJECT
100
AcDbLine
 10
28.0
 20
29.535898
 30
0.0
 11
30.0
 21
33.0
 31
0.0
  0
LINE
  5
4D
330
24
100
AcDbEntity
  8
OBJECT
100
AcDbLine
 10
39.5
 20
19.0
 30
0.0
 11
40.49999999999999
 21
19.0
 31
0.0
  0
LINE
  5
4E
330
24
100
AcDbEntity
  8
OBJECT
100
AcDbLine
 10
44.5
 20
19.0
 30
0.0
 11
45.49999999999999
 21
19.0
 31
0.0
  0
LINE
  5
4F
330
24
100
AcDbEntity
  8
OBJECT
100
AcDbLine
 10
39.5
 20
25.0
 30
0.0
 11
40.49999999999999
 21
25.0
 31
0.0
  0
LINE
  5
50
330
24
100
AcDbEntity
  8
OBJECT
100
AcDbLine
 10
44.5
 20
25.0
 30
0.0
 11
45.49999999999999
 21
25.0
 31
0.0
  0
LINE
  5
51
330
24
100
AcDbEntity
  8
OBJECT
100
AcDbLine
 10
39.5
 20
31.0
 30
0.0
 11
40.49999999999999
 21
31.0
 31
0.0
  0
LINE
  5
52
330
24
100
AcDbEntity
  8
OBJECT
100
AcDbLine
 10
39.5
 20
37.0
 30
0.0
 11
40.49999999999999
 21
37.0
 31
0.0
  0
LINE
  5
53
330
24
100
AcDbEntity
  8
OBJECT
100
AcDbLine
 10
44.5
 20
31.0
 30
0.0
 11
45.49999999999999
 21
31.0
 31
0.0
  0
LINE
  5
54
330
24
100
AcDbEntity
  8
OBJECT
100
AcDbLine
 10
44.5
 20
37.0
 30
0.0
 11
45.49999999999999
 21
37.0
 31
0.0
  0
LINE
  5
55
330
24
100
AcDbEntity
  8
OBJECT
100
AcDbLine
 10
120.0
 20
10.0
 30
0.0
 11
120.0
 21
40.0
 31
0.0
  0
LINE
  5
56
330
24
100
AcDbEntity
  8
OBJECT
100
AcDbLine
 10
130.0
 20
40.0
 30
0.0
 11
130.0
 21
10.0
 31
0.0
  0
LINE
  5
57
330
24
100
AcDbEntity
  8
0
100
AcDbLine
 10
217.5
 20
10.0
 30
0.0
 11
217.5
 21
0.0
 31
0.0
  0
LINE
  5
58
330
24
100
AcDbEntity
  8
0
100
AcDbLine
 10
217.5
 20
287.0
 30
0.0
 11
217.5
 21
297.0
 31
0.0
  0
LINE
  5
59
330
24
100
AcDbEntity
  8
0
100
AcDbLine
 10
410.0
 20
148.5
 30
0.0
 11
420.0
 21
148.5
 31
0.0
  0
LINE
  5
5A
330
24
100
AcDbEntity
  8
0
100
AcDbLine
 10
25.0
 20
148.5
 30
0.0
 11
0.0
 21
148.5
 31
0.0
  0
TEXT
  5
5B
330
24
100
AcDbEntity
  8
0
100
AcDbText
 10
1.0
 20
1.0
 30
0.0
 40
3.0
  1
この図枠はサンプルです。社内の規格やプロッタの出力範囲に合わせて適当に変更してご利用ください。
  7
ADESK1
100
AcDbText
  0
LINE
  5
5C
330
24
100
AcDbEntity
  8
0
100
AcDbLine
 10
25.0
 20
240.8333333333333
 30
0.0
 11
20.0
 21
240.8333333333333
 31
0.0
  0
LINE
  5
5D
330
24
100
AcDbEntity
  8
0
100
AcDbLine
 10
25.0
 20
194.6666666666666
 30
0.0
 11
20.0
 21
194.6666666666666
 31
0.0
  0
LINE
  5
5E
330
24
100
AcDbEntity
  8
0
100
AcDbLine
 10
25.0
 20
148.5
 30
0.0
 11
20.0
 21
148.5
 31
0.0
  0
LINE
  5
5F
330
24
100
AcDbEntity
  8
0
100
AcDbLine
 10
25.0
 20
102.3333333333333
 30
0.0
 11
20.0
 21
102.3333333333333
 31
0.0
  0
LINE
  5
60
330
24
100
AcDbEntity
  8
0
100
AcDbLine
 10
25.0
 20
56.16666666666667
 30
0.0
 11
20.0
 21
56.16666666666667
 31
0.0
  0
LINE
  5
61
330
24
100
AcDbEntity
  8
0
100
AcDbLine
 10
410.0
 20
56.16666666666668
 30
0.0
 11
415.0
 21
56.16666666666668
 31
0.0
  0
LINE
  5
62
330
24
100
AcDbEntity
  8
0
100
AcDbLine
 10
410.0
 20
102.3333333333333
 30
0.0
 11
415.0
 21
102.3333333333333
 31
0.0
  0
LINE
  5
63
330
24
100
AcDbEntity
  8
0
100
AcDbLine
 10
410.0
 20
148.5
 30
0.0
 11
415.0
 21
148.5
 31
0.0
  0
LINE
  5
64
330
24
100
AcDbEntity
  8
0
100
AcDbLine
 10
410.0
 20
194.6666666666667
 30
0.0
 11
415.0
 21
194.6666666666667
 31
0.0
  0
LINE
  5
65
330
24
100
AcDbEntity
  8
0
100
AcDbLine
 10
410.0
 20
240.8333333333333
 30
0.0
 11
415.0
 21
240.8333333333333
 31
0.0
  0
LINE
  5
66
330
24
100
AcDbEntity
  8
0
100
AcDbLine
 10
73.125
 20
10.0
 30
0.0
 11
73.125
 21
5.0
 31
0.0
  0
LINE
  5
67
330
24
100
AcDbEntity
  8
0
100
AcDbLine
 10
121.25
 20
10.0
 30
0.0
 11
121.25
 21
5.0
 31
0.0
  0
LINE
  5
68
330
24
100
AcDbEntity
  8
0
100
AcDbLine
 10
169.375
 20
10.0
 30
0.0
 11
169.375
 21
5.0
 31
0.0
  0
LINE
  5
69
330
24
100
AcDbEntity
  8
0
100
AcDbLine
 10
217.5
 20
10.0
 30
0.0
 11
217.5
 21
5.0
 31
0.0
  0
LINE
  5
6A
330
24
100
AcDbEntity
  8
0
100
AcDbLine
 10
265.625
 20
10.0
 30
0.0
 11
265.625
 21
5.0
 31
0.0
  0
LINE
  5
6B
330
24
100
AcDbEntity
  8
0
100
AcDbLine
 10
313.75
 20
10.0
 30
0.0
 11
313.75
 21
5.0
 31
0.0
  0
LINE
  5
6C
330
24
100
AcDbEntity
  8
0
100
AcDbLine
 10
361.8749999999999
 20
10.0
 30
0.0
 11
361.8749999999999
 21
5.0
 31
0.0
  0
LINE
  5
6D
330
24
100
AcDbEntity
  8
0
100
AcDbLine
 10
361.8749999999999
 20
287.0
 30
0.0
 11
361.8749999999999
 21
292.0
 31
0.0
  0
LINE
  5
6E
330
24
100
AcDbEntity
  8
0
100
AcDbLine
 10
313.75
 20
287.0
 30
0.0
 11
313.75
 21
292.0
 31
0.0
  0
LINE
  5
6F
330
24
100
AcDbEntity
  8
0
100
AcDbLine
 10
265.625
 20
287.0
 30
0.0
 11
265.625
 21
292.0
 31
0.0
  0
LINE
  5
70
330
24
100
AcDbEntity
  8
0
100
AcDbLine
 10
217.5
 20
287.0
 30
0.0
 11
217.5
 21
292.0
 31
0.0
  0
LINE
  5
71
330
24
100
AcDbEntity
  8
0
100
AcDbLine
 10
169.375
 20
287.0
 30
0.0
 11
169.375
 21
292.0
 31
0.0
  0
LINE
  5
72
330
24
100
AcDbEntity
  8
0
100
AcDbLine
 10
121.25
 20
287.0
 30
0.0
 11
121.25
 21
292.0
 31
0.0
  0
LINE
  5
73
330
24
100
AcDbEntity
  8
0
100
AcDbLine
 10
73.125
 20
287.0
 30
0.0
 11
73.125
 21
292.0
 31
0.0
  0
TEXT
  5
74
330
24
100
AcDbEntity
  8
0
100
AcDbText
 10
47.84821428571429
 20
288.0
 30
0.0
 40
3.0
  1
1
  7
ADESK1
 72
     1
 11
49.0625
 21
288.0
 31
0.0
100
AcDbText
  0
TEXT
  5
75
330
24
100
AcDbEntity
  8
0
100
AcDbText
 10
21.32144707381961
 20
263.9166666666666
 30
0.0
 40
3.0
  1
A
  7
ADESK1
 72
     1
 11
22.60716135953389
 21
263.9166666666666
 31
0.0
100
AcDbText
  0
TEXT
  5
76
330
24
100
AcDbEntity
  8
0
100
AcDbText
 10
95.75892857142857
 20
288.0
 30
0.0
 40
3.0
  1
2
  7
ADESK1
 72
     1
 11
97.1875
 21
288.0
 31
0.0
100
AcDbText
  0
TEXT
  5
77
330
24
100
AcDbEntity
  8
0
100
AcDbText
 10
143.8839285714285
 20
288.0
 30
0.0
 40
3.0
  1
3
  7
ADESK1
 72
     1
 11
145.3125
 21
288.0
 31
0.0
100
AcDbText
  0
TEXT
  5
78
330
24
100
AcDbEntity
  8
0
100
AcDbText
 10
191.9375
 20
288.0
 30
0.0
 40
3.0
  1
4
  7
ADESK1
 72
     1
 11
193.4375
 21
288.0
 31
0.0
100
AcDbText
  0
TEXT
  5
79
330
24
100
AcDbEntity
  8
0
100
AcDbText
 10
240.1339285714285
 20
288.0
 30
0.0
 40
3.0
  1
5
  7
ADESK1
 72
     1
 11
241.5624999999999
 21
288.0
 31
0.0
100
AcDbText
  0
TEXT
  5
7A
330
24
100
AcDbEntity
  8
0
100
AcDbText
 10
288.1874999999999
 20
288.0
 30
0.0
 40
3.0
  1
6
  7
ADESK1
 72
     1
 11
289.6875
 21
288.0
 31
0.0
100
AcDbText
  0
TEXT
  5
7B
330
24
100
AcDbEntity
  8
0
100
AcDbText
 10
336.3839285714285
 20
288.0
 30
0.0
 40
3.0
  1
7
  7
ADESK1
 72
     1
 11
337.8125
 21
288.0
 31
0.0
100
AcDbText
  0
TEXT
  5
7C
330
24
100
AcDbEntity
  8
0
100
AcDbText
 10
384.5089285714285
 20
288.0
 30
0.0
 40
3.0
  1
8
  7
ADESK1
 72
     1
 11
385.9375
 21
288.0
 31
0.0
100
AcDbText
  0
TEXT
  5
7D
330
24
100
AcDbEntity
  8
0
100
AcDbText
 10
21.03573278810532
 20
217.7499999999999
 30
0.0
 40
3.0
  1
B
  7
ADESK1
 72
     1
 11
22.60716135953389
 21
217.7499999999999
 31
0.0
100
AcDbText
  0
TEXT
  5
7E
330
24
100
AcDbEntity
  8
0
100
AcDbText
 10
21.10716135953389
 20
171.5833333333333
 30
0.0
 40
3.0
  1
C
  7
ADESK1
 72
     1
 11
22.60716135953389
 21
171.5833333333333
 31
0.0
100
AcDbText
  0
TEXT
  5
7F
330
24
100
AcDbEntity
  8
0
100
AcDbText
 10
21.03573278810532
 20
125.4166666666666
 30
0.0
 40
3.0
  1
D
  7
ADESK1
 72
     1
 11
22.60716135953389
 21
125.4166666666666
 31
0.0
100
AcDbText
  0
TEXT
  5
80
330
24
100
AcDbEntity
  8
0
100
AcDbText
 10
21.10716135953389
 20
79.25
 30
0.0
 40
3.0
  1
E
  7
ADESK1
 72
     1
 11
22.60716135953389
 21
79.25
 31
0.0
100
AcDbText
  0
TEXT
  5
81
330
24
100
AcDbEntity
  8
0
100
AcDbText
 10
21.10716135953389
 20
33.08333333333334
 30
0.0
 40
3.0
  1
F
  7
ADESK1
 72
     1
 11
22.60716135953389
 21
33.08333333333334
 31
0.0
100
AcDbText
  0
TEXT
  5
82
330
24
100
AcDbEntity
  8
0
100
AcDbText
 10
47.84821428571429
 20
6.019997240728748
 30
0.0
 40
3.0
  1
1
  7
ADESK1
 72
     1
 11
49.0625
 21
6.019997240728748
 31
0.0
100
AcDbText
  0
TEXT
  5
83
330
24
100
AcDbEntity
  8
0
100
AcDbText
 10
95.75892857142857
 20
6.019997240728748
 30
0.0
 40
3.0
  1
2
  7
ADESK1
 72
     1
 11
97.1875
 21
6.019997240728748
 31
0.0
100
AcDbText
  0
TEXT
  5
84
330
24
100
AcDbEntity
  8
0
100
AcDbText
 10
143.8839285714285
 20
6.019997240728748
 30
0.0
 40
3.0
  1
3
  7
ADESK1
 72
     1
 11
145.3125
 21
6.019997240728748
 31
0.0
100
AcDbText
  0
TEXT
  5
85
330
24
100
AcDbEntity
  8
0
100
AcDbText
 10
191.9375
 20
6.019997240728748
 30
0.0
 40
3.0
  1
4
  7
ADESK1
 72
     1
 11
193.4375
 21
6.019997240728748
 31
0.0
100
AcDbText
  0
TEXT
  5
86
330
24
100
AcDbEntity
  8
0
100
AcDbText
 10
240.1339285714285
 20
6.019997240728748
 30
0.0
 40
3.0
  1
5
  7
ADESK1
 72
     1
 11
241.5624999999999
 21
6.019997240728748
 31
0.0
100
AcDbText
  0
TEXT
  5
87
330
24
100
AcDbEntity
  8
0
100
AcDbText
 10
288.1874999999999
 20
6.019997240728748
 30
0.0
 40
3.0
  1
6
  7
ADESK1
 72
     1
 11
289.6875
 21
6.019997240728748
 31
0.0
100
AcDbText
  0
TEXT
  5
88
330
24
100
AcDbEntity
  8
0
100
AcDbText
 10
336.3839285714285
 20
6.019997240728748
 30
0.0
 40
3.0
  1
7
  7
ADESK1
 72
     1
 11
337.8125
 21
6.019997240728748
 31
0.0
100
AcDbText
  0
TEXT
  5
89
330
24
100
AcDbEntity
  8
0
100
AcDbText
 10
384.5089285714285
 20
6.019997240728748
 30
0.0
 40
3.0
  1
8
  7
ADESK1
 72
     1
 11
385.9375
 21
6.019997240728748
 31
0.0
100
AcDbText
  0
TEXT
  5
8A
330
24
100
AcDbEntity
  8
0
100
AcDbText
 10
411.5851108826324
 20
263.9166666666666
 30
0.0
 40
3.0
  1
A
  7
ADESK1
 72
     1
 11
412.8708251683468
 21
263.9166666666666
 31
0.0
100
AcDbText
  0
TEXT
  5
8B
330
24
100
AcDbEntity
  8
0
100
AcDbText
 10
411.2993965969182
 20
217.7499999999999
 30
0.0
 40
3.0
  1
B
  7
ADESK1
 72
     1
 11
412.8708251683468
 21
217.7499999999999
 31
0.0
100
AcDbText
  0
TEXT
  5
8C
330
24
100
AcDbEntity
  8
0
100
AcDbText
 10
411.3708251683467
 20
171.5833333333333
 30
0.0
 40
3.0
  1
C
  7
ADESK1
 72
     1
 11
412.8708251683468
 21
171.5833333333333
 31
0.0
100
AcDbText
  0
TEXT
  5
8D
330
24
100
AcDbEntity
  8
0
100
AcDbText
 10
411.2993965969182
 20
125.4166666666666
 30
0.0
 40
3.0
  1
D
  7
ADESK1
 72
     1
 11
412.8708251683468
 21
125.4166666666666
 31
0.0
100
AcDbText
  0
TEXT
  5
8E
330
24
100
AcDbEntity
  8
0
100
AcDbText
 10
411.3708251683467
 20
79.25
 30
0.0
 40
3.0
  1
E
  7
ADESK1
 72
     1
 11
412.8708251683468
 21
79.25
 31
0.0
100
AcDbText
  0
TEXT
  5
8F
330
24
100
AcDbEntity
  8
0
100
AcDbText
 10
411.3708251683467
 20
33.08333333333334
 30
0.0
 40
3.0
  1
F
  7
ADESK1
 72
     1
 11
412.8708251683468
 21
33.08333333333334
 31
0.0
100
AcDbText
  0
LINE
  5
90
330
24
100
AcDbEntity
  8
0
 62
     0
100
AcDbLine
 10
280.2978723404241
 20
49.00000000000036
 30
0.0
 11
410.0
 21
49.00000000000036
 31
0.0
  0
LINE
  5
91
330
24
100
AcDbEntity
  8
0
 62
     0
100
AcDbLine
 10
280.2978723404241
 20
13.00000000000004
 30
0.0
 11
410.0
 21
13.00000000000004
 31
0.0
  0
LINE
  5
92
330
24
100
AcDbEntity
  8
0
 62
     0
100
AcDbLine
 10
280.2978723404241
 20
37.00000000000024
 30
0.0
 11
410.0
 21
37.00000000000024
 31
0.0
  0
LINE
  5
93
330
24
100
AcDbEntity
  8
0
 62
     0
100
AcDbLine
 10
318.1276595744673
 20
22.00000000000012
 30
0.0
 11
410.0
 21
22.00000000000012
 31
0.0
  0
LINE
  5
94
330
24
100
AcDbEntity
  8
0
 62
     0
100
AcDbLine
 10
280.2978723404241
 20
10.0
 30
0.0
 11
410.0
 21
10.0
 31
0.0
  0
LINE
  5
95
330
24
100
AcDbEntity
  8
0
 62
     0
100
AcDbLine
 10
410.0
 20
49.00000000000036
 30
0.0
 11
280.2978723404241
 21
49.00000000000036
 31
0.0
  0
LINE
  5
96
330
24
100
AcDbEntity
  8
0
 62
     0
100
AcDbLine
 10
303.7163120567365
 20
37.00000000000024
 30
0.0
 11
303.7163120567365
 21
10.0
 31
0.0
  0
LINE
  5
97
330
24
100
AcDbEntity
  8
0
 62
     0
100
AcDbLine
 10
285.702127659573
 20
37.00000000000024
 30
0.0
 11
285.702127659573
 21
10.0
 31
0.0
  0
LINE
  5
98
330
24
100
AcDbEntity
  8
0
 62
     0
100
AcDbLine
 10
312.7234042553184
 20
37.00000000000024
 30
0.0
 11
312.7234042553184
 21
10.0
 31
0.0
  0
LINE
  5
99
330
24
100
AcDbEntity
  8
0
 62
     0
100
AcDbLine
 10
318.1276595744673
 20
25.00000000000012
 30
0.0
 11
318.1276595744673
 21
10.0
 31
0.0
  0
LINE
  5
9A
330
24
100
AcDbEntity
  8
0
 62
     0
100
AcDbLine
 10
280.2978723404241
 20
49.00000000000036
 30
0.0
 11
280.2978723404241
 21
10.0
 31
0.0
  0
LINE
  5
9B
330
24
100
AcDbEntity
  8
0
 62
     0
100
AcDbLine
 10
348.7517730496447
 20
49.00000000000036
 30
0.0
 11
348.7517730496447
 21
10.0
 31
0.0
  0
LINE
  5
9C
330
24
100
AcDbEntity
  8
0
 62
     0
100
AcDbLine
 10
328.7659574468077
 20
22.00000000000007
 30
0.0
 11
328.7659574468077
 21
10.0
 31
0.0
  0
LINE
  5
9D
330
24
100
AcDbEntity
  8
0
 62
     0
100
AcDbLine
 10
339.4042553191484
 20
22.00000000000007
 30
0.0
 11
339.4042553191484
 21
10.0
 31
0.0
  0
LINE
  5
9E
330
24
100
AcDbEntity
  8
0
 62
     0
100
AcDbLine
 10
280.2978723404241
 20
16.00000000000008
 30
0.0
 11
318.1276595744673
 21
16.00000000000008
 31
0.0
  0
LINE
  5
9F
330
24
100
AcDbEntity
  8
0
 62
     0
100
AcDbLine
 10
280.2978723404241
 20
10.0
 30
0.0
 11
280.2978723404241
 21
13.00000000000004
 31
0.0
  0
TEXT
  5
A0
330
24
100
AcDbEntity
  8
0
 62
     0
100
AcDbText
 10
321.7174935280942
 20
10.48329012996929
 30
0.0
 40
1.791674070777747
  1
製図
  7
ADESK1
 72
     1
 11
323.5688900678979
 21
10.48329012996929
 31
0.0
100
AcDbText
  0
TEXT
  5
A1
330
24
100
AcDbEntity
  8
0
 62
     0
100
AcDbText
 10
332.2960689314087
 20
10.48329012996929
 30
0.0
 40
1.791674070777747
  1
設計
  7
ADESK1
 72
     1
 11
334.2071879402383
 21
10.48329012996929
 31
0.0
100
AcDbText
  0
TEXT
  5
A2
330
24
100
AcDbEntity
  8
0
 62
     0
100
AcDbText
 10
342.2447163844405
 20
10.55220101068186
 30
0.0
 40
1.791674070777747
  1
照査
  7
ADESK1
 72
     1
 11
344.1558353932701
 21
10.55220101068186
 31
0.0
100
AcDbText
  0
LINE
  5
A3
330
24
100
AcDbEntity
  8
0
 62
     0
100
AcDbLine
 10
280.2978723404241
 20
25.00000000000012
 30
0.0
 11
318.1276595744673
 21
25.00000000000012
 31
0.0
  0
LINE
  5
A4
330
24
100
AcDbEntity
  8
0
 62
     0
100
AcDbLine
 10
280.2978723404241
 20
22.00000000000007
 30
0.0
 11
318.1276595744673
 21
22.00000000000012
 31
0.0
  0
LINE
  5
A5
330
24
100
AcDbEntity
  8
0
 62
     0
100
AcDbLine
 10
280.2978723404241
 20
19.00000000000007
 30
0.0
 11
318.1276595744673
 21
19.00000000000012
 31
0.0
  0
LINE
  5
A6
330
24
100
AcDbEntity
  8
0
 62
     0
100
AcDbLine
 10
280.2978723404241
 20
34.00000000000024
 30
0.0
 11
348.7517730496447
 21
34.00000000000024
 31
0.0
  0
LINE
  5
A7
330
24
100
AcDbEntity
  8
0
 62
     0
100
AcDbLine
 10
280.2978723404241
 20
31.0000000000002
 30
0.0
 11
348.7517730496447
 21
31.0000000000002
 31
0.0
  0
LINE
  5
A8
330
24
100
AcDbEntity
  8
0
 62
     0
100
AcDbLine
 10
280.2978723404241
 20
28.00000000000015
 30
0.0
 11
348.7517730496447
 21
28.00000000000015
 31
0.0
  0
LINE
  5
A9
330
24
100
AcDbEntity
  8
0
 62
     0
100
AcDbLine
 10
318.1276595744673
 20
25.00000000000012
 30
0.0
 11
348.7517730496447
 21
25.00000000000012
 31
0.0
  0
LINE
  5
AA
330
24
100
AcDbEntity
  8
0
 62
     0
100
AcDbLine
 10
318.1276595744673
 20
49.00000000000036
 30
0.0
 11
318.1276595744673
 21
25.00000000000012
 31
0.0
  0
LINE
  5
AB
330
24
100
AcDbEntity
  8
0
 62
     0
100
AcDbLine
 10
325.3333333333325
 20
37.00000000000024
 30
0.0
 11
325.3333333333325
 21
25.00000000000012
 31
0.0
  0
LINE
  5
AC
330
24
100
AcDbEntity
  8
0
 62
     0
100
AcDbLine
 10
336.1418439716306
 20
49.00000000000036
 30
0.0
 11
336.1418439716306
 21
22.00000000000012
 31
0.0
  0
LINE
  5
AD
330
24
100
AcDbEntity
  8
0
 62
     0
100
AcDbLine
 10
402.7943262411347
 20
22.00000000000012
 30
0.0
 11
402.7943262411347
 21
10.0
 31
0.0
  0
LINE
  5
AE
330
24
100
AcDbEntity
  8
0
 62
     0
100
AcDbLine
 10
410.0
 20
49.00000000000036
 30
0.0
 11
410.0
 21
10.0
 31
0.0
  0
LINE
  5
AF
330
24
100
AcDbEntity
  8
0
 62
     0
100
AcDbLine
 10
410.0
 20
10.0
 30
0.0
 11
410.0
 21
49.00000000000036
 31
0.0
  0
LINE
  5
B0
330
24
100
AcDbEntity
  8
0
 62
     0
100
AcDbLine
 10
402.7943262411347
 20
16.00000000000008
 30
0.0
 11
410.0
 21
16.00000000000008
 31
0.0
  0
ENDBLK
  5
B2
330
24
100
AcDbEntity
  8
0
100
AcDbBlockEnd
  0
BLOCK
  5
E09
330
DF4
100
AcDbEntity
  8
0
 48
10.0
100
AcDbBlockBegin
  2
A$C76631095
 70
     0
 10
0.0
 20
0.0
 30
0.0
  3
A$C76631095
  1

  0
MTEXT
  5
DF5
330
DF4
100
AcDbEntity
  8
上線
 48
10.0
100
AcDbMText
 10
213.9511483416536
 20
83.43253345968605
 30
0.0
 40
50.0
 41
1003.0154
 71
     1
 72
     5
  1
\fＭＳ Ｐ明朝|b0|i0|c128|p18;㈱　ウ　チ　コ　ン
 73
     1
 44
1.0
  0
LINE
  5
DF6
330
DF4
100
AcDbEntity
  8
上線
100
AcDbLine
 10
0.0000018820305741
 20
347.6075602303617
 30
0.0
 11
0.0000018820296646
 21
-0.0000026841717045
 31
0.0
  0
LINE
  5
DF7
330
DF4
100
AcDbEntity
  8
上線
100
AcDbLine
 10
947.3264000794097
 20
-0.0000026841717045
 30
0.0
 11
947.3264000794097
 21
347.6075602303617
 31
0.0
  0
LINE
  5
DF8
330
DF4
100
AcDbEntity
  8
上線
100
AcDbLine
 10
947.3264000794097
 20
-0.0000026841717045
 30
0.0
 11
0.0000018820296646
 21
-0.0000026841717045
 31
0.0
  0
LINE
  5
DF9
330
DF4
100
AcDbEntity
  8
上線
100
AcDbLine
 10
947.3264000794097
 20
102.6542732834659
 30
0.0
 11
0.0000018820296646
 21
102.6542732834659
 31
0.0
  0
LINE
  5
DFA
330
DF4
100
AcDbEntity
  8
上線
100
AcDbLine
 10
947.3264000794097
 20
171.0515387448985
 30
0.0
 11
0.0000018820296646
 21
171.0515387448985
 31
0.0
  0
LINE
  5
DFB
330
DF4
100
AcDbEntity
  8
上線
100
AcDbLine
 10
947.3264000794097
 20
247.8754820659969
 30
0.0
 11
0.0000018820296646
 21
247.8754820659969
 31
0.0
  0
LINE
  5
DFC
330
DF4
100
AcDbEntity
  8
上線
100
AcDbLine
 10
947.3264000794097
 20
347.6075602303617
 30
0.0
 11
0.0000018820296646
 21
347.6075602303617
 31
0.0
  0
MTEXT
  5
DFD
330
DF4
100
AcDbEntity
  8
上線
 48
10.0
100
AcDbMText
 10
36.95012512673929
 20
155.8003766621732
 30
0.0
 40
35.0
 41
241.0562
 71
     1
 72
     5
  1
\fＭＳ Ｐ明朝|b0|i0|c128|p18;ｓ；1/15
 73
     1
 44
1.0
  0
MTEXT
  5
DFE
330
DF4
100
AcDbEntity
  8
上線
 48
10.0
100
AcDbMText
 10
20.90609954212232
 20
226.1317266854475
 30
0.0
 40
30.0
 41
241.0562
 71
     1
 72
     5
  1
\fＭＳ Ｐ明朝|b0|i0|c128|p18;寸　法
 73
     1
 44
1.0
  0
MTEXT
  5
DFF
330
DF4
100
AcDbEntity
  8
上線
 48
10.0
100
AcDbMText
 10
20.90609954212232
 20
319.6553279599529
 30
0.0
 40
30.0
 41
241.0562
 71
     1
 72
     5
  1
\fＭＳ Ｐ明朝|b0|i0|c128|p18;呼び名
 73
     1
 44
1.0
  0
MTEXT
  5
E00
330
DF4
100
AcDbEntity
  8
上線
 48
10.0
100
AcDbMText
 10
207.0566595292039
 20
329.5381109258059
 30
0.0
 40
50.0
 41
1003.0154
 71
     1
 72
     5
  1
長尺U字溝　 （H4-30）
 73
     1
 44
1.0
  0
LINE
  5
E01
330
DF4
100
AcDbEntity
  8
上線
100
AcDbLine
 10
166.7361091301863
 20
347.6075602303617
 30
0.0
 11
166.7361091301863
 21
171.0515387448985
 31
0.0
  0
MTEXT
  5
E02
330
DF4
100
AcDbEntity
  8
上線
 48
10.0
100
AcDbMText
 10
193.3162125716371
 20
237.1889393689198
 30
0.0
 40
45.0
 41
1003.0154
 71
     1
 72
     5
  1
300×300×120/120×4000
 73
     1
 44
1.0
  0
MTEXT
  5
E03
330
DF4
100
AcDbEntity
  8
上線
 48
10.0
100
AcDbMText
 10
491.4800048269862
 20
153.8123139598656
 30
0.0
 40
35.0
 41
241.0562
 71
     1
 72
     5
  1
W=1350㎏
 73
     1
 44
1.0
  0
MTEXT
  5
E04
330
DF4
100
AcDbEntity
  8
上線
 48
10.0
100
AcDbMText
 10
267.8121528552182
 20
155.8003766621723
 30
0.0
 40
35.0
 41
241.0562
 71
     1
 72
     5
  1
\fＭＳ Ｐ明朝|b0|i0|c128|p18;単位；㎜
 73
     1
 44
1.0
  0
LINE
  5
E05
330
DF4
100
AcDbEntity
  8
上線
 48
10.0
100
AcDbLine
 10
236.831601431375
 20
171.0515387448985
 30
0.0
 11
236.8316014313754
 21
102.6542732834659
 31
0.0
  0
LINE
  5
E06
330
DF4
100
AcDbEntity
  8
上線
 48
10.0
100
AcDbLine
 10
473.6632009807199
 20
171.0515387448985
 30
0.0
 11
473.6632009807199
 21
102.6542732834659
 31
0.0
  0
LINE
  5
E07
330
DF4
100
AcDbEntity
  8
上線
 48
10.0
100
AcDbLine
 10
729.2924737461508
 20
171.0515387448985
 30
0.0
 11
729.2924737461508
 21
102.6542732834659
 31
0.0
  0
MTEXT
  5
E08
330
DF4
100
AcDbEntity
  8
上線
 48
10.0
100
AcDbMText
 10
755.3963111996981
 20
152.8704052015728
 30
0.0
 40
35.0
 41
241.0562
 71
     1
 72
     5
  1
S=7.8㎏
 73
     1
 44
1.0
  0
ENDBLK
  5
E0A
330
DF4
100
AcDbEntity
  8
0
 48
10.0
100
AcDbBlockEnd
  0
BLOCK
  5
E16
330
E0C
100
AcDbEntity
  8
0
 48
10.0
100
AcDbBlockBegin
  2
*D2
 70
     1
 10
0.0
 20
0.0
 30
0.0
  3
*D2
  1

  0
LINE
  5
E0D
330
E0C
100
AcDbEntity
  8
0
  6
ByBlock
 62
     0
 48
10.0
100
AcDbLine
 10
6488.570487269344
 20
1700.65551464037
 30
0.0
 11
6488.570487269344
 21
2063.78051464037
 31
0.0
  0
LINE
  5
E0E
330
E0C
100
AcDbEntity
  8
0
  6
ByBlock
 62
     0
 48
10.0
100
AcDbLine
 10
8785.058566304215
 20
1704.40551464037
 30
0.0
 11
8785.058566304215
 21
2063.78051464037
 31
0.0
  0
LINE
  5
E0F
330
E0C
100
AcDbEntity
  8
0
  6
ByBlock
 62
     0
 48
10.0
100
AcDbLine
 10
6526.070487269343
 20
2045.03051464037
 30
0.0
 11
8747.558566304215
 21
2045.03051464037
 31
0.0
  0
SOLID
  5
E10
330
E0C
100
AcDbEntity
  8
0
  6
ByBlock
 62
     0
 48
10.0
100
AcDbTrace
 10
6526.070487269343
 20
2051.28051464037
 30
0.0
 11
6526.070487269343
 21
2038.78051464037
 31
0.0
 12
6488.570487269344
 22
2045.03051464037
 32
0.0
 13
6488.570487269344
 23
2045.03051464037
 33
0.0
  0
SOLID
  5
E11
330
E0C
100
AcDbEntity
  8
0
  6
ByBlock
 62
     0
 48
10.0
100
AcDbTrace
 10
8747.558566304215
 20
2051.28051464037
 30
0.0
 11
8747.558566304215
 21
2038.78051464037
 31
0.0
 12
8785.058566304215
 22
2045.03051464037
 32
0.0
 13
8785.058566304215
 23
2045.03051464037
 33
0.0
  0
MTEXT
  5
E12
330
E0C
100
AcDbEntity
  8
0
  6
ByBlock
 62
     0
 48
10.0
100
AcDbMText
 10
7636.81452678678
 20
2076.420964078573
 30
0.0
 40
37.5
 41
0.0
 71
     5
 72
     1
  1
\A1;4,000
 73
     1
 44
1.0
  0
POINT
  5
E13
330
E0C
100
AcDbEntity
  8
DEFPOINTS
  6
ByBlock
 62
     0
 48
10.0
100
AcDbPoint
 10
6488.570487269344
 20
1691.28051464037
 30
0.0
  0
POINT
  5
E14
330
E0C
100
AcDbEntity
  8
DEFPOINTS
  6
ByBlock
 62
     0
 48
10.0
100
AcDbPoint
 10
8785.058566304215
 20
1695.03051464037
 30
0.0
  0
POINT
  5
E15
330
E0C
100
AcDbEntity
  8
DEFPOINTS
  6
ByBlock
 62
     0
 48
10.0
100
AcDbPoint
 10
8785.058566304215
 20
2045.03051464037
 30
0.0
  0
ENDBLK
  5
E17
330
E0C
100
AcDbEntity
  8
0
 48
10.0
100
AcDbBlockEnd
  0
BLOCK
  5
E22
330
E18
100
AcDbEntity
  8
0
 48
10.0
100
AcDbBlockBegin
  2
*D3
 70
     1
 10
0.0
 20
0.0
 30
0.0
  3
*D3
  1

  0
LINE
  5
E19
330
E18
100
AcDbEntity
  8
0
  6
ByBlock
 62
     0
 48
10.0
100
AcDbLine
 10
597.0366775704097
 20
1465.03051464037
 30
0.0
 11
237.6616775704096
 21
1465.03051464037
 31
0.0
  0
LINE
  5
E1A
330
E18
100
AcDbEntity
  8
0
  6
ByBlock
 62
     0
 48
10.0
100
AcDbLine
 10
597.0366775704096
 20
965.0305146403711
 30
0.0
 11
237.6616775704096
 21
965.0305146403711
 31
0.0
  0
LINE
  5
E1B
330
E18
100
AcDbEntity
  8
0
  6
ByBlock
 62
     0
 48
10.0
100
AcDbLine
 10
256.4116775704097
 20
1427.530514640371
 30
0.0
 11
256.4116775704096
 21
1002.530514640371
 31
0.0
  0
SOLID
  5
E1C
330
E18
100
AcDbEntity
  8
0
  6
ByBlock
 62
     0
 48
10.0
100
AcDbTrace
 10
250.1616775704097
 20
1427.530514640371
 30
0.0
 11
262.6616775704097
 21
1427.530514640371
 31
0.0
 12
256.4116775704097
 22
1465.03051464037
 32
0.0
 13
256.4116775704097
 23
1465.03051464037
 33
0.0
  0
SOLID
  5
E1D
330
E18
100
AcDbEntity
  8
0
  6
ByBlock
 62
     0
 48
10.0
100
AcDbTrace
 10
250.1616775704096
 20
1002.530514640371
 30
0.0
 11
262.6616775704096
 21
1002.530514640371
 31
0.0
 12
256.4116775704096
 22
965.0305146403711
 32
0.0
 13
256.4116775704096
 23
965.0305146403711
 33
0.0
  0
MTEXT
  5
E1E
330
E18
100
AcDbEntity
  8
0
  6
ByBlock
 62
     0
 48
10.0
100
AcDbMText
 10
228.2866775704096
 20
1215.030514640371
 30
0.0
 40
37.5
 41
0.0
 71
     5
 72
     1
  1
\A1;500
 11
0.0000000000000001
 21
1.0
 31
0.0
 73
     1
 44
1.0
  0
POINT
  5
E1F
330
E18
100
AcDbEntity
  8
DEFPOINTS
  6
ByBlock
 62
     0
 48
10.0
100
AcDbPoint
 10
606.4116775704097
 20
1465.03051464037
 30
0.0
  0
POINT
  5
E20
330
E18
100
AcDbEntity
  8
DEFPOINTS
  6
ByBlock
 62
     0
 48
10.0
100
AcDbPoint
 10
606.4116775704096
 20
965.0305146403711
 30
0.0
  0
POINT
  5
E21
330
E18
100
AcDbEntity
  8
DEFPOINTS
  6
ByBlock
 62
     0
 48
10.0
100
AcDbPoint
 10
256.4116775704096
 20
965.0305146403711
 30
0.0
  0
ENDBLK
  5
E23
330
E18
100
AcDbEntity
  8
0
 48
10.0
100
AcDbBlockEnd
  0
BLOCK
  5
E2E
330
E24
100
AcDbEntity
  8
0
 48
10.0
100
AcDbBlockBegin
  2
*D4
 70
     1
 10
0.0
 20
0.0
 30
0.0
  3
*D4
  1

  0
LINE
  5
E25
330
E24
100
AcDbEntity
  8
0
  6
ByBlock
 62
     0
 48
10.0
100
AcDbLine
 10
6508.570487269344
 20
925.6555146403709
 30
0.0
 11
6508.570487269344
 21
716.2805146403708
 31
0.0
  0
LINE
  5
E26
330
E24
100
AcDbEntity
  8
0
  6
ByBlock
 62
     0
 48
10.0
100
AcDbLine
 10
6772.570487269344
 20
925.6555146403709
 30
0.0
 11
6772.570487269344
 21
716.2805146403708
 31
0.0
  0
LINE
  5
E27
330
E24
100
AcDbEntity
  8
0
  6
ByBlock
 62
     0
 48
10.0
100
AcDbLine
 10
6546.070487269344
 20
735.0305146403708
 30
0.0
 11
6735.070487269344
 21
735.0305146403708
 31
0.0
  0
SOLID
  5
E28
330
E24
100
AcDbEntity
  8
0
  6
ByBlock
 62
     0
 48
10.0
100
AcDbTrace
 10
6546.070487269344
 20
741.2805146403708
 30
0.0
 11
6546.070487269344
 21
728.7805146403708
 31
0.0
 12
6508.570487269344
 22
735.0305146403708
 32
0.0
 13
6508.570487269344
 23
735.0305146403708
 33
0.0
  0
SOLID
  5
E29
330
E24
100
AcDbEntity
  8
0
  6
ByBlock
 62
     0
 48
10.0
100
AcDbTrace
 10
6735.070487269344
 20
741.2805146403708
 30
0.0
 11
6735.070487269344
 21
728.7805146403708
 31
0.0
 12
6772.570487269344
 22
735.0305146403708
 32
0.0
 13
6772.570487269344
 23
735.0305146403708
 33
0.0
  0
MTEXT
  5
E2A
330
E24
100
AcDbEntity
  8
0
  6
ByBlock
 62
     0
 48
10.0
100
AcDbMText
 10
6640.570487269345
 20
763.1555146403708
 30
0.0
 40
37.5
 41
0.0
 71
     5
 72
     1
  1
\A1;264
 73
     1
 44
1.0
  0
POINT
  5
E2B
330
E24
100
AcDbEntity
  8
DEFPOINTS
  6
ByBlock
 62
     0
 48
10.0
100
AcDbPoint
 10
6508.570487269344
 20
935.0305146403709
 30
0.0
  0
POINT
  5
E2C
330
E24
100
AcDbEntity
  8
DEFPOINTS
  6
ByBlock
 62
     0
 48
10.0
100
AcDbPoint
 10
6772.570487269344
 20
935.0305146403709
 30
0.0
  0
POINT
  5
E2D
330
E24
100
AcDbEntity
  8
DEFPOINTS
  6
ByBlock
 62
     0
 48
10.0
100
AcDbPoint
 10
6772.570487269344
 20
735.0305146403708
 30
0.0
  0
ENDBLK
  5
E2F
330
E24
100
AcDbEntity
  8
0
 48
10.0
100
AcDbBlockEnd
  0
BLOCK
  5
E3C
330
E30
100
AcDbEntity
  8
0
 48
10.0
100
AcDbBlockBegin
  2
*D5
 70
     1
 10
0.0
 20
0.0
 30
0.0
  3
*D5
  1

  0
LINE
  5
E31
330
E30
100
AcDbEntity
  8
0
  6
ByBlock
 62
     0
 48
10.0
100
AcDbLine
 10
6508.570487269344
 20
925.6555146403709
 30
0.0
 11
6508.570487269344
 21
716.2805146403708
 31
0.0
  0
LINE
  5
E32
330
E30
100
AcDbEntity
  8
0
  6
ByBlock
 62
     0
 48
10.0
100
AcDbLine
 10
6488.570487269344
 20
925.6555146403709
 30
0.0
 11
6488.570487269344
 21
716.2805146403708
 31
0.0
  0
LINE
  5
E33
330
E30
100
AcDbEntity
  8
0
  6
ByBlock
 62
     0
 48
10.0
100
AcDbLine
 10
6546.070487269344
 20
735.0305146403708
 30
0.0
 11
6583.570487269344
 21
735.0305146403708
 31
0.0
  0
LINE
  5
E34
330
E30
100
AcDbEntity
  8
0
  6
ByBlock
 62
     0
 48
10.0
100
AcDbLine
 10
6451.070487269344
 20
735.0305146403708
 30
0.0
 11
6346.365431089569
 21
735.0305146403708
 31
0.0
  0
LINE
  5
E35
330
E30
100
AcDbEntity
  8
0
  6
ByBlock
 62
     0
 48
10.0
100
AcDbLine
 10
6508.570487269344
 20
735.0305146403708
 30
0.0
 11
6488.570487269344
 21
735.0305146403708
 31
0.0
  0
SOLID
  5
E36
330
E30
100
AcDbEntity
  8
0
  6
ByBlock
 62
     0
 48
10.0
100
AcDbTrace
 10
6546.070487269344
 20
741.2805146403708
 30
0.0
 11
6546.070487269344
 21
728.7805146403708
 31
0.0
 12
6508.570487269344
 22
735.0305146403708
 32
0.0
 13
6508.570487269344
 23
735.0305146403708
 33
0.0
  0
SOLID
  5
E37
330
E30
100
AcDbEntity
  8
0
  6
ByBlock
 62
     0
 48
10.0
100
AcDbTrace
 10
6451.070487269344
 20
741.2805146403708
 30
0.0
 11
6451.070487269344
 21
728.7805146403708
 31
0.0
 12
6488.570487269344
 22
735.0305146403708
 32
0.0
 13
6488.570487269344
 23
735.0305146403708
 33
0.0
  0
MTEXT
  5
E38
330
E30
100
AcDbEntity
  8
0
  6
ByBlock
 62
     0
 48
10.0
100
AcDbMText
 10
6379.967959179456
 20
763.1555146403708
 30
0.0
 40
37.5
 41
0.0
 71
     5
 72
     1
  1
\A1;20
 73
     1
 44
1.0
  0
POINT
  5
E39
330
E30
100
AcDbEntity
  8
DEFPOINTS
  6
ByBlock
 62
     0
 48
10.0
100
AcDbPoint
 10
6508.570487269344
 20
935.0305146403709
 30
0.0
  0
POINT
  5
E3A
330
E30
100
AcDbEntity
  8
DEFPOINTS
  6
ByBlock
 62
     0
 48
10.0
100
AcDbPoint
 10
6488.570487269344
 20
935.0305146403709
 30
0.0
  0
POINT
  5
E3B
330
E30
100
AcDbEntity
  8
DEFPOINTS
  6
ByBlock
 62
     0
 48
10.0
100
AcDbPoint
 10
6488.570487269344
 20
735.0305146403708
 30
0.0
  0
ENDBLK
  5
E3D
330
E30
100
AcDbEntity
  8
0
 48
10.0
100
AcDbBlockEnd
  0
BLOCK
  5
E48
330
E3E
100
AcDbEntity
  8
0
 48
10.0
100
AcDbBlockBegin
  2
*D6
 70
     1
 10
0.0
 20
0.0
 30
0.0
  3
*D6
  1

  0
LINE
  5
E3F
330
E3E
100
AcDbEntity
  8
0
  6
ByBlock
 62
     0
 48
10.0
100
AcDbLine
 10
597.0366775704096
 20
1065.03051464037
 30
0.0
 11
387.6616775704096
 21
1065.03051464037
 31
0.0
  0
LINE
  5
E40
330
E3E
100
AcDbEntity
  8
0
  6
ByBlock
 62
     0
 48
10.0
100
AcDbLine
 10
597.0366775704096
 20
1365.03051464037
 30
0.0
 11
387.6616775704096
 21
1365.03051464037
 31
0.0
  0
LINE
  5
E41
330
E3E
100
AcDbEntity
  8
0
  6
ByBlock
 62
     0
 48
10.0
100
AcDbLine
 10
406.4116775704095
 20
1102.53051464037
 30
0.0
 11
406.4116775704095
 21
1327.53051464037
 31
0.0
  0
SOLID
  5
E42
330
E3E
100
AcDbEntity
  8
0
  6
ByBlock
 62
     0
 48
10.0
100
AcDbTrace
 10
400.1616775704095
 20
1102.53051464037
 30
0.0
 11
412.6616775704095
 21
1102.53051464037
 31
0.0
 12
406.4116775704095
 22
1065.03051464037
 32
0.0
 13
406.4116775704095
 23
1065.03051464037
 33
0.0
  0
SOLID
  5
E43
330
E3E
100
AcDbEntity
  8
0
  6
ByBlock
 62
     0
 48
10.0
100
AcDbTrace
 10
400.1616775704095
 20
1327.53051464037
 30
0.0
 11
412.6616775704095
 21
1327.53051464037
 31
0.0
 12
406.4116775704095
 22
1365.03051464037
 32
0.0
 13
406.4116775704095
 23
1365.03051464037
 33
0.0
  0
MTEXT
  5
E44
330
E3E
100
AcDbEntity
  8
0
  6
ByBlock
 62
     0
 48
10.0
100
AcDbMText
 10
378.2866775704096
 20
1215.03051464037
 30
0.0
 40
37.5
 41
0.0
 71
     5
 72
     1
  1
\A1;300
 11
0.0000000000000001
 21
1.0
 31
0.0
 73
     1
 44
1.0
  0
POINT
  5
E45
330
E3E
100
AcDbEntity
  8
DEFPOINTS
  6
ByBlock
 62
     0
 48
10.0
100
AcDbPoint
 10
606.4116775704096
 20
1065.03051464037
 30
0.0
  0
POINT
  5
E46
330
E3E
100
AcDbEntity
  8
DEFPOINTS
  6
ByBlock
 62
     0
 48
10.0
100
AcDbPoint
 10
606.4116775704096
 20
1365.03051464037
 30
0.0
  0
POINT
  5
E47
330
E3E
100
AcDbEntity
  8
DEFPOINTS
  6
ByBlock
 62
     0
 48
10.0
100
AcDbPoint
 10
406.4116775704095
 20
1365.03051464037
 30
0.0
  0
ENDBLK
  5
E49
330
E3E
100
AcDbEntity
  8
0
 48
10.0
100
AcDbBlockEnd
  0
BLOCK
  5
F9B
330
E4A
100
AcDbEntity
  8
0
 48
10.0
100
AcDbBlockBegin
  2
A$C140F7599
 70
     0
 10
0.0
 20
0.0
 30
0.0
  3
A$C140F7599
  1

  0
LINE
  5
E4B
330
E4A
100
AcDbEntity
  8
上線
 48
10.0
100
AcDbLine
 10
547.517266880443
 20
735.9749143240299
 30
0.0
 11
551.0988984924306
 21
485.260701484887
 31
0.0
  0
TEXT
  5
E4C
330
E4A
100
AcDbEntity
  8
点線
 62
     0
100
AcDbText
 10
510.1173756487551
 20
1106.578712713323
 30
0.0
 40
37.5
  1
50
100
AcDbText
  0
LINE
  5
E4D
330
E4A
100
AcDbEntity
  8
上線
 48
10.0
100
AcDbLine
 10
557.5162466284382
 20
736.1177568918583
 30
0.0
 11
506.8019609141519
 21
736.1177568918583
 31
0.0
  0
LINE
  5
E4E
330
E4A
100
AcDbEntity
  8
0
  6
ByBlock
 62
     0
 48
10.0
100
AcDbLine
 10
474.3019609141519
 20
1216.117756891858
 30
0.0
 11
976.801960914152
 21
1216.117756891858
 31
0.0
  0
LINE
  5
E4F
330
E4A
100
AcDbEntity
  8
0
  6
ByBlock
 62
     0
 48
10.0
100
AcDbLine
 10
506.8019609141519
 20
1066.117756891858
 30
0.0
 11
581.8019609141519
 21
1066.117756891858
 31
0.0
  0
LINE
  5
E50
330
E4A
100
AcDbEntity
  8
上線
 48
10.0
100
AcDbLine
 10
446.801960914152
 20
336.1177568918585
 30
0.0
 11
966.8019609141518
 21
336.1177568918581
 31
0.0
  0
ARC
  5
E51
330
E4A
100
AcDbEntity
  8
上線
100
AcDbCircle
 10
611.0927769804011
 20
486.1177568918581
 30
0.0
 40
60.0
100
AcDbArc
 50
180.8184554616886
 51
270.0
  0
LINE
  5
E52
330
E4A
100
AcDbEntity
  8
0
  6
ByBlock
 62
     0
 48
10.0
100
AcDbLine
 10
676.3855835293216
 20
106.1177568918585
 30
0.0
 11
474.3019609141519
 21
106.1177568918585
 31
0.0
  0
MTEXT
  5
E53
330
E4A
100
AcDbEntity
  8
0
  6
ByBlock
 62
     0
 48
10.0
100
AcDbMText
 10
586.5937722217368
 20
134.2427568918585
 30
0.0
 40
37.5
 41
0.0
 71
     5
 72
     1
  1
\A1;540
 73
     1
 44
1.0
  0
DIMENSION
  5
E54
330
E4A
100
AcDbEntity
  8
上線
 48
10.0
100
AcDbDimension
  2
*D6
 10
206.8019609141519
 20
736.1177568918583
 30
0.0
 11
178.676960914152
 21
586.1177568918583
 31
0.0
 12
-199.6097166562576
 22
-628.9127577485124
 32
0.0
 71
     5
 42
-1.0
  3
STANDARD
100
AcDbAlignedDimension
 13
406.8019609141519
 23
436.1177568918581
 33
0.0
 14
406.8019609141519
 24
736.1177568918583
 34
0.0
 50
90.0
100
AcDbRotatedDimension
1001
ACAD
1000
DSTYLE
1002
{
1070
    40
1040
15.0
1070
    41
1040
2.5
1070
    42
1040
0.625
1070
    43
1040
3.75
1070
    44
1040
1.25
1070
    73
1070
     0
1070
    74
1070
     0
1070
    77
1070
     1
1070
    78
1070
     8
1070
   140
1040
2.5
1070
   141
1040
2.5
1070
   143
1040
0.0394
1070
   147
1040
0.625
1070
   171
1070
     4
1070
   172
1070
     1
1070
   273
1070
     8
1070
   274
1070
     4
1070
   277
1070
     6
1002
}
  0
SOLID
  5
E55
330
E4A
100
AcDbEntity
  8
0
  6
ByBlock
 62
     0
 48
10.0
100
AcDbTrace
 10
200.5519609141519
 20
473.6177568918581
 30
0.0
 11
213.0519609141519
 21
473.6177568918581
 31
0.0
 12
206.8019609141519
 22
436.1177568918581
 32
0.0
 13
206.8019609141519
 23
436.1177568918581
 33
0.0
  0
LINE
  5
E56
330
E4A
100
AcDbEntity
  8
上線
100
AcDbLine
 10
436.8019609141519
 20
836.1177568918582
 30
0.0
 11
436.8019609141519
 21
346.1177568918583
 31
0.0
  0
DIMENSION
  5
E57
330
E4A
100
AcDbEntity
  8
上線
 48
10.0
100
AcDbDimension
  2
*D3
 10
56.80196091415201
 20
336.1177568918587
 30
0.0
 11
28.676960914152
 21
586.1177568918588
 31
0.0
 12
-199.6097166562576
 22
-628.9127577485124
 32
0.0
 71
     5
 42
-1.0
  3
STANDARD
100
AcDbAlignedDimension
 13
406.8019609141519
 23
836.1177568918586
 33
0.0
 14
406.8019609141519
 24
336.1177568918587
 34
0.0
 50
90.0
100
AcDbRotatedDimension
1001
ACAD
1000
DSTYLE
1002
{
1070
    40
1040
15.0
1070
    41
1040
2.5
1070
    42
1040
0.625
1070
    43
1040
3.75
1070
    44
1040
1.25
1070
    73
1070
     0
1070
    74
1070
     0
1070
    77
1070
     1
1070
    78
1070
     8
1070
   140
1040
2.5
1070
   141
1040
2.5
1070
   143
1040
0.0394
1070
   147
1040
0.625
1070
   171
1070
     4
1070
   172
1070
     1
1070
   273
1070
     8
1070
   274
1070
     4
1070
   277
1070
     6
1002
}
  0
LINE
  5
E58
330
E4A
100
AcDbEntity
  8
0
  6
ByBlock
 62
     0
 48
10.0
100
AcDbLine
 10
436.8019609141519
 20
296.7427568918585
 30
0.0
 11
436.8019609141519
 21
87.36775689185856
 31
0.0
  0
POINT
  5
E59
330
E4A
100
AcDbEntity
  8
DEFPOINTS
  6
ByBlock
 62
     0
 48
10.0
100
AcDbPoint
 10
406.8019609141519
 20
166.2776989779308
 30
0.0
  0
POINT
  5
E5A
330
E4A
100
AcDbEntity
  8
DEFPOINTS
  6
ByBlock
 62
     0
 48
10.0
100
AcDbPoint
 10
436.8019609141519
 20
106.1177568918585
 30
0.0
  0
SOLID
  5
E5B
330
E4A
100
AcDbEntity
  8
0
  6
ByBlock
 62
     0
 48
10.0
100
AcDbTrace
 10
474.3019609141519
 20
112.3677568918585
 30
0.0
 11
474.3019609141519
 21
99.86775689185856
 31
0.0
 12
436.8019609141519
 22
106.1177568918585
 32
0.0
 13
436.8019609141519
 23
106.1177568918585
 33
0.0
  0
LINE
  5
E5C
330
E4A
100
AcDbEntity
  8
0
  6
ByBlock
 62
     0
 48
10.0
100
AcDbLine
 10
406.8019609141519
 20
436.1177568918581
 30
0.0
 11
254.3019615121475
 21
436.1177568918581
 31
0.0
  0
LINE
  5
E5D
330
E4A
100
AcDbEntity
  8
0
  6
ByBlock
 62
     0
 48
10.0
100
AcDbLine
 10
397.4269609141519
 20
436.1177568918581
 30
0.0
 11
188.051960914152
 21
436.1177568918581
 31
0.0
  0
LINE
  5
E5E
330
E4A
100
AcDbEntity
  8
0
  6
ByBlock
 62
     0
 48
10.0
100
AcDbLine
 10
397.4269609141519
 20
436.1177568918581
 30
0.0
 11
188.051960914152
 21
436.1177568918581
 31
0.0
  0
LINE
  5
E5F
330
E4A
100
AcDbEntity
  8
0
  6
ByBlock
 62
     0
 48
10.0
100
AcDbLine
 10
329.7806778650701
 20
336.1177568918583
 30
0.0
 11
137.1998332421444
 21
336.1177568918583
 31
0.0
  0
LINE
  5
E60
330
E4A
100
AcDbEntity
  8
0
  6
ByBlock
 62
     0
 48
10.0
100
AcDbLine
 10
406.8019609141519
 20
336.1177568918587
 30
0.0
 11
134.301960914152
 21
336.1177568918585
 31
0.0
  0
LINE
  5
E61
330
E4A
100
AcDbEntity
  8
0
  6
ByBlock
 62
     0
 48
10.0
100
AcDbLine
 10
406.8019609141519
 20
336.1177568918585
 30
0.0
 11
134.301960914152
 21
336.1177568918585
 31
0.0
  0
LINE
  5
E62
330
E4A
100
AcDbEntity
  8
0
  6
ByBlock
 62
     0
 48
10.0
100
AcDbLine
 10
397.4269609141519
 20
336.1177568918585
 30
0.0
 11
188.051960914152
 21
336.1177568918585
 31
0.0
  0
LINE
  5
E63
330
E4A
100
AcDbEntity
  8
0
  6
ByBlock
 62
     0
 48
10.0
100
AcDbLine
 10
206.8019609141519
 20
398.6177568918581
 30
0.0
 11
206.8019609141519
 21
373.6177568918585
 31
0.0
  0
MTEXT
  5
E64
330
E4A
100
AcDbEntity
  8
0
  6
ByBlock
 62
     0
 48
10.0
100
AcDbMText
 10
178.676960914152
 20
386.1177568918583
 30
0.0
 40
37.5
 41
0.0
 71
     5
 72
     1
  1
\A1;100
 11
0.0000000000000001
 21
1.0
 31
0.0
 73
     1
 44
1.0
  0
SOLID
  5
E65
330
E4A
100
AcDbEntity
  8
0
  6
ByBlock
 62
     0
 48
10.0
100
AcDbTrace
 10
200.5519609141519
 20
373.6177568918585
 30
0.0
 11
213.0519609141519
 21
373.6177568918585
 31
0.0
 12
206.8019609141519
 22
336.1177568918585
 32
0.0
 13
206.8019609141519
 23
336.1177568918585
 33
0.0
  0
POINT
  5
E66
330
E4A
100
AcDbEntity
  8
DEFPOINTS
  6
ByBlock
 62
     0
 48
10.0
100
AcDbPoint
 10
206.8019609141519
 20
336.1177568918585
 30
0.0
  0
POINT
  5
E67
330
E4A
100
AcDbEntity
  8
DEFPOINTS
  6
ByBlock
 62
     0
 48
10.0
100
AcDbPoint
 10
149.6998332421444
 20
336.1177568918583
 30
0.0
  0
POINT
  5
E68
330
E4A
100
AcDbEntity
  8
DEFPOINTS
  6
ByBlock
 62
     0
 48
10.0
100
AcDbPoint
 10
146.801960914152
 20
336.1177568918585
 30
0.0
  0
SOLID
  5
E69
330
E4A
100
AcDbEntity
  8
0
  6
ByBlock
 62
     0
 48
10.0
100
AcDbTrace
 10
200.5519609141519
 20
398.6177568918581
 30
0.0
 11
213.0519609141519
 21
398.6177568918581
 31
0.0
 12
206.8019609141519
 22
436.1177568918581
 32
0.0
 13
206.8019609141519
 23
436.1177568918581
 33
0.0
  0
POINT
  5
E6A
330
E4A
100
AcDbEntity
  8
DEFPOINTS
  6
ByBlock
 62
     0
 48
10.0
100
AcDbPoint
 10
206.8019609141519
 20
436.1177568918581
 30
0.0
  0
POINT
  5
E6B
330
E4A
100
AcDbEntity
  8
DEFPOINTS
  6
ByBlock
 62
     0
 48
10.0
100
AcDbPoint
 10
266.8019615121475
 20
436.1177568918581
 30
0.0
  0
POINT
  5
E6C
330
E4A
100
AcDbEntity
  8
DEFPOINTS
  6
ByBlock
 62
     0
 48
10.0
100
AcDbPoint
 10
406.8351599232155
 20
286.1177568918583
 30
0.0
  0
POINT
  5
E6D
330
E4A
100
AcDbEntity
  8
DEFPOINTS
  6
ByBlock
 62
     0
 48
10.0
100
AcDbPoint
 10
436.8019609141519
 20
315.9935143979187
 30
0.0
  0
POINT
  5
E6E
330
E4A
100
AcDbEntity
  8
DEFPOINTS
  6
ByBlock
 62
     0
 48
10.0
100
AcDbPoint
 10
436.8019609141519
 20
306.1177568918585
 30
0.0
  0
POINT
  5
E6F
330
E4A
100
AcDbEntity
  8
DEFPOINTS
  6
ByBlock
 62
     0
 48
10.0
100
AcDbPoint
 10
466.801960914152
 20
258.8432365438338
 30
0.0
  0
POINT
  5
E70
330
E4A
100
AcDbEntity
  8
DEFPOINTS
  6
ByBlock
 62
     0
 48
10.0
100
AcDbPoint
 10
466.801960914152
 20
267.9120056030542
 30
0.0
  0
POINT
  5
E71
330
E4A
100
AcDbEntity
  8
DEFPOINTS
  6
ByBlock
 62
     0
 48
10.0
100
AcDbPoint
 10
436.8019609141519
 20
267.9120056030542
 30
0.0
  0
LINE
  5
E72
330
E4A
100
AcDbEntity
  8
0
  6
ByBlock
 62
     0
 48
10.0
100
AcDbLine
 10
400.5851599232155
 20
336.1177568918583
 30
0.0
 11
301.6505506229496
 21
336.1177568918583
 31
0.0
  0
POINT
  5
E73
330
E4A
100
AcDbEntity
  8
DEFPOINTS
  6
ByBlock
 62
     0
 48
10.0
100
AcDbPoint
 10
314.1505506229496
 20
336.1177568918583
 30
0.0
  0
POINT
  5
E74
330
E4A
100
AcDbEntity
  8
DEFPOINTS
  6
ByBlock
 62
     0
 48
10.0
100
AcDbPoint
 10
406.8351599232155
 20
336.1177568918583
 30
0.0
  0
POINT
  5
E75
330
E4A
100
AcDbEntity
  8
DEFPOINTS
  6
ByBlock
 62
     0
 48
10.0
100
AcDbPoint
 10
400.5851599232155
 20
336.1177568918585
 30
0.0
  0
POINT
  5
E76
330
E4A
100
AcDbEntity
  8
DEFPOINTS
  6
ByBlock
 62
     0
 48
10.0
100
AcDbPoint
 10
406.8019609141519
 20
336.1177568918585
 30
0.0
  0
POINT
  5
E77
330
E4A
100
AcDbEntity
  8
DEFPOINTS
  6
ByBlock
 62
     0
 48
10.0
100
AcDbPoint
 10
406.8019609141519
 20
436.1177568918581
 30
0.0
  0
POINT
  5
E78
330
E4A
100
AcDbEntity
  8
DEFPOINTS
  6
ByBlock
 62
     0
 48
10.0
100
AcDbPoint
 10
406.8019609141519
 20
436.1177568918581
 30
0.0
  0
LINE
  5
E79
330
E4A
100
AcDbEntity
  8
上線
100
AcDbLine
 10
436.8019609141519
 20
346.1177568918585
 30
0.0
 11
446.801960914152
 21
336.1177568918585
 31
0.0
  0
POINT
  5
E7A
330
E4A
100
AcDbEntity
  8
DEFPOINTS
  6
ByBlock
 62
     0
 48
10.0
100
AcDbPoint
 10
416.801960914152
 20
336.1177568918585
 30
0.0
  0
POINT
  5
E7B
330
E4A
100
AcDbEntity
  8
DEFPOINTS
  6
ByBlock
 62
     0
 48
10.0
100
AcDbPoint
 10
416.2986554462341
 20
436.1177568918581
 30
0.0
  0
LINE
  5
E7C
330
E4A
100
AcDbEntity
  8
0
  6
ByBlock
 62
     0
 48
10.0
100
AcDbLine
 10
436.8019609141519
 20
866.1177568918585
 30
0.0
 11
436.8019609141519
 21
1084.867756891858
 31
0.0
  0
LINE
  5
E7D
330
E4A
100
AcDbEntity
  8
0
  6
ByBlock
 62
     0
 48
10.0
100
AcDbLine
 10
506.8019609141519
 20
866.1177568918585
 30
0.0
 11
506.8019609141519
 21
1084.867756891858
 31
0.0
  0
LINE
  5
E7E
330
E4A
100
AcDbEntity
  8
0
  6
ByBlock
 62
     0
 48
10.0
100
AcDbLine
 10
436.8019609141519
 20
875.4927568918583
 30
0.0
 11
436.8019609141519
 21
1234.867756891858
 31
0.0
  0
LINE
  5
E7F
330
E4A
100
AcDbEntity
  8
上線
 48
10.0
100
AcDbLine
 10
506.8019609141519
 20
836.1177568918582
 30
0.0
 11
506.8019609141519
 21
736.1177568918583
 31
0.0
  0
SOLID
  5
E80
330
E4A
100
AcDbEntity
  8
0
  6
ByBlock
 62
     0
 48
10.0
100
AcDbTrace
 10
200.5519609141519
 20
773.6177568918583
 30
0.0
 11
213.0519609141519
 21
773.6177568918583
 31
0.0
 12
206.8019609141519
 22
736.1177568918583
 32
0.0
 13
206.8019609141519
 23
736.1177568918583
 33
0.0
  0
LINE
  5
E81
330
E4A
100
AcDbEntity
  8
0
  6
ByBlock
 62
     0
 48
10.0
100
AcDbLine
 10
391.801960914152
 20
736.1177568918583
 30
0.0
 11
188.051960914152
 21
736.1177568918583
 31
0.0
  0
LINE
  5
E82
330
E4A
100
AcDbEntity
  8
0
  6
ByBlock
 62
     0
 48
10.0
100
AcDbLine
 10
406.8019609141519
 20
736.1177568918583
 30
0.0
 11
188.051960914152
 21
736.1177568918583
 31
0.0
  0
LINE
  5
E83
330
E4A
100
AcDbEntity
  8
0
  6
ByBlock
 62
     0
 48
10.0
100
AcDbLine
 10
206.8019609141519
 20
736.1177568918585
 30
0.0
 11
206.8019609141519
 21
473.6177568918581
 31
0.0
  0
POINT
  5
E84
330
E4A
100
AcDbEntity
  8
DEFPOINTS
  6
ByBlock
 62
     0
 48
10.0
100
AcDbPoint
 10
406.8351599232155
 20
736.1177568918583
 30
0.0
  0
POINT
  5
E85
330
E4A
100
AcDbEntity
  8
DEFPOINTS
  6
ByBlock
 62
     0
 48
10.0
100
AcDbPoint
 10
416.2986554462341
 20
676.1177568918583
 30
0.0
  0
LINE
  5
E86
330
E4A
100
AcDbEntity
  8
0
  6
ByBlock
 62
     0
 48
10.0
100
AcDbLine
 10
401.176960914152
 20
836.1177568918581
 30
0.0
 11
188.051960914152
 21
836.1177568918581
 31
0.0
  0
SOLID
  5
E87
330
E4A
100
AcDbEntity
  8
0
  6
ByBlock
 62
     0
 48
10.0
100
AcDbTrace
 10
200.5519609141519
 20
798.6177568918581
 30
0.0
 11
213.0519609141519
 21
798.6177568918581
 31
0.0
 12
206.8019609141519
 22
836.1177568918581
 32
0.0
 13
206.8019609141519
 23
836.1177568918581
 33
0.0
  0
MTEXT
  5
E88
330
E4A
100
AcDbEntity
  8
0
  6
ByBlock
 62
     0
 48
10.0
100
AcDbMText
 10
178.676960914152
 20
786.1177568918583
 30
0.0
 40
37.5
 41
0.0
 71
     5
 72
     1
  1
\A1;100
 11
0.0000000000000001
 21
1.0
 31
0.0
 73
     1
 44
1.0
  0
LINE
  5
E89
330
E4A
100
AcDbEntity
  8
0
  6
ByBlock
 62
     0
 48
10.0
100
AcDbLine
 10
206.8019609141519
 20
773.6177568918583
 30
0.0
 11
206.8019609141519
 21
798.6177568918581
 31
0.0
  0
POINT
  5
E8A
330
E4A
100
AcDbEntity
  8
DEFPOINTS
  6
ByBlock
 62
     0
 48
10.0
100
AcDbPoint
 10
206.8019609141519
 20
836.1177568918581
 30
0.0
  0
POINT
  5
E8B
330
E4A
100
AcDbEntity
  8
DEFPOINTS
  6
ByBlock
 62
     0
 48
10.0
100
AcDbPoint
 10
406.8351599232155
 20
786.1177568918583
 30
0.0
  0
POINT
  5
E8C
330
E4A
100
AcDbEntity
  8
DEFPOINTS
  6
ByBlock
 62
     0
 48
10.0
100
AcDbPoint
 10
400.5851599232155
 20
776.1177568918583
 30
0.0
  0
POINT
  5
E8D
330
E4A
100
AcDbEntity
  8
DEFPOINTS
  6
ByBlock
 62
     0
 48
10.0
100
AcDbPoint
 10
406.8351599232155
 20
836.1177568918582
 30
0.0
  0
POINT
  5
E8E
330
E4A
100
AcDbEntity
  8
DEFPOINTS
  6
ByBlock
 62
     0
 48
10.0
100
AcDbPoint
 10
406.8351599232155
 20
836.1177568918582
 30
0.0
  0
LINE
  5
E8F
330
E4A
100
AcDbEntity
  8
上線
100
AcDbLine
 10
506.8019609141519
 20
836.1177568918582
 30
0.0
 11
436.8019609141519
 21
836.1177568918582
 31
0.0
  0
POINT
  5
E90
330
E4A
100
AcDbEntity
  8
DEFPOINTS
  6
ByBlock
 62
     0
 48
10.0
100
AcDbPoint
 10
436.8019609141519
 20
833.8736429367436
 30
0.0
  0
POINT
  5
E91
330
E4A
100
AcDbEntity
  8
DEFPOINTS
  6
ByBlock
 62
     0
 48
10.0
100
AcDbPoint
 10
436.8019609141519
 20
833.8736429367436
 30
0.0
  0
POINT
  5
E92
330
E4A
100
AcDbEntity
  8
DEFPOINTS
  6
ByBlock
 62
     0
 48
10.0
100
AcDbPoint
 10
436.8019609141519
 20
815.4023429367438
 30
0.0
  0
POINT
  5
E93
330
E4A
100
AcDbEntity
  8
DEFPOINTS
  6
ByBlock
 62
     0
 48
10.0
100
AcDbPoint
 10
506.8019609141519
 20
833.8736429367436
 30
0.0
  0
POINT
  5
E94
330
E4A
100
AcDbEntity
  8
DEFPOINTS
  6
ByBlock
 62
     0
 48
10.0
100
AcDbPoint
 10
506.8019609141519
 20
833.8736429367436
 30
0.0
  0
POINT
  5
E95
330
E4A
100
AcDbEntity
  8
DEFPOINTS
  6
ByBlock
 62
     0
 48
10.0
100
AcDbPoint
 10
401.176960914152
 20
936.1177568918582
 30
0.0
  0
POINT
  5
E96
330
E4A
100
AcDbEntity
  8
DEFPOINTS
  6
ByBlock
 62
     0
 48
10.0
100
AcDbPoint
 10
410.551960914152
 20
936.1177568918582
 30
0.0
  0
LINE
  5
E97
330
E4A
100
AcDbEntity
  8
0
  6
ByBlock
 62
     0
 48
10.0
100
AcDbLine
 10
506.8019609141519
 20
934.3812258188917
 30
0.0
 11
506.8019609141519
 21
1018.61777210726
 31
0.0
  0
POINT
  5
E98
330
E4A
100
AcDbEntity
  8
DEFPOINTS
  6
ByBlock
 62
     0
 48
10.0
100
AcDbPoint
 10
436.8019609141519
 20
901.8601892251126
 30
0.0
  0
LINE
  5
E99
330
E4A
100
AcDbEntity
  8
上線
100
AcDbLine
 10
506.8019609141519
 20
996.1177568918584
 30
0.0
 11
506.8019609141519
 21
996.1177568918584
 31
0.0
  0
POINT
  5
E9A
330
E4A
100
AcDbEntity
  8
DEFPOINTS
  6
ByBlock
 62
     0
 48
10.0
100
AcDbPoint
 10
146.801960914152
 20
1036.117756891858
 30
0.0
  0
SOLID
  5
E9B
330
E4A
100
AcDbEntity
  8
0
  6
ByBlock
 62
     0
 48
10.0
100
AcDbTrace
 10
399.301960914152
 20
1072.367756891858
 30
0.0
 11
399.301960914152
 21
1059.867756891858
 31
0.0
 12
436.8019609141519
 22
1066.117756891858
 32
0.0
 13
436.8019609141519
 23
1066.117756891858
 33
0.0
  0
LINE
  5
E9C
330
E4A
100
AcDbEntity
  8
0
  6
ByBlock
 62
     0
 48
10.0
100
AcDbLine
 10
399.301960914152
 20
1066.117756891858
 30
0.0
 11
361.801960914152
 21
1066.117756891858
 31
0.0
  0
POINT
  5
E9D
330
E4A
100
AcDbEntity
  8
DEFPOINTS
  6
ByBlock
 62
     0
 48
10.0
100
AcDbPoint
 10
410.551960914152
 20
1036.117756891858
 30
0.0
  0
MTEXT
  5
E9E
330
E4A
100
AcDbEntity
  8
0
  6
ByBlock
 62
     0
 48
10.0
100
AcDbMText
 10
471.801960914152
 20
1094.242756891858
 30
0.0
 40
37.5
 41
0.0
 71
     5
 72
     1
  1
\A1;70
 73
     1
 44
1.0
  0
LINE
  5
E9F
330
E4A
100
AcDbEntity
  8
0
  6
ByBlock
 62
     0
 48
10.0
100
AcDbLine
 10
436.8019609141519
 20
1066.117756891858
 30
0.0
 11
506.8019609141519
 21
1066.117756891858
 31
0.0
  0
POINT
  5
EA0
330
E4A
100
AcDbEntity
  8
DEFPOINTS
  6
ByBlock
 62
     0
 48
10.0
100
AcDbPoint
 10
436.8019609141519
 20
1066.117756891858
 30
0.0
  0
POINT
  5
EA1
330
E4A
100
AcDbEntity
  8
DEFPOINTS
  6
ByBlock
 62
     0
 48
10.0
100
AcDbPoint
 10
436.8019609141519
 20
1066.117756891858
 30
0.0
  0
POINT
  5
EA2
330
E4A
100
AcDbEntity
  8
DEFPOINTS
  6
ByBlock
 62
     0
 48
10.0
100
AcDbPoint
 10
416.801960914152
 20
1036.117756891858
 30
0.0
  0
POINT
  5
EA3
330
E4A
100
AcDbEntity
  8
DEFPOINTS
  6
ByBlock
 62
     0
 48
10.0
100
AcDbPoint
 10
506.8019609141519
 20
1066.117756891858
 30
0.0
  0
LWPOLYLINE
  5
EA4
330
E4A
100
AcDbEntity
  8
上線
 48
10.0
100
AcDbPolyline
 90
        2
 70
     1
 43
5.0
 10
504.301960914152
 20
1066.117756891858
 42
1.0
 10
509.301960914152
 20
1066.117756891858
 42
1.0
  0
POINT
  5
EA5
330
E4A
100
AcDbEntity
  8
DEFPOINTS
  6
ByBlock
 62
     0
 48
10.0
100
AcDbPoint
 10
506.8019609141519
 20
1066.117756891858
 30
0.0
  0
SOLID
  5
EA6
330
E4A
100
AcDbEntity
  8
0
  6
ByBlock
 62
     0
 48
10.0
100
AcDbTrace
 10
474.3019609141519
 20
1222.367756891858
 30
0.0
 11
474.3019609141519
 21
1209.867756891858
 31
0.0
 12
436.8019609141519
 22
1216.117756891858
 32
0.0
 13
436.8019609141519
 23
1216.117756891858
 33
0.0
  0
SPLINE
  5
EA7
330
E4A
100
AcDbEntity
  8
上線
 48
10.0
100
AcDbSpline
210
0.0
220
0.0
230
1.0
 70
     8
 71
     3
 72
    10
 73
     6
 74
     0
 42
0.0000000001
 43
0.0000000001
 40
197.2422459363112
 40
197.2422459363112
 40
197.2422459363112
 40
197.2422459363112
 40
220.5413135163642
 40
397.3917699938457
 40
607.6874310862709
 40
607.6874310862709
 40
607.6874310862709
 40
607.6874310862709
 10
3099.270387978295
 20
686.117756891859
 30
0.0
 10
3098.553612731175
 20
679.9497870230852
 30
0.0
 10
3084.93522489124
 20
628.2312515577325
 30
0.0
 10
2910.04726028749
 20
547.1311503077544
 30
0.0
 10
2977.038904469674
 20
403.6822005133619
 30
0.0
 10
3018.011430460622
 20
336.117756891859
 30
0.0
  0
SPLINE
  5
EA8
330
E4A
100
AcDbEntity
  8
上線
 48
10.0
100
AcDbSpline
210
0.0
220
0.0
230
1.0
 70
     8
 71
     3
 72
    10
 73
     6
 74
     0
 42
0.0000000001
 43
0.0000000001
 40
197.242245936312
 40
197.242245936312
 40
197.242245936312
 40
197.242245936312
 40
220.5413135163642
 40
397.3917699938457
 40
607.6874310862709
 40
607.6874310862709
 40
607.6874310862709
 40
607.6874310862709
 10
3127.515063100598
 20
686.1177568918588
 30
0.0
 10
3126.798287853478
 20
679.9497870230852
 30
0.0
 10
3113.179900013541
 20
628.2312515577325
 30
0.0
 10
2938.291935409793
 20
547.1311503077544
 30
0.0
 10
3005.283579591978
 20
403.6822005133619
 30
0.0
 10
3046.256105582925
 20
336.117756891859
 30
0.0
  0
LINE
  5
EA9
330
E4A
100
AcDbEntity
  8
上線
 48
10.0
100
AcDbLine
 10
2299.146799036744
 20
586.1177568918583
 30
0.0
 11
2389.637603683425
 21
106.1177568918585
 31
0.0
1001
ACAD
1000
DSTYLE
1002
{
1070
    78
1070
     8
1070
   270
1070
     8
1070
   140
1040
2.5
1070
    74
1070
     0
1070
   172
1070
     1
1070
    73
1070
     0
1070
    77
1070
     1
1070
    40
1040
10.0
1070
   147
1040
0.625
1070
    42
1040
0.625
1070
    44
1040
1.25
1070
    43
1040
3.75
1070
   141
1040
2.5
1070
    41
1040
2.5
1070
   273
1070
     8
1070
   274
1070
     4
1070
   143
1040
0.0394
1070
   171
1070
     4
1002
}
  0
LINE
  5
EAA
330
E4A
100
AcDbEntity
  8
上線
 48
10.0
100
AcDbLine
 10
3916.193897220793
 20
836.1177568918582
 30
0.0
 11
3916.193897220793
 21
336.1177568918585
 31
0.0
  0
LINE
  5
EAB
330
E4A
100
AcDbEntity
  8
中心線
 48
10.0
100
AcDbLine
 10
2619.705818185923
 20
1148.988670344
 30
0.0
 11
2619.705818185923
 21
184.1648525024279
 31
0.0
  0
LINE
  5
EAC
330
E4A
100
AcDbEntity
  8
上線
 48
10.0
100
AcDbLine
 10
2167.705818185923
 20
806.1177568918585
 30
0.0
 11
2167.705818185923
 21
366.1177568918585
 31
0.0
  0
LINE
  5
EAD
330
E4A
100
AcDbEntity
  8
上線
 48
10.0
100
AcDbLine
 10
2431.705818185923
 20
806.1177568918585
 30
0.0
 11
2431.705818185923
 21
366.1177568918585
 31
0.0
  0
SOLID
  5
EAE
330
E4A
100
AcDbEntity
  8
上線
 48
10.0
100
AcDbTrace
 10
1906.866469431046
 20
447.5683855562174
 30
0.0
 11
1903.79526303157
 21
472.7264618412382
 31
0.0
 12
1914.859834366757
 22
449.9243485119945
 32
0.0
 13
1914.859834366757
 23
449.9243485119945
 33
0.0
1001
ACAD
1000
DSTYLE
1002
{
1070
    78
1070
     8
1070
   270
1070
     8
1070
   140
1040
2.5
1070
    74
1070
     0
1070
   172
1070
     1
1070
    73
1070
     0
1070
    77
1070
     1
1070
    40
1040
10.0
1070
   147
1040
0.625
1070
    42
1040
0.625
1070
    44
1040
1.25
1070
    43
1040
3.75
1070
   141
1040
2.5
1070
    41
1040
2.5
1070
   273
1070
     8
1070
   274
1070
     4
1070
   143
1040
0.0394
1070
   171
1070
     4
1002
}
  0
LINE
  5
EAF
330
E4A
100
AcDbEntity
  8
上線
 48
10.0
100
AcDbLine
 10
1619.705818185923
 20
776.1177568918583
 30
0.0
 11
1619.705818185923
 21
336.1177568918585
 31
0.0
  0
MTEXT
  5
EB0
330
E4A
100
AcDbEntity
  8
0
  6
ByBlock
 62
     0
 48
10.0
100
AcDbMText
 10
1178.676960914152
 20
586.1177568918583
 30
0.0
 40
37.5
 41
0.0
 71
     5
 72
     1
  1
2@220=440
 11
0.0000000000000001
 21
1.0
 31
0.0
 73
     1
 44
1.0
  0
ARC
  5
EB1
330
E4A
100
AcDbEntity
  8
上線
100
AcDbCircle
 10
802.5111448479028
 20
486.1177568918583
 30
0.0
 40
50.0
100
AcDbArc
 50
270.0
 51
359.1815445383113
  0
MTEXT
  5
EB2
102
{ACAD_REACTORS
330
EB3
102
}
330
E4A
100
AcDbEntity
  8
上線
 48
10.0
100
AcDbMText
 10
669.3019683833353
 20
569.4682309097961
 30
0.0
 40
35.0
 41
0.0
 71
     4
 72
     1
  1
\A1;\fＭＳ Ｐ明朝|b0|i0|c128|p18;R=50
 73
     1
 44
1.0
  0
LEADER
  5
EB3
330
E4A
100
AcDbEntity
  8
上線
 48
10.0
100
AcDbLeader
  3
STANDARD
 73
     0
 74
     0
 75
     1
 40
35.0
 41
100.8707865168539
 76
     3
 10
579.1086019785452
 20
450.5097161500361
 30
0.0
 10
638.0519683833353
 20
545.7182309097961
 30
0.0
 10
663.0519683833353
 20
545.7182309097961
 30
0.0
340
EB2
1001
ACAD
1000
DSTYLE
1002
{
1070
    78
1070
     8
1070
   270
1070
     8
1070
   140
1040
2.5
1070
    74
1070
     0
1070
   172
1070
     1
1070
    73
1070
     0
1070
    77
1070
     1
1070
    40
1040
10.0
1070
   147
1040
0.625
1070
    42
1040
0.625
1070
    44
1040
1.25
1070
    43
1040
3.75
1070
   141
1040
2.5
1070
    41
1040
2.5
1070
   273
1070
     8
1070
   274
1070
     4
1070
   143
1040
0.0394
1070
   171
1070
     4
1002
}
  0
LINE
  5
EB4
330
E4A
100
AcDbEntity
  8
中心線
100
AcDbLine
 10
706.3855835293216
 20
514.8375437550032
 30
0.0
 11
706.3855835293216
 21
61.98612246455377
 31
0.0
  0
ARC
  5
EB5
330
E4A
100
AcDbEntity
  8
上線
100
AcDbCircle
 10
611.0927769804011
 20
486.1177568918581
 30
0.0
 40
50.0
100
AcDbArc
 50
180.8184554616886
 51
270.0
  0
LINE
  5
EB6
330
E4A
100
AcDbEntity
  8
上線
100
AcDbLine
 10
976.801960914152
 20
836.1177568918581
 30
0.0
 11
976.8019609141518
 21
346.1177568918579
 31
0.0
  0
LINE
  5
EB7
330
E4A
100
AcDbEntity
  8
上線
 48
10.0
100
AcDbLine
 10
946.8019609141519
 20
806.1177568918584
 30
0.0
 11
946.8019609141519
 21
366.1177568918583
 31
0.0
  0
LINE
  5
EB8
330
E4A
100
AcDbEntity
  8
上線
 48
10.0
100
AcDbLine
 10
1639.705818185922
 20
806.1177568918585
 30
0.0
 11
1639.705818185922
 21
366.1177568918585
 31
0.0
  0
LINE
  5
EB9
330
E4A
100
AcDbEntity
  8
上線
 48
10.0
100
AcDbLine
 10
1619.705818185923
 20
836.1177568918582
 30
0.0
 11
1619.705818185923
 21
336.1177568918585
 31
0.0
  0
LINE
  5
EBA
330
E4A
100
AcDbEntity
  8
上線
 48
10.0
100
AcDbLine
 10
1903.705818185922
 20
806.1177568918585
 30
0.0
 11
1903.705818185922
 21
366.1177568918585
 31
0.0
  0
LINE
  5
EBB
330
E4A
100
AcDbEntity
  8
0
  6
ByBlock
 62
     0
 48
10.0
100
AcDbLine
 10
1206.801960914152
 20
836.1177568918586
 30
0.0
 11
1206.801960914152
 21
403.6177568918585
 31
0.0
  0
LINE
  5
EBC
330
E4A
100
AcDbEntity
  8
上線
 48
10.0
100
AcDbLine
 10
1903.705818185922
 20
472.9042208291671
 30
0.0
 11
2011.812395161567
 21
106.1177568918585
 31
0.0
1001
ACAD
1000
DSTYLE
1002
{
1070
    78
1070
     8
1070
   270
1070
     8
1070
   140
1040
2.5
1070
    74
1070
     0
1070
   172
1070
     1
1070
    73
1070
     0
1070
    77
1070
     1
1070
    40
1040
10.0
1070
   147
1040
0.625
1070
    42
1040
0.625
1070
    44
1040
1.25
1070
    43
1040
3.75
1070
   141
1040
2.5
1070
    41
1040
2.5
1070
   273
1070
     8
1070
   274
1070
     4
1070
   143
1040
0.0394
1070
   171
1070
     4
1002
}
  0
LINE
  5
EBD
330
E4A
100
AcDbEntity
  8
点線
 48
10.0
100
AcDbLine
 10
2727.094753588171
 20
436.1177568918585
 30
0.0
 11
2830.686132923294
 21
436.1177568918585
 31
0.0
  0
LINE
  5
EBE
330
E4A
100
AcDbEntity
  8
上線
 48
10.0
100
AcDbLine
 10
2619.705818185923
 20
346.1177568918587
 30
0.0
 11
3012.030776973523
 21
346.1177568918587
 31
0.0
  0
LINE
  5
EBF
330
E4A
100
AcDbEntity
  8
上線
 48
10.0
100
AcDbLine
 10
1619.705818185923
 20
336.1177568918585
 30
0.0
 11
3018.011430460622
 21
336.1177568918587
 31
0.0
  0
DIMENSION
  5
EC0
330
E4A
100
AcDbEntity
  8
上線
 48
10.0
100
AcDbDimension
  2
*D5
 10
1619.705818185923
 20
106.1177568918583
 30
0.0
 11
1511.103290096035
 21
134.2427568918583
 31
0.0
 12
-4868.864669083421
 22
-628.9127577485124
 32
0.0
 71
     5
 42
-1.0
  3
STANDARD
100
AcDbAlignedDimension
 13
1639.705818185922
 23
306.1177568918585
 33
0.0
 14
1619.705818185923
 24
306.1177568918585
 34
0.0
100
AcDbRotatedDimension
1001
ACAD
1000
DSTYLE
1002
{
1070
    40
1040
15.0
1070
    41
1040
2.5
1070
    42
1040
0.625
1070
    43
1040
3.75
1070
    44
1040
1.25
1070
    73
1070
     0
1070
    74
1070
     0
1070
    77
1070
     1
1070
    78
1070
     8
1070
   140
1040
2.5
1070
   141
1040
2.5
1070
   143
1040
0.0394
1070
   147
1040
0.625
1070
   171
1070
     4
1070
   172
1070
     1
1070
   273
1070
     8
1070
   274
1070
     4
1070
   277
1070
     6
1002
}
  0
DIMENSION
  5
EC1
330
E4A
100
AcDbEntity
  8
上線
 48
10.0
100
AcDbDimension
  2
*D4
 10
1903.705818185922
 20
106.1177568918583
 30
0.0
 11
1771.705818185923
 21
134.2427568918583
 31
0.0
 12
-4868.864669083421
 22
-628.9127577485124
 32
0.0
 71
     5
 42
-1.0
  3
STANDARD
100
AcDbAlignedDimension
 13
1639.705818185922
 23
306.1177568918585
 33
0.0
 14
1903.705818185922
 24
306.1177568918585
 34
0.0
100
AcDbRotatedDimension
1001
ACAD
1000
DSTYLE
1002
{
1070
    40
1040
15.0
1070
    41
1040
2.5
1070
    42
1040
0.625
1070
    43
1040
3.75
1070
    44
1040
1.25
1070
    73
1070
     0
1070
    74
1070
     0
1070
    77
1070
     1
1070
    78
1070
     8
1070
   140
1040
2.5
1070
   141
1040
2.5
1070
   143
1040
0.0394
1070
   147
1040
0.625
1070
   171
1070
     4
1070
   172
1070
     1
1070
   273
1070
     8
1070
   274
1070
     4
1070
   277
1070
     6
1002
}
  0
LINE
  5
EC2
330
E4A
100
AcDbEntity
  8
上線
 48
10.0
100
AcDbLine
 10
1639.705818185922
 20
366.1177568918585
 30
0.0
 11
2619.705818185923
 21
366.1177568918585
 31
0.0
  0
MTEXT
  5
EC3
330
E4A
100
AcDbEntity
  8
0
  6
ByBlock
 62
     0
 48
10.0
100
AcDbMText
 10
1085.193814846736
 20
134.2427568918585
 30
0.0
 40
37.5
 41
0.0
 71
     5
 72
     1
  1
\A1;30
 73
     1
 44
1.0
  0
LINE
  5
EC4
330
E4A
100
AcDbEntity
  8
0
  6
ByBlock
 62
     0
 48
10.0
100
AcDbLine
 10
1014.301960914152
 20
106.1177568918585
 30
0.0
 11
1118.58566877932
 21
106.1177568918585
 31
0.0
  0
LINE
  5
EC5
330
E4A
100
AcDbEntity
  8
0
  6
ByBlock
 62
     0
 48
10.0
100
AcDbLine
 10
1016.176960914152
 20
366.1177568918585
 30
0.0
 11
1225.551960914152
 21
366.1177568918585
 31
0.0
  0
LINE
  5
EC6
330
E4A
100
AcDbEntity
  8
0
  6
ByBlock
 62
     0
 48
10.0
100
AcDbLine
 10
1006.801960914152
 20
366.1177568918585
 30
0.0
 11
1225.551960914152
 21
366.1177568918585
 31
0.0
  0
LINE
  5
EC7
330
E4A
100
AcDbEntity
  8
0
  6
ByBlock
 62
     0
 48
10.0
100
AcDbLine
 10
1006.801960914152
 20
336.1177568918585
 30
0.0
 11
1225.551960914152
 21
336.1177568918585
 31
0.0
  0
LINE
  5
EC8
330
E4A
100
AcDbEntity
  8
0
  6
ByBlock
 62
     0
 48
10.0
100
AcDbLine
 10
976.801960914152
 20
296.7427568918585
 30
0.0
 11
976.801960914152
 21
87.36775689185856
 31
0.0
  0
LINE
  5
EC9
330
E4A
100
AcDbEntity
  8
0
  6
ByBlock
 62
     0
 48
10.0
100
AcDbLine
 10
946.8019609141519
 20
296.7427568918585
 30
0.0
 11
946.8019609141519
 21
87.36775689185856
 31
0.0
  0
MTEXT
  5
ECA
330
E4A
100
AcDbEntity
  8
0
  6
ByBlock
 62
     0
 48
10.0
100
AcDbMText
 10
841.5937722217368
 20
165.4927568918585
 30
0.0
 40
37.5
 41
0.0
 71
     5
 72
     1
  1
\A1;2@240\P=480
 73
     1
 44
1.0
  0
LINE
  5
ECB
330
E4A
100
AcDbEntity
  8
0
  6
ByBlock
 62
     0
 48
10.0
100
AcDbLine
 10
946.8019609141519
 20
106.1177568918585
 30
0.0
 11
676.3855835293216
 21
106.1177568918585
 31
0.0
  0
MTEXT
  5
ECC
330
E4A
100
AcDbEntity
  8
上線
 48
10.0
100
AcDbMText
 10
678.9181565729577
 20
28.69629709482888
 30
0.0
 40
40.0
 41
0.0
 71
     4
 72
     1
  1
￡
 73
     1
 44
1.0
  0
POINT
  5
ECD
330
E4A
100
AcDbEntity
  8
DEFPOINTS
  6
ByBlock
 62
     0
 48
10.0
100
AcDbPoint
 10
676.3855835293216
 20
106.1177568918585
 30
0.0
  0
POINT
  5
ECE
330
E4A
100
AcDbEntity
  8
DEFPOINTS
  6
ByBlock
 62
     0
 48
10.0
100
AcDbPoint
 10
676.3855835293216
 20
141.4756162212374
 30
0.0
  0
LINE
  5
ECF
330
E4A
100
AcDbEntity
  8
0
  6
ByBlock
 62
     0
 48
10.0
100
AcDbLine
 10
946.8019609141519
 20
106.1177568918585
 30
0.0
 11
976.801960914152
 21
106.1177568918585
 31
0.0
  0
LINE
  5
ED0
330
E4A
100
AcDbEntity
  8
0
  6
ByBlock
 62
     0
 48
10.0
100
AcDbLine
 10
909.3019609141519
 20
106.1177568918585
 30
0.0
 11
871.8019609141519
 21
106.1177568918585
 31
0.0
  0
SOLID
  5
ED1
330
E4A
100
AcDbEntity
  8
0
  6
ByBlock
 62
     0
 48
10.0
100
AcDbTrace
 10
909.3019609141519
 20
112.3677568918585
 30
0.0
 11
909.3019609141519
 21
99.86775689185856
 31
0.0
 12
946.8019609141519
 22
106.1177568918585
 32
0.0
 13
946.8019609141519
 23
106.1177568918585
 33
0.0
  0
POINT
  5
ED2
330
E4A
100
AcDbEntity
  8
DEFPOINTS
  6
ByBlock
 62
     0
 48
10.0
100
AcDbPoint
 10
976.801960914152
 20
106.1177568918585
 30
0.0
  0
SOLID
  5
ED3
330
E4A
100
AcDbEntity
  8
0
  6
ByBlock
 62
     0
 48
10.0
100
AcDbTrace
 10
1014.301960914152
 20
112.3677568918585
 30
0.0
 11
1014.301960914152
 21
99.86775689185856
 31
0.0
 12
976.801960914152
 22
106.1177568918585
 32
0.0
 13
976.801960914152
 23
106.1177568918585
 33
0.0
  0
LINE
  5
ED4
330
E4A
100
AcDbEntity
  8
上線
 48
10.0
100
AcDbLine
 10
946.8019609141519
 20
366.1177568918583
 30
0.0
 11
706.3855835293216
 21
366.1177568918583
 31
0.0
  0
POINT
  5
ED5
330
E4A
100
AcDbEntity
  8
DEFPOINTS
  6
ByBlock
 62
     0
 48
10.0
100
AcDbPoint
 10
676.3855835293216
 20
315.9935143979187
 30
0.0
  0
POINT
  5
ED6
330
E4A
100
AcDbEntity
  8
DEFPOINTS
  6
ByBlock
 62
     0
 48
10.0
100
AcDbPoint
 10
676.3855835293216
 20
306.1177568918588
 30
0.0
  0
POINT
  5
ED7
330
E4A
100
AcDbEntity
  8
DEFPOINTS
  6
ByBlock
 62
     0
 48
10.0
100
AcDbPoint
 10
676.3855835293216
 20
306.1177568918585
 30
0.0
  0
LINE
  5
ED8
330
E4A
100
AcDbEntity
  8
上線
 48
10.0
100
AcDbLine
 10
611.0927769804011
 20
426.1177568918583
 30
0.0
 11
706.3855835293216
 21
426.1177568918583
 31
0.0
  0
LINE
  5
ED9
330
E4A
100
AcDbEntity
  8
上線
100
AcDbLine
 10
802.5111448479028
 20
436.1177568918581
 30
0.0
 11
611.0927769804011
 21
436.1177568918581
 31
0.0
  0
LWPOLYLINE
  5
EDA
330
E4A
100
AcDbEntity
  8
上線
 48
10.0
100
AcDbPolyline
 90
        2
 70
     1
 43
5.0
 10
703.5933591788325
 20
370.9719469530127
 42
1.0
 10
708.5933591788325
 20
370.9719469530127
 42
1.0
  0
POINT
  5
EDB
330
E4A
100
AcDbEntity
  8
DEFPOINTS
  6
ByBlock
 62
     0
 48
10.0
100
AcDbPoint
 10
886.8019609141519
 20
306.1177568918585
 30
0.0
  0
POINT
  5
EDC
330
E4A
100
AcDbEntity
  8
DEFPOINTS
  6
ByBlock
 62
     0
 48
10.0
100
AcDbPoint
 10
946.8019609141519
 20
306.1177568918585
 30
0.0
  0
POINT
  5
EDD
330
E4A
100
AcDbEntity
  8
DEFPOINTS
  6
ByBlock
 62
     0
 48
10.0
100
AcDbPoint
 10
946.8019609141519
 20
305.7581189813511
 30
0.0
  0
POINT
  5
EDE
330
E4A
100
AcDbEntity
  8
DEFPOINTS
  6
ByBlock
 62
     0
 48
10.0
100
AcDbPoint
 10
976.801960914152
 20
306.1177568918585
 30
0.0
  0
POINT
  5
EDF
330
E4A
100
AcDbEntity
  8
DEFPOINTS
  6
ByBlock
 62
     0
 48
10.0
100
AcDbPoint
 10
976.3855835293215
 20
269.8179362752562
 30
0.0
  0
POINT
  5
EE0
330
E4A
100
AcDbEntity
  8
DEFPOINTS
  6
ByBlock
 62
     0
 48
10.0
100
AcDbPoint
 10
1038.307535856016
 20
316.1177568918583
 30
0.0
  0
POINT
  5
EE1
330
E4A
100
AcDbEntity
  8
DEFPOINTS
  6
ByBlock
 62
     0
 48
10.0
100
AcDbPoint
 10
1038.307535856016
 20
316.1177568918583
 30
0.0
  0
POINT
  5
EE2
330
E4A
100
AcDbEntity
  8
DEFPOINTS
  6
ByBlock
 62
     0
 48
10.0
100
AcDbPoint
 10
1038.307535856016
 20
286.1177568918583
 30
0.0
  0
LWPOLYLINE
  5
EE3
330
E4A
100
AcDbEntity
  8
上線
 48
10.0
100
AcDbPolyline
 90
        2
 70
     1
 43
5.0
 10
939.52310065673
 20
370.9719469530127
 42
1.0
 10
944.5231006567301
 20
370.9719469530127
 42
1.0
  0
POINT
  5
EE4
330
E4A
100
AcDbEntity
  8
DEFPOINTS
  6
ByBlock
 62
     0
 48
10.0
100
AcDbPoint
 10
1003.051960914151
 20
366.1177568918585
 30
0.0
  0
POINT
  5
EE5
330
E4A
100
AcDbEntity
  8
DEFPOINTS
  6
ByBlock
 62
     0
 48
10.0
100
AcDbPoint
 10
996.8019609141519
 20
366.1177568918585
 30
0.0
  0
POINT
  5
EE6
330
E4A
100
AcDbEntity
  8
DEFPOINTS
  6
ByBlock
 62
     0
 48
10.0
100
AcDbPoint
 10
996.8019609141519
 20
366.1177568918585
 30
0.0
  0
POINT
  5
EE7
330
E4A
100
AcDbEntity
  8
DEFPOINTS
  6
ByBlock
 62
     0
 48
10.0
100
AcDbPoint
 10
1006.801960914152
 20
366.1177568918585
 30
0.0
  0
POINT
  5
EE8
330
E4A
100
AcDbEntity
  8
DEFPOINTS
  6
ByBlock
 62
     0
 48
10.0
100
AcDbPoint
 10
1006.801960914152
 20
366.1177568918585
 30
0.0
  0
POINT
  5
EE9
330
E4A
100
AcDbEntity
  8
DEFPOINTS
  6
ByBlock
 62
     0
 48
10.0
100
AcDbPoint
 10
996.8019609141519
 20
336.1177568918585
 30
0.0
  0
POINT
  5
EEA
330
E4A
100
AcDbEntity
  8
DEFPOINTS
  6
ByBlock
 62
     0
 48
10.0
100
AcDbPoint
 10
1006.801960914152
 20
336.1177568918585
 30
0.0
  0
LINE
  5
EEB
330
E4A
100
AcDbEntity
  8
上線
100
AcDbLine
 10
976.801960914152
 20
346.1177568918581
 30
0.0
 11
966.801960914152
 21
336.1177568918581
 31
0.0
  0
LINE
  5
EEC
330
E4A
100
AcDbEntity
  8
上線
100
AcDbLine
 10
976.801960914152
 20
346.1177568918581
 30
0.0
 11
976.801960914152
 21
386.1177568918583
 31
0.0
  0
POINT
  5
EED
330
E4A
100
AcDbEntity
  8
DEFPOINTS
  6
ByBlock
 62
     0
 48
10.0
100
AcDbPoint
 10
1038.307535856016
 20
386.1177568918583
 30
0.0
  0
POINT
  5
EEE
330
E4A
100
AcDbEntity
  8
DEFPOINTS
  6
ByBlock
 62
     0
 48
10.0
100
AcDbPoint
 10
1086.801960914151
 20
336.1177568918585
 30
0.0
  0
POINT
  5
EEF
330
E4A
100
AcDbEntity
  8
DEFPOINTS
  6
ByBlock
 62
     0
 48
10.0
100
AcDbPoint
 10
1038.307535856016
 20
356.1177568918583
 30
0.0
  0
POINT
  5
EF0
330
E4A
100
AcDbEntity
  8
DEFPOINTS
  6
ByBlock
 62
     0
 48
10.0
100
AcDbPoint
 10
1038.307535856016
 20
356.1177568918583
 30
0.0
  0
LINE
  5
EF1
330
E4A
100
AcDbEntity
  8
0
  6
ByBlock
 62
     0
 48
10.0
100
AcDbLine
 10
1639.705818185922
 20
276.9857952249303
 30
0.0
 11
1639.705818185922
 21
153.617746375673
 31
0.0
  0
LINE
  5
EF2
330
E4A
100
AcDbEntity
  8
0
  6
ByBlock
 62
     0
 48
10.0
100
AcDbLine
 10
1639.705818185922
 20
306.1177568918585
 30
0.0
 11
1639.705818185922
 21
153.617746375673
 31
0.0
  0
LINE
  5
EF3
330
E4A
100
AcDbEntity
  8
0
  6
ByBlock
 62
     0
 48
10.0
100
AcDbLine
 10
1619.705818185923
 20
306.1177568918585
 30
0.0
 11
1619.705818185923
 21
153.617746375673
 31
0.0
  0
POINT
  5
EF4
330
E4A
100
AcDbEntity
  8
DEFPOINTS
  6
ByBlock
 62
     0
 48
10.0
100
AcDbPoint
 10
1609.679500914288
 20
114.8605570636018
 30
0.0
  0
POINT
  5
EF5
330
E4A
100
AcDbEntity
  8
DEFPOINTS
  6
ByBlock
 62
     0
 48
10.0
100
AcDbPoint
 10
1619.705818185923
 20
166.117746375673
 30
0.0
  0
SOLID
  5
EF6
330
E4A
100
AcDbEntity
  8
0
  6
ByBlock
 62
     0
 48
10.0
100
AcDbTrace
 10
1200.551960914152
 20
298.6177568918585
 30
0.0
 11
1213.051960914152
 21
298.6177568918585
 31
0.0
 12
1206.801960914152
 22
336.1177568918585
 32
0.0
 13
1206.801960914152
 23
336.1177568918585
 33
0.0
  0
LINE
  5
EF7
330
E4A
100
AcDbEntity
  8
0
  6
ByBlock
 62
     0
 48
10.0
100
AcDbLine
 10
1206.801960914152
 20
298.6177568918585
 30
0.0
 11
1206.801960914152
 21
194.33404902669
 31
0.0
  0
MTEXT
  5
EF8
330
E4A
100
AcDbEntity
  8
0
  6
ByBlock
 62
     0
 48
10.0
100
AcDbMText
 10
1178.676960914152
 20
227.7259029592743
 30
0.0
 40
37.5
 41
0.0
 71
     5
 72
     1
  1
\A1;30
 11
0.0000000000000001
 21
1.0
 31
0.0
 73
     1
 44
1.0
  0
SOLID
  5
EF9
330
E4A
100
AcDbEntity
  8
0
  6
ByBlock
 62
     0
 48
10.0
100
AcDbTrace
 10
1200.551960914152
 20
403.6177568918585
 30
0.0
 11
1213.051960914152
 21
403.6177568918585
 31
0.0
 12
1206.801960914152
 22
366.1177568918585
 32
0.0
 13
1206.801960914152
 23
366.1177568918585
 33
0.0
  0
SOLID
  5
EFA
330
E4A
100
AcDbEntity
  8
0
  6
ByBlock
 62
     0
 48
10.0
100
AcDbTrace
 10
1200.551960914152
 20
403.6177568918585
 30
0.0
 11
1213.051960914152
 21
403.6177568918585
 31
0.0
 12
1206.801960914152
 22
366.1177568918585
 32
0.0
 13
1206.801960914152
 23
366.1177568918585
 33
0.0
  0
POINT
  5
EFB
330
E4A
100
AcDbEntity
  8
DEFPOINTS
  6
ByBlock
 62
     0
 48
10.0
100
AcDbPoint
 10
1206.801960914152
 20
366.1177568918585
 30
0.0
  0
POINT
  5
EFC
330
E4A
100
AcDbEntity
  8
DEFPOINTS
  6
ByBlock
 62
     0
 48
10.0
100
AcDbPoint
 10
1206.801960914152
 20
336.1177568918585
 30
0.0
  0
LINE
  5
EFD
330
E4A
100
AcDbEntity
  8
0
  6
ByBlock
 62
     0
 48
10.0
100
AcDbLine
 10
1206.801960914152
 20
366.1177568918585
 30
0.0
 11
1206.801960914152
 21
336.1177568918585
 31
0.0
  0
POINT
  5
EFE
330
E4A
100
AcDbEntity
  8
DEFPOINTS
  6
ByBlock
 62
     0
 48
10.0
100
AcDbPoint
 10
1224.697957398511
 20
406.1177568918583
 30
0.0
  0
LINE
  5
EFF
330
E4A
100
AcDbEntity
  8
0
  6
ByBlock
 62
     0
 48
10.0
100
AcDbLine
 10
1206.801960914152
 20
403.6177568918585
 30
0.0
 11
1206.801960914152
 21
441.1177568918585
 31
0.0
  0
POINT
  5
F00
330
E4A
100
AcDbEntity
  8
DEFPOINTS
  6
ByBlock
 62
     0
 48
10.0
100
AcDbPoint
 10
1629.679500914288
 20
262.7501738605135
 30
0.0
  0
POINT
  5
F01
330
E4A
100
AcDbEntity
  8
DEFPOINTS
  6
ByBlock
 62
     0
 48
10.0
100
AcDbPoint
 10
1639.705818185922
 20
260.3296952249304
 30
0.0
  0
POINT
  5
F02
330
E4A
100
AcDbEntity
  8
DEFPOINTS
  6
ByBlock
 62
     0
 48
10.0
100
AcDbPoint
 10
1639.705818185922
 20
260.3296952249304
 30
0.0
  0
POINT
  5
F03
330
E4A
100
AcDbEntity
  8
DEFPOINTS
  6
ByBlock
 62
     0
 48
10.0
100
AcDbPoint
 10
1619.705818185923
 20
260.3296952249304
 30
0.0
  0
LINE
  5
F04
330
E4A
100
AcDbEntity
  8
上線
 48
10.0
100
AcDbLine
 10
2011.812395161567
 20
106.1177568918585
 30
0.0
 11
2202.5209718151
 21
106.1177568918585
 31
0.0
  0
MTEXT
  5
F05
330
E4A
100
AcDbEntity
  8
上線
 48
10.0
100
AcDbMText
 10
2032.030652121969
 20
136.4021531213056
 30
0.0
 40
40.0
 41
0.0
 71
     4
 72
     1
  1
16-Φ5
 73
     1
 44
1.0
  0
MTEXT
  5
F06
330
E4A
100
AcDbEntity
  8
上線
 48
10.0
100
AcDbMText
 10
2032.030652121969
 20
201.6776014081906
 30
0.0
 40
40.0
 41
0.0
 71
     4
 72
     1
  1
\fＭＳ Ｐ明朝|b0|i0|c128|p18;縦筋
 73
     1
 44
1.0
  0
LINE
  5
F07
330
E4A
100
AcDbEntity
  8
0
  6
ByBlock
 62
     0
 48
10.0
100
AcDbLine
 10
1903.705818185922
 20
306.1177568918585
 30
0.0
 11
1903.705818185922
 21
153.617746375673
 31
0.0
  0
POINT
  5
F08
330
E4A
100
AcDbEntity
  8
DEFPOINTS
  6
ByBlock
 62
     0
 48
10.0
100
AcDbPoint
 10
1903.705818185922
 20
166.117746375673
 30
0.0
  0
POINT
  5
F09
330
E4A
100
AcDbEntity
  8
DEFPOINTS
  6
ByBlock
 62
     0
 48
10.0
100
AcDbPoint
 10
1893.679500914288
 20
262.7501738605135
 30
0.0
  0
POINT
  5
F0A
330
E4A
100
AcDbEntity
  8
DEFPOINTS
  6
ByBlock
 62
     0
 48
10.0
100
AcDbPoint
 10
1903.705818185922
 20
260.3296952249304
 30
0.0
  0
MTEXT
  5
F0B
330
E4A
100
AcDbEntity
  8
上線
 48
10.0
100
AcDbMText
 10
2413.026589489342
 20
198.1511008875486
 30
0.0
 40
40.0
 41
0.0
 71
     4
 72
     1
  1
\fＭＳ Ｐ明朝|b0|i0|c128|p18;横筋
 73
     1
 44
1.0
  0
LINE
  5
F0C
330
E4A
100
AcDbEntity
  8
上線
 48
10.0
100
AcDbLine
 10
2389.637603683425
 20
106.1177568918585
 30
0.0
 11
2558.621714440329
 21
106.1177568918583
 31
0.0
  0
MTEXT
  5
F0D
330
E4A
100
AcDbEntity
  8
上線
 48
10.0
100
AcDbMText
 10
2413.026589489342
 20
135.8295345692004
 30
0.0
 40
40.0
 41
0.0
 71
     4
 72
     1
  1
7-Φ5
 73
     1
 44
1.0
  0
LINE
  5
F0E
330
E4A
100
AcDbEntity
  8
点線
 48
10.0
100
AcDbLine
 10
2619.705818185923
 20
436.1177568918585
 30
0.0
 11
2673.00044941005
 21
436.1177568918585
 31
0.0
  0
LINE
  5
F0F
330
E4A
100
AcDbEntity
  8
点線
 48
10.0
100
AcDbLine
 10
2997.835601905981
 20
436.1177568918585
 30
0.0
 11
3916.193897220793
 21
436.1177568918585
 31
0.0
  0
LINE
  5
F10
330
E4A
100
AcDbEntity
  8
上線
 48
10.0
100
AcDbLine
 10
3046.256105582925
 20
336.1177568918585
 30
0.0
 11
3916.193897220793
 21
336.1177568918583
 31
0.0
  0
LINE
  5
F11
330
E4A
100
AcDbEntity
  8
上線
 48
10.0
100
AcDbLine
 10
3040.275452095826
 20
346.1177568918585
 30
0.0
 11
3916.193897220793
 21
346.1177568918583
 31
0.0
  0
LINE
  5
F12
330
E4A
100
AcDbEntity
  8
上線
 48
10.0
100
AcDbLine
 10
3046.256105582925
 20
336.1177568918587
 30
0.0
 11
3619.703816584241
 21
336.1177568918587
 31
0.0
  0
LINE
  5
F13
330
E4A
100
AcDbEntity
  8
上線
 48
10.0
100
AcDbLine
 10
3046.256105582925
 20
346.1177568918587
 30
0.0
 11
3619.703816584241
 21
346.1177568918587
 31
0.0
  0
POINT
  5
F14
330
E4A
100
AcDbEntity
  8
DEFPOINTS
  6
ByBlock
 62
     0
 48
10.0
100
AcDbPoint
 10
2921.34681658424
 20
336.1177568918585
 30
0.0
  0
POINT
  5
F15
330
E4A
100
AcDbEntity
  8
DEFPOINTS
  6
ByBlock
 62
     0
 48
10.0
100
AcDbPoint
 10
2921.34681658424
 20
336.1177568918585
 30
0.0
  0
POINT
  5
F16
330
E4A
100
AcDbEntity
  8
DEFPOINTS
  6
ByBlock
 62
     0
 48
10.0
100
AcDbPoint
 10
2871.346816584241
 20
336.1177568918585
 30
0.0
  0
LINE
  5
F17
330
E4A
100
AcDbEntity
  8
点線
 48
10.0
100
AcDbLine
 10
2886.290165013979
 20
436.1177568918585
 30
0.0
 11
2969.590926783677
 21
436.1177568918585
 31
0.0
  0
POINT
  5
F18
330
E4A
100
AcDbEntity
  8
DEFPOINTS
  6
ByBlock
 62
     0
 48
10.0
100
AcDbPoint
 10
3221.34681658424
 20
336.1177568918585
 30
0.0
  0
POINT
  5
F19
330
E4A
100
AcDbEntity
  8
DEFPOINTS
  6
ByBlock
 62
     0
 48
10.0
100
AcDbPoint
 10
3619.705799312606
 20
23.98524201874443
 30
0.0
  0
POINT
  5
F1A
330
E4A
100
AcDbEntity
  8
DEFPOINTS
  6
ByBlock
 62
     0
 48
10.0
100
AcDbPoint
 10
3561.32051658424
 20
336.1177701528315
 30
0.0
  0
MTEXT
  5
F1B
330
E4A
100
AcDbEntity
  8
上線
 48
10.0
100
AcDbMText
 10
2617.132362064657
 20
1712.813466449936
 30
0.0
 40
40.0
 41
558.2059
 71
     1
 72
     5
  1
\fＭＳ Ｐ明朝|b0|i0|c128|p18;側面図
 73
     1
 44
1.0
  0
LWPOLYLINE
  5
F1C
330
E4A
100
AcDbEntity
  8
上線
100
AcDbPolyline
 90
        4
 70
     1
 43
0.0
 10
2593.077492639579
 20
1642.131183452896
 10
2802.354428808604
 20
1642.131183452896
 10
2802.354428808604
 20
1741.835566198902
 10
2593.077492639579
 20
1741.835566198902
  0
LWPOLYLINE
  5
F1D
330
E4A
100
AcDbEntity
  8
上線
100
AcDbPolyline
 90
        4
 70
     1
 43
0.0
 10
2596.077492639579
 20
1645.131183452896
 10
2799.354428808604
 20
1645.131183452896
 10
2799.354428808604
 20
1738.835566198901
 10
2596.077492639579
 20
1738.835566198901
  0
LINE
  5
F1E
330
E4A
100
AcDbEntity
  8
点線
 48
10.0
100
AcDbLine
 10
2619.705818185923
 20
736.1177568918581
 30
0.0
 11
3070.962486642967
 21
736.1177568918581
 31
0.0
  0
LINE
  5
F1F
330
E4A
100
AcDbEntity
  8
上線
 48
10.0
100
AcDbLine
 10
1619.705818185923
 20
836.1177568918582
 30
0.0
 11
2970.790108537208
 21
836.1177568918582
 31
0.0
  0
DIMENSION
  5
F20
330
E4A
100
AcDbEntity
  8
上線
 48
10.0
100
AcDbDimension
  2
*D2
 10
3916.193897220793
 20
1216.117756891858
 30
0.0
 11
2767.949857703358
 21
1247.50820633006
 31
0.0
 12
-4868.864669083421
 22
-828.9127577485123
 32
0.0
  1
4,000
 71
     5
 42
-1.0
  3
STANDARD
100
AcDbAlignedDimension
 13
1619.705818185923
 23
862.3677568918584
 33
0.0
 14
3916.193897220793
 24
866.1177568918583
 34
0.0
100
AcDbRotatedDimension
1001
ACAD
1000
DSTYLE
1002
{
1070
    40
1040
15.0
1070
    41
1040
2.5
1070
    42
1040
0.625
1070
    43
1040
3.75
1070
    44
1040
1.25
1070
    73
1070
     0
1070
    74
1070
     0
1070
    77
1070
     1
1070
    78
1070
     8
1070
   140
1040
2.5
1070
   141
1040
2.5
1070
   143
1040
0.0394
1070
   147
1040
0.625
1070
   171
1070
     4
1070
   172
1070
     1
1070
   273
1070
     8
1070
   274
1070
     4
1070
   277
1070
     6
1002
}
  0
LINE
  5
F21
330
E4A
100
AcDbEntity
  8
上線
 48
10.0
100
AcDbLine
 10
1639.705818185922
 20
586.1177568918583
 30
0.0
 11
2619.705818185923
 21
586.1177568918583
 31
0.0
  0
SOLID
  5
F22
330
E4A
100
AcDbEntity
  8
0
  6
ByBlock
 62
     0
 48
10.0
100
AcDbTrace
 10
1657.205818185923
 20
1072.367756891858
 30
0.0
 11
1657.205818185923
 21
1059.867756891858
 31
0.0
 12
1619.705818185923
 22
1066.117756891858
 32
0.0
 13
1619.705818185923
 23
1066.117756891858
 33
0.0
  0
LINE
  5
F23
330
E4A
100
AcDbEntity
  8
上線
 48
10.0
100
AcDbLine
 10
1639.705818185922
 20
806.1177568918584
 30
0.0
 11
2619.705818185923
 21
806.1177568918584
 31
0.0
  0
LINE
  5
F24
330
E4A
100
AcDbEntity
  8
0
  6
ByBlock
 62
     0
 48
10.0
100
AcDbLine
 10
1619.705818185923
 20
875.4927568918583
 30
0.0
 11
1619.705818185923
 21
1084.867756891858
 31
0.0
  0
LINE
  5
F25
330
E4A
100
AcDbEntity
  8
0
  6
ByBlock
 62
     0
 48
10.0
100
AcDbLine
 10
976.801960914152
 20
866.1177568918585
 30
0.0
 11
976.801960914152
 21
1084.867756891858
 31
0.0
  0
LINE
  5
F26
330
E4A
100
AcDbEntity
  8
0
  6
ByBlock
 62
     0
 48
10.0
100
AcDbLine
 10
906.801960914152
 20
934.3812258188917
 30
0.0
 11
906.801960914152
 21
1020.264521580408
 31
0.0
  0
LINE
  5
F27
330
E4A
100
AcDbEntity
  8
0
  6
ByBlock
 62
     0
 48
10.0
100
AcDbLine
 10
856.801960914152
 20
875.4927568918583
 30
0.0
 11
856.801960914152
 21
1084.867756891858
 31
0.0
  0
LINE
  5
F28
330
E4A
100
AcDbEntity
  8
0
  6
ByBlock
 62
     0
 48
10.0
100
AcDbLine
 10
906.801960914152
 20
866.1177568918585
 30
0.0
 11
906.801960914152
 21
1084.867756891858
 31
0.0
  0
LINE
  5
F29
330
E4A
100
AcDbEntity
  8
0
  6
ByBlock
 62
     0
 48
10.0
100
AcDbLine
 10
556.8019609141519
 20
866.1177568918585
 30
0.0
 11
556.8019609141519
 21
1084.867756891858
 31
0.0
  0
LINE
  5
F2A
330
E4A
100
AcDbEntity
  8
0
  6
ByBlock
 62
     0
 48
10.0
100
AcDbLine
 10
976.801960914152
 20
966.5888808702449
 30
0.0
 11
976.801960914152
 21
1138.617774482816
 31
0.0
  0
LINE
  5
F2B
330
E4A
100
AcDbEntity
  8
0
  6
ByBlock
 62
     0
 48
10.0
100
AcDbLine
 10
976.801960914152
 20
875.4927568918583
 30
0.0
 11
976.801960914152
 21
1234.867756891858
 31
0.0
  0
LINE
  5
F2C
330
E4A
100
AcDbEntity
  8
0
  6
ByBlock
 62
     0
 48
10.0
100
AcDbLine
 10
1006.801960914151
 20
806.117756891858
 30
0.0
 11
1225.551960914152
 21
806.117756891858
 31
0.0
  0
LINE
  5
F2D
330
E4A
100
AcDbEntity
  8
0
  6
ByBlock
 62
     0
 48
10.0
100
AcDbLine
 10
1006.801960914152
 20
836.1177568918581
 30
0.0
 11
1225.551960914152
 21
836.1177568918581
 31
0.0
  0
LINE
  5
F2E
330
E4A
100
AcDbEntity
  8
0
  6
ByBlock
 62
     0
 48
10.0
100
AcDbLine
 10
1016.176960914152
 20
806.1177568918584
 30
0.0
 11
1225.551960914152
 21
806.1177568918584
 31
0.0
  0
LINE
  5
F2F
330
E4A
100
AcDbEntity
  8
上線
 48
10.0
100
AcDbLine
 10
906.801960914152
 20
836.1177568918582
 30
0.0
 11
906.801960914152
 21
736.1177568918583
 31
0.0
  0
SOLID
  5
F30
330
E4A
100
AcDbEntity
  8
0
  6
ByBlock
 62
     0
 48
10.0
100
AcDbTrace
 10
814.301960914152
 20
672.3224861185172
 30
0.0
 11
814.301960914152
 21
659.8224861185172
 31
0.0
 12
851.801960914152
 22
666.0724861185172
 32
0.0
 13
851.801960914152
 23
666.0724861185172
 33
0.0
  0
LINE
  5
F31
330
E4A
100
AcDbEntity
  8
0
  6
ByBlock
 62
     0
 48
10.0
100
AcDbLine
 10
586.8019609141519
 20
666.0724861185172
 30
0.0
 11
851.801960914152
 21
666.0724861185173
 31
0.0
  0
LINE
  5
F32
330
E4A
100
AcDbEntity
  8
0
  6
ByBlock
 62
     0
 48
10.0
100
AcDbLine
 10
561.8019609141519
 20
531.2533398473442
 30
0.0
 11
561.8019609141519
 21
684.8224861185172
 31
0.0
  0
LINE
  5
F33
330
E4A
100
AcDbEntity
  8
上線
 48
10.0
100
AcDbLine
 10
557.5162466284382
 20
736.1177568918583
 30
0.0
 11
561.0978782404256
 21
485.4035440527154
 31
0.0
  0
LINE
  5
F34
330
E4A
100
AcDbEntity
  8
0
  6
ByBlock
 62
     0
 48
10.0
100
AcDbLine
 10
561.8019609141519
 20
521.8783398473442
 30
0.0
 11
561.8019609141519
 21
678.5724861185172
 31
0.0
  0
POINT
  5
F35
330
E4A
100
AcDbEntity
  8
DEFPOINTS
  6
ByBlock
 62
     0
 48
10.0
100
AcDbPoint
 10
561.8019609141519
 20
521.8783398473442
 30
0.0
  0
POINT
  5
F36
330
E4A
100
AcDbEntity
  8
DEFPOINTS
  6
ByBlock
 62
     0
 48
10.0
100
AcDbPoint
 10
561.8019609141519
 20
482.5025636627851
 30
0.0
  0
POINT
  5
F37
330
E4A
100
AcDbEntity
  8
DEFPOINTS
  6
ByBlock
 62
     0
 48
10.0
100
AcDbPoint
 10
791.801960914152
 20
521.8783398473442
 30
0.0
  0
MTEXT
  5
F38
330
E4A
100
AcDbEntity
  8
0
  6
ByBlock
 62
     0
 48
10.0
100
AcDbMText
 10
706.8019609141519
 20
694.1974861185172
 30
0.0
 40
37.5
 41
0.0
 71
     5
 72
     1
  1
\A1;390
 73
     1
 44
1.0
  0
LINE
  5
F39
330
E4A
100
AcDbEntity
  8
0
  6
ByBlock
 62
     0
 48
10.0
100
AcDbLine
 10
599.3019609141519
 20
666.0724861185172
 30
0.0
 11
754.301960914152
 21
666.0724861185172
 31
0.0
  0
SOLID
  5
F3A
330
E4A
100
AcDbEntity
  8
0
  6
ByBlock
 62
     0
 48
10.0
100
AcDbTrace
 10
599.3019609141519
 20
672.3224861185172
 30
0.0
 11
599.3019609141519
 21
659.8224861185172
 31
0.0
 12
561.8019609141519
 22
666.0724861185172
 32
0.0
 13
561.8019609141519
 23
666.0724861185172
 33
0.0
  0
SOLID
  5
F3B
330
E4A
100
AcDbEntity
  8
0
  6
ByBlock
 62
     0
 48
10.0
100
AcDbTrace
 10
586.8019609141519
 20
670.2391527851839
 30
0.0
 11
586.8019609141519
 21
661.9058194518504
 31
0.0
 12
561.8019609141519
 22
666.0724861185172
 32
0.0
 13
561.8019609141519
 23
666.0724861185172
 33
0.0
  0
LINE
  5
F3C
330
E4A
100
AcDbEntity
  8
上線
100
AcDbLine
 10
556.8019609141519
 20
736.1177568918583
 30
0.0
 11
556.8019609141519
 21
736.1177568918583
 31
0.0
  0
POINT
  5
F3D
330
E4A
100
AcDbEntity
  8
DEFPOINTS
  6
ByBlock
 62
     0
 48
10.0
100
AcDbPoint
 10
791.801960914152
 20
666.0724861185172
 30
0.0
  0
LINE
  5
F3E
330
E4A
100
AcDbEntity
  8
0
  6
ByBlock
 62
     0
 48
10.0
100
AcDbLine
 10
851.801960914152
 20
531.2533398473442
 30
0.0
 11
851.801960914152
 21
684.8224861185172
 31
0.0
  0
LINE
  5
F3F
330
E4A
100
AcDbEntity
  8
上線
 48
10.0
100
AcDbLine
 10
856.0876751998657
 20
736.1177568918583
 30
0.0
 11
852.5060435878783
 21
485.4035440527159
 31
0.0
  0
LINE
  5
F40
330
E4A
100
AcDbEntity
  8
0
  6
ByBlock
 62
     0
 48
10.0
100
AcDbLine
 10
851.801960914152
 20
521.8783398473442
 30
0.0
 11
851.801960914152
 21
678.5724861185172
 31
0.0
  0
POINT
  5
F41
330
E4A
100
AcDbEntity
  8
DEFPOINTS
  6
ByBlock
 62
     0
 48
10.0
100
AcDbPoint
 10
851.801960914152
 20
482.5025636627851
 30
0.0
  0
LWPOLYLINE
  5
F42
330
E4A
100
AcDbEntity
  8
上線
 48
10.0
100
AcDbPolyline
 90
        2
 70
     1
 43
5.0
 10
939.2442218308605
 20
585.7065350564544
 42
1.0
 10
944.2442218308606
 20
585.7065350564544
 42
1.0
  0
POINT
  5
F43
330
E4A
100
AcDbEntity
  8
DEFPOINTS
  6
ByBlock
 62
     0
 48
10.0
100
AcDbPoint
 10
851.801960914152
 20
632.9467099339581
 30
0.0
  0
LINE
  5
F44
330
E4A
100
AcDbEntity
  8
上線
 48
10.0
100
AcDbLine
 10
906.801960914152
 20
736.1177568918583
 30
0.0
 11
856.0876751998657
 21
736.1177568918583
 31
0.0
  0
LINE
  5
F45
330
E4A
100
AcDbEntity
  8
上線
100
AcDbLine
 10
916.801960914152
 20
736.1177568918583
 30
0.0
 11
916.801960914152
 21
736.1177568918583
 31
0.0
  0
LINE
  5
F46
330
E4A
100
AcDbEntity
  8
上線
100
AcDbLine
 10
966.801960914152
 20
736.1177568918583
 30
0.0
 11
966.801960914152
 21
736.1177568918583
 31
0.0
  0
LINE
  5
F47
330
E4A
100
AcDbEntity
  8
0
  6
ByBlock
 62
     0
 48
10.0
100
AcDbLine
 10
556.8019609141519
 20
862.4713429367433
 30
0.0
 11
556.8019609141519
 21
1018.61777210726
 31
0.0
  0
POINT
  5
F48
330
E4A
100
AcDbEntity
  8
DEFPOINTS
  6
ByBlock
 62
     0
 48
10.0
100
AcDbPoint
 10
556.8019609141519
 20
830.1236429367433
 30
0.0
  0
LINE
  5
F49
330
E4A
100
AcDbEntity
  8
0
  6
ByBlock
 62
     0
 48
10.0
100
AcDbLine
 10
556.8019609141519
 20
934.3812258188917
 30
0.0
 11
556.8019609141519
 21
1018.61777210726
 31
0.0
  0
POINT
  5
F4A
330
E4A
100
AcDbEntity
  8
DEFPOINTS
  6
ByBlock
 62
     0
 48
10.0
100
AcDbPoint
 10
556.8019609141519
 20
1006.11777210726
 30
0.0
  0
POINT
  5
F4B
330
E4A
100
AcDbEntity
  8
DEFPOINTS
  6
ByBlock
 62
     0
 48
10.0
100
AcDbPoint
 10
796.801960914152
 20
1006.11777210726
 30
0.0
  0
LINE
  5
F4C
330
E4A
100
AcDbEntity
  8
0
  6
ByBlock
 62
     0
 48
10.0
100
AcDbLine
 10
856.801960914152
 20
862.4713429367433
 30
0.0
 11
856.801960914152
 21
1018.61777210726
 31
0.0
  0
LINE
  5
F4D
330
E4A
100
AcDbEntity
  8
上線
100
AcDbLine
 10
906.801960914152
 20
836.1177568918582
 30
0.0
 11
976.801960914152
 21
836.1177568918582
 31
0.0
  0
LINE
  5
F4E
330
E4A
100
AcDbEntity
  8
上線
 48
10.0
100
AcDbLine
 10
916.801960914152
 20
791.1177568918583
 30
0.0
 11
916.7305323427235
 21
791.1177568918583
 31
0.0
  0
LWPOLYLINE
  5
F4F
330
E4A
100
AcDbEntity
  8
上線
 48
10.0
100
AcDbPolyline
 90
        2
 70
     1
 43
5.0
 10
939.2442218308605
 20
805.7065350564544
 42
1.0
 10
944.2442218308606
 20
805.7065350564544
 42
1.0
  0
POINT
  5
F50
330
E4A
100
AcDbEntity
  8
DEFPOINTS
  6
ByBlock
 62
     0
 48
10.0
100
AcDbPoint
 10
856.801960914152
 20
830.1236429367433
 30
0.0
  0
POINT
  5
F51
330
E4A
100
AcDbEntity
  8
DEFPOINTS
  6
ByBlock
 62
     0
 48
10.0
100
AcDbPoint
 10
996.8019609141519
 20
776.1177568918583
 30
0.0
  0
POINT
  5
F52
330
E4A
100
AcDbEntity
  8
DEFPOINTS
  6
ByBlock
 62
     0
 48
10.0
100
AcDbPoint
 10
1003.051960914151
 20
746.117756891858
 30
0.0
  0
POINT
  5
F53
330
E4A
100
AcDbEntity
  8
DEFPOINTS
  6
ByBlock
 62
     0
 48
10.0
100
AcDbPoint
 10
996.8019609141519
 20
746.1177568918583
 30
0.0
  0
POINT
  5
F54
330
E4A
100
AcDbEntity
  8
DEFPOINTS
  6
ByBlock
 62
     0
 48
10.0
100
AcDbPoint
 10
976.801960914152
 20
833.8736429367436
 30
0.0
  0
POINT
  5
F55
330
E4A
100
AcDbEntity
  8
DEFPOINTS
  6
ByBlock
 62
     0
 48
10.0
100
AcDbPoint
 10
976.801960914152
 20
833.8736429367436
 30
0.0
  0
POINT
  5
F56
330
E4A
100
AcDbEntity
  8
DEFPOINTS
  6
ByBlock
 62
     0
 48
10.0
100
AcDbPoint
 10
976.801960914152
 20
815.4023429367438
 30
0.0
  0
LINE
  5
F57
330
E4A
100
AcDbEntity
  8
0
  6
ByBlock
 62
     0
 48
10.0
100
AcDbLine
 10
856.801960914152
 20
934.3812258188917
 30
0.0
 11
856.801960914152
 21
1018.61777210726
 31
0.0
  0
POINT
  5
F58
330
E4A
100
AcDbEntity
  8
DEFPOINTS
  6
ByBlock
 62
     0
 48
10.0
100
AcDbPoint
 10
916.801960914152
 20
903.5069386982604
 30
0.0
  0
POINT
  5
F59
330
E4A
100
AcDbEntity
  8
DEFPOINTS
  6
ByBlock
 62
     0
 48
10.0
100
AcDbPoint
 10
856.801960914152
 20
1006.11777210726
 30
0.0
  0
POINT
  5
F5A
330
E4A
100
AcDbEntity
  8
DEFPOINTS
  6
ByBlock
 62
     0
 48
10.0
100
AcDbPoint
 10
936.8019609141519
 20
1006.117756891858
 30
0.0
  0
POINT
  5
F5B
330
E4A
100
AcDbEntity
  8
DEFPOINTS
  6
ByBlock
 62
     0
 48
10.0
100
AcDbPoint
 10
946.8019609141519
 20
1006.117756891858
 30
0.0
  0
POINT
  5
F5C
330
E4A
100
AcDbEntity
  8
DEFPOINTS
  6
ByBlock
 62
     0
 48
10.0
100
AcDbPoint
 10
946.8019609141519
 20
1006.117756891858
 30
0.0
  0
LINE
  5
F5D
330
E4A
100
AcDbEntity
  8
0
  6
ByBlock
 62
     0
 48
10.0
100
AcDbLine
 10
976.801960914152
 20
890.1236429367436
 30
0.0
 11
976.801960914152
 21
976.0069386982605
 31
0.0
  0
POINT
  5
F5E
330
E4A
100
AcDbEntity
  8
DEFPOINTS
  6
ByBlock
 62
     0
 48
10.0
100
AcDbPoint
 10
996.8019609141519
 20
1006.117756891858
 30
0.0
  0
POINT
  5
F5F
330
E4A
100
AcDbEntity
  8
DEFPOINTS
  6
ByBlock
 62
     0
 48
10.0
100
AcDbPoint
 10
1086.801960914151
 20
1006.117756891858
 30
0.0
  0
LINE
  5
F60
330
E4A
100
AcDbEntity
  8
0
  6
ByBlock
 62
     0
 48
10.0
100
AcDbLine
 10
1206.801960914152
 20
768.6177568918581
 30
0.0
 11
1206.801960914152
 21
731.1177568918581
 31
0.0
  0
LINE
  5
F61
330
E4A
100
AcDbEntity
  8
0
  6
ByBlock
 62
     0
 48
10.0
100
AcDbLine
 10
1206.801960914152
 20
873.6177568918581
 30
0.0
 11
1206.801960914152
 21
977.9014647570265
 31
0.0
  0
LINE
  5
F62
330
E4A
100
AcDbEntity
  8
0
  6
ByBlock
 62
     0
 48
10.0
100
AcDbLine
 10
1206.801960914152
 20
806.117756891858
 30
0.0
 11
1206.801960914152
 21
836.1177568918581
 31
0.0
  0
SOLID
  5
F63
330
E4A
100
AcDbEntity
  8
0
  6
ByBlock
 62
     0
 48
10.0
100
AcDbTrace
 10
1200.551960914152
 20
768.6177568918581
 30
0.0
 11
1213.051960914152
 21
768.6177568918581
 31
0.0
 12
1206.801960914152
 22
806.117756891858
 32
0.0
 13
1206.801960914152
 23
806.117756891858
 33
0.0
  0
SOLID
  5
F64
330
E4A
100
AcDbEntity
  8
0
  6
ByBlock
 62
     0
 48
10.0
100
AcDbTrace
 10
1200.551960914152
 20
768.6177568918583
 30
0.0
 11
1213.051960914152
 21
768.6177568918583
 31
0.0
 12
1206.801960914152
 22
806.1177568918584
 32
0.0
 13
1206.801960914152
 23
806.1177568918584
 33
0.0
  0
POINT
  5
F65
330
E4A
100
AcDbEntity
  8
DEFPOINTS
  6
ByBlock
 62
     0
 48
10.0
100
AcDbPoint
 10
1206.801960914152
 20
836.1177568918581
 30
0.0
  0
SOLID
  5
F66
330
E4A
100
AcDbEntity
  8
0
  6
ByBlock
 62
     0
 48
10.0
100
AcDbTrace
 10
1200.551960914152
 20
873.6177568918581
 30
0.0
 11
1213.051960914152
 21
873.6177568918581
 31
0.0
 12
1206.801960914152
 22
836.1177568918581
 32
0.0
 13
1206.801960914152
 23
836.1177568918581
 33
0.0
  0
MTEXT
  5
F67
330
E4A
100
AcDbEntity
  8
0
  6
ByBlock
 62
     0
 48
10.0
100
AcDbMText
 10
1178.676960914152
 20
944.5096108244424
 30
0.0
 40
37.5
 41
0.0
 71
     5
 72
     1
  1
\A1;30
 11
0.0000000000000001
 21
1.0
 31
0.0
 73
     1
 44
1.0
  0
LINE
  5
F68
330
E4A
100
AcDbEntity
  8
0
  6
ByBlock
 62
     0
 48
10.0
100
AcDbLine
 10
1619.705818185923
 20
868.6177568918584
 30
0.0
 11
1619.705818185923
 21
1018.617756891858
 31
0.0
  0
POINT
  5
F69
330
E4A
100
AcDbEntity
  8
DEFPOINTS
  6
ByBlock
 62
     0
 48
10.0
100
AcDbPoint
 10
1619.705818185923
 20
802.3677568918582
 30
0.0
  0
POINT
  5
F6A
330
E4A
100
AcDbEntity
  8
DEFPOINTS
  6
ByBlock
 62
     0
 48
10.0
100
AcDbPoint
 10
1619.705818185923
 20
880.8465327405064
 30
0.0
  0
SOLID
  5
F6B
330
E4A
100
AcDbEntity
  8
0
  6
ByBlock
 62
     0
 48
10.0
100
AcDbTrace
 10
819.301960914152
 20
1072.367756891858
 30
0.0
 11
819.301960914152
 21
1059.867756891858
 31
0.0
 12
856.801960914152
 22
1066.117756891858
 32
0.0
 13
856.801960914152
 23
1066.117756891858
 33
0.0
  0
LINE
  5
F6C
330
E4A
100
AcDbEntity
  8
0
  6
ByBlock
 62
     0
 48
10.0
100
AcDbLine
 10
594.3019609141519
 20
1066.117756891858
 30
0.0
 11
856.801960914152
 21
1066.117756891858
 31
0.0
  0
MTEXT
  5
F6D
330
E4A
100
AcDbEntity
  8
0
  6
ByBlock
 62
     0
 48
10.0
100
AcDbMText
 10
706.8019609141519
 20
1094.242756891858
 30
0.0
 40
37.5
 41
0.0
 71
     5
 72
     1
  1
\A1;300
 73
     1
 44
1.0
  0
SOLID
  5
F6E
330
E4A
100
AcDbEntity
  8
0
  6
ByBlock
 62
     0
 48
10.0
100
AcDbTrace
 10
594.3019609141519
 20
1072.367756891858
 30
0.0
 11
594.3019609141519
 21
1059.867756891858
 31
0.0
 12
556.8019609141519
 22
1066.117756891858
 32
0.0
 13
556.8019609141519
 23
1066.117756891858
 33
0.0
  0
POINT
  5
F6F
330
E4A
100
AcDbEntity
  8
DEFPOINTS
  6
ByBlock
 62
     0
 48
10.0
100
AcDbPoint
 10
556.8019609141519
 20
1066.117756891858
 30
0.0
  0
POINT
  5
F70
330
E4A
100
AcDbEntity
  8
DEFPOINTS
  6
ByBlock
 62
     0
 48
10.0
100
AcDbPoint
 10
796.801960914152
 20
1066.117756891858
 30
0.0
  0
POINT
  5
F71
330
E4A
100
AcDbEntity
  8
DEFPOINTS
  6
ByBlock
 62
     0
 48
10.0
100
AcDbPoint
 10
796.801960914152
 20
1066.117756891858
 30
0.0
  0
MTEXT
  5
F72
330
E4A
100
AcDbEntity
  8
0
  6
ByBlock
 62
     0
 48
10.0
100
AcDbMText
 10
706.8019609141519
 20
1244.242756891858
 30
0.0
 40
37.5
 41
0.0
 71
     5
 72
     1
  1
\A1;540
 73
     1
 44
1.0
  0
LINE
  5
F73
330
E4A
100
AcDbEntity
  8
0
  6
ByBlock
 62
     0
 48
10.0
100
AcDbLine
 10
906.801960914152
 20
1066.117756891858
 30
0.0
 11
976.801960914152
 21
1066.117756891858
 31
0.0
  0
MTEXT
  5
F74
330
E4A
100
AcDbEntity
  8
0
  6
ByBlock
 62
     0
 48
10.0
100
AcDbMText
 10
941.801960914152
 20
1094.242756891858
 30
0.0
 40
37.5
 41
0.0
 71
     5
 72
     1
  1
\A1;70
 73
     1
 44
1.0
  0
LINE
  5
F75
330
E4A
100
AcDbEntity
  8
0
  6
ByBlock
 62
     0
 48
10.0
100
AcDbLine
 10
906.801960914152
 20
1066.117756891858
 30
0.0
 11
831.801960914152
 21
1066.117756891858
 31
0.0
  0
POINT
  5
F76
330
E4A
100
AcDbEntity
  8
DEFPOINTS
  6
ByBlock
 62
     0
 48
10.0
100
AcDbPoint
 10
906.801960914152
 20
1040.02007210726
 30
0.0
  0
POINT
  5
F77
330
E4A
100
AcDbEntity
  8
DEFPOINTS
  6
ByBlock
 62
     0
 48
10.0
100
AcDbPoint
 10
916.801960914152
 20
1066.117756891858
 30
0.0
  0
POINT
  5
F78
330
E4A
100
AcDbEntity
  8
DEFPOINTS
  6
ByBlock
 62
     0
 48
10.0
100
AcDbPoint
 10
916.801960914152
 20
1066.117756891858
 30
0.0
  0
POINT
  5
F79
330
E4A
100
AcDbEntity
  8
DEFPOINTS
  6
ByBlock
 62
     0
 48
10.0
100
AcDbPoint
 10
916.801960914152
 20
1066.117756891858
 30
0.0
  0
POINT
  5
F7A
330
E4A
100
AcDbEntity
  8
DEFPOINTS
  6
ByBlock
 62
     0
 48
10.0
100
AcDbPoint
 10
936.8019609141519
 20
1036.117756891858
 30
0.0
  0
LWPOLYLINE
  5
F7B
330
E4A
100
AcDbEntity
  8
上線
 48
10.0
100
AcDbPolyline
 90
        2
 70
     1
 43
5.0
 10
904.301960914152
 20
1066.117756891858
 42
1.0
 10
909.3019609141519
 20
1066.117756891858
 42
1.0
  0
POINT
  5
F7C
330
E4A
100
AcDbEntity
  8
DEFPOINTS
  6
ByBlock
 62
     0
 48
10.0
100
AcDbPoint
 10
906.801960914152
 20
1066.117756891858
 30
0.0
  0
MTEXT
  5
F7D
330
E4A
100
AcDbEntity
  8
0
  6
ByBlock
 62
     0
 48
10.0
100
AcDbMText
 10
882.8106099211344
 20
1119.078712713323
 30
0.0
 40
37.5
 41
0.0
 71
     5
 72
     1
  1
\A1;50
 73
     1
 44
1.0
  0
POINT
  5
F7E
330
E4A
100
AcDbEntity
  8
DEFPOINTS
  6
ByBlock
 62
     0
 48
10.0
100
AcDbPoint
 10
916.801960914152
 20
1126.117774482816
 30
0.0
  0
LINE
  5
F7F
330
E4A
100
AcDbEntity
  8
0
  6
ByBlock
 62
     0
 48
10.0
100
AcDbLine
 10
1014.301960914152
 20
1066.117756891858
 30
0.0
 11
1051.801960914152
 21
1066.117756891858
 31
0.0
  0
SOLID
  5
F80
330
E4A
100
AcDbEntity
  8
0
  6
ByBlock
 62
     0
 48
10.0
100
AcDbTrace
 10
1014.301960914152
 20
1072.367756891858
 30
0.0
 11
1014.301960914152
 21
1059.867756891858
 31
0.0
 12
976.801960914152
 22
1066.117756891858
 32
0.0
 13
976.801960914152
 23
1066.117756891858
 33
0.0
  0
POINT
  5
F81
330
E4A
100
AcDbEntity
  8
DEFPOINTS
  6
ByBlock
 62
     0
 48
10.0
100
AcDbPoint
 10
1006.801960914152
 20
1036.117756891858
 30
0.0
  0
POINT
  5
F82
330
E4A
100
AcDbEntity
  8
DEFPOINTS
  6
ByBlock
 62
     0
 48
10.0
100
AcDbPoint
 10
1086.801960914151
 20
1036.117756891858
 30
0.0
  0
POINT
  5
F83
330
E4A
100
AcDbEntity
  8
DEFPOINTS
  6
ByBlock
 62
     0
 48
10.0
100
AcDbPoint
 10
976.801960914152
 20
1140.839074482816
 30
0.0
  0
SOLID
  5
F84
330
E4A
100
AcDbEntity
  8
0
  6
ByBlock
 62
     0
 48
10.0
100
AcDbTrace
 10
939.301960914152
 20
1222.367756891858
 30
0.0
 11
939.301960914152
 21
1209.867756891858
 31
0.0
 12
976.801960914152
 22
1216.117756891858
 32
0.0
 13
976.801960914152
 23
1216.117756891858
 33
0.0
  0
POINT
  5
F85
330
E4A
100
AcDbEntity
  8
DEFPOINTS
  6
ByBlock
 62
     0
 48
10.0
100
AcDbPoint
 10
916.801960914152
 20
1216.117756891858
 30
0.0
  0
POINT
  5
F86
330
E4A
100
AcDbEntity
  8
DEFPOINTS
  6
ByBlock
 62
     0
 48
10.0
100
AcDbPoint
 10
1619.705818185923
 20
1063.601349840117
 30
0.0
  0
POINT
  5
F87
330
E4A
100
AcDbEntity
  8
DEFPOINTS
  6
ByBlock
 62
     0
 48
10.0
100
AcDbPoint
 10
1619.705818185923
 20
1066.117756891858
 30
0.0
  0
POINT
  5
F88
330
E4A
100
AcDbEntity
  8
DEFPOINTS
  6
ByBlock
 62
     0
 48
10.0
100
AcDbPoint
 10
1619.705818185923
 20
1066.117756891858
 30
0.0
  0
SOLID
  5
F89
330
E4A
100
AcDbEntity
  8
上線
 48
10.0
100
AcDbTrace
 10
2299.569303637308
 20
561.0305941029525
 30
0.0
 11
2299.032365839573
 21
586.3697497501416
 31
0.0
 12
2307.758384506789
 22
562.5744201804443
 32
0.0
 13
2307.758384506789
 23
562.5744201804443
 33
0.0
1001
ACAD
1000
DSTYLE
1002
{
1070
    78
1070
     8
1070
   270
1070
     8
1070
   140
1040
2.5
1070
    74
1070
     0
1070
   172
1070
     1
1070
    73
1070
     0
1070
    77
1070
     1
1070
    40
1040
10.0
1070
   147
1040
0.625
1070
    42
1040
0.625
1070
    44
1040
1.25
1070
    43
1040
3.75
1070
   141
1040
2.5
1070
    41
1040
2.5
1070
   273
1070
     8
1070
   274
1070
     4
1070
   143
1040
0.0394
1070
   171
1070
     4
1002
}
  0
POINT
  5
F8A
330
E4A
100
AcDbEntity
  8
DEFPOINTS
  6
ByBlock
 62
     0
 48
10.0
100
AcDbPoint
 10
2619.705818185923
 20
796.1177568918583
 30
0.0
  0
LINE
  5
F8B
330
E4A
100
AcDbEntity
  8
0
  6
ByBlock
 62
     0
 48
10.0
100
AcDbLine
 10
2582.205818185923
 20
1066.117756891858
 30
0.0
 11
1657.205818185923
 21
1066.117756891858
 31
0.0
  0
MTEXT
  5
F8C
330
E4A
100
AcDbEntity
  8
0
  6
ByBlock
 62
     0
 48
10.0
100
AcDbMText
 10
2119.705818185923
 20
1097.50820633006
 30
0.0
 40
37.5
 41
0.0
 71
     5
 72
     1
  1
\A1;1,000
 73
     1
 44
1.0
  0
SOLID
  5
F8D
330
E4A
100
AcDbEntity
  8
0
  6
ByBlock
 62
     0
 48
10.0
100
AcDbTrace
 10
2582.205818185923
 20
1072.367756891858
 30
0.0
 11
2582.205818185923
 21
1059.867756891858
 31
0.0
 12
2619.705818185923
 22
1066.117756891858
 32
0.0
 13
2619.705818185923
 23
1066.117756891858
 33
0.0
  0
POINT
  5
F8E
330
E4A
100
AcDbEntity
  8
DEFPOINTS
  6
ByBlock
 62
     0
 48
10.0
100
AcDbPoint
 10
2619.705818185923
 20
1066.117756891858
 30
0.0
  0
POINT
  5
F8F
330
E4A
100
AcDbEntity
  8
DEFPOINTS
  6
ByBlock
 62
     0
 48
10.0
100
AcDbPoint
 10
2555.246620693766
 20
1252.615413408179
 30
0.0
  0
POINT
  5
F90
330
E4A
100
AcDbEntity
  8
DEFPOINTS
  6
ByBlock
 62
     0
 48
10.0
100
AcDbPoint
 10
2619.705818185923
 20
1206.117756891858
 30
0.0
  0
POINT
  5
F91
330
E4A
100
AcDbEntity
  8
DEFPOINTS
  6
ByBlock
 62
     0
 48
10.0
100
AcDbPoint
 10
2619.705818185923
 20
1263.601349840117
 30
0.0
  0
MTEXT
  5
F92
330
E4A
100
AcDbEntity
  8
上線
 48
10.0
100
AcDbMText
 10
634.7576835871314
 20
1713.094246389872
 30
0.0
 40
40.0
 41
558.2059
 71
     1
 72
     5
  1
\fＭＳ Ｐ明朝|b0|i0|c128|p18;正面図
 73
     1
 44
1.0
  0
LWPOLYLINE
  5
F93
330
E4A
100
AcDbEntity
  8
上線
100
AcDbPolyline
 90
        4
 70
     1
 43
0.0
 10
613.702814162054
 20
1645.411963392832
 10
816.9797503310784
 20
1645.411963392832
 10
816.9797503310784
 20
1739.116346138837
 10
613.702814162054
 20
1739.116346138837
  0
LWPOLYLINE
  5
F94
330
E4A
100
AcDbEntity
  8
上線
100
AcDbPolyline
 90
        4
 70
     1
 43
0.0
 10
610.7028141620539
 20
1642.411963392832
 10
819.9797503310783
 20
1642.411963392832
 10
819.9797503310783
 20
1742.116346138838
 10
610.7028141620539
 20
1742.116346138838
  0
LINE
  5
F95
330
E4A
100
AcDbEntity
  8
点線
 48
10.0
100
AcDbLine
 10
3099.207161765268
 20
736.1177568918581
 30
0.0
 11
3916.193897220793
 21
736.1177568918581
 31
0.0
  0
LINE
  5
F96
330
E4A
100
AcDbEntity
  8
上線
 48
10.0
100
AcDbLine
 10
3094.227339841081
 20
836.1177568918582
 30
0.0
 11
3916.193897220793
 21
836.1177568918586
 31
0.0
  0
LINE
  5
F97
330
E4A
100
AcDbEntity
  8
上線
 48
10.0
100
AcDbLine
 10
2999.03478365951
 20
836.1177568918588
 30
0.0
 11
3619.703816584241
 21
836.1177568918588
 31
0.0
  0
SPLINE
  5
F98
330
E4A
100
AcDbEntity
  8
上線
 48
10.0
100
AcDbSpline
210
0.0
220
0.0
230
1.0
 70
     8
 71
     3
 72
    10
 73
     6
 74
     0
 42
0.0000000001
 43
0.0000000001
 40
197.242245936312
 40
197.242245936312
 40
197.242245936312
 40
197.242245936312
 40
220.5413135163642
 40
397.3917699938457
 40
401.7610218859336
 40
401.7610218859336
 40
401.7610218859336
 40
401.7610218859336
 10
3127.515063100598
 20
686.1177568918583
 30
0.0
 10
3126.798287853478
 20
692.2857267606318
 30
0.0
 10
3113.179900013541
 20
744.0042622259843
 30
0.0
 10
3026.035809296504
 20
784.4152453173704
 30
0.0
 10
2999.64216999078
 20
834.8924806618168
 30
0.0
 10
2999.03478365951
 20
836.1177568918588
 30
0.0
  0
SPLINE
  5
F99
330
E4A
100
AcDbEntity
  8
上線
 48
10.0
100
AcDbSpline
210
0.0
220
0.0
230
1.0
 70
     8
 71
     3
 72
    10
 73
     6
 74
     0
 42
0.0000000001
 43
0.0000000001
 40
197.2422459363112
 40
197.2422459363112
 40
197.2422459363112
 40
197.2422459363112
 40
220.5413135163642
 40
397.3917699938457
 40
401.7610218859329
 40
401.7610218859329
 40
401.7610218859329
 40
401.7610218859329
 10
3099.270387978295
 20
686.1177568918578
 30
0.0
 10
3098.553612731175
 20
692.2857267606314
 30
0.0
 10
3084.93522489124
 20
744.0042622259843
 30
0.0
 10
2997.791134174201
 20
784.4152453173704
 30
0.0
 10
2971.397494868476
 20
834.8924806618162
 30
0.0
 10
2970.790108537208
 20
836.1177568918582
 30
0.0
  0
POINT
  5
F9A
330
E4A
100
AcDbEntity
  8
DEFPOINTS
  6
ByBlock
 62
     0
 48
10.0
100
AcDbPoint
 10
3614.153015462727
 20
880.8465327405064
 30
0.0
  0
ENDBLK
  5
F9C
330
E4A
100
AcDbEntity
  8
0
 48
10.0
100
AcDbBlockEnd
  0
BLOCK
  5
120F
330
11F9
100
AcDbEntity
  8
0
 48
10.0
100
AcDbBlockBegin
  2
A$C1CED3DE9
 70
     0
 10
0.0
 20
0.0
 30
0.0
  3
A$C1CED3DE9
  1

  0
LINE
  5
11FA
330
11F9
100
AcDbEntity
  8
上線
100
AcDbLine
 10
1146.954623483747
 20
410.0000012727577
 30
0.0
 11
0.0000028775198189
 21
410.0000012727577
 31
0.0
  0
LINE
  5
11FB
330
11F9
100
AcDbEntity
  8
上線
100
AcDbLine
 10
1146.954623483747
 20
300.0000012727578
 30
0.0
 11
0.0000028775198189
 21
300.0000012727578
 31
0.0
  0
LINE
  5
11FC
330
11F9
100
AcDbEntity
  8
上線
100
AcDbLine
 10
1146.954623483748
 20
200.0000012727577
 30
0.0
 11
0.0000028775198189
 21
200.0000012727578
 31
0.0
  0
LINE
  5
11FD
330
11F9
100
AcDbEntity
  8
上線
100
AcDbLine
 10
1146.954623483748
 20
110.0000012727577
 30
0.0
 11
0.0000028775198189
 21
110.0000012727577
 31
0.0
  0
MTEXT
  5
11FE
330
11F9
100
AcDbEntity
  8
上線
 48
10.0
100
AcDbMText
 10
287.2898841716996
 20
90.42100403926088
 30
0.0
 40
55.0
 41
1003.0154
 71
     1
 72
     5
  1
\fＭＳ Ｐ明朝|b0|i0|c128|p18;㈱　ウ　チ　コ　ン
 73
     1
 44
1.0
  0
LINE
  5
11FF
330
11F9
100
AcDbEntity
  8
上線
100
AcDbLine
 10
1146.954623483748
 20
0.0000012727577996
 30
0.0
 11
0.0000028775198189
 21
0.0000012727577996
 31
0.0
  0
MTEXT
  5
1200
330
11F9
100
AcDbEntity
  8
上線
 48
10.0
100
AcDbMText
 10
280.425363145845
 20
185.9977949755411
 30
0.0
 40
45.0
 41
241.0562
 71
     1
 72
     5
  1
\fＭＳ Ｐ明朝|b0|i0|c128|p18;単位；㎜
 73
     1
 44
1.0
  0
MTEXT
  5
1201
330
11F9
100
AcDbEntity
  8
上線
 48
10.0
100
AcDbMText
 10
257.0896302081346
 20
281.5684136637892
 30
0.0
 40
50.0
 41
1003.0154
 71
     1
 72
     5
  1
240×600×120/120×2000
 73
     1
 44
1.0
  0
MTEXT
  5
1202
330
11F9
100
AcDbEntity
  8
上線
 48
10.0
100
AcDbMText
 10
253.6646397016684
 20
391.6112741931056
 30
0.0
 40
55.0
 41
1003.0154
 71
     1
 72
     5
  1
長 尺 U 字 溝  （H2-24E）
 73
     1
 44
1.0
  0
LINE
  5
1203
330
11F9
100
AcDbEntity
  8
上線
100
AcDbLine
 10
0.0000028775189094
 20
410.0000012727577
 30
0.0
 11
0.0000028775193641
 21
0.0000012727577996
 31
0.0
  0
MTEXT
  5
1204
330
11F9
100
AcDbEntity
  8
上線
 48
10.0
100
AcDbMText
 10
40.40026972538908
 20
185.9977949755411
 30
0.0
 40
45.0
 41
241.0562
 71
     1
 72
     5
  1
\fＭＳ Ｐ明朝|b0|i0|c128|p18;ｓ；1/15
 73
     1
 44
1.0
  0
MTEXT
  5
1205
330
11F9
100
AcDbEntity
  8
上線
 48
10.0
100
AcDbMText
 10
33.28332422160201
 20
270.9650432799044
 30
0.0
 40
30.0
 41
241.0562
 71
     1
 72
     5
  1
\fＭＳ Ｐ明朝|b0|i0|c128|p18;寸　法
 73
     1
 44
1.0
  0
MTEXT
  5
1206
330
11F9
100
AcDbEntity
  8
上線
 48
10.0
100
AcDbMText
 10
33.28332422160201
 20
375.5257053946934
 30
0.0
 40
30.0
 41
241.0562
 71
     1
 72
     5
  1
\fＭＳ Ｐ明朝|b0|i0|c128|p18;呼び名
 73
     1
 44
1.0
  0
LINE
  5
1207
330
11F9
100
AcDbEntity
  8
上線
100
AcDbLine
 10
197.7705567116463
 20
410.0000012727578
 30
0.0
 11
197.7705567116468
 21
200.0000012727578
 31
0.0
  0
LINE
  5
1208
330
11F9
100
AcDbEntity
  8
上線
100
AcDbLine
 10
267.9578680020722
 20
200.0000012727578
 30
0.0
 11
267.9578680020722
 21
110.0000012727577
 31
0.0
  0
MTEXT
  5
1209
330
11F9
100
AcDbEntity
  8
上線
 48
10.0
100
AcDbMText
 10
900.7153566420747
 20
177.416404665686
 30
0.0
 40
45.0
 41
241.0562
 71
     1
 72
     5
  1
S=4.5㎏
 73
     1
 44
1.0
  0
MTEXT
  5
120A
330
11F9
100
AcDbEntity
  8
上線
100
AcDbMText
 10
559.7665922418
 20
179.3156714542519
 30
0.0
 40
45.0
 41
364.4508999999999
 71
     1
 72
     5
  1
W=990㎏
 73
     1
 44
1.0
  0
LINE
  5
120B
330
11F9
100
AcDbEntity
  8
上線
100
AcDbLine
 10
535.9157331266251
 20
200.0000012727578
 30
0.0
 11
535.9157331266251
 21
110.0000012727577
 31
0.0
  0
POINT
  5
120C
330
11F9
100
AcDbEntity
  8
DEFPOINTS
  6
ByBlock
 62
     0
 48
10.0
100
AcDbPoint
 10
682.7997048355773
 20
338.0351527200573
 30
0.0
  0
LINE
  5
120D
330
11F9
100
AcDbEntity
  8
上線
100
AcDbLine
 10
852.6502837258895
 20
200.0000012727578
 30
0.0
 11
852.6502837258895
 21
110.0000012727577
 31
0.0
  0
LINE
  5
120E
330
11F9
100
AcDbEntity
  8
上線
100
AcDbLine
 10
1146.954623483748
 20
0.0000012727577996
 30
0.0
 11
1146.954623483747
 21
410.0000012727577
 31
0.0
  0
ENDBLK
  5
1210
330
11F9
100
AcDbEntity
  8
0
 48
10.0
100
AcDbBlockEnd
  0
BLOCK
  5
1228
330
1212
100
AcDbEntity
  8
0
 48
10.0
100
AcDbBlockBegin
  2
A$C6C1A04C6
 70
     0
 10
0.0
 20
0.0
 30
0.0
  3
A$C6C1A04C6
  1

  0
LINE
  5
1213
330
1212
100
AcDbEntity
  8
上線
100
AcDbLine
 10
1146.954623483745
 20
0.0000012727577996
 30
0.0
 11
1146.954623483743
 21
410.0000012727577
 31
0.0
  0
LINE
  5
1214
330
1212
100
AcDbEntity
  8
上線
100
AcDbLine
 10
0.0000028775152714
 20
410.0000012727577
 30
0.0
 11
0.0000028775157261
 21
0.0000012727577996
 31
0.0
  0
MTEXT
  5
1215
330
1212
100
AcDbEntity
  8
上線
 48
10.0
100
AcDbMText
 10
287.289884171696
 20
90.42100403926088
 30
0.0
 40
55.0
 41
1003.0154
 71
     1
 72
     5
  1
\fＭＳ Ｐ明朝|b0|i0|c128|p18;㈱　ウ　チ　コ　ン
 73
     1
 44
1.0
  0
LINE
  5
1216
330
1212
100
AcDbEntity
  8
上線
100
AcDbLine
 10
1146.954623483745
 20
0.0000012727577996
 30
0.0
 11
0.0000028775161809
 21
0.0000012727577996
 31
0.0
  0
MTEXT
  5
1217
330
1212
100
AcDbEntity
  8
上線
 48
10.0
100
AcDbMText
 10
900.7153566420711
 20
177.416404665686
 30
0.0
 40
45.0
 41
241.0562
 71
     1
 72
     5
  1
S=7.8㎏
 73
     1
 44
1.0
  0
MTEXT
  5
1218
330
1212
100
AcDbEntity
  8
上線
 48
10.0
100
AcDbMText
 10
257.089630208131
 20
281.5684136637892
 30
0.0
 40
50.0
 41
1003.0154
 71
     1
 72
     5
  1
300×300×120/120×4000
 73
     1
 44
1.0
  0
MTEXT
  5
1219
330
1212
100
AcDbEntity
  8
上線
 48
10.0
100
AcDbMText
 10
258.5487403453753
 20
391.6112741931056
 30
0.0
 40
55.0
 41
1003.0154
 71
     1
 72
     5
  1
長 尺 U 字 溝   （H4-30）
 73
     1
 44
1.0
  0
LINE
  5
121A
330
1212
100
AcDbEntity
  8
上線
100
AcDbLine
 10
1146.954623483745
 20
110.0000012727577
 30
0.0
 11
0.0000028775161809
 21
110.0000012727577
 31
0.0
  0
LINE
  5
121B
330
1212
100
AcDbEntity
  8
上線
100
AcDbLine
 10
1146.954623483745
 20
200.0000012727577
 30
0.0
 11
0.0000028775161809
 21
200.0000012727578
 31
0.0
  0
LINE
  5
121C
330
1212
100
AcDbEntity
  8
上線
100
AcDbLine
 10
1146.954623483744
 20
300.0000012727578
 30
0.0
 11
0.0000028775161809
 21
300.0000012727578
 31
0.0
  0
LINE
  5
121D
330
1212
100
AcDbEntity
  8
上線
100
AcDbLine
 10
1146.954623483743
 20
410.0000012727577
 30
0.0
 11
0.0000028775161809
 21
410.0000012727577
 31
0.0
  0
MTEXT
  5
121E
330
1212
100
AcDbEntity
  8
上線
 48
10.0
100
AcDbMText
 10
280.4253631458414
 20
185.9977949755411
 30
0.0
 40
45.0
 41
241.0562
 71
     1
 72
     5
  1
\fＭＳ Ｐ明朝|b0|i0|c128|p18;単位；㎜
 73
     1
 44
1.0
  0
LINE
  5
121F
330
1212
100
AcDbEntity
  8
上線
100
AcDbLine
 10
197.7705567116427
 20
410.0000012727578
 30
0.0
 11
197.7705567116431
 21
200.0000012727578
 31
0.0
  0
MTEXT
  5
1220
330
1212
100
AcDbEntity
  8
上線
 48
10.0
100
AcDbMText
 10
40.40026972538544
 20
185.9977949755411
 30
0.0
 40
45.0
 41
241.0562
 71
     1
 72
     5
  1
\fＭＳ Ｐ明朝|b0|i0|c128|p18;ｓ；1/15
 73
     1
 44
1.0
  0
MTEXT
  5
1221
330
1212
100
AcDbEntity
  8
上線
 48
10.0
100
AcDbMText
 10
33.28332422159837
 20
270.9650432799044
 30
0.0
 40
30.0
 41
241.0562
 71
     1
 72
     5
  1
\fＭＳ Ｐ明朝|b0|i0|c128|p18;寸　法
 73
     1
 44
1.0
  0
LINE
  5
1222
330
1212
100
AcDbEntity
  8
上線
100
AcDbLine
 10
267.9578680020686
 20
200.0000012727578
 30
0.0
 11
267.9578680020686
 21
110.0000012727577
 31
0.0
  0
MTEXT
  5
1223
330
1212
100
AcDbEntity
  8
上線
 48
10.0
100
AcDbMText
 10
33.28332422159837
 20
375.5257053946934
 30
0.0
 40
30.0
 41
241.0562
 71
     1
 72
     5
  1
\fＭＳ Ｐ明朝|b0|i0|c128|p18;呼び名
 73
     1
 44
1.0
  0
MTEXT
  5
1224
330
1212
100
AcDbEntity
  8
上線
100
AcDbMText
 10
559.7665922417964
 20
179.3156714542519
 30
0.0
 40
45.0
 41
364.4508999999999
 71
     1
 72
     5
  1
W=1350㎏
 73
     1
 44
1.0
  0
LINE
  5
1225
330
1212
100
AcDbEntity
  8
上線
100
AcDbLine
 10
535.9157331266215
 20
200.0000012727578
 30
0.0
 11
535.9157331266215
 21
110.0000012727577
 31
0.0
  0
LINE
  5
1226
330
1212
100
AcDbEntity
  8
上線
100
AcDbLine
 10
852.6502837258858
 20
200.0000012727578
 30
0.0
 11
852.6502837258858
 21
110.0000012727577
 31
0.0
  0
POINT
  5
1227
330
1212
100
AcDbEntity
  8
DEFPOINTS
  6
ByBlock
 62
     0
 48
10.0
100
AcDbPoint
 10
682.7997048355737
 20
338.0351527200573
 30
0.0
  0
ENDBLK
  5
1229
330
1212
100
AcDbEntity
  8
0
 48
10.0
100
AcDbBlockEnd
  0
BLOCK
  5
12FE
330
12E8
100
AcDbEntity
  8
0
 48
10.0
100
AcDbBlockBegin
  2
A$C6DC71FB5
 70
     0
 10
0.0
 20
0.0
 30
0.0
  3
A$C6DC71FB5
  1

  0
LINE
  5
12E9
330
12E8
100
AcDbEntity
  8
上線
100
AcDbLine
 10
1146.954623483745
 20
0.0000012727577996
 30
0.0
 11
1146.954623483743
 21
410.0000012727577
 31
0.0
  0
LINE
  5
12EA
330
12E8
100
AcDbEntity
  8
上線
100
AcDbLine
 10
0.0000028775152714
 20
410.0000012727577
 30
0.0
 11
0.0000028775157261
 21
0.0000012727577996
 31
0.0
  0
MTEXT
  5
12EB
330
12E8
100
AcDbEntity
  8
上線
 48
10.0
100
AcDbMText
 10
287.289884171696
 20
90.42100403926088
 30
0.0
 40
55.0
 41
1003.0154
 71
     1
 72
     5
  1
\fＭＳ Ｐ明朝|b0|i0|c128|p18;㈱　ウ　チ　コ　ン
 73
     1
 44
1.0
  0
LINE
  5
12EC
330
12E8
100
AcDbEntity
  8
上線
100
AcDbLine
 10
1146.954623483745
 20
0.0000012727577996
 30
0.0
 11
0.0000028775161809
 21
0.0000012727577996
 31
0.0
  0
MTEXT
  5
12ED
330
12E8
100
AcDbEntity
  8
上線
 48
10.0
100
AcDbMText
 10
900.7153566420711
 20
177.416404665686
 30
0.0
 40
45.0
 41
241.0562
 71
     1
 72
     5
  1
S=7.8㎏
 73
     1
 44
1.0
  0
MTEXT
  5
12EE
330
12E8
100
AcDbEntity
  8
上線
 48
10.0
100
AcDbMText
 10
257.089630208131
 20
281.5684136637892
 30
0.0
 40
50.0
 41
1003.0154
 71
     1
 72
     5
  1
300×300×120/120×4000
 73
     1
 44
1.0
  0
MTEXT
  5
12EF
330
12E8
100
AcDbEntity
  8
上線
 48
10.0
100
AcDbMText
 10
258.5487403453753
 20
391.6112741931056
 30
0.0
 40
55.0
 41
1003.0154
 71
     1
 72
     5
  1
長 尺 U 字 溝   （H4-30）
 73
     1
 44
1.0
  0
LINE
  5
12F0
330
12E8
100
AcDbEntity
  8
上線
100
AcDbLine
 10
1146.954623483745
 20
110.0000012727577
 30
0.0
 11
0.0000028775161809
 21
110.0000012727577
 31
0.0
  0
LINE
  5
12F1
330
12E8
100
AcDbEntity
  8
上線
100
AcDbLine
 10
1146.954623483745
 20
200.0000012727577
 30
0.0
 11
0.0000028775161809
 21
200.0000012727578
 31
0.0
  0
LINE
  5
12F2
330
12E8
100
AcDbEntity
  8
上線
100
AcDbLine
 10
1146.954623483744
 20
300.0000012727578
 30
0.0
 11
0.0000028775161809
 21
300.0000012727578
 31
0.0
  0
LINE
  5
12F3
330
12E8
100
AcDbEntity
  8
上線
100
AcDbLine
 10
1146.954623483743
 20
410.0000012727577
 30
0.0
 11
0.0000028775161809
 21
410.0000012727577
 31
0.0
  0
MTEXT
  5
12F4
330
12E8
100
AcDbEntity
  8
上線
 48
10.0
100
AcDbMText
 10
280.4253631458414
 20
185.9977949755411
 30
0.0
 40
45.0
 41
241.0562
 71
     1
 72
     5
  1
\fＭＳ Ｐ明朝|b0|i0|c128|p18;単位；㎜
 73
     1
 44
1.0
  0
LINE
  5
12F5
330
12E8
100
AcDbEntity
  8
上線
100
AcDbLine
 10
197.7705567116427
 20
410.0000012727578
 30
0.0
 11
197.7705567116431
 21
200.0000012727578
 31
0.0
  0
MTEXT
  5
12F6
330
12E8
100
AcDbEntity
  8
上線
 48
10.0
100
AcDbMText
 10
40.40026972538544
 20
185.9977949755411
 30
0.0
 40
45.0
 41
241.0562
 71
     1
 72
     5
  1
\fＭＳ Ｐ明朝|b0|i0|c128|p18;ｓ；1/15
 73
     1
 44
1.0
  0
MTEXT
  5
12F7
330
12E8
100
AcDbEntity
  8
上線
 48
10.0
100
AcDbMText
 10
33.28332422159837
 20
270.9650432799044
 30
0.0
 40
30.0
 41
241.0562
 71
     1
 72
     5
  1
\fＭＳ Ｐ明朝|b0|i0|c128|p18;寸　法
 73
     1
 44
1.0
  0
LINE
  5
12F8
330
12E8
100
AcDbEntity
  8
上線
100
AcDbLine
 10
267.9578680020686
 20
200.0000012727578
 30
0.0
 11
267.9578680020686
 21
110.0000012727577
 31
0.0
  0
MTEXT
  5
12F9
330
12E8
100
AcDbEntity
  8
上線
 48
10.0
100
AcDbMText
 10
33.28332422159837
 20
375.5257053946934
 30
0.0
 40
30.0
 41
241.0562
 71
     1
 72
     5
  1
\fＭＳ Ｐ明朝|b0|i0|c128|p18;呼び名
 73
     1
 44
1.0
  0
MTEXT
  5
12FA
330
12E8
100
AcDbEntity
  8
上線
100
AcDbMText
 10
559.7665922417964
 20
179.3156714542519
 30
0.0
 40
45.0
 41
364.4508999999999
 71
     1
 72
     5
  1
W=1350㎏
 73
     1
 44
1.0
  0
LINE
  5
12FB
330
12E8
100
AcDbEntity
  8
上線
100
AcDbLine
 10
535.9157331266215
 20
200.0000012727578
 30
0.0
 11
535.9157331266215
 21
110.0000012727577
 31
0.0
  0
LINE
  5
12FC
330
12E8
100
AcDbEntity
  8
上線
100
AcDbLine
 10
852.6502837258858
 20
200.0000012727578
 30
0.0
 11
852.6502837258858
 21
110.0000012727577
 31
0.0
  0
POINT
  5
12FD
330
12E8
100
AcDbEntity
  8
DEFPOINTS
  6
ByBlock
 62
     0
 48
10.0
100
AcDbPoint
 10
682.7997048355737
 20
338.0351527200573
 30
0.0
  0
ENDBLK
  5
12FF
330
12E8
100
AcDbEntity
  8
0
 48
10.0
100
AcDbBlockEnd
  0
BLOCK
  5
1316
330
1300
100
AcDbEntity
  8
0
 48
10.0
100
AcDbBlockBegin
  2
A$C68884D68
 70
     0
 10
0.0
 20
0.0
 30
0.0
  3
A$C68884D68
  1

  0
LINE
  5
1301
330
1300
100
AcDbEntity
  8
上線
100
AcDbLine
 10
1146.954623483745
 20
0.0000012727577996
 30
0.0
 11
1146.954623483743
 21
410.0000012727577
 31
0.0
  0
LINE
  5
1302
330
1300
100
AcDbEntity
  8
上線
100
AcDbLine
 10
0.0000028775152714
 20
410.0000012727577
 30
0.0
 11
0.0000028775157261
 21
0.0000012727577996
 31
0.0
  0
MTEXT
  5
1303
330
1300
100
AcDbEntity
  8
上線
 48
10.0
100
AcDbMText
 10
287.289884171696
 20
90.42100403926088
 30
0.0
 40
55.0
 41
1003.0154
 71
     1
 72
     5
  1
\fＭＳ Ｐ明朝|b0|i0|c128|p18;㈱　ウ　チ　コ　ン
 73
     1
 44
1.0
  0
LINE
  5
1304
330
1300
100
AcDbEntity
  8
上線
100
AcDbLine
 10
1146.954623483745
 20
0.0000012727577996
 30
0.0
 11
0.0000028775161809
 21
0.0000012727577996
 31
0.0
  0
MTEXT
  5
1305
330
1300
100
AcDbEntity
  8
上線
 48
10.0
100
AcDbMText
 10
900.7153566420711
 20
177.416404665686
 30
0.0
 40
45.0
 41
241.0562
 71
     1
 72
     5
  1
S=7.8㎏
 73
     1
 44
1.0
  0
MTEXT
  5
1306
330
1300
100
AcDbEntity
  8
上線
 48
10.0
100
AcDbMText
 10
257.089630208131
 20
281.5684136637892
 30
0.0
 40
50.0
 41
1003.0154
 71
     1
 72
     5
  1
300×300×120/120×4000
 73
     1
 44
1.0
  0
MTEXT
  5
1307
330
1300
100
AcDbEntity
  8
上線
 48
10.0
100
AcDbMText
 10
258.5487403453753
 20
391.6112741931056
 30
0.0
 40
55.0
 41
1003.0154
 71
     1
 72
     5
  1
長 尺 U 字 溝   （H4-30）
 73
     1
 44
1.0
  0
LINE
  5
1308
330
1300
100
AcDbEntity
  8
上線
100
AcDbLine
 10
1146.954623483745
 20
110.0000012727577
 30
0.0
 11
0.0000028775161809
 21
110.0000012727577
 31
0.0
  0
LINE
  5
1309
330
1300
100
AcDbEntity
  8
上線
100
AcDbLine
 10
1146.954623483745
 20
200.0000012727577
 30
0.0
 11
0.0000028775161809
 21
200.0000012727578
 31
0.0
  0
LINE
  5
130A
330
1300
100
AcDbEntity
  8
上線
100
AcDbLine
 10
1146.954623483744
 20
300.0000012727578
 30
0.0
 11
0.0000028775161809
 21
300.0000012727578
 31
0.0
  0
LINE
  5
130B
330
1300
100
AcDbEntity
  8
上線
100
AcDbLine
 10
1146.954623483743
 20
410.0000012727577
 30
0.0
 11
0.0000028775161809
 21
410.0000012727577
 31
0.0
  0
MTEXT
  5
130C
330
1300
100
AcDbEntity
  8
上線
 48
10.0
100
AcDbMText
 10
280.4253631458414
 20
185.9977949755411
 30
0.0
 40
45.0
 41
241.0562
 71
     1
 72
     5
  1
\fＭＳ Ｐ明朝|b0|i0|c128|p18;単位；㎜
 73
     1
 44
1.0
  0
LINE
  5
130D
330
1300
100
AcDbEntity
  8
上線
100
AcDbLine
 10
197.7705567116427
 20
410.0000012727578
 30
0.0
 11
197.7705567116431
 21
200.0000012727578
 31
0.0
  0
MTEXT
  5
130E
330
1300
100
AcDbEntity
  8
上線
 48
10.0
100
AcDbMText
 10
40.40026972538544
 20
185.9977949755411
 30
0.0
 40
45.0
 41
241.0562
 71
     1
 72
     5
  1
\fＭＳ Ｐ明朝|b0|i0|c128|p18;ｓ；1/15
 73
     1
 44
1.0
  0
MTEXT
  5
130F
330
1300
100
AcDbEntity
  8
上線
 48
10.0
100
AcDbMText
 10
33.28332422159837
 20
270.9650432799044
 30
0.0
 40
30.0
 41
241.0562
 71
     1
 72
     5
  1
\fＭＳ Ｐ明朝|b0|i0|c128|p18;寸　法
 73
     1
 44
1.0
  0
LINE
  5
1310
330
1300
100
AcDbEntity
  8
上線
100
AcDbLine
 10
267.9578680020686
 20
200.0000012727578
 30
0.0
 11
267.9578680020686
 21
110.0000012727577
 31
0.0
  0
MTEXT
  5
1311
330
1300
100
AcDbEntity
  8
上線
 48
10.0
100
AcDbMText
 10
33.28332422159837
 20
375.5257053946934
 30
0.0
 40
30.0
 41
241.0562
 71
     1
 72
     5
  1
\fＭＳ Ｐ明朝|b0|i0|c128|p18;呼び名
 73
     1
 44
1.0
  0
MTEXT
  5
1312
330
1300
100
AcDbEntity
  8
上線
100
AcDbMText
 10
559.7665922417964
 20
179.3156714542519
 30
0.0
 40
45.0
 41
364.4508999999999
 71
     1
 72
     5
  1
W=1350㎏
 73
     1
 44
1.0
  0
LINE
  5
1313
330
1300
100
AcDbEntity
  8
上線
100
AcDbLine
 10
535.9157331266215
 20
200.0000012727578
 30
0.0
 11
535.9157331266215
 21
110.0000012727577
 31
0.0
  0
LINE
  5
1314
330
1300
100
AcDbEntity
  8
上線
100
AcDbLine
 10
852.6502837258858
 20
200.0000012727578
 30
0.0
 11
852.6502837258858
 21
110.0000012727577
 31
0.0
  0
POINT
  5
1315
330
1300
100
AcDbEntity
  8
DEFPOINTS
  6
ByBlock
 62
     0
 48
10.0
100
AcDbPoint
 10
682.7997048355737
 20
338.0351527200573
 30
0.0
  0
ENDBLK
  5
1317
330
1300
100
AcDbEntity
  8
0
 48
10.0
100
AcDbBlockEnd
  0
BLOCK
  5
131E
330
1319
100
AcDbEntity
  8
0
 48
10.0
100
AcDbBlockBegin
  2
A$C0F2D2D5E
 70
     0
 10
0.0
 20
0.0
 30
0.0
  3
A$C0F2D2D5E
  1

  0
MTEXT
  5
131A
102
{ACAD_REACTORS
330
131B
102
}
330
1319
100
AcDbEntity
  8
上線
100
AcDbMText
 10
238.839502896315
 20
68.78511025822172
 30
0.0
 40
37.5
 41
0.0
 71
     4
 72
     1
  1
縦　筋\P16-φ5
 73
     1
 44
1.0
  0
LEADER
  5
131B
330
1319
100
AcDbEntity
  8
上線
100
AcDbLeader
  3
STANDARD
 73
     0
 74
     0
 75
     1
 40
118.8202247191011
 41
152.317415730337
 76
     3
 10
0.000003806870609
 20
452.5234384752211
 30
0.0
 10
191.964502896315
 20
-0.0000021013288318
 30
0.0
 10
229.464502896315
 20
-0.0000021013288318
 30
0.0
340
131A
1001
ACAD
1000
DSTYLE
1002
{
1070
    78
1070
     8
1070
   270
1070
     8
1070
   140
1040
2.5
1070
    74
1070
     0
1070
   172
1070
     1
1070
    73
1070
     0
1070
    77
1070
     1
1070
    40
1040
15.0
1070
   147
1040
0.625
1070
    42
1040
0.625
1070
    44
1040
1.25
1070
    43
1040
3.75
1070
   141
1040
2.5
1070
    41
1040
2.5
1070
   273
1070
     8
1070
   274
1070
     4
1070
   143
1040
0.0394
1070
   171
1070
     4
1002
}
  0
MTEXT
  5
131C
102
{ACAD_REACTORS
330
131D
102
}
330
1319
100
AcDbEntity
  8
上線
100
AcDbMText
 10
565.1610966160842
 20
68.89066905041818
 30
0.0
 40
37.5
 41
0.0
 71
     4
 72
     1
  1
横　筋\P7-φ5
 73
     1
 44
1.0
  0
LEADER
  5
131D
330
1319
100
AcDbEntity
  8
上線
100
AcDbLeader
  3
STANDARD
 73
     0
 74
     0
 75
     1
 40
119.0308988764044
 41
137.7808988764044
 76
     3
 10
382.6959432697226
 20
557.5099543452224
 30
0.0
 10
518.2860966160842
 20
0.000219612215929
 30
0.0
 10
555.7860966160842
 20
0.000219612215929
 30
0.0
340
131C
1001
ACAD
1000
DSTYLE
1002
{
1070
    78
1070
     8
1070
   270
1070
     8
1070
   140
1040
2.5
1070
    74
1070
     0
1070
   172
1070
     1
1070
    73
1070
     0
1070
    77
1070
     1
1070
    40
1040
15.0
1070
   147
1040
0.625
1070
    42
1040
0.625
1070
    44
1040
1.25
1070
    43
1040
3.75
1070
   141
1040
2.5
1070
    41
1040
2.5
1070
   273
1070
     8
1070
   274
1070
     4
1070
   143
1040
0.0394
1070
   171
1070
     4
1002
}
  0
ENDBLK
  5
131F
330
1319
100
AcDbEntity
  8
0
 48
10.0
100
AcDbBlockEnd
  0
BLOCK
  5
1462
330
1437
100
AcDbEntity
  8
0
 48
10.0
100
AcDbBlockBegin
  2
A$C61605247
 70
     0
 10
0.0
 20
0.0
 30
0.0
  3
A$C61605247
  1

  0
LINE
  5
1438
330
1437
100
AcDbEntity
  8
上線
 48
10.0
100
AcDbLine
 10
109.9665232141705
 20
391.0170411058145
 30
0.0
 11
114.2973952536343
 21
139.1138887949273
 31
0.0
  0
LINE
  5
1439
330
1437
100
AcDbEntity
  8
上線
 48
10.0
100
AcDbLine
 10
120.0714498964002
 20
384.9999862567601
 30
0.0
 11
124.295917652422
 21
139.2857894666563
 31
0.0
  0
ARC
  5
143A
330
1437
100
AcDbEntity
  8
上線
100
AcDbCircle
 10
120.0000213249718
 20
439.9999862567601
 30
0.0
 40
50.0
100
AcDbArc
 50
220.3081602875997
 51
258.4630409671845
  0
LINE
  5
143B
330
1437
100
AcDbEntity
  8
上線
100
AcDbLine
 10
120.0000213249718
 20
389.9999862567601
 30
0.0
 11
120.0000213249718
 21
389.9999862567601
 31
0.0
  0
LINE
  5
143C
330
1437
100
AcDbEntity
  8
上線
 48
10.0
100
AcDbLine
 10
110.0000213249718
 20
391.0101914010883
 30
0.0
 11
113.0000213249718
 21
386.9999862567601
 31
0.0
  0
LINE
  5
143D
330
1437
100
AcDbEntity
  8
上線
 48
10.0
100
AcDbLine
 10
113.0000213249718
 20
386.9999862567601
 30
0.0
 11
120.0714498964002
 21
384.9999862567601
 31
0.0
  0
LINE
  5
143E
330
1437
100
AcDbEntity
  8
上線
100
AcDbLine
 10
120.0000003261484
 20
390.0000023057991
 30
0.0
 11
120.0000003261484
 21
390.0000023057991
 31
0.0
  0
LINE
  5
143F
330
1437
100
AcDbEntity
  8
上線
 48
10.0
100
AcDbLine
 10
70.00002132497184
 20
489.9999862567601
 30
0.0
 11
70.00002132497184
 21
439.9999862567601
 31
0.0
  0
ARC
  5
1440
330
1437
100
AcDbEntity
  8
上線
100
AcDbCircle
 10
120.0000213249718
 20
439.9999862567601
 30
0.0
 40
50.0
100
AcDbArc
 50
180.0
 51
220.3081602875997
  0
LINE
  5
1441
330
1437
100
AcDbEntity
  8
上線
100
AcDbLine
 10
70.00002132497184
 20
439.9999862567601
 30
0.0
 11
70.00002132497184
 21
439.9999862567601
 31
0.0
  0
LINE
  5
1442
330
1437
100
AcDbEntity
  8
上線
100
AcDbLine
 10
70.00002132497184
 20
489.9999862567601
 30
0.0
 11
8.000021324971839
 21
489.9999862567601
 31
0.0
  0
POINT
  5
1443
330
1437
100
AcDbEntity
  8
DEFPOINTS
  6
ByBlock
 62
     0
 48
10.0
100
AcDbPoint
 10
70.00002132497184
 20
487.7558723016455
 30
0.0
  0
POINT
  5
1444
330
1437
100
AcDbEntity
  8
DEFPOINTS
  6
ByBlock
 62
     0
 48
10.0
100
AcDbPoint
 10
70.00002132497184
 20
487.7558723016455
 30
0.0
  0
POINT
  5
1445
330
1437
100
AcDbEntity
  8
DEFPOINTS
  6
ByBlock
 62
     0
 48
10.0
100
AcDbPoint
 10
70.00000032614844
 20
487.7558883506845
 30
0.0
  0
POINT
  5
1446
330
1437
100
AcDbEntity
  8
DEFPOINTS
  6
ByBlock
 62
     0
 48
10.0
100
AcDbPoint
 10
70.00000032614844
 20
487.7558883506845
 30
0.0
  0
LINE
  5
1447
330
1437
100
AcDbEntity
  8
上線
100
AcDbLine
 10
0.0000213249718399
 20
481.9999862567601
 30
0.0
 11
0.0000213249718399
 21
39.99998625676017
 31
0.0
  0
POINT
  5
1448
330
1437
100
AcDbEntity
  8
DEFPOINTS
  6
ByBlock
 62
     0
 48
10.0
100
AcDbPoint
 10
0.000000326148438
 20
469.2845883506845
 30
0.0
  0
ARC
  5
1449
330
1437
100
AcDbEntity
  8
上線
100
AcDbCircle
 10
8.000021324971839
 20
481.9999862567601
 30
0.0
 40
8.0
100
AcDbArc
 50
90.0
 51
180.0
  0
POINT
  5
144A
330
1437
100
AcDbEntity
  8
DEFPOINTS
  6
ByBlock
 62
     0
 48
10.0
100
AcDbPoint
 10
0.0000213249718399
 20
487.7558723016455
 30
0.0
  0
POINT
  5
144B
330
1437
100
AcDbEntity
  8
DEFPOINTS
  6
ByBlock
 62
     0
 48
10.0
100
AcDbPoint
 10
0.0000213249718399
 20
487.7558723016455
 30
0.0
  0
POINT
  5
144C
330
1437
100
AcDbEntity
  8
DEFPOINTS
  6
ByBlock
 62
     0
 48
10.0
100
AcDbPoint
 10
0.000000326148438
 20
487.7558883506845
 30
0.0
  0
POINT
  5
144D
330
1437
100
AcDbEntity
  8
DEFPOINTS
  6
ByBlock
 62
     0
 48
10.0
100
AcDbPoint
 10
0.000000326148438
 20
487.7558883506845
 30
0.0
  0
LINE
  5
144E
330
1437
100
AcDbEntity
  8
上線
100
AcDbLine
 10
540.0000213249718
 20
481.9999862567601
 30
0.0
 11
540.0000213249718
 21
39.99998625676017
 31
0.0
  0
LINE
  5
144F
330
1437
100
AcDbEntity
  8
上線
100
AcDbLine
 10
540.0000003261484
 20
482.0183160340412
 30
0.0
 11
540.0000003261482
 21
0.0000023057987164
 31
0.0
  0
POINT
  5
1450
330
1437
100
AcDbEntity
  8
DEFPOINTS
  6
ByBlock
 62
     0
 48
10.0
100
AcDbPoint
 10
540.0000003261484
 20
469.2845883506845
 30
0.0
  0
LINE
  5
1451
330
1437
100
AcDbEntity
  8
上線
100
AcDbLine
 10
470.0000213249718
 20
489.9999862567601
 30
0.0
 11
532.0000213249718
 21
489.9999862567601
 31
0.0
  0
ARC
  5
1452
330
1437
100
AcDbEntity
  8
上線
100
AcDbCircle
 10
532.0000213249718
 20
481.9999862567601
 30
0.0
 40
8.0
100
AcDbArc
 50
0.0
 51
90.0
  0
POINT
  5
1453
330
1437
100
AcDbEntity
  8
DEFPOINTS
  6
ByBlock
 62
     0
 48
10.0
100
AcDbPoint
 10
540.0000213249718
 20
487.7558723016455
 30
0.0
  0
POINT
  5
1454
330
1437
100
AcDbEntity
  8
DEFPOINTS
  6
ByBlock
 62
     0
 48
10.0
100
AcDbPoint
 10
540.0000213249718
 20
487.7558723016455
 30
0.0
  0
POINT
  5
1455
330
1437
100
AcDbEntity
  8
DEFPOINTS
  6
ByBlock
 62
     0
 48
10.0
100
AcDbPoint
 10
540.0000003261484
 20
487.7558883506845
 30
0.0
  0
POINT
  5
1456
330
1437
100
AcDbEntity
  8
DEFPOINTS
  6
ByBlock
 62
     0
 48
10.0
100
AcDbPoint
 10
540.0000003261484
 20
487.7558883506845
 30
0.0
  0
LINE
  5
1457
330
1437
100
AcDbEntity
  8
上線
 48
10.0
100
AcDbLine
 10
470.0000213249718
 20
489.9999862567601
 30
0.0
 11
470.0000213249718
 21
439.9999862567601
 31
0.0
  0
ARC
  5
1458
330
1437
100
AcDbEntity
  8
上線
100
AcDbCircle
 10
420.0000213249718
 20
439.9999862567601
 30
0.0
 40
50.0
100
AcDbArc
 50
281.5369590328155
 51
303.4316350040884
  0
LINE
  5
1459
330
1437
100
AcDbEntity
  8
上線
 48
10.0
100
AcDbLine
 10
427.0348211650311
 20
386.9999862567601
 30
0.0
 11
420.0000213249718
 21
384.9999862567601
 31
0.0
  0
LINE
  5
145A
330
1437
100
AcDbEntity
  8
上線
 48
10.0
100
AcDbLine
 10
430.0000213249718
 20
391.0101914010965
 30
0.0
 11
427.0348211650311
 21
386.9999862567601
 31
0.0
  0
ARC
  5
145B
330
1437
100
AcDbEntity
  8
上線
100
AcDbCircle
 10
420.0000213249718
 20
439.9999862567601
 30
0.0
 40
50.0
100
AcDbArc
 50
303.4316350040883
 51
0.0
  0
LINE
  5
145C
330
1437
100
AcDbEntity
  8
上線
100
AcDbLine
 10
480.0000003261484
 20
390.0000023057991
 30
0.0
 11
480.0000003261484
 21
390.0000023057991
 31
0.0
  0
LINE
  5
145D
330
1437
100
AcDbEntity
  8
上線
100
AcDbLine
 10
470.0000213249718
 20
439.9999862567601
 30
0.0
 11
470.0000213249718
 21
439.9999862567601
 31
0.0
  0
LINE
  5
145E
330
1437
100
AcDbEntity
  8
上線
 48
10.0
100
AcDbLine
 10
480.0000003261484
 20
445.0000023057992
 30
0.0
 11
479.9285717547199
 21
445.0000023057992
 31
0.0
  0
LINE
  5
145F
330
1437
100
AcDbEntity
  8
上線
 48
10.0
100
AcDbLine
 10
419.9285927535433
 20
384.9999862567601
 30
0.0
 11
415.7040829998748
 21
139.2857894666567
 31
0.0
  0
LINE
  5
1460
330
1437
100
AcDbEntity
  8
上線
 48
10.0
100
AcDbLine
 10
420.0000213249718
 20
384.9999862567601
 30
0.0
 11
419.9285927535433
 21
384.9999862567601
 31
0.0
  0
LINE
  5
1461
330
1437
100
AcDbEntity
  8
上線
100
AcDbLine
 10
420.0000213249718
 20
389.9999862567601
 30
0.0
 11
420.0000213249718
 21
389.9999862567601
 31
0.0
  0
ENDBLK
  5
1463
330
1437
100
AcDbEntity
  8
0
 48
10.0
100
AcDbBlockEnd
  0
BLOCK
  5
1466
330
1464
100
AcDbEntity
  8
0
 48
10.0
100
AcDbBlockBegin
  2
A$C199E4B44
 70
     0
 10
0.0
 20
0.0
 30
0.0
  3
A$C199E4B44
  1

  0
INSERT
  5
1465
330
1464
100
AcDbEntity
  8
基準線
 48
10.0
100
AcDbBlockReference
  2
A$C61605247
 10
-0.000027339799999
 20
-0.0000040740687837
 30
0.0
  0
ENDBLK
  5
1467
330
1464
100
AcDbEntity
  8
0
 48
10.0
100
AcDbBlockEnd
  0
BLOCK
  5
1476
330
1473
100
AcDbEntity
  8
0
 48
10.0
100
AcDbBlockBegin
  2
A$C01B71BA1
 70
     0
 10
0.0
 20
0.0
 30
0.0
  3
A$C01B71BA1
  1

  0
MTEXT
  5
1474
102
{ACAD_REACTORS
330
1475
102
}
330
1473
100
AcDbEntity
  8
上線
 48
10.0
100
AcDbMText
 10
100.2034424049179
 20
193.1248468274525
 30
0.0
 40
37.5
 41
0.0
 71
     4
 72
     1
  1
\A1;Ｒ＝50
 73
     1
 44
1.0
  0
LEADER
  5
1475
330
1473
100
AcDbEntity
  8
上線
 48
10.0
100
AcDbLeader
  3
STANDARD
 73
     0
 74
     0
 75
     1
 40
37.5
 41
143.4691011235955
 76
     3
 10
0.0000036574647311
 20
-0.0000005504871297
 30
0.0
 10
53.32844240491795
 20
164.9998468274525
 30
0.0
 10
90.82844240491795
 20
164.9998468274525
 30
0.0
340
1474
1001
ACAD
1000
DSTYLE
1002
{
1070
    78
1070
     8
1070
   270
1070
     8
1070
   140
1040
2.5
1070
    74
1070
     0
1070
   172
1070
     1
1070
    73
1070
     0
1070
    77
1070
     1
1070
    40
1040
15.0
1070
   147
1040
0.625
1070
    42
1040
0.625
1070
    44
1040
1.25
1070
    43
1040
3.75
1070
   141
1040
2.5
1070
    41
1040
2.5
1070
   273
1070
     8
1070
   274
1070
     4
1070
   143
1040
0.0394
1070
   171
1070
     4
1002
}
  0
ENDBLK
  5
1477
330
1473
100
AcDbEntity
  8
0
 48
10.0
100
AcDbBlockEnd
  0
BLOCK
  5
17EE
330
17EC
100
AcDbEntity
  8
0
100
AcDbBlockBegin
  2
A$C61606E03
 70
     0
 10
0.0
 20
0.0
 30
0.0
  3
A$C61606E03
  1

  0
MTEXT
  5
17ED
330
17EC
100
AcDbEntity
  8
0
  6
ByBlock
 62
     0
100
AcDbMText
 10
23.84718950946989
 20
28.79633185290277
 30
0.0
 40
40.0
 41
0.0
 71
     5
 72
     1
  1
￡
 73
     1
 44
1.0
  0
ENDBLK
  5
17EF
330
17EC
100
AcDbEntity
  8
0
100
AcDbBlockEnd
  0
ENDSEC
  0
SECTION
  2
ENTITIES
  0
MTEXT
  5
479
330
18
100
AcDbEntity
  8
上線
 48
10.0
100
AcDbMText
 10
2253.72144281457
 20
1430.035937614872
 30
0.0
 40
25.0
 41
0.0
 71
     4
 72
     1
  1
\A1;
 73
     1
 44
1.0
  0
MTEXT
  5
482
330
18
100
AcDbEntity
  8
上線
 48
10.0
100
AcDbMText
 10
2528.397580071227
 20
1457.117940756564
 30
0.0
 40
25.0
 41
0.0
 71
     4
 72
     1
  1
\A1;
 73
     1
 44
1.0
  0
LINE
  5
13DA
330
18
100
AcDbEntity
  8
基準線
 48
10.0
100
AcDbLine
 10
2671.804234062212
 20
796.3030959434454
 30
0.0
 11
2970.738862814847
 21
796.3030959434454
 31
0.0
  0
LINE
  5
1405
330
18
100
AcDbEntity
  8
基準線
 48
10.0
100
AcDbLine
 10
1835.422671043039
 20
976.8823567746979
 30
0.0
 11
2168.734539037275
 21
976.8823567746979
 31
0.0
  0
LINE
  5
1408
330
18
100
AcDbEntity
  8
基準線
 48
10.0
100
AcDbLine
 10
2144.422671043039
 20
1356.882356774697
 30
0.0
 11
2420.422671043039
 21
1356.882356774697
 31
0.0
  0
LINE
  5
1409
330
18
100
AcDbEntity
  8
基準線
 48
10.0
100
AcDbLine
 10
2282.422671043039
 20
1356.882356774697
 30
0.0
 11
2282.422671043039
 21
1207.713829442473
 31
0.0
  0
LINE
  5
1A5A
330
18
100
AcDbEntity
  8
上線
100
AcDbLine
 10
5457.332283293816
 20
-169.9362626492938
 30
0.0
 11
5457.332283293816
 21
-269.9362626492939
 31
0.0
  0
LINE
  5
1A5B
330
18
100
AcDbEntity
  8
上線
100
AcDbLine
 10
5457.332283293816
 20
-269.9362626492939
 30
0.0
 11
5507.332283293816
 21
-269.9362626492939
 31
0.0
  0
TEXT
  5
1A79
330
18
100
AcDbEntity
  8
WUWAGAKI
100
AcDbText
 10
7960.830277594252
 20
-1320.786787861356
 30
0.0
 40
45.0
  1
長尺Ｕ字溝（D2-50）
100
AcDbText
  0
MTEXT
  5
1B32
330
18
100
AcDbEntity
  8
上線
 48
10.0
100
AcDbMText
 10
7150.880044882453
 20
799.3192241333704
 30
0.0
 40
50.0
 41
558.2059
 71
     1
 72
     5
  1
\fＭＳ Ｐ明朝|b0|i0|c128|p18;側面図
 73
     1
 44
1.0
  0
LINE
  5
1B33
330
18
100
AcDbEntity
  8
OBJECT
 48
10.0
100
AcDbLine
 10
8257.332283293818
 20
160.0637285872844
 30
0.0
 11
6257.332283293817
 21
160.0637285872862
 31
0.0
  0
LINE
  5
1B34
330
18
100
AcDbEntity
  8
WUWAGAKI
100
AcDbLine
 10
8843.013393934125
 20
1187.706657787076
 30
0.0
 11
4572.294475307206
 21
1187.706657787076
 31
0.0
  0
LINE
  5
1B35
330
18
100
AcDbEntity
  8
点線
 48
3.0
100
AcDbLine
 10
8257.332283293818
 20
-269.9362652414365
 30
0.0
 11
6257.332283293817
 21
-269.9362652414365
 31
0.0
  0
LINE
  5
1B36
330
18
100
AcDbEntity
  8
上線
 48
10.0
100
AcDbLine
 10
6257.332283293817
 20
-169.9362626492938
 30
0.0
 11
8257.332283293818
 21
-169.9362626492943
 31
0.0
  0
LINE
  5
1B37
330
18
100
AcDbEntity
  8
上線
100
AcDbLine
 10
7384.83939113026
 20
813.8775548680836
 30
0.0
 11
7129.825175457376
 21
813.8775548680836
 31
0.0
  0
LINE
  5
1B38
330
18
100
AcDbEntity
  8
上線
100
AcDbLine
 10
7129.825175457376
 20
720.1731721220781
 30
0.0
 11
7384.83939113026
 21
720.1731721220781
 31
0.0
  0
LINE
  5
1B39
330
18
100
AcDbEntity
  8
上線
100
AcDbLine
 10
7387.839391130261
 20
816.8775548680841
 30
0.0
 11
7126.825175457375
 21
816.8775548680841
 31
0.0
  0
LINE
  5
1B3A
330
18
100
AcDbEntity
  8
上線
100
AcDbLine
 10
7126.825175457375
 20
717.1731721220781
 30
0.0
 11
7387.839391130261
 21
717.1731721220781
 31
0.0
  0
LINE
  5
1B3B
330
18
100
AcDbEntity
  8
上線
 48
10.0
100
AcDbLine
 10
6257.332283293817
 20
-859.9362626492938
 30
0.0
 11
8257.332283293818
 21
-859.9362626492938
 31
0.0
  0
LINE
  5
1B3C
330
18
100
AcDbEntity
  8
上線
 48
10.0
100
AcDbLine
 10
6257.332283293817
 20
-869.9362626492948
 30
0.0
 11
8257.332283293818
 21
-869.936262649292
 31
0.0
  0
LINE
  5
1B3D
330
18
100
AcDbEntity
  8
点線
 48
3.0
100
AcDbLine
 10
8257.332283293818
 20
-769.9362626492934
 30
0.0
 11
6257.332283293817
 21
-769.9362626492934
 31
0.0
  0
LINE
  5
1B3E
330
18
100
AcDbEntity
  8
WUWAGAKI
100
AcDbLine
 10
4572.294475307206
 20
-1738.443194009047
 30
0.0
 11
8843.013393934125
 21
-1738.443194009047
 31
0.0
  0
LINE
  5
1B3F
330
18
100
AcDbEntity
  8
OBJECT
100
AcDbLine
 10
6257.332283293817
 20
-169.9362626492938
 30
0.0
 11
6257.332283293817
 21
-869.9362626492948
 31
0.0
  0
LINE
  5
1B42
330
18
100
AcDbEntity
  8
上線
 48
10.0
100
AcDbLine
 10
5497.332283293816
 20
-269.9362626492939
 30
0.0
 11
5502.22723731222
 21
-720.7830555477064
 31
0.0
  0
LINE
  5
1B43
330
18
100
AcDbEntity
  8
上線
 48
10.0
100
AcDbLine
 10
5507.332283293816
 20
-269.9362626492939
 30
0.0
 11
5512.226217060214
 21
-720.6402129798768
 31
0.0
  0
LINE
  5
1B44
330
18
100
AcDbEntity
  8
OBJECT
100
AcDbLine
 10
5957.332283293816
 20
-169.9362626492938
 30
0.0
 11
5957.332283293816
 21
-859.9362626492938
 31
0.0
  0
LINE
  5
1B45
330
18
100
AcDbEntity
  8
WUWAGAKI
100
AcDbLine
 10
4572.294475307206
 20
1187.706657787076
 30
0.0
 11
4572.294475307206
 21
-1738.443194009047
 31
0.0
  0
LINE
  5
1B46
330
18
100
AcDbEntity
  8
OBJECT
 48
10.0
100
AcDbLine
 10
5028.832292096772
 20
-869.936262649338
 30
0.0
 11
5028.832292096772
 21
-169.9362626492938
 31
0.0
  0
LINE
  5
1B47
330
18
100
AcDbEntity
  8
OBJECT
 48
10.0
100
AcDbLine
 10
5178.832300860193
 20
-869.936262649338
 30
0.0
 11
5178.832300860193
 21
-169.9362626492938
 31
0.0
  0
LINE
  5
1B48
330
18
100
AcDbEntity
  8
OBJECT
100
AcDbLine
 10
5357.332283293817
 20
-169.9362626492938
 30
0.0
 11
5357.332283293814
 21
-859.9362626492938
 31
0.0
  0
LINE
  5
1B4B
330
18
100
AcDbEntity
  8
OBJECT
100
AcDbLine
 10
5367.332283293815
 20
-869.936262649294
 30
0.0
 11
5947.332283293817
 21
-869.936262649294
 31
0.0
  0
LINE
  5
1B4C
330
18
100
AcDbEntity
  8
0
 48
10.0
100
AcDbLine
 10
5328.832292096776
 20
-869.936262649338
 30
0.0
 11
4998.832292096776
 21
-869.936262649338
 31
0.0
  0
SOLID
  5
1B4D
330
18
100
AcDbEntity
  8
0
  6
ByBlock
 62
     0
 48
10.0
100
AcDbTrace
 10
5035.08229209677
 20
-832.4362626493162
 30
0.0
 11
5022.58229209677
 21
-832.4362626493162
 31
0.0
 12
5028.83229209677
 22
-869.9362626493162
 32
0.0
 13
5028.83229209677
 23
-869.9362626493162
 33
0.0
  0
MTEXT
  5
1B4E
330
18
100
AcDbEntity
  8
0
  6
ByBlock
 62
     0
 48
10.0
100
AcDbMText
 10
5148.832298883661
 20
-819.936262649338
 30
0.0
 40
37.5
 41
0.0
 71
     5
 72
     1
  1
100
 11
0.0000000000000001
 21
1.0
 31
0.0
 73
     1
 44
1.0
  0
SOLID
  5
1B4F
330
18
100
AcDbEntity
  8
0
  6
ByBlock
 62
     0
 48
10.0
100
AcDbTrace
 10
5172.582300860195
 20
-832.4362507901836
 30
0.0
 11
5185.082300860195
 21
-832.4362507901836
 31
0.0
 12
5178.832300860196
 22
-869.9362507901836
 32
0.0
 13
5178.832300860196
 23
-869.9362507901836
 33
0.0
  0
LINE
  5
1B50
330
18
100
AcDbEntity
  8
上線
100
AcDbLine
 10
5357.332283293814
 20
-859.9362626492938
 30
0.0
 11
5367.332283293815
 21
-869.936262649294
 31
0.0
  0
LINE
  5
1B51
330
18
100
AcDbEntity
  8
0
 48
10.0
100
AcDbLine
 10
5328.832302191966
 20
-769.936262649338
 30
0.0
 11
5148.832302191967
 21
-769.936262649338
 31
0.0
  0
SOLID
  5
1B52
330
18
100
AcDbEntity
  8
0
  6
ByBlock
 62
     0
 48
10.0
100
AcDbTrace
 10
5185.08228333335
 20
-807.4362626493435
 30
0.0
 11
5172.582283333355
 21
-807.4362626493435
 31
0.0
 12
5178.83228333335
 22
-769.9362626493434
 32
0.0
 13
5178.83228333335
 23
-769.9362626493434
 33
0.0
  0
SOLID
  5
1B53
330
18
100
AcDbEntity
  8
0
  6
ByBlock
 62
     0
 48
10.0
100
AcDbTrace
 10
5185.08228333335
 20
-732.4362626493325
 30
0.0
 11
5172.582283333355
 21
-732.4362626493325
 31
0.0
 12
5178.83228333335
 22
-769.9362626493325
 32
0.0
 13
5178.83228333335
 23
-769.9362626493325
 33
0.0
  0
LINE
  5
1B54
330
18
100
AcDbEntity
  8
上線
 48
10.0
100
AcDbLine
 10
5752.806728898031
 20
-779.9260001407292
 30
0.0
 11
5562.22111580019
 21
-779.9260001407292
 31
0.0
  0
LINE
  5
1B55
330
18
100
AcDbEntity
  8
上線
100
AcDbLine
 10
5562.22111580019
 20
-769.9260001407292
 30
0.0
 11
5752.806728898031
 21
-769.9260001407292
 31
0.0
  0
LINE
  5
1B56
330
18
100
AcDbEntity
  8
OBJECT
 48
10.0
100
AcDbLine
 10
5588.193415699999
 20
-709.9293770174017
 30
0.0
 11
5693.193415699998
 21
-709.9293770174017
 31
0.0
  0
ARC
  5
1B57
330
18
100
AcDbEntity
  8
上線
100
AcDbCircle
 10
5562.22111580019
 20
-719.9260001407292
 30
0.0
 40
50.0
100
AcDbArc
 50
180.8184554616945
 51
270.0
  0
ARC
  5
1B58
330
18
100
AcDbEntity
  8
上線
100
AcDbCircle
 10
5562.22111580019
 20
-719.9260001407292
 30
0.0
 40
60.0
100
AcDbArc
 50
180.8184554616945
 51
270.0
  0
LINE
  5
1B59
330
18
100
AcDbEntity
  8
WUWAGAKI
 48
10.0
100
AcDbLine
 10
5542.041680911318
 20
-744.1284363980139
 30
0.0
 11
5588.193415699999
 21
-709.9293770174017
 31
0.0
210
0.0
220
0.0
230
-1.0
1001
ACAD
1000
DSTYLE
1002
{
1070
    78
1070
     8
1070
   270
1070
     8
1070
   140
1040
2.5
1070
    74
1070
     0
1070
   172
1070
     1
1070
    73
1070
     0
1070
    77
1070
     1
1070
    40
1040
10.0
1070
   147
1040
0.625
1070
    42
1040
0.625
1070
    44
1040
1.25
1070
    43
1040
3.75
1070
   141
1040
2.5
1070
    41
1040
2.5
1070
   273
1070
     8
1070
   274
1070
     4
1070
   143
1040
0.0394
1070
   171
1070
     4
1002
}
  0
SOLID
  5
1B5A
330
18
100
AcDbEntity
  8
0
  6
ByBlock
 62
     0
 48
10.0
100
AcDbTrace
 10
5553.52293824853
 20
-728.0772172102061
 30
0.0
 11
5560.91430824781
 21
-738.1577752073463
 31
0.0
 12
5526.976949256753
 22
-755.2916062066306
 32
0.0
 13
5526.976949256753
 23
-755.2916062066306
 33
0.0
  0
MTEXT
  5
1B5B
330
18
100
AcDbEntity
  8
0
  6
ByBlock
 62
     0
 48
10.0
100
AcDbMText
 10
5640.693415699999
 20
-679.929377017402
 30
0.0
 40
30.0
 41
0.0
 71
     5
 72
     1
  1
50R
 73
     1
 44
1.0
  0
LINE
  5
1B5C
330
18
100
AcDbEntity
  8
上線
100
AcDbLine
 10
5957.332283293816
 20
-859.9362626492938
 30
0.0
 11
5947.332283293817
 21
-869.936262649294
 31
0.0
  0
LINE
  5
1B5D
330
18
100
AcDbEntity
  8
上線
100
AcDbLine
 10
5788.08752926864
 20
816.8775548680837
 30
0.0
 11
5526.577099008509
 21
816.8775548680837
 31
0.0
  0
LINE
  5
1B5E
330
18
100
AcDbEntity
  8
上線
100
AcDbLine
 10
5785.08752926864
 20
813.8775548680833
 30
0.0
 11
5529.577099008509
 21
813.8775548680833
 31
0.0
  0
LINE
  5
1B5F
330
18
100
AcDbEntity
  8
上線
100
AcDbLine
 10
5526.577099008509
 20
717.1731721220776
 30
0.0
 11
5788.08752926864
 21
717.1731721220776
 31
0.0
  0
LINE
  5
1B60
330
18
100
AcDbEntity
  8
上線
100
AcDbLine
 10
5529.577099008509
 20
720.1731721220776
 30
0.0
 11
5785.08752926864
 21
720.1731721220776
 31
0.0
  0
SOLID
  5
1B61
330
18
100
AcDbEntity
  8
0
  6
ByBlock
 62
     0
 48
10.0
100
AcDbTrace
 10
5764.832419299642
 20
-342.186267147299
 30
0.0
 11
5764.832419299642
 21
-329.6862671473009
 31
0.0
 12
5802.332419299641
 22
-335.9362671472972
 32
0.0
 13
5802.332419299641
 23
-335.9362671472972
 33
0.0
  0
LINE
  5
1B62
330
18
100
AcDbEntity
  8
OBJECT
 48
10.0
100
AcDbLine
 10
5512.332314138553
 20
-335.9362759107207
 30
0.0
 11
5802.332314138596
 21
-335.9362759107189
 31
0.0
  0
LINE
  5
1B63
330
18
100
AcDbEntity
  8
OBJECT
 48
10.0
100
AcDbLine
 10
5357.332283293806
 20
8.563719784327076
 30
0.0
 11
5957.332283293849
 21
8.563719784328895
 31
0.0
  0
LINE
  5
1B64
330
18
100
AcDbEntity
  8
OBJECT
 48
10.0
100
AcDbLine
 10
5357.332283293806
 20
158.5637285477505
 30
0.0
 11
5957.332283293849
 21
158.5637285477505
 31
0.0
  0
LINE
  5
1B65
330
18
100
AcDbEntity
  8
0
 48
10.0
100
AcDbLine
 10
5328.832292096772
 20
-169.9362626492938
 30
0.0
 11
4998.832292096772
 21
-169.9362626492938
 31
0.0
  0
MTEXT
  5
1B66
330
18
100
AcDbEntity
  8
0
  6
ByBlock
 62
     0
 48
10.0
100
AcDbMText
 10
4998.832292096772
 20
-519.9362626492939
 30
0.0
 40
37.5
 41
0.0
 71
     5
 72
     1
  1
700
 11
0.0000000000000001
 21
1.0
 31
0.0
 73
     1
 44
1.0
  0
SOLID
  5
1B67
330
18
100
AcDbEntity
  8
0
  6
ByBlock
 62
     0
 48
10.0
100
AcDbTrace
 10
5035.082292096772
 20
-207.4362626493161
 30
0.0
 11
5022.582292096772
 21
-207.4362626493161
 31
0.0
 12
5028.832292096772
 22
-169.9362626493161
 32
0.0
 13
5028.832292096772
 23
-169.9362626493161
 33
0.0
  0
LINE
  5
1B68
330
18
100
AcDbEntity
  8
0
 48
10.0
100
AcDbLine
 10
5357.332283293806
 20
-141.4362714522531
 30
0.0
 11
5357.332283293806
 21
188.5637285477469
 31
0.0
  0
LINE
  5
1B69
330
18
100
AcDbEntity
  8
0
 48
10.0
100
AcDbLine
 10
5457.332276580709
 20
-141.4362875110077
 30
0.0
 11
5457.332276580709
 21
38.56371248899222
 31
0.0
  0
LINE
  5
1B6A
330
18
100
AcDbEntity
  8
0
 48
10.0
100
AcDbLine
 10
5507.332283293806
 20
-141.4362815474442
 30
0.0
 11
5507.332283293806
 21
38.5637184525558
 31
0.0
  0
LINE
  5
1B6B
330
18
100
AcDbEntity
  8
上線
100
AcDbLine
 10
5457.332283293816
 20
-169.9362626492938
 30
0.0
 11
5357.332283293817
 21
-169.9362626492938
 31
0.0
  0
MTEXT
  5
1B6C
330
18
100
AcDbEntity
  8
0
  6
ByBlock
 62
     0
 48
10.0
100
AcDbMText
 10
5148.832292096776
 20
-519.9362626492939
 30
0.0
 40
37.5
 41
0.0
 71
     5
 72
     1
  1
500
 11
0.0000000000000001
 21
1.0
 31
0.0
 73
     1
 44
1.0
  0
LINE
  5
1B6D
330
18
100
AcDbEntity
  8
0
 48
10.0
100
AcDbLine
 10
5328.832302191966
 20
-269.9362626492939
 30
0.0
 11
5148.832302191967
 21
-269.9362626492939
 31
0.0
  0
MTEXT
  5
1B6E
330
18
100
AcDbEntity
  8
0
  6
ByBlock
 62
     0
 48
10.0
100
AcDbMText
 10
5148.832300860194
 20
-219.9362626492939
 30
0.0
 40
37.5
 41
0.0
 71
     5
 72
     1
  1
100
 11
0.0000000000000001
 21
1.0
 31
0.0
 73
     1
 44
1.0
  0
SOLID
  5
1B6F
330
18
100
AcDbEntity
  8
0
  6
ByBlock
 62
     0
 48
10.0
100
AcDbTrace
 10
5172.582300860198
 20
-207.4362745084267
 30
0.0
 11
5185.082300860198
 21
-207.4362745084267
 31
0.0
 12
5178.832300860197
 22
-169.9362745084267
 32
0.0
 13
5178.832300860197
 23
-169.9362745084267
 33
0.0
  0
SOLID
  5
1B70
330
18
100
AcDbEntity
  8
0
  6
ByBlock
 62
     0
 48
10.0
100
AcDbTrace
 10
5172.582300860198
 20
-232.4362507901619
 30
0.0
 11
5185.082300860198
 21
-232.4362507901619
 31
0.0
 12
5178.832300860197
 22
-269.9362507901619
 32
0.0
 13
5178.832300860197
 23
-269.9362507901619
 33
0.0
  0
SOLID
  5
1B71
330
18
100
AcDbEntity
  8
0
  6
ByBlock
 62
     0
 48
10.0
100
AcDbTrace
 10
5185.082292096772
 20
-307.4361574882491
 30
0.0
 11
5172.582292096776
 21
-307.4361574882491
 31
0.0
 12
5178.832292096772
 22
-269.9361574882491
 32
0.0
 13
5178.832292096772
 23
-269.9361574882491
 33
0.0
  0
MTEXT
  5
1B72
330
18
100
AcDbEntity
  8
0
  6
ByBlock
 62
     0
 48
10.0
100
AcDbMText
 10
5657.332314138596
 20
-305.9362671473008
 30
0.0
 40
37.5
 41
0.0
 71
     5
 72
     1
  1
290
 73
     1
 44
1.0
  0
LINE
  5
1B73
330
18
100
AcDbEntity
  8
0
 48
10.0
100
AcDbLine
 10
5512.332314138553
 20
-425.9362772424938
 30
0.0
 11
5512.332314138553
 21
-305.9362772424938
 31
0.0
  0
SOLID
  5
1B74
330
18
100
AcDbEntity
  8
0
  6
ByBlock
 62
     0
 48
10.0
100
AcDbTrace
 10
5549.832314138559
 20
-342.1862583838783
 30
0.0
 11
5549.832314138559
 21
-329.6862583838801
 31
0.0
 12
5512.33231413856
 22
-335.9362583838765
 32
0.0
 13
5512.33231413856
 23
-335.9362583838765
 33
0.0
  0
MTEXT
  5
1B7A
330
18
100
AcDbEntity
  8
0
  6
ByBlock
 62
     0
 48
10.0
100
AcDbMText
 10
5407.332283293806
 20
38.56372176086097
 30
0.0
 40
37.5
 41
0.0
 71
     5
 72
     1
  1
100
 73
     1
 44
1.0
  0
SOLID
  5
1B7B
330
18
100
AcDbEntity
  8
0
  6
ByBlock
 62
     0
 48
10.0
100
AcDbTrace
 10
5394.83229515294
 20
14.81371978432525
 30
0.0
 11
5394.83229515294
 21
2.313719784325257
 31
0.0
 12
5357.332295152939
 22
8.563719784325257
 32
0.0
 13
5357.332295152939
 23
8.563719784325257
 33
0.0
  0
SOLID
  5
1B7C
330
18
100
AcDbEntity
  8
0
  6
ByBlock
 62
     0
 48
10.0
100
AcDbTrace
 10
5394.832283293827
 20
152.3137285477505
 30
0.0
 11
5394.832283293827
 21
164.8137285477505
 31
0.0
 12
5357.332283293827
 22
158.5637285477505
 32
0.0
 13
5357.332283293827
 23
158.5637285477505
 33
0.0
  0
MTEXT
  5
1B7D
330
18
100
AcDbEntity
  8
0
  6
ByBlock
 62
     0
 48
10.0
100
AcDbMText
 10
5657.332283293849
 20
188.5637285477505
 30
0.0
 40
37.5
 41
0.0
 71
     5
 72
     1
  1
600
 73
     1
 44
1.0
  0
MTEXT
  5
1B7E
330
18
100
AcDbEntity
  8
0
  6
ByBlock
 62
     0
 48
10.0
100
AcDbMText
 10
5482.332283293806
 20
68.56371978432889
 30
0.0
 40
37.5
 41
0.0
 71
     5
 72
     1
  1
50
 73
     1
 44
1.0
  0
SOLID
  5
1B7F
330
18
100
AcDbEntity
  8
0
  6
ByBlock
 62
     0
 48
10.0
100
AcDbTrace
 10
5419.832271434675
 20
14.81371978432525
 30
0.0
 11
5419.832271434675
 21
2.313719784325257
 31
0.0
 12
5457.332271434675
 22
8.563719784325257
 32
0.0
 13
5457.332271434675
 23
8.563719784325257
 33
0.0
  0
SOLID
  5
1B80
330
18
100
AcDbEntity
  8
0
  6
ByBlock
 62
     0
 48
10.0
100
AcDbTrace
 10
5544.83228329381
 20
2.31373731117037
 30
0.0
 11
5544.83228329381
 21
14.81373731116855
 31
0.0
 12
5507.332283293809
 22
8.563737311172189
 32
0.0
 13
5507.332283293809
 23
8.563737311172189
 33
0.0
  0
MTEXT
  5
1B81
330
18
100
AcDbEntity
  8
0
  6
ByBlock
 62
     0
 48
10.0
100
AcDbMText
 10
5657.332283293849
 20
38.5637285477469
 30
0.0
 40
37.5
 41
0.0
 71
     5
 72
     1
  1
300
 73
     1
 44
1.0
  0
MTEXT
  5
1B82
330
18
100
AcDbEntity
  8
上線
 48
10.0
100
AcDbMText
 10
5550.631968433587
 20
799.31922413337
 30
0.0
 40
50.0
 41
558.2059
 71
     1
 72
     5
  1
\fＭＳ Ｐ明朝|b0|i0|c128|p18;正面図
 73
     1
 44
1.0
  0
LINE
  5
1B83
330
18
100
AcDbEntity
  8
上線
100
AcDbLine
 10
5526.577099008509
 20
816.8775548680837
 30
0.0
 11
5526.577099008509
 21
717.1731721220776
 31
0.0
  0
LINE
  5
1B84
330
18
100
AcDbEntity
  8
上線
100
AcDbLine
 10
5529.577099008509
 20
813.8775548680833
 30
0.0
 11
5529.577099008509
 21
720.1731721220776
 31
0.0
  0
LINE
  5
1B85
330
18
100
AcDbEntity
  8
0
 48
10.0
100
AcDbLine
 10
6257.332283293817
 20
-139.9362626492939
 30
0.0
 11
6257.332283293817
 21
190.0637373507061
 31
0.0
  0
LINE
  5
1B86
330
18
100
AcDbEntity
  8
0
 48
10.0
100
AcDbLine
 10
5957.332283293849
 20
-141.4362714522494
 30
0.0
 11
5957.332283293849
 21
188.5637285477505
 31
0.0
  0
LINE
  5
1B87
330
18
100
AcDbEntity
  8
0
 48
10.0
100
AcDbLine
 10
5807.332283293849
 20
-141.4362815474442
 30
0.0
 11
5807.332283293849
 21
38.5637184525558
 31
0.0
  0
LINE
  5
1B88
330
18
100
AcDbEntity
  8
0
 48
10.0
100
AcDbLine
 10
5857.33228329385
 20
-141.4362714522531
 30
0.0
 11
5857.33228329385
 21
38.5637285477469
 31
0.0
  0
LINE
  5
1B89
330
18
100
AcDbEntity
  8
0
 48
10.0
100
AcDbLine
 10
5802.332314138596
 20
-425.9362772424938
 30
0.0
 11
5802.332314138596
 21
-305.9362772424938
 31
0.0
  0
LINE
  5
1B8A
330
18
100
AcDbEntity
  8
上線
100
AcDbLine
 10
5857.332283293817
 20
-169.9362626492938
 30
0.0
 11
5957.332283293816
 21
-169.9362626492938
 31
0.0
  0
SOLID
  5
1B90
330
18
100
AcDbEntity
  8
0
  6
ByBlock
 62
     0
 48
10.0
100
AcDbTrace
 10
5919.832283293827
 20
152.3137285477505
 30
0.0
 11
5919.832283293827
 21
164.8137285477505
 31
0.0
 12
5957.332283293827
 22
158.5637285477505
 32
0.0
 13
5957.332283293827
 23
158.5637285477505
 33
0.0
  0
SOLID
  5
1B91
330
18
100
AcDbEntity
  8
0
  6
ByBlock
 62
     0
 48
10.0
100
AcDbTrace
 10
5919.832271434715
 20
14.81371978432525
 30
0.0
 11
5919.832271434715
 21
2.313719784325257
 31
0.0
 12
5957.332271434715
 22
8.563719784325257
 32
0.0
 13
5957.332271434715
 23
8.563719784325257
 33
0.0
  0
MTEXT
  5
1B92
330
18
100
AcDbEntity
  8
0
  6
ByBlock
 62
     0
 48
10.0
100
AcDbMText
 10
5907.332283293849
 20
38.56371978432889
 30
0.0
 40
37.5
 41
0.0
 71
     5
 72
     1
  1
100
 73
     1
 44
1.0
  0
MTEXT
  5
1B93
330
18
100
AcDbEntity
  8
0
  6
ByBlock
 62
     0
 48
10.0
100
AcDbMText
 10
5832.332283293849
 20
68.56371978432889
 30
0.0
 40
37.5
 41
0.0
 71
     5
 72
     1
  1
50
 73
     1
 44
1.0
  0
SOLID
  5
1B94
330
18
100
AcDbEntity
  8
0
  6
ByBlock
 62
     0
 48
10.0
100
AcDbTrace
 10
5769.832388454894
 20
2.313728547750542
 30
0.0
 11
5769.832388454894
 21
14.8137285477469
 31
0.0
 12
5807.332388454895
 22
8.563728547750542
 32
0.0
 13
5807.332388454895
 23
8.563728547750542
 33
0.0
  0
SOLID
  5
1B95
330
18
100
AcDbEntity
  8
0
  6
ByBlock
 62
     0
 48
10.0
100
AcDbTrace
 10
5894.83229515298
 20
14.81371978432525
 30
0.0
 11
5894.83229515298
 21
2.313719784325257
 31
0.0
 12
5857.33229515298
 22
8.563719784325257
 32
0.0
 13
5857.33229515298
 23
8.563719784325257
 33
0.0
  0
SOLID
  5
1B96
330
18
100
AcDbEntity
  8
0
  6
ByBlock
 62
     0
 48
10.0
100
AcDbTrace
 10
6294.832283293839
 20
153.8137373507079
 30
0.0
 11
6294.832283293839
 21
166.3137373507088
 31
0.0
 12
6257.332283293839
 22
160.0637373507097
 32
0.0
 13
6257.332283293839
 23
160.0637373507097
 33
0.0
  0
LINE
  5
1B97
330
18
100
AcDbEntity
  8
上線
100
AcDbLine
 10
5788.08752926864
 20
717.1731721220776
 30
0.0
 11
5788.08752926864
 21
816.8775548680837
 31
0.0
  0
LINE
  5
1B98
330
18
100
AcDbEntity
  8
上線
100
AcDbLine
 10
5785.08752926864
 20
720.1731721220776
 30
0.0
 11
5785.08752926864
 21
813.8775548680833
 31
0.0
  0
LINE
  5
1B99
330
18
100
AcDbEntity
  8
上線
100
AcDbLine
 10
7129.825175457376
 20
813.8775548680836
 30
0.0
 11
7129.825175457376
 21
720.1731721220781
 31
0.0
  0
LINE
  5
1B9A
330
18
100
AcDbEntity
  8
上線
100
AcDbLine
 10
7126.825175457375
 20
816.8775548680841
 30
0.0
 11
7126.825175457375
 21
717.1731721220781
 31
0.0
  0
LINE
  5
1B9B
330
18
100
AcDbEntity
  8
OBJECT
100
AcDbLine
 10
8257.332283293818
 20
-169.9362626492943
 30
0.0
 11
8257.332283293818
 21
-869.936262649292
 31
0.0
  0
LINE
  5
1B9C
330
18
100
AcDbEntity
  8
WUWAGAKI
100
AcDbLine
 10
8843.013393934125
 20
-1738.443194009047
 30
0.0
 11
8843.013393934125
 21
1187.706657787076
 31
0.0
  0
LINE
  5
1B9D
330
18
100
AcDbEntity
  8
WUWAGAKI
100
AcDbLine
 10
7683.713806025746
 20
-1249.963226937675
 30
0.0
 11
8776.51038112617
 21
-1249.963226937675
 31
0.0
  0
LINE
  5
1B9E
330
18
100
AcDbEntity
  8
WUWAGAKI
100
AcDbLine
 10
7683.713806025746
 20
-1344.493514882812
 30
0.0
 11
8773.878558790405
 21
-1344.493514882812
 31
0.0
  0
LINE
  5
1B9F
330
18
100
AcDbEntity
  8
WUWAGAKI
100
AcDbLine
 10
7683.713806025746
 20
-1440.399899847427
 30
0.0
 11
8776.510381126165
 21
-1440.399899847427
 31
0.0
  0
LINE
  5
1BA0
330
18
100
AcDbEntity
  8
WUWAGAKI
100
AcDbLine
 10
7683.713806025746
 20
-1344.493514882812
 30
0.0
 11
8773.878558790405
 21
-1344.493514882812
 31
0.0
  0
TEXT
  5
1BA1
330
18
100
AcDbEntity
  8
WUWAGAKI
100
AcDbText
 10
7960.830277594252
 20
-1418.802030120338
 30
0.0
 40
47.25
  1
300×500×150/150×2000
100
AcDbText
  0
TEXT
  5
1BA2
330
18
100
AcDbEntity
  8
WUWAGAKI
100
AcDbText
 10
8554.228190540483
 20
-1516.431453229325
 30
0.0
 40
45.0
  1
1100㎏
100
AcDbText
  0
LINE
  5
1BA3
330
18
100
AcDbEntity
  8
WUWAGAKI
100
AcDbLine
 10
7683.713806025746
 20
-1669.943659567244
 30
0.0
 11
8776.51038112617
 21
-1669.943659567244
 31
0.0
  0
LINE
  5
1BA4
330
18
100
AcDbEntity
  8
WUWAGAKI
100
AcDbLine
 10
7683.713806025746
 20
-1538.914964012033
 30
0.0
 11
8776.510381126165
 21
-1538.914964012033
 31
0.0
  0
LINE
  5
1BA5
330
18
100
AcDbEntity
  8
WUWAGAKI
100
AcDbLine
 10
7683.713806025746
 20
-1249.963226937675
 30
0.0
 11
7683.713806025746
 21
-1669.943659567244
 31
0.0
  0
TEXT
  5
1BA6
330
18
100
AcDbEntity
  8
WUWAGAKI
100
AcDbText
 10
7922.419238925221
 20
-1638.336092760858
 30
0.0
 40
60.0
  1
㈱　ウ　チ　コ　ン
100
AcDbText
  0
TEXT
  5
1BA7
330
18
100
AcDbEntity
  8
WUWAGAKI
100
AcDbText
 10
7728.592249788026
 20
-1419.346467702278
 30
0.0
 40
45.0
  1
寸　法
100
AcDbText
  0
TEXT
  5
1BA8
330
18
100
AcDbEntity
  8
WUWAGAKI
100
AcDbText
 10
7756.240007549106
 20
-1515.844420693759
 30
0.0
 40
45.0
  1
縮尺
100
AcDbText
  0
TEXT
  5
1BA9
330
18
100
AcDbEntity
  8
WUWAGAKI
100
AcDbText
 10
7731.247461674445
 20
-1318.207627665296
 30
0.0
 40
45.0
  1
種　別
100
AcDbText
  0
TEXT
  5
1BAA
330
18
100
AcDbEntity
  8
WUWAGAKI
100
AcDbText
 10
8001.522550339801
 20
-1514.542505264302
 30
0.0
 40
45.0
  1
S＝　1：15
100
AcDbText
  0
LINE
  5
1BAC
330
18
100
AcDbEntity
  8
WUWAGAKI
100
AcDbLine
 10
7935.830277594252
 20
-1249.963226937675
 30
0.0
 11
7935.830277594252
 21
-1538.914964012033
 31
0.0
  0
TEXT
  5
1BAD
330
18
100
AcDbEntity
  8
WUWAGAKI
100
AcDbText
 10
8356.927539530309
 20
-1514.493067752761
 30
0.0
 40
45.0
  1
重量
100
AcDbText
  0
LINE
  5
1BAE
330
18
100
AcDbEntity
  8
WUWAGAKI
100
AcDbLine
 10
8329.999763778161
 20
-1440.399899847427
 30
0.0
 11
8329.999763778161
 21
-1538.914964012033
 31
0.0
  0
LINE
  5
1BAF
330
18
100
AcDbEntity
  8
WUWAGAKI
100
AcDbLine
 10
8514.22819054048
 20
-1440.399899847427
 30
0.0
 11
8514.22819054048
 21
-1538.914964012033
 31
0.0
  0
LINE
  5
1BB0
330
18
100
AcDbEntity
  8
WUWAGAKI
100
AcDbLine
 10
8776.51038112617
 20
-1669.943659567244
 30
0.0
 11
8776.51038112617
 21
-1249.963226937675
 31
0.0
  0
MTEXT
  5
1BB1
330
18
100
AcDbEntity
  8
0
  6
ByBlock
 62
     0
 48
10.0
100
AcDbMText
 10
7257.332283293817
 20
190.063737350707
 30
0.0
 40
37.5
 41
0.0
 71
     5
 72
     1
  1
2000
 73
     1
 44
1.0
  0
LINE
  5
1BB2
330
18
100
AcDbEntity
  8
0
 48
10.0
100
AcDbLine
 10
8257.332283293818
 20
-139.9362626492939
 30
0.0
 11
8257.332283293818
 21
190.0637373507061
 31
0.0
  0
SOLID
  5
1BB3
330
18
100
AcDbEntity
  8
0
  6
ByBlock
 62
     0
 48
10.0
100
AcDbTrace
 10
8219.832283293795
 20
153.8137373507079
 30
0.0
 11
8219.832283293795
 21
166.3137373507088
 31
0.0
 12
8257.332283293797
 22
160.0637373507097
 32
0.0
 13
8257.332283293797
 23
160.0637373507097
 33
0.0
  0
LINE
  5
1BB4
330
18
100
AcDbEntity
  8
上線
100
AcDbLine
 10
7384.83939113026
 20
720.1731721220781
 30
0.0
 11
7384.83939113026
 21
813.8775548680836
 31
0.0
  0
LINE
  5
1BB5
330
18
100
AcDbEntity
  8
上線
100
AcDbLine
 10
7387.839391130261
 20
717.1731721220781
 30
0.0
 11
7387.839391130261
 21
816.8775548680841
 31
0.0
  0
LINE
  5
1BB6
330
18
100
AcDbEntity
  8
上線
 48
10.0
100
AcDbLine
 10
5817.695561404405
 20
-269.9362626492939
 30
0.0
 11
5812.800607386002
 21
-720.7830555477064
 31
0.0
  0
LINE
  5
1BB7
330
18
100
AcDbEntity
  8
上線
 48
10.0
100
AcDbLine
 10
5807.695561404404
 20
-269.9362626492939
 30
0.0
 11
5802.801627638007
 21
-720.6402129798768
 31
0.0
  0
LINE
  5
1BB8
330
18
100
AcDbEntity
  8
上線
100
AcDbLine
 10
5857.695561404405
 20
-169.9362626492938
 30
0.0
 11
5857.695561404405
 21
-269.9362626492939
 31
0.0
  0
LINE
  5
1BB9
330
18
100
AcDbEntity
  8
上線
100
AcDbLine
 10
5857.695561404405
 20
-269.9362626492939
 30
0.0
 11
5807.695561404404
 21
-269.9362626492939
 31
0.0
  0
ARC
  5
1BBA
330
18
100
AcDbEntity
  8
上線
100
AcDbCircle
 10
5752.806728898031
 20
-719.9260001407292
 30
0.0
 40
60.0
100
AcDbArc
 50
270.0
 51
359.1815445383054
  0
ARC
  5
1BBB
330
18
100
AcDbEntity
  8
上線
100
AcDbCircle
 10
5752.806728898031
 20
-719.9260001407292
 30
0.0
 40
50.0
100
AcDbArc
 50
270.0
 51
359.1815445383054
  0
ENDSEC
  0
SECTION
  2
OBJECTS
  0
DICTIONARY
  5
C
330
0
100
AcDbDictionary
281
     1
  3
ACAD_GROUP
350
D
  3
ACAD_LAYOUT
350
148B
  3
ACAD_MLINESTYLE
350
1B
  3
ACAD_PLOTSETTINGS
350
148C
  3
ACAD_PLOTSTYLENAME
350
1489
  0
DICTIONARY
  5
D
102
{ACAD_REACTORS
330
C
102
}
330
C
100
AcDbDictionary
281
     1
  0
DICTIONARY
  5
148B
102
{ACAD_REACTORS
330
C
102
}
330
C
100
AcDbDictionary
281
     1
  3
Model
350
148D
  3
ﾚｲｱｳﾄ1
350
148E
  0
DICTIONARY
  5
1B
102
{ACAD_REACTORS
330
C
102
}
330
C
100
AcDbDictionary
281
     1
  3
STANDARD
350
1C
  0
DICTIONARY
  5
148C
102
{ACAD_REACTORS
330
C
102
}
330
C
100
AcDbDictionary
281
     1
  0
ACDBDICTIONARYWDFLT
  5
1489
102
{ACAD_REACTORS
330
C
102
}
330
C
100
AcDbDictionary
281
     1
  3
Normal
350
148A
100
AcDbDictionaryWithDefault
340
148A
  0
LAYOUT
  5
148D
102
{ACAD_REACTORS
330
148B
102
}
330
148B
100
AcDbPlotSettings
  1

  2
Canon LBP3800 LIPSLX
  4
A4
  6

 40
5.873749732971191
 41
5.873747825622558
 42
5.873748779296875
 43
5.873748779296875
 44
209.9733276367187
 45
296.9259948730469
 46
0.0
 47
0.0
 48
0.0
 49
0.0
140
0.0
141
0.0
142
1.0
143
1.0
 70
 11952
 72
     1
 73
     1
 74
     0
  7

 75
     0
147
1.0
148
-560.6960283093017
149
102.1409639983321
100
AcDbLayout
  1
Model
 70
     1
 71
     0
 10
0.0
 20
0.0
 11
12.0
 21
9.0
 12
0.0
 22
0.0
 32
0.0
 14
0.0
 24
0.0
 34
0.0
 15
0.0
 25
0.0
 35
0.0
146
0.0
 13
0.0
 23
0.0
 33
0.0
 16
1.0
 26
0.0
 36
0.0
 17
0.0
 27
1.0
 37
0.0
 76
     0
330
18
  0
LAYOUT
  5
148E
102
{ACAD_REACTORS
330
148B
102
}
330
148B
100
AcDbPlotSettings
  1

  2
Canon LBP3800 LIPSLX
  4

  6

 40
0.0
 41
0.0
 42
0.0
 43
0.0
 44
0.0
 45
0.0
 46
0.0
 47
0.0
 48
0.0
 49
0.0
140
0.0
141
0.0
142
1.0
143
1.0
 70
   688
 72
     0
 73
     0
 74
     5
  7

 75
    16
147
1.0
148
0.0
149
0.0
100
AcDbLayout
  1
ﾚｲｱｳﾄ1
 70
     1
 71
     1
 10
0.0
 20
0.0
 11
420.0
 21
297.0
 12
0.0
 22
0.0
 32
0.0
 14
1.000000000000000E+20
 24
1.000000000000000E+20
 34
1.000000000000000E+20
 15
-1.000000000000000E+20
 25
-1.000000000000000E+20
 35
-1.000000000000000E+20
146
0.0
 13
0.0
 23
0.0
 33
0.0
 16
1.0
 26
0.0
 36
0.0
 17
0.0
 27
1.0
 37
0.0
 76
     0
330
15
  0
MLINESTYLE
  5
1C
102
{ACAD_REACTORS
330
1B
102
}
330
1B
100
AcDbMlineStyle
  2
STANDARD
 70
     0
  3

 62
   256
 51
90.0
 52
90.0
 71
     2
 49
0.5
 62
   256
  6
BYLAYER
 49
-0.5
 62
   256
  6
BYLAYER
  0
ACDBPLACEHOLDER
  5
148A
102
{ACAD_REACTORS
330
1489
102
}
330
1489
  0
ENDSEC
  0
EOF
