  0
SECTION
  2
HEADER
  9
$ACADVER
  1
AC1015
  9
$ACADMAINTVER
 70
     6
  9
$DWGCODEPAGE
  3
ANSI_932
  9
$INSBASE
 10
0.0
 20
0.0
 30
0.0
  9
$EXTMIN
 10
4612.416554061392
 20
325.9558478421431
 30
-0.00000001
  9
$EXTMAX
 10
8883.13547268831
 20
3252.105699638267
 30
0.00000001
  9
$LIMMIN
 10
0.0
 20
0.0
  9
$LIMMAX
 10
4200.0
 20
2970.0
  9
$ORTHOMODE
 70
     0
  9
$REGENMODE
 70
     1
  9
$FILLMODE
 70
     1
  9
$QTEXTMODE
 70
     0
  9
$MIRRTEXT
 70
     1
  9
$LTSCALE
 40
3.0
  9
$ATTMODE
 70
     1
  9
$TEXTSIZE
 40
2.5
  9
$TRACEWID
 40
1.0
  9
$TEXTSTYLE
  7
STANDARD
  9
$CLAYER
  8
OBJECT
  9
$CELTYPE
  6
BYLAYER
  9
$CECOLOR
 62
   256
  9
$CELTSCALE
 40
1.0
  9
$DISPSILH
 70
     0
  9
$DIMSCALE
 40
15.0
  9
$DIMASZ
 40
2.5
  9
$DIMEXO
 40
0.625
  9
$DIMDLI
 40
3.75
  9
$DIMRND
 40
0.0
  9
$DIMDLE
 40
0.0
  9
$DIMEXE
 40
1.25
  9
$DIMTP
 40
0.0
  9
$DIMTM
 40
0.0
  9
$DIMTXT
 40
2.5
  9
$DIMCEN
 40
2.5
  9
$DIMTSZ
 40
0.0
  9
$DIMTOL
 70
     0
  9
$DIMLIM
 70
     0
  9
$DIMTIH
 70
     0
  9
$DIMTOH
 70
     0
  9
$DIMSE1
 70
     0
  9
$DIMSE2
 70
     0
  9
$DIMTAD
 70
     1
  9
$DIMZIN
 70
     8
  9
$DIMBLK
  1

  9
$DIMASO
 70
     1
  9
$DIMSHO
 70
     1
  9
$DIMPOST
  1

  9
$DIMAPOST
  1

  9
$DIMALT
 70
     0
  9
$DIMALTD
 70
     4
  9
$DIMALTF
 40
0.0394
  9
$DIMLFAC
 40
1.0
  9
$DIMTOFL
 70
     1
  9
$DIMTVP
 40
0.0
  9
$DIMTIX
 70
     0
  9
$DIMSOXD
 70
     0
  9
$DIMSAH
 70
     0
  9
$DIMBLK1
  1

  9
$DIMBLK2
  1

  9
$DIMSTYLE
  2
STANDARD
  9
$DIMCLRD
 70
     0
  9
$DIMCLRE
 70
     0
  9
$DIMCLRT
 70
     0
  9
$DIMTFAC
 40
1.0
  9
$DIMGAP
 40
0.625
  9
$DIMJUST
 70
     0
  9
$DIMSD1
 70
     0
  9
$DIMSD2
 70
     0
  9
$DIMTOLJ
 70
     1
  9
$DIMTZIN
 70
     0
  9
$DIMALTZ
 70
     0
  9
$DIMALTTZ
 70
     0
  9
$DIMUPT
 70
     0
  9
$DIMDEC
 70
     4
  9
$DIMTDEC
 70
     4
  9
$DIMALTU
 70
     8
  9
$DIMALTTD
 70
     4
  9
$DIMTXSTY
  7
STANDARD
  9
$DIMAUNIT
 70
     0
  9
$DIMADEC
 70
     0
  9
$DIMALTRND
 40
0.0
  9
$DIMAZIN
 70
     0
  9
$DIMDSEP
 70
    46
  9
$DIMATFIT
 70
     3
  9
$DIMFRAC
 70
     0
  9
$DIMLDRBLK
  1

  9
$DIMLUNIT
 70
     6
  9
$DIMLWD
 70
    -2
  9
$DIMLWE
 70
    -2
  9
$DIMTMOVE
 70
     0
  9
$LUNITS
 70
     2
  9
$LUPREC
 70
     4
  9
$SKETCHINC
 40
1.0
  9
$FILLETRAD
 40
50.0
  9
$AUNITS
 70
     0
  9
$AUPREC
 70
     0
  9
$MENU
  1
acad
  9
$ELEVATION
 40
0.0
  9
$PELEVATION
 40
0.0
  9
$THICKNESS
 40
0.0
  9
$LIMCHECK
 70
     0
  9
$CHAMFERA
 40
10.0
  9
$CHAMFERB
 40
10.0
  9
$CHAMFERC
 40
20.0
  9
$CHAMFERD
 40
0.0
  9
$SKPOLY
 70
     0
  9
$TDCREATE
 40
2452179.387794213
  9
$TDUCREATE
 40
2452179.012794213
  9
$TDUPDATE
 40
2454544.763774189
  9
$TDUUPDATE
 40
2454544.388774189
  9
$TDINDWG
 40
0.6767662731
  9
$TDUSRTIMER
 40
0.6767662731
  9
$USRTIMER
 70
     1
  9
$ANGBASE
 50
0.0
  9
$ANGDIR
 70
     0
  9
$PDMODE
 70
     0
  9
$PDSIZE
 40
0.0
  9
$PLINEWID
 40
0.0
  9
$SPLFRAME
 70
     0
  9
$SPLINETYPE
 70
     6
  9
$SPLINESEGS
 70
     8
  9
$HANDSEED
  5
1869
  9
$SURFTAB1
 70
     6
  9
$SURFTAB2
 70
     6
  9
$SURFTYPE
 70
     6
  9
$SURFU
 70
     6
  9
$SURFV
 70
     6
  9
$UCSBASE
  2

  9
$UCSNAME
  2

  9
$UCSORG
 10
0.0
 20
0.0
 30
0.0
  9
$UCSXDIR
 10
1.0
 20
0.0
 30
0.0
  9
$UCSYDIR
 10
0.0
 20
1.0
 30
0.0
  9
$UCSORTHOREF
  2

  9
$UCSORTHOVIEW
 70
     0
  9
$UCSORGTOP
 10
0.0
 20
0.0
 30
0.0
  9
$UCSORGBOTTOM
 10
0.0
 20
0.0
 30
0.0
  9
$UCSORGLEFT
 10
0.0
 20
0.0
 30
0.0
  9
$UCSORGRIGHT
 10
0.0
 20
0.0
 30
0.0
  9
$UCSORGFRONT
 10
0.0
 20
0.0
 30
0.0
  9
$UCSORGBACK
 10
0.0
 20
0.0
 30
0.0
  9
$PUCSBASE
  2

  9
$PUCSNAME
  2

  9
$PUCSORG
 10
0.0
 20
0.0
 30
0.0
  9
$PUCSXDIR
 10
1.0
 20
0.0
 30
0.0
  9
$PUCSYDIR
 10
0.0
 20
1.0
 30
0.0
  9
$PUCSORTHOREF
  2

  9
$PUCSORTHOVIEW
 70
     0
  9
$PUCSORGTOP
 10
0.0
 20
0.0
 30
0.0
  9
$PUCSORGBOTTOM
 10
0.0
 20
0.0
 30
0.0
  9
$PUCSORGLEFT
 10
0.0
 20
0.0
 30
0.0
  9
$PUCSORGRIGHT
 10
0.0
 20
0.0
 30
0.0
  9
$PUCSORGFRONT
 10
0.0
 20
0.0
 30
0.0
  9
$PUCSORGBACK
 10
0.0
 20
0.0
 30
0.0
  9
$USERI1
 70
     0
  9
$USERI2
 70
     0
  9
$USERI3
 70
     0
  9
$USERI4
 70
     0
  9
$USERI5
 70
     0
  9
$USERR1
 40
0.0
  9
$USERR2
 40
0.0
  9
$USERR3
 40
0.0
  9
$USERR4
 40
0.0
  9
$USERR5
 40
0.0
  9
$WORLDVIEW
 70
     1
  9
$SHADEDGE
 70
     3
  9
$SHADEDIF
 70
    70
  9
$TILEMODE
 70
     1
  9
$MAXACTVP
 70
    48
  9
$PINSBASE
 10
0.0
 20
0.0
 30
0.0
  9
$PLIMCHECK
 70
     0
  9
$PEXTMIN
 10
1.000000000000000E+20
 20
1.000000000000000E+20
 30
1.000000000000000E+20
  9
$PEXTMAX
 10
-1.000000000000000E+20
 20
-1.000000000000000E+20
 30
-1.000000000000000E+20
  9
$PLIMMIN
 10
0.0
 20
0.0
  9
$PLIMMAX
 10
420.0
 20
297.0
  9
$UNITMODE
 70
     0
  9
$VISRETAIN
 70
     1
  9
$PLINEGEN
 70
     0
  9
$PSLTSCALE
 70
     1
  9
$TREEDEPTH
 70
  3020
  9
$CMLSTYLE
  2
STANDARD
  9
$CMLJUST
 70
     0
  9
$CMLSCALE
 40
20.0
  9
$PROXYGRAPHICS
 70
     1
  9
$MEASUREMENT
 70
     1
  9
$CELWEIGHT
370
    -1
  9
$ENDCAPS
280
     0
  9
$JOINSTYLE
280
     0
  9
$LWDISPLAY
290
     0
  9
$INSUNITS
 70
     0
  9
$HYPERLINKBASE
  1

  9
$STYLESHEET
  1

  9
$XEDIT
290
     1
  9
$CEPSNTYPE
380
     0
  9
$PSTYLEMODE
290
     1
  9
$FINGERPRINTGUID
  2
{229849BE-E029-4976-B36C-8B0005AE88AD}
  9
$VERSIONGUID
  2
{C76BF20A-604C-4ADE-8540-742635B67A28}
  9
$EXTNAMES
290
     1
  9
$PSVPSCALE
 40
0.0
  9
$OLESTARTUP
290
     0
  0
ENDSEC
  0
SECTION
  2
CLASSES
  0
CLASS
  1
LWPOLYLINE
  2
AcDbPolyline
  3
AutoCAD 2000
 90
    32768
280
     0
281
     1
  0
CLASS
  1
ACDBDICTIONARYWDFLT
  2
AcDbDictionaryWithDefault
  3
AutoCAD 2000
 90
        0
280
     0
281
     0
  0
CLASS
  1
ACDBPLACEHOLDER
  2
AcDbPlaceHolder
  3
AutoCAD 2000
 90
        0
280
     0
281
     0
  0
CLASS
  1
LAYOUT
  2
AcDbLayout
  3
AutoCAD 2000
 90
        0
280
     0
281
     0
  0
ENDSEC
  0
SECTION
  2
TABLES
  0
TABLE
  2
VPORT
  5
8
330
0
100
AcDbSymbolTable
 70
     2
  0
VPORT
  5
1868
330
8
100
AcDbSymbolTableRecord
100
AcDbViewportTableRecord
  2
*Active
 70
     0
 10
0.0
 20
0.0
 11
1.0
 21
1.0
 12
6618.03045716806
 22
1920.284533628503
 13
0.0
 23
0.0
 14
10.0
 24
10.0
 15
10.0
 25
10.0
 16
0.0
 26
0.0
 36
1.0
 17
0.0
 27
0.0
 37
0.0
 40
3540.93118259889
 41
1.731203007518796
 42
50.0
 43
0.0
 44
0.0
 50
0.0
 51
0.0
 71
     0
 72
   100
 73
     1
 74
     1
 75
     0
 76
     0
 77
     0
 78
     0
281
     0
 65
     1
110
0.0
120
0.0
130
0.0
111
1.0
121
0.0
131
0.0
112
0.0
122
1.0
132
0.0
 79
     0
146
0.0
  0
ENDTAB
  0
TABLE
  2
LTYPE
  5
5
330
0
100
AcDbSymbolTable
 70
    46
  0
LTYPE
  5
12
330
5
100
AcDbSymbolTableRecord
100
AcDbLinetypeTableRecord
  2
BYBLOCK
 70
     0
  3

 72
    65
 73
     0
 40
0.0
  0
LTYPE
  5
13
330
5
100
AcDbSymbolTableRecord
100
AcDbLinetypeTableRecord
  2
BYLAYER
 70
     0
  3

 72
    65
 73
     0
 40
0.0
  0
LTYPE
  5
14
330
5
100
AcDbSymbolTableRecord
100
AcDbLinetypeTableRecord
  2
CONTINUOUS
 70
     0
  3
Solid line
 72
    65
 73
     0
 40
0.0
  0
LTYPE
  5
BC
330
5
100
AcDbSymbolTableRecord
100
AcDbLinetypeTableRecord
  2
ACAD_ISO02W100
 70
     0
  3
ISO dash __ __ __ __ __ __ __ __ __ __ __ __ __
 72
    65
 73
     2
 40
15.0
 49
12.0
 74
     0
 49
-3.0
 74
     0
  0
LTYPE
  5
BD
330
5
100
AcDbSymbolTableRecord
100
AcDbLinetypeTableRecord
  2
ACAD_ISO03W100
 70
     0
  3
ISO dash space __    __    __    __    __    __
 72
    65
 73
     2
 40
30.0
 49
12.0
 74
     0
 49
-18.0
 74
     0
  0
LTYPE
  5
BE
330
5
100
AcDbSymbolTableRecord
100
AcDbLinetypeTableRecord
  2
ACAD_ISO04W100
 70
     0
  3
ISO long-dash dot ____ . ____ . ____ . ____ . _
 72
    65
 73
     4
 40
30.5
 49
24.0
 74
     0
 49
-3.0
 74
     0
 49
0.5
 74
     0
 49
-3.0
 74
     0
  0
LTYPE
  5
BF
330
5
100
AcDbSymbolTableRecord
100
AcDbLinetypeTableRecord
  2
ACAD_ISO05W100
 70
     0
  3
ISO long-dash double-dot ____ .. ____ .. ____ .
 72
    65
 73
     8
 40
37.5
 49
24.0
 74
     0
 49
-3.0
 74
     0
 49
0.5
 74
     0
 49
-3.0
 74
     0
 49
0.5
 74
     0
 49
-3.0
 74
     0
 49
0.5
 74
     0
 49
-3.0
 74
     0
  0
LTYPE
  5
C0
330
5
100
AcDbSymbolTableRecord
100
AcDbLinetypeTableRecord
  2
ACAD_ISO06W100
 70
     0
  3
ISO long-dash triple-dot ____ ... ____ ... ____
 72
    65
 73
     8
 40
37.5
 49
24.0
 74
     0
 49
-3.0
 74
     0
 49
0.5
 74
     0
 49
-3.0
 74
     0
 49
0.5
 74
     0
 49
-3.0
 74
     0
 49
0.5
 74
     0
 49
-3.0
 74
     0
  0
LTYPE
  5
C1
330
5
100
AcDbSymbolTableRecord
100
AcDbLinetypeTableRecord
  2
ACAD_ISO07W100
 70
     0
  3
ISO dot . . . . . . . . . . . . . . . . . . . .
 72
    65
 73
     2
 40
3.5
 49
0.5
 74
     0
 49
-3.0
 74
     0
  0
LTYPE
  5
C2
330
5
100
AcDbSymbolTableRecord
100
AcDbLinetypeTableRecord
  2
ACAD_ISO08W100
 70
     0
  3
ISO long-dash short-dash ____ __ ____ __ ____ _
 72
    65
 73
     4
 40
36.0
 49
24.0
 74
     0
 49
-3.0
 74
     0
 49
6.0
 74
     0
 49
-3.0
 74
     0
  0
LTYPE
  5
C3
330
5
100
AcDbSymbolTableRecord
100
AcDbLinetypeTableRecord
  2
ACAD_ISO09W100
 70
     0
  3
ISO long-dash double-short-dash ____ __ __ ____
 72
    65
 73
     6
 40
45.0
 49
24.0
 74
     0
 49
-3.0
 74
     0
 49
6.0
 74
     0
 49
-3.0
 74
     0
 49
6.0
 74
     0
 49
-3.0
 74
     0
  0
LTYPE
  5
C4
330
5
100
AcDbSymbolTableRecord
100
AcDbLinetypeTableRecord
  2
ACAD_ISO10W100
 70
     0
  3
ISO dash dot __ . __ . __ . __ . __ . __ . __ .
 72
    65
 73
     4
 40
18.5
 49
12.0
 74
     0
 49
-3.0
 74
     0
 49
0.5
 74
     0
 49
-3.0
 74
     0
  0
LTYPE
  5
C5
330
5
100
AcDbSymbolTableRecord
100
AcDbLinetypeTableRecord
  2
ACAD_ISO11W100
 70
     0
  3
ISO double-dash dot __ __ . __ __ . __ __ . __ 
 72
    65
 73
     6
 40
33.5
 49
12.0
 74
     0
 49
-3.0
 74
     0
 49
12.0
 74
     0
 49
-3.0
 74
     0
 49
0.5
 74
     0
 49
-3.0
 74
     0
  0
LTYPE
  5
C6
330
5
100
AcDbSymbolTableRecord
100
AcDbLinetypeTableRecord
  2
ACAD_ISO12W100
 70
     0
  3
ISO dash double-dot __ . . __ . . __ . . __ . .
 72
    65
 73
     6
 40
22.0
 49
12.0
 74
     0
 49
-3.0
 74
     0
 49
0.5
 74
     0
 49
-3.0
 74
     0
 49
0.5
 74
     0
 49
-3.0
 74
     0
  0
LTYPE
  5
C7
330
5
100
AcDbSymbolTableRecord
100
AcDbLinetypeTableRecord
  2
ACAD_ISO13W100
 70
     0
  3
ISO double-dash double-dot __ __ . . __ __ . . 
 72
    65
 73
     8
 40
37.0
 49
12.0
 74
     0
 49
-3.0
 74
     0
 49
12.0
 74
     0
 49
-3.0
 74
     0
 49
0.5
 74
     0
 49
-3.0
 74
     0
 49
0.5
 74
     0
 49
-3.0
 74
     0
  0
LTYPE
  5
C8
330
5
100
AcDbSymbolTableRecord
100
AcDbLinetypeTableRecord
  2
ACAD_ISO14W100
 70
     0
  3
ISO dash triple-dot __ . . . __ . . . __ . . . 
 72
    65
 73
     8
 40
25.5
 49
12.0
 74
     0
 49
-3.0
 74
     0
 49
0.5
 74
     0
 49
-3.0
 74
     0
 49
0.5
 74
     0
 49
-3.0
 74
     0
 49
0.5
 74
     0
 49
-3.0
 74
     0
  0
LTYPE
  5
C9
330
5
100
AcDbSymbolTableRecord
100
AcDbLinetypeTableRecord
  2
ACAD_ISO15W100
 70
     0
  3
ISO double-dash triple-dot __ __ . . . __ __ . 
 72
    65
 73
    10
 40
40.49999999999999
 49
12.0
 74
     0
 49
-3.0
 74
     0
 49
12.0
 74
     0
 49
-3.0
 74
     0
 49
0.5
 74
     0
 49
-3.0
 74
     0
 49
0.5
 74
     0
 49
-3.0
 74
     0
 49
0.5
 74
     0
 49
-3.0
 74
     0
  0
LTYPE
  5
CA
330
5
100
AcDbSymbolTableRecord
100
AcDbLinetypeTableRecord
  2
BATTING
 70
     0
  3
Batting SSSSSSSSSSSSSSSSSSSSSSSSSSSSSSSSSSSSSSS
 72
    65
 73
     4
 40
10.16253999999999
 49
0.00254
 74
     0
 49
-2.54
 74
     4
 75
   134
340
BB
 46
2.54
 50
0.0
 44
-2.54
 45
0.0
 49
-5.08
 74
     4
 75
   134
340
BB
 46
2.54
 50
180.0
 44
2.54
 45
0.0
 49
-2.54
 74
     0
  0
LTYPE
  5
CB
330
5
100
AcDbSymbolTableRecord
100
AcDbLinetypeTableRecord
  2
BORDER
 70
     0
  3
Border __ __ . __ __ . __ __ . __ __ . __ __ .
 72
    65
 73
     6
 40
44.45
 49
12.7
 74
     0
 49
-6.349999999999999
 74
     0
 49
12.7
 74
     0
 49
-6.349999999999999
 74
     0
 49
0.0
 74
     0
 49
-6.349999999999999
 74
     0
  0
LTYPE
  5
CC
330
5
100
AcDbSymbolTableRecord
100
AcDbLinetypeTableRecord
  2
BORDER2
 70
     0
  3
Border (.5x) __.__.__.__.__.__.__.__.__.__.__.
 72
    65
 73
     6
 40
22.225
 49
6.349999999999999
 74
     0
 49
-3.174999999999999
 74
     0
 49
6.349999999999999
 74
     0
 49
-3.174999999999999
 74
     0
 49
0.0
 74
     0
 49
-3.174999999999999
 74
     0
  0
LTYPE
  5
CD
330
5
100
AcDbSymbolTableRecord
100
AcDbLinetypeTableRecord
  2
BORDERX2
 70
     0
  3
Border (2x) ____  ____  .  ____  ____  .  ___
 72
    65
 73
     6
 40
88.9
 49
25.4
 74
     0
 49
-12.7
 74
     0
 49
25.4
 74
     0
 49
-12.7
 74
     0
 49
0.0
 74
     0
 49
-12.7
 74
     0
  0
LTYPE
  5
CE
330
5
100
AcDbSymbolTableRecord
100
AcDbLinetypeTableRecord
  2
CENTER
 70
     0
  3
Center ____ _ ____ _ ____ _ ____ _ ____ _ ____
 72
    65
 73
     4
 40
50.8
 49
31.75
 74
     0
 49
-6.349999999999999
 74
     0
 49
6.349999999999999
 74
     0
 49
-6.349999999999999
 74
     0
  0
LTYPE
  5
CF
330
5
100
AcDbSymbolTableRecord
100
AcDbLinetypeTableRecord
  2
CENTER2
 70
     0
  3
Center (.5x) ___ _ ___ _ ___ _ ___ _ ___ _ ___
 72
    65
 73
     4
 40
28.57499999999999
 49
19.05
 74
     0
 49
-3.174999999999999
 74
     0
 49
3.174999999999999
 74
     0
 49
-3.174999999999999
 74
     0
  0
LTYPE
  5
D0
330
5
100
AcDbSymbolTableRecord
100
AcDbLinetypeTableRecord
  2
CENTERX2
 70
     0
  3
Center (2x) ________  __  ________  __  _____
 72
    65
 73
     4
 40
101.6
 49
63.5
 74
     0
 49
-12.7
 74
     0
 49
12.7
 74
     0
 49
-12.7
 74
     0
  0
LTYPE
  5
D1
330
5
100
AcDbSymbolTableRecord
100
AcDbLinetypeTableRecord
  2
DASHDOT
 70
     0
  3
Dash dot __ . __ . __ . __ . __ . __ . __ . __
 72
    65
 73
     4
 40
25.4
 49
12.7
 74
     0
 49
-6.349999999999999
 74
     0
 49
0.0
 74
     0
 49
-6.349999999999999
 74
     0
  0
LTYPE
  5
D2
330
5
100
AcDbSymbolTableRecord
100
AcDbLinetypeTableRecord
  2
DASHDOT2
 70
     0
  3
Dash dot (.5x) _._._._._._._._._._._._._._._.
 72
    65
 73
     4
 40
12.7
 49
6.349999999999999
 74
     0
 49
-3.174999999999999
 74
     0
 49
0.0
 74
     0
 49
-3.174999999999999
 74
     0
  0
LTYPE
  5
D3
330
5
100
AcDbSymbolTableRecord
100
AcDbLinetypeTableRecord
  2
DASHDOTX2
 70
     0
  3
Dash dot (2x) ____  .  ____  .  ____  .  ___
 72
    65
 73
     4
 40
50.8
 49
25.4
 74
     0
 49
-12.7
 74
     0
 49
0.0
 74
     0
 49
-12.7
 74
     0
  0
LTYPE
  5
D4
330
5
100
AcDbSymbolTableRecord
100
AcDbLinetypeTableRecord
  2
DASHED
 70
     0
  3
Dashed __ __ __ __ __ __ __ __ __ __ __ __ __ _
 72
    65
 73
     2
 40
19.04999999999999
 49
12.7
 74
     0
 49
-6.349999999999999
 74
     0
  0
LTYPE
  5
D5
330
5
100
AcDbSymbolTableRecord
100
AcDbLinetypeTableRecord
  2
DASHED2
 70
     0
  3
Dashed (.5x) _ _ _ _ _ _ _ _ _ _ _ _ _ _ _ _ _
 72
    65
 73
     2
 40
9.524999999999998
 49
6.349999999999999
 74
     0
 49
-3.174999999999999
 74
     0
  0
LTYPE
  5
D6
330
5
100
AcDbSymbolTableRecord
100
AcDbLinetypeTableRecord
  2
DASHEDX2
 70
     0
  3
Dashed (2x) ____  ____  ____  ____  ____  ___
 72
    65
 73
     2
 40
38.09999999999999
 49
25.4
 74
     0
 49
-12.7
 74
     0
  0
LTYPE
  5
D7
330
5
100
AcDbSymbolTableRecord
100
AcDbLinetypeTableRecord
  2
DIVIDE
 70
     0
  3
Divide ____ . . ____ . . ____ . . ____ . . ____
 72
    65
 73
     6
 40
31.74999999999999
 49
12.7
 74
     0
 49
-6.349999999999999
 74
     0
 49
0.0
 74
     0
 49
-6.349999999999999
 74
     0
 49
0.0
 74
     0
 49
-6.349999999999999
 74
     0
  0
LTYPE
  5
D8
330
5
100
AcDbSymbolTableRecord
100
AcDbLinetypeTableRecord
  2
DIVIDE2
 70
     0
  3
Divide (.5x) __..__..__..__..__..__..__..__.._
 72
    65
 73
     6
 40
15.87499999999999
 49
6.349999999999999
 74
     0
 49
-3.174999999999999
 74
     0
 49
0.0
 74
     0
 49
-3.174999999999999
 74
     0
 49
0.0
 74
     0
 49
-3.174999999999999
 74
     0
  0
LTYPE
  5
D9
330
5
100
AcDbSymbolTableRecord
100
AcDbLinetypeTableRecord
  2
DIVIDEX2
 70
     0
  3
Divide (2x) ________  .  .  ________  .  .  _
 72
    65
 73
     6
 40
63.49999999999999
 49
25.4
 74
     0
 49
-12.7
 74
     0
 49
0.0
 74
     0
 49
-12.7
 74
     0
 49
0.0
 74
     0
 49
-12.7
 74
     0
  0
LTYPE
  5
DA
330
5
100
AcDbSymbolTableRecord
100
AcDbLinetypeTableRecord
  2
DOT
 70
     0
  3
Dot . . . . . . . . . . . . . . . . . . . . . .
 72
    65
 73
     2
 40
6.349999999999999
 49
0.0
 74
     0
 49
-6.349999999999999
 74
     0
  0
LTYPE
  5
DB
330
5
100
AcDbSymbolTableRecord
100
AcDbLinetypeTableRecord
  2
DOT2
 70
     0
  3
Dot (.5x) .....................................
 72
    65
 73
     2
 40
3.174999999999999
 49
0.0
 74
     0
 49
-3.174999999999999
 74
     0
  0
LTYPE
  5
DC
330
5
100
AcDbSymbolTableRecord
100
AcDbLinetypeTableRecord
  2
DOTX2
 70
     0
  3
Dot (2x) .  .  .  .  .  .  .  .  .  .  .  .  . 
 72
    65
 73
     2
 40
12.7
 49
0.0
 74
     0
 49
-12.7
 74
     0
  0
LTYPE
  5
DD
330
5
100
AcDbSymbolTableRecord
100
AcDbLinetypeTableRecord
  2
FENCELINE1
 70
     0
  3
Fenceline circle ----0-----0----0-----0----0---
 72
    65
 73
     4
 40
36.82999999999999
 49
6.349999999999999
 74
     0
 49
-2.54
 74
     4
 75
   133
340
BB
 46
2.54
 50
0.0
 44
-2.54
 45
0.0
 49
-2.54
 74
     0
 49
25.4
 74
     0
  0
LTYPE
  5
DE
330
5
100
AcDbSymbolTableRecord
100
AcDbLinetypeTableRecord
  2
FENCELINE2
 70
     0
  3
Fenceline square ----[]-----[]----[]-----[]----
 72
    65
 73
     4
 40
36.82999999999999
 49
6.349999999999999
 74
     0
 49
-2.54
 74
     4
 75
   132
340
BB
 46
2.54
 50
0.0
 44
-2.54
 45
0.0
 49
-2.54
 74
     0
 49
25.4
 74
     0
  0
LTYPE
  5
DF
330
5
100
AcDbSymbolTableRecord
100
AcDbLinetypeTableRecord
  2
GAS_LINE
 70
     0
  3
Gas line ----GAS----GAS----GAS----GAS----GAS---
 72
    65
 73
     3
 40
24.13
 49
12.7
 74
     0
 49
-5.08
 74
     2
 75
     0
340
F
 46
2.54
 50
0.0
 44
-2.54
 45
-1.27
  9
GAS
 49
-6.349999999999999
 74
     0
  0
LTYPE
  5
E0
330
5
100
AcDbSymbolTableRecord
100
AcDbLinetypeTableRecord
  2
HIDDEN
 70
     0
  3
Hidden __ __ __ __ __ __ __ __ __ __ __ __ __ _
 72
    65
 73
     2
 40
9.524999999999998
 49
6.349999999999999
 74
     0
 49
-3.174999999999999
 74
     0
  0
LTYPE
  5
E1
330
5
100
AcDbSymbolTableRecord
100
AcDbLinetypeTableRecord
  2
HIDDEN2
 70
     0
  3
Hidden (.5x) _ _ _ _ _ _ _ _ _ _ _ _ _ _ _ _ _
 72
    65
 73
     2
 40
4.762499999999999
 49
3.174999999999999
 74
     0
 49
-1.587499999999999
 74
     0
  0
LTYPE
  5
E2
330
5
100
AcDbSymbolTableRecord
100
AcDbLinetypeTableRecord
  2
HIDDENX2
 70
     0
  3
Hidden (2x) ____ ____ ____ ____ ____ ____ ____
 72
    65
 73
     2
 40
19.04999999999999
 49
12.7
 74
     0
 49
-6.349999999999999
 74
     0
  0
LTYPE
  5
E3
330
5
100
AcDbSymbolTableRecord
100
AcDbLinetypeTableRecord
  2
HOT_WATER_SUPPLY
 70
     0
  3
Hot water supply ---- HW ---- HW ---- HW ----
 72
    65
 73
     3
 40
22.86
 49
12.7
 74
     0
 49
-5.08
 74
     2
 75
     0
340
F
 46
2.54
 50
0.0
 44
-2.54
 45
-1.27
  9
HW
 49
-5.08
 74
     0
  0
LTYPE
  5
E4
330
5
100
AcDbSymbolTableRecord
100
AcDbLinetypeTableRecord
  2
PHANTOM
 70
     0
  3
Phantom ______  __  __  ______  __  __  ______
 72
    65
 73
     6
 40
63.5
 49
31.75
 74
     0
 49
-6.349999999999999
 74
     0
 49
6.349999999999999
 74
     0
 49
-6.349999999999999
 74
     0
 49
6.349999999999999
 74
     0
 49
-6.349999999999999
 74
     0
  0
LTYPE
  5
E5
330
5
100
AcDbSymbolTableRecord
100
AcDbLinetypeTableRecord
  2
PHANTOM2
 70
     0
  3
Phantom (.5x) ___ _ _ ___ _ _ ___ _ _ ___ _ _
 72
    65
 73
     6
 40
31.75
 49
15.875
 74
     0
 49
-3.174999999999999
 74
     0
 49
3.174999999999999
 74
     0
 49
-3.174999999999999
 74
     0
 49
3.174999999999999
 74
     0
 49
-3.174999999999999
 74
     0
  0
LTYPE
  5
E6
330
5
100
AcDbSymbolTableRecord
100
AcDbLinetypeTableRecord
  2
PHANTOMX2
 70
     0
  3
Phantom (2x) ____________    ____    ____   _
 72
    65
 73
     6
 40
127.0
 49
63.5
 74
     0
 49
-12.7
 74
     0
 49
12.7
 74
     0
 49
-12.7
 74
     0
 49
12.7
 74
     0
 49
-12.7
 74
     0
  0
LTYPE
  5
E7
330
5
100
AcDbSymbolTableRecord
100
AcDbLinetypeTableRecord
  2
TRACKS
 70
     0
  3
Tracks -|-|-|-|-|-|-|-|-|-|-|-|-|-|-|-|-|-|-|-|
 72
    65
 73
     2
 40
7.62
 49
3.81
 74
     4
 75
   130
340
BB
 46
6.349999999999999
 50
0.0
 44
0.0
 45
0.0
 49
3.81
 74
     0
  0
LTYPE
  5
E8
330
5
100
AcDbSymbolTableRecord
100
AcDbLinetypeTableRecord
  2
ZIGZAG
 70
     0
  3
Zig zag /\/\/\/\/\/\/\/\/\/\/\/\/\/\/\/\/\/\/\/
 72
    65
 73
     4
 40
20.32254
 49
0.00254
 74
     0
 49
-5.08
 74
     4
 75
   131
340
BB
 46
5.08
 50
0.0
 44
-5.08
 45
0.0
 49
-10.16
 74
     4
 75
   131
340
BB
 46
5.08
 50
180.0
 44
5.08
 45
0.0
 49
-5.08
 74
     0
  0
ENDTAB
  0
TABLE
  2
LAYER
  5
2
330
0
100
AcDbSymbolTable
 70
     9
  0
LAYER
  5
E
330
2
100
AcDbSymbolTableRecord
100
AcDbLayerTableRecord
  2
0
 70
     0
 62
     7
  6
CONTINUOUS
370
    -3
390
12B3
  0
LAYER
  5
20
330
2
100
AcDbSymbolTableRecord
100
AcDbLayerTableRecord
  2
DEFPOINTS
 70
     0
 62
     7
  6
CONTINUOUS
290
     0
370
    -3
390
12B3
  0
LAYER
  5
21
330
2
100
AcDbSymbolTableRecord
100
AcDbLayerTableRecord
  2
OBJECT
 70
     0
 62
     7
  6
CONTINUOUS
370
    -3
390
12B3
  0
LAYER
  5
E9
330
2
100
AcDbSymbolTableRecord
100
AcDbLayerTableRecord
  2
基準線
 70
     0
 62
     1
  6
CONTINUOUS
370
    -3
390
12B3
  0
LAYER
  5
EA
330
2
100
AcDbSymbolTableRecord
100
AcDbLayerTableRecord
  2
上線
 70
     0
 62
     7
  6
CONTINUOUS
370
    -3
390
12B3
  0
LAYER
  5
EB
330
2
100
AcDbSymbolTableRecord
100
AcDbLayerTableRecord
  2
点線
 70
     0
 62
     5
  6
HIDDEN
370
    -3
390
12B3
  0
LAYER
  5
EC
330
2
100
AcDbSymbolTableRecord
100
AcDbLayerTableRecord
  2
中心線
 70
     0
 62
     6
  6
CENTER
370
    -3
390
12B3
  0
LAYER
  5
1748
330
2
100
AcDbSymbolTableRecord
100
AcDbLayerTableRecord
  2
上書線
 70
     0
 62
     7
  6
CONTINUOUS
370
    -3
390
12B3
  0
LAYER
  5
1749
330
2
100
AcDbSymbolTableRecord
100
AcDbLayerTableRecord
  2
WUWAGAKI
 70
     0
 62
     7
  6
CONTINUOUS
370
    -3
390
12B3
  0
ENDTAB
  0
TABLE
  2
STYLE
  5
3
330
0
100
AcDbSymbolTable
 70
     3
  0
STYLE
  5
F
330
3
100
AcDbSymbolTableRecord
100
AcDbTextStyleTableRecord
  2
STANDARD
 70
     0
 40
0.0
 41
1.0
 50
0.0
 71
     0
 42
2.5
  3
MS PMincho.ttf
  4

1001
ACAD
1000
MS PMincho
1071
    32786
  0
STYLE
  5
22
330
3
100
AcDbSymbolTableRecord
100
AcDbTextStyleTableRecord
  2
ADESK1
 70
     0
 40
0.0
 41
1.0
 50
0.0
 71
     0
 42
5.0
  3
romans
  4
bigfont
  0
STYLE
  5
BB
330
3
100
AcDbSymbolTableRecord
100
AcDbTextStyleTableRecord
  2

 70
     1
 40
0.0
 41
1.0
 50
0.0
 71
     0
 42
2.5
  3
ltypeshp.shx
  4

  0
ENDTAB
  0
TABLE
  2
VIEW
  5
6
330
0
100
AcDbSymbolTable
 70
     0
  0
ENDTAB
  0
TABLE
  2
UCS
  5
7
330
0
100
AcDbSymbolTable
 70
     0
  0
ENDTAB
  0
TABLE
  2
APPID
  5
9
330
0
100
AcDbSymbolTable
 70
     1
  0
APPID
  5
10
330
9
100
AcDbSymbolTableRecord
100
AcDbRegAppTableRecord
  2
ACAD
 70
     0
  0
ENDTAB
  0
TABLE
  2
DIMSTYLE
  5
A
330
0
100
AcDbSymbolTable
 70
     2
100
AcDbDimStyleTable
 71
     0
  0
DIMSTYLE
105
1D
102
{ACAD_REACTORS
330
11FE
330
11FF
330
1200
330
1201
330
1204
330
1205
330
120A
330
120B
330
1211
330
122D
330
1255
330
125A
330
1271
102
}
330
A
100
AcDbSymbolTableRecord
100
AcDbDimStyleTableRecord
  2
STANDARD
 70
     0
340
F
  0
DIMSTYLE
105
23
330
A
100
AcDbSymbolTableRecord
100
AcDbDimStyleTableRecord
  2
JIS
 70
     0
 41
2.5
 42
1.0
 43
7.0
 44
1.0
 73
     0
 74
     0
 77
     1
 78
     8
140
2.5
141
0.0
143
0.0394
147
0.0
172
     1
174
     1
175
     1
340
F
  0
ENDTAB
  0
TABLE
  2
BLOCK_RECORD
  5
1
330
0
100
AcDbSymbolTable
 70
    15
  0
BLOCK_RECORD
  5
18
330
1
100
AcDbSymbolTableRecord
100
AcDbBlockTableRecord
  2
*MODEL_SPACE
340
12B6
  0
BLOCK_RECORD
  5
15
330
1
100
AcDbSymbolTableRecord
100
AcDbBlockTableRecord
  2
*PAPER_SPACE
340
12B7
  0
BLOCK_RECORD
  5
24
330
1
100
AcDbSymbolTableRecord
100
AcDbBlockTableRecord
  2
JIS_A3
340
0
  0
BLOCK_RECORD
  5
1159
330
1
100
AcDbSymbolTableRecord
100
AcDbBlockTableRecord
  2
*D1
340
0
  0
BLOCK_RECORD
  5
1165
330
1
100
AcDbSymbolTableRecord
100
AcDbBlockTableRecord
  2
*D2
340
0
  0
BLOCK_RECORD
  5
1171
330
1
100
AcDbSymbolTableRecord
100
AcDbBlockTableRecord
  2
*D3
340
0
  0
BLOCK_RECORD
  5
117D
330
1
100
AcDbSymbolTableRecord
100
AcDbBlockTableRecord
  2
*D4
340
0
  0
BLOCK_RECORD
  5
1189
330
1
100
AcDbSymbolTableRecord
100
AcDbBlockTableRecord
  2
*D5
340
0
  0
BLOCK_RECORD
  5
1195
330
1
100
AcDbSymbolTableRecord
100
AcDbBlockTableRecord
  2
*D6
340
0
  0
BLOCK_RECORD
  5
11A1
330
1
100
AcDbSymbolTableRecord
100
AcDbBlockTableRecord
  2
*D7
340
0
  0
BLOCK_RECORD
  5
11AD
330
1
100
AcDbSymbolTableRecord
100
AcDbBlockTableRecord
  2
*D8
340
0
  0
BLOCK_RECORD
  5
11BB
330
1
100
AcDbSymbolTableRecord
100
AcDbBlockTableRecord
  2
*D9
340
0
  0
BLOCK_RECORD
  5
11C7
330
1
100
AcDbSymbolTableRecord
100
AcDbBlockTableRecord
  2
*D10
340
0
  0
BLOCK_RECORD
  5
11D5
330
1
100
AcDbSymbolTableRecord
100
AcDbBlockTableRecord
  2
*D11
340
0
  0
BLOCK_RECORD
  5
11E3
330
1
100
AcDbSymbolTableRecord
100
AcDbBlockTableRecord
  2
*D12
340
0
  0
BLOCK_RECORD
  5
11EF
330
1
100
AcDbSymbolTableRecord
100
AcDbBlockTableRecord
  2
*D13
340
0
  0
BLOCK_RECORD
  5
11FD
330
1
100
AcDbSymbolTableRecord
100
AcDbBlockTableRecord
  2
A$C43796736
340
0
  0
ENDTAB
  0
ENDSEC
  0
SECTION
  2
BLOCKS
  0
BLOCK
  5
19
330
18
100
AcDbEntity
  8
0
100
AcDbBlockBegin
  2
*MODEL_SPACE
 70
     0
 10
0.0
 20
0.0
 30
0.0
  3
*MODEL_SPACE
  1

  0
ENDBLK
  5
1A
330
18
100
AcDbEntity
  8
0
100
AcDbBlockEnd
  0
BLOCK
  5
16
330
15
100
AcDbEntity
 67
     1
  8
0
100
AcDbBlockBegin
  2
*PAPER_SPACE
 70
     0
 10
0.0
 20
0.0
 30
0.0
  3
*PAPER_SPACE
  1

  0
ENDBLK
  5
17
330
15
100
AcDbEntity
 67
     1
  8
0
100
AcDbBlockEnd
  0
BLOCK
  5
B1
330
24
100
AcDbEntity
  8
0
100
AcDbBlockBegin
  2
JIS_A3
 70
     2
 10
0.0
 20
0.0
 30
0.0
  3
JIS_A3
  1

  0
LINE
  5
25
330
24
100
AcDbEntity
  8
0
100
AcDbLine
 10
0.0
 20
0.0
 30
0.0
 11
0.0
 21
10.0
 31
0.0
  0
LINE
  5
26
330
24
100
AcDbEntity
  8
0
100
AcDbLine
 10
0.0
 20
297.0
 30
0.0
 11
25.0
 21
297.0
 31
0.0
  0
LINE
  5
27
330
24
100
AcDbEntity
  8
0
100
AcDbLine
 10
420.0
 20
297.0
 30
0.0
 11
420.0
 21
287.0
 31
0.0
  0
LINE
  5
28
330
24
100
AcDbEntity
  8
0
100
AcDbLine
 10
420.0
 20
0.0
 30
0.0
 11
410.0
 21
0.0
 31
0.0
  0
LINE
  5
29
330
24
100
AcDbEntity
  8
0
100
AcDbLine
 10
25.0
 20
10.0
 30
0.0
 11
25.0
 21
287.0
 31
0.0
  0
LINE
  5
2A
330
24
100
AcDbEntity
  8
0
100
AcDbLine
 10
410.0
 20
10.0
 30
0.0
 11
25.0
 21
10.0
 31
0.0
  0
LINE
  5
2B
330
24
100
AcDbEntity
  8
0
100
AcDbLine
 10
410.0
 20
287.0
 30
0.0
 11
410.0
 21
10.0
 31
0.0
  0
LINE
  5
2C
330
24
100
AcDbEntity
  8
0
100
AcDbLine
 10
25.0
 20
287.0
 30
0.0
 11
410.0
 21
287.0
 31
0.0
  0
LINE
  5
2D
330
24
100
AcDbEntity
  8
0
100
AcDbLine
 10
0.0
 20
287.0
 30
0.0
 11
0.0
 21
297.0
 31
0.0
  0
LINE
  5
2E
330
24
100
AcDbEntity
  8
0
100
AcDbLine
 10
25.0
 20
0.0
 30
0.0
 11
0.0
 21
0.0
 31
0.0
  0
LINE
  5
2F
330
24
100
AcDbEntity
  8
0
100
AcDbLine
 10
420.0
 20
10.0
 30
0.0
 11
420.0
 21
0.0
 31
0.0
  0
LINE
  5
30
330
24
100
AcDbEntity
  8
0
100
AcDbLine
 10
410.0
 20
297.0
 30
0.0
 11
420.0
 21
297.0
 31
0.0
  0
ATTDEF
  5
31
330
24
100
AcDbEntity
  8
0
 62
     0
100
AcDbText
 10
19.0
 20
10.0
 30
0.0
 40
3.0
  1

 50
90.0
  7
ADESK1
100
AcDbAttributeDefinition
  3

  2
USER
 70
     8
  0
ATTDEF
  5
32
330
24
100
AcDbEntity
  8
0
 62
     0
100
AcDbText
 10
19.0
 20
70.0
 30
0.0
 40
3.0
  1

 50
90.0
  7
ADESK1
100
AcDbAttributeDefinition
  3

  2
REVDATE
 70
     8
  0
ATTDEF
  5
33
330
24
100
AcDbEntity
  8
0
 62
     0
100
AcDbText
 10
19.0
 20
118.0
 30
0.0
 40
3.0
  1

 50
90.0
  7
ADESK1
100
AcDbAttributeDefinition
  3

  2
FNAME
 70
     8
  0
LINE
  5
34
330
24
100
AcDbEntity
  8
OBJECT
100
AcDbLine
 10
130.0
 20
16.0
 30
0.0
 11
25.0
 21
16.0
 31
0.0
  0
LINE
  5
35
330
24
100
AcDbEntity
  8
OBJECT
100
AcDbLine
 10
130.0
 20
22.0
 30
0.0
 11
25.0
 21
22.0
 31
0.0
  0
LINE
  5
36
330
24
100
AcDbEntity
  8
OBJECT
100
AcDbLine
 10
130.0
 20
28.0
 30
0.0
 11
25.0
 21
28.0
 31
0.0
  0
LINE
  5
37
330
24
100
AcDbEntity
  8
OBJECT
100
AcDbLine
 10
130.0
 20
34.0
 30
0.0
 11
25.0
 21
34.0
 31
0.0
  0
LINE
  5
38
330
24
100
AcDbEntity
  8
OBJECT
100
AcDbLine
 10
130.0
 20
40.0
 30
0.0
 11
25.0
 21
40.0
 31
0.0
  0
LINE
  5
39
330
24
100
AcDbEntity
  8
OBJECT
100
AcDbLine
 10
28.0
 20
11.53589799999999
 30
0.0
 11
30.0
 21
15.0
 31
0.0
  0
LINE
  5
3A
330
24
100
AcDbEntity
  8
OBJECT
100
AcDbLine
 10
32.0
 20
11.53589799999999
 30
0.0
 11
30.0
 21
15.0
 31
0.0
  0
LINE
  5
3B
330
24
100
AcDbEntity
  8
OBJECT
100
AcDbLine
 10
35.0
 20
10.0
 30
0.0
 11
35.0
 21
40.0
 31
0.0
  0
LINE
  5
3C
330
24
100
AcDbEntity
  8
OBJECT
100
AcDbLine
 10
50.0
 20
10.0
 30
0.0
 11
50.0
 21
40.0
 31
0.0
  0
LINE
  5
3D
330
24
100
AcDbEntity
  8
OBJECT
100
AcDbLine
 10
80.0
 20
10.0
 30
0.0
 11
80.0
 21
40.0
 31
0.0
  0
LINE
  5
3E
330
24
100
AcDbEntity
  8
OBJECT
100
AcDbLine
 10
28.0
 20
11.53589799999999
 30
0.0
 11
32.0
 21
11.53589799999999
 31
0.0
  0
LINE
  5
3F
330
24
100
AcDbEntity
  8
OBJECT
100
AcDbLine
 10
39.5
 20
13.0
 30
0.0
 11
40.49999999999999
 21
13.0
 31
0.0
  0
LINE
  5
40
330
24
100
AcDbEntity
  8
OBJECT
100
AcDbLine
 10
44.5
 20
13.0
 30
0.0
 11
45.49999999999999
 21
13.0
 31
0.0
  0
LINE
  5
41
330
24
100
AcDbEntity
  8
OBJECT
100
AcDbLine
 10
32.0
 20
17.535898
 30
0.0
 11
30.0
 21
20.99999999999999
 31
0.0
  0
LINE
  5
42
330
24
100
AcDbEntity
  8
OBJECT
100
AcDbLine
 10
28.0
 20
17.535898
 30
0.0
 11
32.0
 21
17.535898
 31
0.0
  0
LINE
  5
43
330
24
100
AcDbEntity
  8
OBJECT
100
AcDbLine
 10
28.0
 20
17.535898
 30
0.0
 11
30.0
 21
20.99999999999999
 31
0.0
  0
LINE
  5
44
330
24
100
AcDbEntity
  8
OBJECT
100
AcDbLine
 10
32.0
 20
23.53589799999999
 30
0.0
 11
30.0
 21
26.99999999999999
 31
0.0
  0
LINE
  5
45
330
24
100
AcDbEntity
  8
OBJECT
100
AcDbLine
 10
28.0
 20
23.53589799999999
 30
0.0
 11
32.0
 21
23.53589799999999
 31
0.0
  0
LINE
  5
46
330
24
100
AcDbEntity
  8
OBJECT
100
AcDbLine
 10
28.0
 20
23.53589799999999
 30
0.0
 11
30.0
 21
26.99999999999999
 31
0.0
  0
LINE
  5
47
330
24
100
AcDbEntity
  8
OBJECT
100
AcDbLine
 10
28.0
 20
35.53589799999999
 30
0.0
 11
30.0
 21
39.0
 31
0.0
  0
LINE
  5
48
330
24
100
AcDbEntity
  8
OBJECT
100
AcDbLine
 10
32.0
 20
35.53589799999999
 30
0.0
 11
30.0
 21
39.0
 31
0.0
  0
LINE
  5
49
330
24
100
AcDbEntity
  8
OBJECT
100
AcDbLine
 10
28.0
 20
35.53589799999999
 30
0.0
 11
32.0
 21
35.53589799999999
 31
0.0
  0
LINE
  5
4A
330
24
100
AcDbEntity
  8
OBJECT
100
AcDbLine
 10
32.0
 20
29.535898
 30
0.0
 11
30.0
 21
33.0
 31
0.0
  0
LINE
  5
4B
330
24
100
AcDbEntity
  8
OBJECT
100
AcDbLine
 10
28.0
 20
29.535898
 30
0.0
 11
32.0
 21
29.535898
 31
0.0
  0
LINE
  5
4C
330
24
100
AcDbEntity
  8
OBJECT
100
AcDbLine
 10
28.0
 20
29.535898
 30
0.0
 11
30.0
 21
33.0
 31
0.0
  0
LINE
  5
4D
330
24
100
AcDbEntity
  8
OBJECT
100
AcDbLine
 10
39.5
 20
19.0
 30
0.0
 11
40.49999999999999
 21
19.0
 31
0.0
  0
LINE
  5
4E
330
24
100
AcDbEntity
  8
OBJECT
100
AcDbLine
 10
44.5
 20
19.0
 30
0.0
 11
45.49999999999999
 21
19.0
 31
0.0
  0
LINE
  5
4F
330
24
100
AcDbEntity
  8
OBJECT
100
AcDbLine
 10
39.5
 20
25.0
 30
0.0
 11
40.49999999999999
 21
25.0
 31
0.0
  0
LINE
  5
50
330
24
100
AcDbEntity
  8
OBJECT
100
AcDbLine
 10
44.5
 20
25.0
 30
0.0
 11
45.49999999999999
 21
25.0
 31
0.0
  0
LINE
  5
51
330
24
100
AcDbEntity
  8
OBJECT
100
AcDbLine
 10
39.5
 20
31.0
 30
0.0
 11
40.49999999999999
 21
31.0
 31
0.0
  0
LINE
  5
52
330
24
100
AcDbEntity
  8
OBJECT
100
AcDbLine
 10
39.5
 20
37.0
 30
0.0
 11
40.49999999999999
 21
37.0
 31
0.0
  0
LINE
  5
53
330
24
100
AcDbEntity
  8
OBJECT
100
AcDbLine
 10
44.5
 20
31.0
 30
0.0
 11
45.49999999999999
 21
31.0
 31
0.0
  0
LINE
  5
54
330
24
100
AcDbEntity
  8
OBJECT
100
AcDbLine
 10
44.5
 20
37.0
 30
0.0
 11
45.49999999999999
 21
37.0
 31
0.0
  0
LINE
  5
55
330
24
100
AcDbEntity
  8
OBJECT
100
AcDbLine
 10
120.0
 20
10.0
 30
0.0
 11
120.0
 21
40.0
 31
0.0
  0
LINE
  5
56
330
24
100
AcDbEntity
  8
OBJECT
100
AcDbLine
 10
130.0
 20
40.0
 30
0.0
 11
130.0
 21
10.0
 31
0.0
  0
LINE
  5
57
330
24
100
AcDbEntity
  8
0
100
AcDbLine
 10
217.5
 20
10.0
 30
0.0
 11
217.5
 21
0.0
 31
0.0
  0
LINE
  5
58
330
24
100
AcDbEntity
  8
0
100
AcDbLine
 10
217.5
 20
287.0
 30
0.0
 11
217.5
 21
297.0
 31
0.0
  0
LINE
  5
59
330
24
100
AcDbEntity
  8
0
100
AcDbLine
 10
410.0
 20
148.5
 30
0.0
 11
420.0
 21
148.5
 31
0.0
  0
LINE
  5
5A
330
24
100
AcDbEntity
  8
0
100
AcDbLine
 10
25.0
 20
148.5
 30
0.0
 11
0.0
 21
148.5
 31
0.0
  0
TEXT
  5
5B
330
24
100
AcDbEntity
  8
0
100
AcDbText
 10
1.0
 20
1.0
 30
0.0
 40
3.0
  1
この図枠はサンプルです。社内の規格やプロッタの出力範囲に合わせて適当に変更してご利用ください。
  7
ADESK1
100
AcDbText
  0
LINE
  5
5C
330
24
100
AcDbEntity
  8
0
100
AcDbLine
 10
25.0
 20
240.8333333333333
 30
0.0
 11
20.0
 21
240.8333333333333
 31
0.0
  0
LINE
  5
5D
330
24
100
AcDbEntity
  8
0
100
AcDbLine
 10
25.0
 20
194.6666666666666
 30
0.0
 11
20.0
 21
194.6666666666666
 31
0.0
  0
LINE
  5
5E
330
24
100
AcDbEntity
  8
0
100
AcDbLine
 10
25.0
 20
148.5
 30
0.0
 11
20.0
 21
148.5
 31
0.0
  0
LINE
  5
5F
330
24
100
AcDbEntity
  8
0
100
AcDbLine
 10
25.0
 20
102.3333333333333
 30
0.0
 11
20.0
 21
102.3333333333333
 31
0.0
  0
LINE
  5
60
330
24
100
AcDbEntity
  8
0
100
AcDbLine
 10
25.0
 20
56.16666666666667
 30
0.0
 11
20.0
 21
56.16666666666667
 31
0.0
  0
LINE
  5
61
330
24
100
AcDbEntity
  8
0
100
AcDbLine
 10
410.0
 20
56.16666666666668
 30
0.0
 11
415.0
 21
56.16666666666668
 31
0.0
  0
LINE
  5
62
330
24
100
AcDbEntity
  8
0
100
AcDbLine
 10
410.0
 20
102.3333333333333
 30
0.0
 11
415.0
 21
102.3333333333333
 31
0.0
  0
LINE
  5
63
330
24
100
AcDbEntity
  8
0
100
AcDbLine
 10
410.0
 20
148.5
 30
0.0
 11
415.0
 21
148.5
 31
0.0
  0
LINE
  5
64
330
24
100
AcDbEntity
  8
0
100
AcDbLine
 10
410.0
 20
194.6666666666667
 30
0.0
 11
415.0
 21
194.6666666666667
 31
0.0
  0
LINE
  5
65
330
24
100
AcDbEntity
  8
0
100
AcDbLine
 10
410.0
 20
240.8333333333333
 30
0.0
 11
415.0
 21
240.8333333333333
 31
0.0
  0
LINE
  5
66
330
24
100
AcDbEntity
  8
0
100
AcDbLine
 10
73.125
 20
10.0
 30
0.0
 11
73.125
 21
5.0
 31
0.0
  0
LINE
  5
67
330
24
100
AcDbEntity
  8
0
100
AcDbLine
 10
121.25
 20
10.0
 30
0.0
 11
121.25
 21
5.0
 31
0.0
  0
LINE
  5
68
330
24
100
AcDbEntity
  8
0
100
AcDbLine
 10
169.375
 20
10.0
 30
0.0
 11
169.375
 21
5.0
 31
0.0
  0
LINE
  5
69
330
24
100
AcDbEntity
  8
0
100
AcDbLine
 10
217.5
 20
10.0
 30
0.0
 11
217.5
 21
5.0
 31
0.0
  0
LINE
  5
6A
330
24
100
AcDbEntity
  8
0
100
AcDbLine
 10
265.625
 20
10.0
 30
0.0
 11
265.625
 21
5.0
 31
0.0
  0
LINE
  5
6B
330
24
100
AcDbEntity
  8
0
100
AcDbLine
 10
313.75
 20
10.0
 30
0.0
 11
313.75
 21
5.0
 31
0.0
  0
LINE
  5
6C
330
24
100
AcDbEntity
  8
0
100
AcDbLine
 10
361.8749999999999
 20
10.0
 30
0.0
 11
361.8749999999999
 21
5.0
 31
0.0
  0
LINE
  5
6D
330
24
100
AcDbEntity
  8
0
100
AcDbLine
 10
361.8749999999999
 20
287.0
 30
0.0
 11
361.8749999999999
 21
292.0
 31
0.0
  0
LINE
  5
6E
330
24
100
AcDbEntity
  8
0
100
AcDbLine
 10
313.75
 20
287.0
 30
0.0
 11
313.75
 21
292.0
 31
0.0
  0
LINE
  5
6F
330
24
100
AcDbEntity
  8
0
100
AcDbLine
 10
265.625
 20
287.0
 30
0.0
 11
265.625
 21
292.0
 31
0.0
  0
LINE
  5
70
330
24
100
AcDbEntity
  8
0
100
AcDbLine
 10
217.5
 20
287.0
 30
0.0
 11
217.5
 21
292.0
 31
0.0
  0
LINE
  5
71
330
24
100
AcDbEntity
  8
0
100
AcDbLine
 10
169.375
 20
287.0
 30
0.0
 11
169.375
 21
292.0
 31
0.0
  0
LINE
  5
72
330
24
100
AcDbEntity
  8
0
100
AcDbLine
 10
121.25
 20
287.0
 30
0.0
 11
121.25
 21
292.0
 31
0.0
  0
LINE
  5
73
330
24
100
AcDbEntity
  8
0
100
AcDbLine
 10
73.125
 20
287.0
 30
0.0
 11
73.125
 21
292.0
 31
0.0
  0
TEXT
  5
74
330
24
100
AcDbEntity
  8
0
100
AcDbText
 10
47.84821428571429
 20
288.0
 30
0.0
 40
3.0
  1
1
  7
ADESK1
 72
     1
 11
49.0625
 21
288.0
 31
0.0
100
AcDbText
  0
TEXT
  5
75
330
24
100
AcDbEntity
  8
0
100
AcDbText
 10
21.32144707381961
 20
263.9166666666666
 30
0.0
 40
3.0
  1
A
  7
ADESK1
 72
     1
 11
22.60716135953389
 21
263.9166666666666
 31
0.0
100
AcDbText
  0
TEXT
  5
76
330
24
100
AcDbEntity
  8
0
100
AcDbText
 10
95.75892857142857
 20
288.0
 30
0.0
 40
3.0
  1
2
  7
ADESK1
 72
     1
 11
97.1875
 21
288.0
 31
0.0
100
AcDbText
  0
TEXT
  5
77
330
24
100
AcDbEntity
  8
0
100
AcDbText
 10
143.8839285714285
 20
288.0
 30
0.0
 40
3.0
  1
3
  7
ADESK1
 72
     1
 11
145.3125
 21
288.0
 31
0.0
100
AcDbText
  0
TEXT
  5
78
330
24
100
AcDbEntity
  8
0
100
AcDbText
 10
191.9375
 20
288.0
 30
0.0
 40
3.0
  1
4
  7
ADESK1
 72
     1
 11
193.4375
 21
288.0
 31
0.0
100
AcDbText
  0
TEXT
  5
79
330
24
100
AcDbEntity
  8
0
100
AcDbText
 10
240.1339285714285
 20
288.0
 30
0.0
 40
3.0
  1
5
  7
ADESK1
 72
     1
 11
241.5624999999999
 21
288.0
 31
0.0
100
AcDbText
  0
TEXT
  5
7A
330
24
100
AcDbEntity
  8
0
100
AcDbText
 10
288.1874999999999
 20
288.0
 30
0.0
 40
3.0
  1
6
  7
ADESK1
 72
     1
 11
289.6875
 21
288.0
 31
0.0
100
AcDbText
  0
TEXT
  5
7B
330
24
100
AcDbEntity
  8
0
100
AcDbText
 10
336.3839285714285
 20
288.0
 30
0.0
 40
3.0
  1
7
  7
ADESK1
 72
     1
 11
337.8125
 21
288.0
 31
0.0
100
AcDbText
  0
TEXT
  5
7C
330
24
100
AcDbEntity
  8
0
100
AcDbText
 10
384.5089285714285
 20
288.0
 30
0.0
 40
3.0
  1
8
  7
ADESK1
 72
     1
 11
385.9375
 21
288.0
 31
0.0
100
AcDbText
  0
TEXT
  5
7D
330
24
100
AcDbEntity
  8
0
100
AcDbText
 10
21.03573278810532
 20
217.7499999999999
 30
0.0
 40
3.0
  1
B
  7
ADESK1
 72
     1
 11
22.60716135953389
 21
217.7499999999999
 31
0.0
100
AcDbText
  0
TEXT
  5
7E
330
24
100
AcDbEntity
  8
0
100
AcDbText
 10
21.10716135953389
 20
171.5833333333333
 30
0.0
 40
3.0
  1
C
  7
ADESK1
 72
     1
 11
22.60716135953389
 21
171.5833333333333
 31
0.0
100
AcDbText
  0
TEXT
  5
7F
330
24
100
AcDbEntity
  8
0
100
AcDbText
 10
21.03573278810532
 20
125.4166666666666
 30
0.0
 40
3.0
  1
D
  7
ADESK1
 72
     1
 11
22.60716135953389
 21
125.4166666666666
 31
0.0
100
AcDbText
  0
TEXT
  5
80
330
24
100
AcDbEntity
  8
0
100
AcDbText
 10
21.10716135953389
 20
79.25
 30
0.0
 40
3.0
  1
E
  7
ADESK1
 72
     1
 11
22.60716135953389
 21
79.25
 31
0.0
100
AcDbText
  0
TEXT
  5
81
330
24
100
AcDbEntity
  8
0
100
AcDbText
 10
21.10716135953389
 20
33.08333333333334
 30
0.0
 40
3.0
  1
F
  7
ADESK1
 72
     1
 11
22.60716135953389
 21
33.08333333333334
 31
0.0
100
AcDbText
  0
TEXT
  5
82
330
24
100
AcDbEntity
  8
0
100
AcDbText
 10
47.84821428571429
 20
6.019997240728748
 30
0.0
 40
3.0
  1
1
  7
ADESK1
 72
     1
 11
49.0625
 21
6.019997240728748
 31
0.0
100
AcDbText
  0
TEXT
  5
83
330
24
100
AcDbEntity
  8
0
100
AcDbText
 10
95.75892857142857
 20
6.019997240728748
 30
0.0
 40
3.0
  1
2
  7
ADESK1
 72
     1
 11
97.1875
 21
6.019997240728748
 31
0.0
100
AcDbText
  0
TEXT
  5
84
330
24
100
AcDbEntity
  8
0
100
AcDbText
 10
143.8839285714285
 20
6.019997240728748
 30
0.0
 40
3.0
  1
3
  7
ADESK1
 72
     1
 11
145.3125
 21
6.019997240728748
 31
0.0
100
AcDbText
  0
TEXT
  5
85
330
24
100
AcDbEntity
  8
0
100
AcDbText
 10
191.9375
 20
6.019997240728748
 30
0.0
 40
3.0
  1
4
  7
ADESK1
 72
     1
 11
193.4375
 21
6.019997240728748
 31
0.0
100
AcDbText
  0
TEXT
  5
86
330
24
100
AcDbEntity
  8
0
100
AcDbText
 10
240.1339285714285
 20
6.019997240728748
 30
0.0
 40
3.0
  1
5
  7
ADESK1
 72
     1
 11
241.5624999999999
 21
6.019997240728748
 31
0.0
100
AcDbText
  0
TEXT
  5
87
330
24
100
AcDbEntity
  8
0
100
AcDbText
 10
288.1874999999999
 20
6.019997240728748
 30
0.0
 40
3.0
  1
6
  7
ADESK1
 72
     1
 11
289.6875
 21
6.019997240728748
 31
0.0
100
AcDbText
  0
TEXT
  5
88
330
24
100
AcDbEntity
  8
0
100
AcDbText
 10
336.3839285714285
 20
6.019997240728748
 30
0.0
 40
3.0
  1
7
  7
ADESK1
 72
     1
 11
337.8125
 21
6.019997240728748
 31
0.0
100
AcDbText
  0
TEXT
  5
89
330
24
100
AcDbEntity
  8
0
100
AcDbText
 10
384.5089285714285
 20
6.019997240728748
 30
0.0
 40
3.0
  1
8
  7
ADESK1
 72
     1
 11
385.9375
 21
6.019997240728748
 31
0.0
100
AcDbText
  0
TEXT
  5
8A
330
24
100
AcDbEntity
  8
0
100
AcDbText
 10
411.5851108826324
 20
263.9166666666666
 30
0.0
 40
3.0
  1
A
  7
ADESK1
 72
     1
 11
412.8708251683468
 21
263.9166666666666
 31
0.0
100
AcDbText
  0
TEXT
  5
8B
330
24
100
AcDbEntity
  8
0
100
AcDbText
 10
411.2993965969182
 20
217.7499999999999
 30
0.0
 40
3.0
  1
B
  7
ADESK1
 72
     1
 11
412.8708251683468
 21
217.7499999999999
 31
0.0
100
AcDbText
  0
TEXT
  5
8C
330
24
100
AcDbEntity
  8
0
100
AcDbText
 10
411.3708251683467
 20
171.5833333333333
 30
0.0
 40
3.0
  1
C
  7
ADESK1
 72
     1
 11
412.8708251683468
 21
171.5833333333333
 31
0.0
100
AcDbText
  0
TEXT
  5
8D
330
24
100
AcDbEntity
  8
0
100
AcDbText
 10
411.2993965969182
 20
125.4166666666666
 30
0.0
 40
3.0
  1
D
  7
ADESK1
 72
     1
 11
412.8708251683468
 21
125.4166666666666
 31
0.0
100
AcDbText
  0
TEXT
  5
8E
330
24
100
AcDbEntity
  8
0
100
AcDbText
 10
411.3708251683467
 20
79.25
 30
0.0
 40
3.0
  1
E
  7
ADESK1
 72
     1
 11
412.8708251683468
 21
79.25
 31
0.0
100
AcDbText
  0
TEXT
  5
8F
330
24
100
AcDbEntity
  8
0
100
AcDbText
 10
411.3708251683467
 20
33.08333333333334
 30
0.0
 40
3.0
  1
F
  7
ADESK1
 72
     1
 11
412.8708251683468
 21
33.08333333333334
 31
0.0
100
AcDbText
  0
LINE
  5
90
330
24
100
AcDbEntity
  8
0
 62
     0
100
AcDbLine
 10
280.2978723404241
 20
49.00000000000036
 30
0.0
 11
410.0
 21
49.00000000000036
 31
0.0
  0
LINE
  5
91
330
24
100
AcDbEntity
  8
0
 62
     0
100
AcDbLine
 10
280.2978723404241
 20
13.00000000000004
 30
0.0
 11
410.0
 21
13.00000000000004
 31
0.0
  0
LINE
  5
92
330
24
100
AcDbEntity
  8
0
 62
     0
100
AcDbLine
 10
280.2978723404241
 20
37.00000000000024
 30
0.0
 11
410.0
 21
37.00000000000024
 31
0.0
  0
LINE
  5
93
330
24
100
AcDbEntity
  8
0
 62
     0
100
AcDbLine
 10
318.1276595744673
 20
22.00000000000012
 30
0.0
 11
410.0
 21
22.00000000000012
 31
0.0
  0
LINE
  5
94
330
24
100
AcDbEntity
  8
0
 62
     0
100
AcDbLine
 10
280.2978723404241
 20
10.0
 30
0.0
 11
410.0
 21
10.0
 31
0.0
  0
LINE
  5
95
330
24
100
AcDbEntity
  8
0
 62
     0
100
AcDbLine
 10
410.0
 20
49.00000000000036
 30
0.0
 11
280.2978723404241
 21
49.00000000000036
 31
0.0
  0
LINE
  5
96
330
24
100
AcDbEntity
  8
0
 62
     0
100
AcDbLine
 10
303.7163120567365
 20
37.00000000000024
 30
0.0
 11
303.7163120567365
 21
10.0
 31
0.0
  0
LINE
  5
97
330
24
100
AcDbEntity
  8
0
 62
     0
100
AcDbLine
 10
285.702127659573
 20
37.00000000000024
 30
0.0
 11
285.702127659573
 21
10.0
 31
0.0
  0
LINE
  5
98
330
24
100
AcDbEntity
  8
0
 62
     0
100
AcDbLine
 10
312.7234042553184
 20
37.00000000000024
 30
0.0
 11
312.7234042553184
 21
10.0
 31
0.0
  0
LINE
  5
99
330
24
100
AcDbEntity
  8
0
 62
     0
100
AcDbLine
 10
318.1276595744673
 20
25.00000000000012
 30
0.0
 11
318.1276595744673
 21
10.0
 31
0.0
  0
LINE
  5
9A
330
24
100
AcDbEntity
  8
0
 62
     0
100
AcDbLine
 10
280.2978723404241
 20
49.00000000000036
 30
0.0
 11
280.2978723404241
 21
10.0
 31
0.0
  0
LINE
  5
9B
330
24
100
AcDbEntity
  8
0
 62
     0
100
AcDbLine
 10
348.7517730496447
 20
49.00000000000036
 30
0.0
 11
348.7517730496447
 21
10.0
 31
0.0
  0
LINE
  5
9C
330
24
100
AcDbEntity
  8
0
 62
     0
100
AcDbLine
 10
328.7659574468077
 20
22.00000000000007
 30
0.0
 11
328.7659574468077
 21
10.0
 31
0.0
  0
LINE
  5
9D
330
24
100
AcDbEntity
  8
0
 62
     0
100
AcDbLine
 10
339.4042553191484
 20
22.00000000000007
 30
0.0
 11
339.4042553191484
 21
10.0
 31
0.0
  0
LINE
  5
9E
330
24
100
AcDbEntity
  8
0
 62
     0
100
AcDbLine
 10
280.2978723404241
 20
16.00000000000008
 30
0.0
 11
318.1276595744673
 21
16.00000000000008
 31
0.0
  0
LINE
  5
9F
330
24
100
AcDbEntity
  8
0
 62
     0
100
AcDbLine
 10
280.2978723404241
 20
10.0
 30
0.0
 11
280.2978723404241
 21
13.00000000000004
 31
0.0
  0
TEXT
  5
A0
330
24
100
AcDbEntity
  8
0
 62
     0
100
AcDbText
 10
321.7174935280942
 20
10.48329012996929
 30
0.0
 40
1.791674070777747
  1
製図
  7
ADESK1
 72
     1
 11
323.5688900678979
 21
10.48329012996929
 31
0.0
100
AcDbText
  0
TEXT
  5
A1
330
24
100
AcDbEntity
  8
0
 62
     0
100
AcDbText
 10
332.2960689314087
 20
10.48329012996929
 30
0.0
 40
1.791674070777747
  1
設計
  7
ADESK1
 72
     1
 11
334.2071879402383
 21
10.48329012996929
 31
0.0
100
AcDbText
  0
TEXT
  5
A2
330
24
100
AcDbEntity
  8
0
 62
     0
100
AcDbText
 10
342.2447163844405
 20
10.55220101068186
 30
0.0
 40
1.791674070777747
  1
照査
  7
ADESK1
 72
     1
 11
344.1558353932701
 21
10.55220101068186
 31
0.0
100
AcDbText
  0
LINE
  5
A3
330
24
100
AcDbEntity
  8
0
 62
     0
100
AcDbLine
 10
280.2978723404241
 20
25.00000000000012
 30
0.0
 11
318.1276595744673
 21
25.00000000000012
 31
0.0
  0
LINE
  5
A4
330
24
100
AcDbEntity
  8
0
 62
     0
100
AcDbLine
 10
280.2978723404241
 20
22.00000000000007
 30
0.0
 11
318.1276595744673
 21
22.00000000000012
 31
0.0
  0
LINE
  5
A5
330
24
100
AcDbEntity
  8
0
 62
     0
100
AcDbLine
 10
280.2978723404241
 20
19.00000000000007
 30
0.0
 11
318.1276595744673
 21
19.00000000000012
 31
0.0
  0
LINE
  5
A6
330
24
100
AcDbEntity
  8
0
 62
     0
100
AcDbLine
 10
280.2978723404241
 20
34.00000000000024
 30
0.0
 11
348.7517730496447
 21
34.00000000000024
 31
0.0
  0
LINE
  5
A7
330
24
100
AcDbEntity
  8
0
 62
     0
100
AcDbLine
 10
280.2978723404241
 20
31.0000000000002
 30
0.0
 11
348.7517730496447
 21
31.0000000000002
 31
0.0
  0
LINE
  5
A8
330
24
100
AcDbEntity
  8
0
 62
     0
100
AcDbLine
 10
280.2978723404241
 20
28.00000000000015
 30
0.0
 11
348.7517730496447
 21
28.00000000000015
 31
0.0
  0
LINE
  5
A9
330
24
100
AcDbEntity
  8
0
 62
     0
100
AcDbLine
 10
318.1276595744673
 20
25.00000000000012
 30
0.0
 11
348.7517730496447
 21
25.00000000000012
 31
0.0
  0
LINE
  5
AA
330
24
100
AcDbEntity
  8
0
 62
     0
100
AcDbLine
 10
318.1276595744673
 20
49.00000000000036
 30
0.0
 11
318.1276595744673
 21
25.00000000000012
 31
0.0
  0
LINE
  5
AB
330
24
100
AcDbEntity
  8
0
 62
     0
100
AcDbLine
 10
325.3333333333325
 20
37.00000000000024
 30
0.0
 11
325.3333333333325
 21
25.00000000000012
 31
0.0
  0
LINE
  5
AC
330
24
100
AcDbEntity
  8
0
 62
     0
100
AcDbLine
 10
336.1418439716306
 20
49.00000000000036
 30
0.0
 11
336.1418439716306
 21
22.00000000000012
 31
0.0
  0
LINE
  5
AD
330
24
100
AcDbEntity
  8
0
 62
     0
100
AcDbLine
 10
402.7943262411347
 20
22.00000000000012
 30
0.0
 11
402.7943262411347
 21
10.0
 31
0.0
  0
LINE
  5
AE
330
24
100
AcDbEntity
  8
0
 62
     0
100
AcDbLine
 10
410.0
 20
49.00000000000036
 30
0.0
 11
410.0
 21
10.0
 31
0.0
  0
LINE
  5
AF
330
24
100
AcDbEntity
  8
0
 62
     0
100
AcDbLine
 10
410.0
 20
10.0
 30
0.0
 11
410.0
 21
49.00000000000036
 31
0.0
  0
LINE
  5
B0
330
24
100
AcDbEntity
  8
0
 62
     0
100
AcDbLine
 10
402.7943262411347
 20
16.00000000000008
 30
0.0
 11
410.0
 21
16.00000000000008
 31
0.0
  0
ENDBLK
  5
B2
330
24
100
AcDbEntity
  8
0
100
AcDbBlockEnd
  0
BLOCK
  5
1163
330
1159
100
AcDbEntity
  8
0
100
AcDbBlockBegin
  2
*D1
 70
     1
 10
0.0
 20
0.0
 30
0.0
  3
*D1
  1

  0
LINE
  5
115A
330
1159
100
AcDbEntity
  8
0
  6
ByBlock
 62
     0
100
AcDbLine
 10
1102.013858477907
 20
2178.311500327179
 30
0.0
 11
1102.013858477907
 21
2457.686500327179
 31
0.0
  0
LINE
  5
115B
330
1159
100
AcDbEntity
  8
0
  6
ByBlock
 62
     0
100
AcDbLine
 10
532.0138584779069
 20
2178.311500327179
 30
0.0
 11
532.0138584779069
 21
2457.686500327179
 31
0.0
  0
LINE
  5
115C
330
1159
100
AcDbEntity
  8
0
  6
ByBlock
 62
     0
100
AcDbLine
 10
1064.513858477907
 20
2438.936500327179
 30
0.0
 11
569.5138584779069
 21
2438.936500327179
 31
0.0
  0
SOLID
  5
115D
330
1159
100
AcDbEntity
  8
0
  6
ByBlock
 62
     0
100
AcDbTrace
 10
1064.513858477907
 20
2445.186500327179
 30
0.0
 11
1064.513858477907
 21
2432.686500327179
 31
0.0
 12
1102.013858477907
 22
2438.936500327179
 32
0.0
 13
1102.013858477907
 23
2438.936500327179
 33
0.0
  0
SOLID
  5
115E
330
1159
100
AcDbEntity
  8
0
  6
ByBlock
 62
     0
100
AcDbTrace
 10
569.5138584779069
 20
2445.186500327179
 30
0.0
 11
569.5138584779069
 21
2432.686500327179
 31
0.0
 12
532.0138584779069
 22
2438.936500327179
 32
0.0
 13
532.0138584779069
 23
2438.936500327179
 33
0.0
  0
MTEXT
  5
115F
330
1159
100
AcDbEntity
  8
0
  6
ByBlock
 62
     0
100
AcDbMText
 10
817.0138584779069
 20
2467.061500327179
 30
0.0
 40
37.5
 41
0.0
 71
     5
 72
     1
  1
\A1;570
 73
     1
 44
1.0
  0
POINT
  5
1160
330
1159
100
AcDbEntity
  8
DEFPOINTS
  6
ByBlock
 62
     0
100
AcDbPoint
 10
1102.013858477907
 20
2168.936500327179
 30
0.0
  0
POINT
  5
1161
330
1159
100
AcDbEntity
  8
DEFPOINTS
  6
ByBlock
 62
     0
100
AcDbPoint
 10
532.0138584779069
 20
2168.936500327179
 30
0.0
  0
POINT
  5
1162
330
1159
100
AcDbEntity
  8
DEFPOINTS
  6
ByBlock
 62
     0
100
AcDbPoint
 10
532.0138584779069
 20
2438.936500327179
 30
0.0
  0
ENDBLK
  5
1164
330
1159
100
AcDbEntity
  8
0
100
AcDbBlockEnd
  0
BLOCK
  5
116F
330
1165
100
AcDbEntity
  8
0
100
AcDbBlockBegin
  2
*D2
 70
     1
 10
0.0
 20
0.0
 30
0.0
  3
*D2
  1

  0
LINE
  5
1166
330
1165
100
AcDbEntity
  8
0
  6
ByBlock
 62
     0
100
AcDbLine
 10
682.0138584779069
 20
2178.31150032718
 30
0.0
 11
682.0138584779069
 21
2337.686500327179
 31
0.0
  0
LINE
  5
1167
330
1165
100
AcDbEntity
  8
0
  6
ByBlock
 62
     0
100
AcDbLine
 10
982.0138584779069
 20
2178.311500327179
 30
0.0
 11
982.0138584779069
 21
2337.686500327179
 31
0.0
  0
LINE
  5
1168
330
1165
100
AcDbEntity
  8
0
  6
ByBlock
 62
     0
100
AcDbLine
 10
719.5138584779069
 20
2318.936500327179
 30
0.0
 11
944.5138584779069
 21
2318.936500327179
 31
0.0
  0
SOLID
  5
1169
330
1165
100
AcDbEntity
  8
0
  6
ByBlock
 62
     0
100
AcDbTrace
 10
719.5138584779069
 20
2325.186500327179
 30
0.0
 11
719.5138584779069
 21
2312.686500327179
 31
0.0
 12
682.0138584779069
 22
2318.936500327179
 32
0.0
 13
682.0138584779069
 23
2318.936500327179
 33
0.0
  0
SOLID
  5
116A
330
1165
100
AcDbEntity
  8
0
  6
ByBlock
 62
     0
100
AcDbTrace
 10
944.5138584779069
 20
2325.186500327179
 30
0.0
 11
944.5138584779069
 21
2312.686500327179
 31
0.0
 12
982.0138584779069
 22
2318.936500327179
 32
0.0
 13
982.0138584779069
 23
2318.936500327179
 33
0.0
  0
MTEXT
  5
116B
330
1165
100
AcDbEntity
  8
0
  6
ByBlock
 62
     0
100
AcDbMText
 10
832.0138584779069
 20
2347.061500327179
 30
0.0
 40
37.5
 41
0.0
 71
     5
 72
     1
  1
\A1;300
 73
     1
 44
1.0
  0
POINT
  5
116C
330
1165
100
AcDbEntity
  8
DEFPOINTS
  6
ByBlock
 62
     0
100
AcDbPoint
 10
682.0138584779069
 20
2168.93650032718
 30
0.0
  0
POINT
  5
116D
330
1165
100
AcDbEntity
  8
DEFPOINTS
  6
ByBlock
 62
     0
100
AcDbPoint
 10
982.0138584779069
 20
2168.936500327179
 30
0.0
  0
POINT
  5
116E
330
1165
100
AcDbEntity
  8
DEFPOINTS
  6
ByBlock
 62
     0
100
AcDbPoint
 10
982.0138584779069
 20
2318.936500327179
 30
0.0
  0
ENDBLK
  5
1170
330
1165
100
AcDbEntity
  8
0
100
AcDbBlockEnd
  0
BLOCK
  5
117B
330
1171
100
AcDbEntity
  8
0
100
AcDbBlockBegin
  2
*D3
 70
     1
 10
0.0
 20
0.0
 30
0.0
  3
*D3
  1

  0
LINE
  5
1172
330
1171
100
AcDbEntity
  8
0
  6
ByBlock
 62
     0
100
AcDbLine
 10
502.6388584779069
 20
2148.936500327179
 30
0.0
 11
223.263858477907
 21
2148.936500327179
 31
0.0
  0
LINE
  5
1173
330
1171
100
AcDbEntity
  8
0
  6
ByBlock
 62
     0
100
AcDbLine
 10
502.6388584779069
 20
1648.936500327179
 30
0.0
 11
223.2638584779069
 21
1648.936500327179
 31
0.0
  0
LINE
  5
1174
330
1171
100
AcDbEntity
  8
0
  6
ByBlock
 62
     0
100
AcDbLine
 10
242.013858477907
 20
2111.436500327179
 30
0.0
 11
242.0138584779069
 21
1686.436500327179
 31
0.0
  0
SOLID
  5
1175
330
1171
100
AcDbEntity
  8
0
  6
ByBlock
 62
     0
100
AcDbTrace
 10
235.763858477907
 20
2111.436500327179
 30
0.0
 11
248.263858477907
 21
2111.436500327179
 31
0.0
 12
242.013858477907
 22
2148.936500327179
 32
0.0
 13
242.013858477907
 23
2148.936500327179
 33
0.0
  0
SOLID
  5
1176
330
1171
100
AcDbEntity
  8
0
  6
ByBlock
 62
     0
100
AcDbTrace
 10
235.7638584779069
 20
1686.436500327179
 30
0.0
 11
248.2638584779069
 21
1686.436500327179
 31
0.0
 12
242.0138584779069
 22
1648.936500327179
 32
0.0
 13
242.0138584779069
 23
1648.936500327179
 33
0.0
  0
MTEXT
  5
1177
330
1171
100
AcDbEntity
  8
0
  6
ByBlock
 62
     0
100
AcDbMText
 10
213.8888584779069
 20
1898.936500327179
 30
0.0
 40
37.5
 41
0.0
 71
     5
 72
     1
  1
\A1;500
 11
0.0000000000000001
 21
1.0
 31
0.0
 73
     1
 44
1.0
  0
POINT
  5
1178
330
1171
100
AcDbEntity
  8
DEFPOINTS
  6
ByBlock
 62
     0
100
AcDbPoint
 10
512.0138584779069
 20
2148.936500327179
 30
0.0
  0
POINT
  5
1179
330
1171
100
AcDbEntity
  8
DEFPOINTS
  6
ByBlock
 62
     0
100
AcDbPoint
 10
512.0138584779069
 20
1648.936500327179
 30
0.0
  0
POINT
  5
117A
330
1171
100
AcDbEntity
  8
DEFPOINTS
  6
ByBlock
 62
     0
100
AcDbPoint
 10
242.0138584779069
 20
1648.936500327179
 30
0.0
  0
ENDBLK
  5
117C
330
1171
100
AcDbEntity
  8
0
100
AcDbBlockEnd
  0
BLOCK
  5
1187
330
117D
100
AcDbEntity
  8
0
100
AcDbBlockBegin
  2
*D4
 70
     1
 10
0.0
 20
0.0
 30
0.0
  3
*D4
  1

  0
LINE
  5
117E
330
117D
100
AcDbEntity
  8
0
  6
ByBlock
 62
     0
100
AcDbLine
 10
502.6388584779069
 20
2048.936500327179
 30
0.0
 11
343.2638584779069
 21
2048.936500327179
 31
0.0
  0
LINE
  5
117F
330
117D
100
AcDbEntity
  8
0
  6
ByBlock
 62
     0
100
AcDbLine
 10
502.6388584779069
 20
2148.936500327179
 30
0.0
 11
343.2638584779069
 21
2148.936500327179
 31
0.0
  0
LINE
  5
1180
330
117D
100
AcDbEntity
  8
0
  6
ByBlock
 62
     0
100
AcDbLine
 10
362.0138584779069
 20
2086.436500327179
 30
0.0
 11
362.0138584779069
 21
2111.436500327179
 31
0.0
  0
SOLID
  5
1181
330
117D
100
AcDbEntity
  8
0
  6
ByBlock
 62
     0
100
AcDbTrace
 10
355.7638584779069
 20
2086.436500327179
 30
0.0
 11
368.2638584779069
 21
2086.436500327179
 31
0.0
 12
362.0138584779069
 22
2048.936500327179
 32
0.0
 13
362.0138584779069
 23
2048.936500327179
 33
0.0
  0
SOLID
  5
1182
330
117D
100
AcDbEntity
  8
0
  6
ByBlock
 62
     0
100
AcDbTrace
 10
355.7638584779069
 20
2111.436500327179
 30
0.0
 11
368.2638584779069
 21
2111.436500327179
 31
0.0
 12
362.0138584779069
 22
2148.936500327179
 32
0.0
 13
362.0138584779069
 23
2148.936500327179
 33
0.0
  0
MTEXT
  5
1183
330
117D
100
AcDbEntity
  8
0
  6
ByBlock
 62
     0
100
AcDbMText
 10
333.8888584779069
 20
2098.936500327179
 30
0.0
 40
37.5
 41
0.0
 71
     5
 72
     1
  1
\A1;100
 11
0.0000000000000001
 21
1.0
 31
0.0
 73
     1
 44
1.0
  0
POINT
  5
1184
330
117D
100
AcDbEntity
  8
DEFPOINTS
  6
ByBlock
 62
     0
100
AcDbPoint
 10
512.0138584779069
 20
2048.936500327179
 30
0.0
  0
POINT
  5
1185
330
117D
100
AcDbEntity
  8
DEFPOINTS
  6
ByBlock
 62
     0
100
AcDbPoint
 10
512.0138584779069
 20
2148.936500327179
 30
0.0
  0
POINT
  5
1186
330
117D
100
AcDbEntity
  8
DEFPOINTS
  6
ByBlock
 62
     0
100
AcDbPoint
 10
362.0138584779069
 20
2148.936500327179
 30
0.0
  0
ENDBLK
  5
1188
330
117D
100
AcDbEntity
  8
0
100
AcDbBlockEnd
  0
BLOCK
  5
1193
330
1189
100
AcDbEntity
  8
0
100
AcDbBlockBegin
  2
*D5
 70
     1
 10
0.0
 20
0.0
 30
0.0
  3
*D5
  1

  0
LINE
  5
118A
330
1189
100
AcDbEntity
  8
0
  6
ByBlock
 62
     0
100
AcDbLine
 10
502.6388584779069
 20
2048.936500327179
 30
0.0
 11
343.2638584779069
 21
2048.936500327179
 31
0.0
  0
LINE
  5
118B
330
1189
100
AcDbEntity
  8
0
  6
ByBlock
 62
     0
100
AcDbLine
 10
502.6388584779069
 20
1748.936500327179
 30
0.0
 11
343.2638584779069
 21
1748.936500327179
 31
0.0
  0
LINE
  5
118C
330
1189
100
AcDbEntity
  8
0
  6
ByBlock
 62
     0
100
AcDbLine
 10
362.0138584779069
 20
2011.436500327179
 30
0.0
 11
362.0138584779069
 21
1786.436500327179
 31
0.0
  0
SOLID
  5
118D
330
1189
100
AcDbEntity
  8
0
  6
ByBlock
 62
     0
100
AcDbTrace
 10
355.7638584779069
 20
2011.436500327179
 30
0.0
 11
368.2638584779069
 21
2011.436500327179
 31
0.0
 12
362.0138584779069
 22
2048.936500327179
 32
0.0
 13
362.0138584779069
 23
2048.936500327179
 33
0.0
  0
SOLID
  5
118E
330
1189
100
AcDbEntity
  8
0
  6
ByBlock
 62
     0
100
AcDbTrace
 10
355.7638584779069
 20
1786.436500327179
 30
0.0
 11
368.2638584779069
 21
1786.436500327179
 31
0.0
 12
362.0138584779069
 22
1748.936500327179
 32
0.0
 13
362.0138584779069
 23
1748.936500327179
 33
0.0
  0
MTEXT
  5
118F
330
1189
100
AcDbEntity
  8
0
  6
ByBlock
 62
     0
100
AcDbMText
 10
333.8888584779069
 20
1898.936500327179
 30
0.0
 40
37.5
 41
0.0
 71
     5
 72
     1
  1
\A1;300
 11
0.0000000000000001
 21
1.0
 31
0.0
 73
     1
 44
1.0
  0
POINT
  5
1190
330
1189
100
AcDbEntity
  8
DEFPOINTS
  6
ByBlock
 62
     0
100
AcDbPoint
 10
512.0138584779069
 20
2048.936500327179
 30
0.0
  0
POINT
  5
1191
330
1189
100
AcDbEntity
  8
DEFPOINTS
  6
ByBlock
 62
     0
100
AcDbPoint
 10
512.0138584779069
 20
1748.936500327179
 30
0.0
  0
POINT
  5
1192
330
1189
100
AcDbEntity
  8
DEFPOINTS
  6
ByBlock
 62
     0
100
AcDbPoint
 10
362.0138584779069
 20
1748.936500327179
 30
0.0
  0
ENDBLK
  5
1194
330
1189
100
AcDbEntity
  8
0
100
AcDbBlockEnd
  0
BLOCK
  5
119F
330
1195
100
AcDbEntity
  8
0
100
AcDbBlockBegin
  2
*D6
 70
     1
 10
0.0
 20
0.0
 30
0.0
  3
*D6
  1

  0
LINE
  5
1196
330
1195
100
AcDbEntity
  8
0
  6
ByBlock
 62
     0
100
AcDbLine
 10
502.6388584779069
 20
1748.936500327179
 30
0.0
 11
343.2638584779069
 21
1748.936500327179
 31
0.0
  0
LINE
  5
1197
330
1195
100
AcDbEntity
  8
0
  6
ByBlock
 62
     0
100
AcDbLine
 10
502.6388584779069
 20
1648.936500327179
 30
0.0
 11
343.2638584779069
 21
1648.936500327179
 31
0.0
  0
LINE
  5
1198
330
1195
100
AcDbEntity
  8
0
  6
ByBlock
 62
     0
100
AcDbLine
 10
362.0138584779069
 20
1711.436500327179
 30
0.0
 11
362.0138584779069
 21
1686.436500327179
 31
0.0
  0
SOLID
  5
1199
330
1195
100
AcDbEntity
  8
0
  6
ByBlock
 62
     0
100
AcDbTrace
 10
355.7638584779069
 20
1711.436500327179
 30
0.0
 11
368.2638584779069
 21
1711.436500327179
 31
0.0
 12
362.0138584779069
 22
1748.936500327179
 32
0.0
 13
362.0138584779069
 23
1748.936500327179
 33
0.0
  0
SOLID
  5
119A
330
1195
100
AcDbEntity
  8
0
  6
ByBlock
 62
     0
100
AcDbTrace
 10
355.7638584779069
 20
1686.436500327179
 30
0.0
 11
368.2638584779069
 21
1686.436500327179
 31
0.0
 12
362.0138584779069
 22
1648.936500327179
 32
0.0
 13
362.0138584779069
 23
1648.936500327179
 33
0.0
  0
MTEXT
  5
119B
330
1195
100
AcDbEntity
  8
0
  6
ByBlock
 62
     0
100
AcDbMText
 10
333.8888584779069
 20
1698.936500327179
 30
0.0
 40
37.5
 41
0.0
 71
     5
 72
     1
  1
\A1;100
 11
0.0000000000000001
 21
1.0
 31
0.0
 73
     1
 44
1.0
  0
POINT
  5
119C
330
1195
100
AcDbEntity
  8
DEFPOINTS
  6
ByBlock
 62
     0
100
AcDbPoint
 10
512.0138584779069
 20
1748.936500327179
 30
0.0
  0
POINT
  5
119D
330
1195
100
AcDbEntity
  8
DEFPOINTS
  6
ByBlock
 62
     0
100
AcDbPoint
 10
512.0138584779069
 20
1648.936500327179
 30
0.0
  0
POINT
  5
119E
330
1195
100
AcDbEntity
  8
DEFPOINTS
  6
ByBlock
 62
     0
100
AcDbPoint
 10
362.0138584779069
 20
1648.936500327179
 30
0.0
  0
ENDBLK
  5
11A0
330
1195
100
AcDbEntity
  8
0
100
AcDbBlockEnd
  0
BLOCK
  5
11AB
330
11A1
100
AcDbEntity
  8
0
100
AcDbBlockBegin
  2
*D7
 70
     1
 10
0.0
 20
0.0
 30
0.0
  3
*D7
  1

  0
LINE
  5
11A2
330
11A1
100
AcDbEntity
  8
0
  6
ByBlock
 62
     0
100
AcDbLine
 10
687.013858477907
 20
1854.829258318181
 30
0.0
 11
687.013858477907
 21
1972.01247714717
 31
0.0
  0
LINE
  5
11A3
330
11A1
100
AcDbEntity
  8
0
  6
ByBlock
 62
     0
100
AcDbLine
 10
977.013858477907
 20
1854.829258318181
 30
0.0
 11
977.013858477907
 21
1972.01247714717
 31
0.0
  0
LINE
  5
11A4
330
11A1
100
AcDbEntity
  8
0
  6
ByBlock
 62
     0
100
AcDbLine
 10
724.513858477907
 20
1953.262477147171
 30
0.0
 11
939.513858477907
 21
1953.262477147171
 31
0.0
  0
SOLID
  5
11A5
330
11A1
100
AcDbEntity
  8
0
  6
ByBlock
 62
     0
100
AcDbTrace
 10
724.513858477907
 20
1959.51247714717
 30
0.0
 11
724.513858477907
 21
1947.01247714717
 31
0.0
 12
687.013858477907
 22
1953.262477147171
 32
0.0
 13
687.013858477907
 23
1953.262477147171
 33
0.0
  0
SOLID
  5
11A6
330
11A1
100
AcDbEntity
  8
0
  6
ByBlock
 62
     0
100
AcDbTrace
 10
939.513858477907
 20
1959.51247714717
 30
0.0
 11
939.513858477907
 21
1947.01247714717
 31
0.0
 12
977.013858477907
 22
1953.262477147171
 32
0.0
 13
977.013858477907
 23
1953.262477147171
 33
0.0
  0
MTEXT
  5
11A7
330
11A1
100
AcDbEntity
  8
0
  6
ByBlock
 62
     0
100
AcDbMText
 10
832.0138584779069
 20
1981.387477147171
 30
0.0
 40
37.5
 41
0.0
 71
     5
 72
     1
  1
\A1;290
 73
     1
 44
1.0
  0
POINT
  5
11A8
330
11A1
100
AcDbEntity
  8
DEFPOINTS
  6
ByBlock
 62
     0
100
AcDbPoint
 10
687.013858477907
 20
1845.454258318182
 30
0.0
  0
POINT
  5
11A9
330
11A1
100
AcDbEntity
  8
DEFPOINTS
  6
ByBlock
 62
     0
100
AcDbPoint
 10
977.013858477907
 20
1845.454258318182
 30
0.0
  0
POINT
  5
11AA
330
11A1
100
AcDbEntity
  8
DEFPOINTS
  6
ByBlock
 62
     0
100
AcDbPoint
 10
977.013858477907
 20
1953.262477147171
 30
0.0
  0
ENDBLK
  5
11AC
330
11A1
100
AcDbEntity
  8
0
100
AcDbBlockEnd
  0
BLOCK
  5
11B9
330
11AD
100
AcDbEntity
  8
0
100
AcDbBlockBegin
  2
*D8
 70
     1
 10
0.0
 20
0.0
 30
0.0
  3
*D8
  1

  0
LINE
  5
11AE
330
11AD
100
AcDbEntity
  8
0
  6
ByBlock
 62
     0
100
AcDbLine
 10
1131.388858477907
 20
2118.936500327179
 30
0.0
 11
1290.763858477907
 21
2118.936500327179
 31
0.0
  0
LINE
  5
11AF
330
11AD
100
AcDbEntity
  8
0
  6
ByBlock
 62
     0
100
AcDbLine
 10
1131.388858477907
 20
2148.936500327179
 30
0.0
 11
1290.763858477907
 21
2148.936500327179
 31
0.0
  0
LINE
  5
11B0
330
11AD
100
AcDbEntity
  8
0
  6
ByBlock
 62
     0
100
AcDbLine
 10
1272.013858477907
 20
2081.436500327179
 30
0.0
 11
1272.013858477907
 21
2043.936500327179
 31
0.0
  0
LINE
  5
11B1
330
11AD
100
AcDbEntity
  8
0
  6
ByBlock
 62
     0
100
AcDbLine
 10
1272.013858477907
 20
2186.436500327179
 30
0.0
 11
1272.013858477907
 21
2290.720208192348
 31
0.0
  0
LINE
  5
11B2
330
11AD
100
AcDbEntity
  8
0
  6
ByBlock
 62
     0
100
AcDbLine
 10
1272.013858477907
 20
2118.936500327179
 30
0.0
 11
1272.013858477907
 21
2148.936500327179
 31
0.0
  0
SOLID
  5
11B3
330
11AD
100
AcDbEntity
  8
0
  6
ByBlock
 62
     0
100
AcDbTrace
 10
1265.763858477907
 20
2081.436500327179
 30
0.0
 11
1278.263858477907
 21
2081.436500327179
 31
0.0
 12
1272.013858477907
 22
2118.936500327179
 32
0.0
 13
1272.013858477907
 23
2118.936500327179
 33
0.0
  0
SOLID
  5
11B4
330
11AD
100
AcDbEntity
  8
0
  6
ByBlock
 62
     0
100
AcDbTrace
 10
1265.763858477907
 20
2186.436500327179
 30
0.0
 11
1278.263858477907
 21
2186.436500327179
 31
0.0
 12
1272.013858477907
 22
2148.936500327179
 32
0.0
 13
1272.013858477907
 23
2148.936500327179
 33
0.0
  0
MTEXT
  5
11B5
330
11AD
100
AcDbEntity
  8
0
  6
ByBlock
 62
     0
100
AcDbMText
 10
1243.888858477907
 20
2257.328354259763
 30
0.0
 40
37.5
 41
0.0
 71
     5
 72
     1
  1
\A1;30
 11
0.0000000000000001
 21
1.0
 31
0.0
 73
     1
 44
1.0
  0
POINT
  5
11B6
330
11AD
100
AcDbEntity
  8
DEFPOINTS
  6
ByBlock
 62
     0
100
AcDbPoint
 10
1122.013858477907
 20
2118.936500327179
 30
0.0
  0
POINT
  5
11B7
330
11AD
100
AcDbEntity
  8
DEFPOINTS
  6
ByBlock
 62
     0
100
AcDbPoint
 10
1122.013858477907
 20
2148.936500327179
 30
0.0
  0
POINT
  5
11B8
330
11AD
100
AcDbEntity
  8
DEFPOINTS
  6
ByBlock
 62
     0
100
AcDbPoint
 10
1272.013858477907
 20
2148.936500327179
 30
0.0
  0
ENDBLK
  5
11BA
330
11AD
100
AcDbEntity
  8
0
100
AcDbBlockEnd
  0
BLOCK
  5
11C5
330
11BB
100
AcDbEntity
  8
0
100
AcDbBlockBegin
  2
*D9
 70
     1
 10
0.0
 20
0.0
 30
0.0
  3
*D9
  1

  0
LINE
  5
11BC
330
11BB
100
AcDbEntity
  8
0
  6
ByBlock
 62
     0
100
AcDbLine
 10
1131.388858477907
 20
2118.936500327179
 30
0.0
 11
1290.763858477907
 21
2118.936500327179
 31
0.0
  0
LINE
  5
11BD
330
11BB
100
AcDbEntity
  8
0
  6
ByBlock
 62
     0
100
AcDbLine
 10
1131.388858477907
 20
1678.936500327179
 30
0.0
 11
1290.763858477907
 21
1678.936500327179
 31
0.0
  0
LINE
  5
11BE
330
11BB
100
AcDbEntity
  8
0
  6
ByBlock
 62
     0
100
AcDbLine
 10
1272.013858477907
 20
2081.436500327179
 30
0.0
 11
1272.013858477907
 21
1716.436500327179
 31
0.0
  0
SOLID
  5
11BF
330
11BB
100
AcDbEntity
  8
0
  6
ByBlock
 62
     0
100
AcDbTrace
 10
1265.763858477907
 20
2081.436500327179
 30
0.0
 11
1278.263858477907
 21
2081.436500327179
 31
0.0
 12
1272.013858477907
 22
2118.936500327179
 32
0.0
 13
1272.013858477907
 23
2118.936500327179
 33
0.0
  0
SOLID
  5
11C0
330
11BB
100
AcDbEntity
  8
0
  6
ByBlock
 62
     0
100
AcDbTrace
 10
1265.763858477907
 20
1716.436500327179
 30
0.0
 11
1278.263858477907
 21
1716.436500327179
 31
0.0
 12
1272.013858477907
 22
1678.936500327179
 32
0.0
 13
1272.013858477907
 23
1678.936500327179
 33
0.0
  0
MTEXT
  5
11C1
330
11BB
100
AcDbEntity
  8
0
  6
ByBlock
 62
     0
100
AcDbMText
 10
1243.888858477907
 20
1898.936500327179
 30
0.0
 40
37.5
 41
0.0
 71
     5
 72
     1
  1
\A1;2@220=440
 11
0.0000000000000001
 21
1.0
 31
0.0
 73
     1
 44
1.0
  0
POINT
  5
11C2
330
11BB
100
AcDbEntity
  8
DEFPOINTS
  6
ByBlock
 62
     0
100
AcDbPoint
 10
1122.013858477907
 20
2118.936500327179
 30
0.0
  0
POINT
  5
11C3
330
11BB
100
AcDbEntity
  8
DEFPOINTS
  6
ByBlock
 62
     0
100
AcDbPoint
 10
1122.013858477907
 20
1678.936500327179
 30
0.0
  0
POINT
  5
11C4
330
11BB
100
AcDbEntity
  8
DEFPOINTS
  6
ByBlock
 62
     0
100
AcDbPoint
 10
1272.013858477907
 20
1678.936500327179
 30
0.0
  0
ENDBLK
  5
11C6
330
11BB
100
AcDbEntity
  8
0
100
AcDbBlockEnd
  0
BLOCK
  5
11D3
330
11C7
100
AcDbEntity
  8
0
100
AcDbBlockBegin
  2
*D10
 70
     1
 10
0.0
 20
0.0
 30
0.0
  3
*D10
  1

  0
LINE
  5
11C8
330
11C7
100
AcDbEntity
  8
0
  6
ByBlock
 62
     0
100
AcDbLine
 10
1131.388858477907
 20
1678.936500327179
 30
0.0
 11
1290.763858477907
 21
1678.936500327179
 31
0.0
  0
LINE
  5
11C9
330
11C7
100
AcDbEntity
  8
0
  6
ByBlock
 62
     0
100
AcDbLine
 10
1131.388858477907
 20
1648.936500327179
 30
0.0
 11
1290.763858477907
 21
1648.936500327179
 31
0.0
  0
LINE
  5
11CA
330
11C7
100
AcDbEntity
  8
0
  6
ByBlock
 62
     0
100
AcDbLine
 10
1272.013858477907
 20
1716.436500327179
 30
0.0
 11
1272.013858477907
 21
1753.936500327179
 31
0.0
  0
LINE
  5
11CB
330
11C7
100
AcDbEntity
  8
0
  6
ByBlock
 62
     0
100
AcDbLine
 10
1272.013858477907
 20
1611.436500327179
 30
0.0
 11
1272.013858477907
 21
1507.152792462011
 31
0.0
  0
LINE
  5
11CC
330
11C7
100
AcDbEntity
  8
0
  6
ByBlock
 62
     0
100
AcDbLine
 10
1272.013858477907
 20
1678.936500327179
 30
0.0
 11
1272.013858477907
 21
1648.936500327179
 31
0.0
  0
SOLID
  5
11CD
330
11C7
100
AcDbEntity
  8
0
  6
ByBlock
 62
     0
100
AcDbTrace
 10
1265.763858477907
 20
1716.436500327179
 30
0.0
 11
1278.263858477907
 21
1716.436500327179
 31
0.0
 12
1272.013858477907
 22
1678.936500327179
 32
0.0
 13
1272.013858477907
 23
1678.936500327179
 33
0.0
  0
SOLID
  5
11CE
330
11C7
100
AcDbEntity
  8
0
  6
ByBlock
 62
     0
100
AcDbTrace
 10
1265.763858477907
 20
1611.436500327179
 30
0.0
 11
1278.263858477907
 21
1611.436500327179
 31
0.0
 12
1272.013858477907
 22
1648.936500327179
 32
0.0
 13
1272.013858477907
 23
1648.936500327179
 33
0.0
  0
MTEXT
  5
11CF
330
11C7
100
AcDbEntity
  8
0
  6
ByBlock
 62
     0
100
AcDbMText
 10
1243.888858477907
 20
1540.544646394595
 30
0.0
 40
37.5
 41
0.0
 71
     5
 72
     1
  1
\A1;30
 11
0.0000000000000001
 21
1.0
 31
0.0
 73
     1
 44
1.0
  0
POINT
  5
11D0
330
11C7
100
AcDbEntity
  8
DEFPOINTS
  6
ByBlock
 62
     0
100
AcDbPoint
 10
1122.013858477907
 20
1678.936500327179
 30
0.0
  0
POINT
  5
11D1
330
11C7
100
AcDbEntity
  8
DEFPOINTS
  6
ByBlock
 62
     0
100
AcDbPoint
 10
1122.013858477907
 20
1648.936500327179
 30
0.0
  0
POINT
  5
11D2
330
11C7
100
AcDbEntity
  8
DEFPOINTS
  6
ByBlock
 62
     0
100
AcDbPoint
 10
1272.013858477907
 20
1648.936500327179
 30
0.0
  0
ENDBLK
  5
11D4
330
11C7
100
AcDbEntity
  8
0
100
AcDbBlockEnd
  0
BLOCK
  5
11E1
330
11D5
100
AcDbEntity
  8
0
100
AcDbBlockBegin
  2
*D11
 70
     1
 10
0.0
 20
0.0
 30
0.0
  3
*D11
  1

  0
LINE
  5
11D6
330
11D5
100
AcDbEntity
  8
0
  6
ByBlock
 62
     0
100
AcDbLine
 10
562.0138584779069
 20
1619.561500327179
 30
0.0
 11
562.0138584779069
 21
1460.186500327179
 31
0.0
  0
LINE
  5
11D7
330
11D5
100
AcDbEntity
  8
0
  6
ByBlock
 62
     0
100
AcDbLine
 10
532.0138584779069
 20
1619.561500327179
 30
0.0
 11
532.0138584779069
 21
1460.186500327179
 31
0.0
  0
LINE
  5
11D8
330
11D5
100
AcDbEntity
  8
0
  6
ByBlock
 62
     0
100
AcDbLine
 10
599.513858477907
 20
1478.936500327179
 30
0.0
 11
637.013858477907
 21
1478.936500327179
 31
0.0
  0
LINE
  5
11D9
330
11D5
100
AcDbEntity
  8
0
  6
ByBlock
 62
     0
100
AcDbLine
 10
494.5138584779069
 20
1478.936500327179
 30
0.0
 11
390.2301506127384
 21
1478.936500327179
 31
0.0
  0
LINE
  5
11DA
330
11D5
100
AcDbEntity
  8
0
  6
ByBlock
 62
     0
100
AcDbLine
 10
562.0138584779069
 20
1478.936500327179
 30
0.0
 11
532.0138584779069
 21
1478.936500327179
 31
0.0
  0
SOLID
  5
11DB
330
11D5
100
AcDbEntity
  8
0
  6
ByBlock
 62
     0
100
AcDbTrace
 10
599.513858477907
 20
1485.186500327179
 30
0.0
 11
599.513858477907
 21
1472.686500327179
 31
0.0
 12
562.0138584779069
 22
1478.936500327179
 32
0.0
 13
562.0138584779069
 23
1478.936500327179
 33
0.0
  0
SOLID
  5
11DC
330
11D5
100
AcDbEntity
  8
0
  6
ByBlock
 62
     0
100
AcDbTrace
 10
494.5138584779069
 20
1485.186500327179
 30
0.0
 11
494.5138584779069
 21
1472.686500327179
 31
0.0
 12
532.0138584779069
 22
1478.936500327179
 32
0.0
 13
532.0138584779069
 23
1478.936500327179
 33
0.0
  0
MTEXT
  5
11DD
330
11D5
100
AcDbEntity
  8
0
  6
ByBlock
 62
     0
100
AcDbMText
 10
423.6220045453227
 20
1507.061500327179
 30
0.0
 40
37.5
 41
0.0
 71
     5
 72
     1
  1
\A1;30
 73
     1
 44
1.0
  0
POINT
  5
11DE
330
11D5
100
AcDbEntity
  8
DEFPOINTS
  6
ByBlock
 62
     0
100
AcDbPoint
 10
562.0138584779069
 20
1628.936500327179
 30
0.0
  0
POINT
  5
11DF
330
11D5
100
AcDbEntity
  8
DEFPOINTS
  6
ByBlock
 62
     0
100
AcDbPoint
 10
532.0138584779069
 20
1628.936500327179
 30
0.0
  0
POINT
  5
11E0
330
11D5
100
AcDbEntity
  8
DEFPOINTS
  6
ByBlock
 62
     0
100
AcDbPoint
 10
532.0138584779069
 20
1478.936500327179
 30
0.0
  0
ENDBLK
  5
11E2
330
11D5
100
AcDbEntity
  8
0
100
AcDbBlockEnd
  0
BLOCK
  5
11ED
330
11E3
100
AcDbEntity
  8
0
100
AcDbBlockBegin
  2
*D12
 70
     1
 10
0.0
 20
0.0
 30
0.0
  3
*D12
  1

  0
LINE
  5
11E4
330
11E3
100
AcDbEntity
  8
0
  6
ByBlock
 62
     0
100
AcDbLine
 10
562.0138584779069
 20
1569.561500327179
 30
0.0
 11
562.0138584779069
 21
1410.186500327179
 31
0.0
  0
LINE
  5
11E5
330
11E3
100
AcDbEntity
  8
0
  6
ByBlock
 62
     0
100
AcDbLine
 10
1072.013858477907
 20
1569.561500327179
 30
0.0
 11
1072.013858477907
 21
1410.186500327179
 31
0.0
  0
LINE
  5
11E6
330
11E3
100
AcDbEntity
  8
0
  6
ByBlock
 62
     0
100
AcDbLine
 10
599.513858477907
 20
1428.936500327179
 30
0.0
 11
1034.513858477907
 21
1428.936500327179
 31
0.0
  0
SOLID
  5
11E7
330
11E3
100
AcDbEntity
  8
0
  6
ByBlock
 62
     0
100
AcDbTrace
 10
599.513858477907
 20
1435.186500327179
 30
0.0
 11
599.513858477907
 21
1422.686500327179
 31
0.0
 12
562.0138584779069
 22
1428.936500327179
 32
0.0
 13
562.0138584779069
 23
1428.936500327179
 33
0.0
  0
SOLID
  5
11E8
330
11E3
100
AcDbEntity
  8
0
  6
ByBlock
 62
     0
100
AcDbTrace
 10
1034.513858477907
 20
1435.186500327179
 30
0.0
 11
1034.513858477907
 21
1422.686500327179
 31
0.0
 12
1072.013858477907
 22
1428.936500327179
 32
0.0
 13
1072.013858477907
 23
1428.936500327179
 33
0.0
  0
MTEXT
  5
11E9
330
11E3
100
AcDbEntity
  8
0
  6
ByBlock
 62
     0
100
AcDbMText
 10
817.0138584779069
 20
1457.061500327179
 30
0.0
 40
37.5
 41
0.0
 71
     5
 72
     1
  1
\A1;2@255=510
 73
     1
 44
1.0
  0
POINT
  5
11EA
330
11E3
100
AcDbEntity
  8
DEFPOINTS
  6
ByBlock
 62
     0
100
AcDbPoint
 10
562.0138584779069
 20
1578.936500327179
 30
0.0
  0
POINT
  5
11EB
330
11E3
100
AcDbEntity
  8
DEFPOINTS
  6
ByBlock
 62
     0
100
AcDbPoint
 10
1072.013858477907
 20
1578.936500327179
 30
0.0
  0
POINT
  5
11EC
330
11E3
100
AcDbEntity
  8
DEFPOINTS
  6
ByBlock
 62
     0
100
AcDbPoint
 10
1072.013858477907
 20
1428.936500327179
 30
0.0
  0
ENDBLK
  5
11EE
330
11E3
100
AcDbEntity
  8
0
100
AcDbBlockEnd
  0
BLOCK
  5
11FB
330
11EF
100
AcDbEntity
  8
0
100
AcDbBlockBegin
  2
*D13
 70
     1
 10
0.0
 20
0.0
 30
0.0
  3
*D13
  1

  0
LINE
  5
11F0
330
11EF
100
AcDbEntity
  8
0
  6
ByBlock
 62
     0
100
AcDbLine
 10
1072.013858477907
 20
1619.561500327179
 30
0.0
 11
1072.013858477907
 21
1460.186500327179
 31
0.0
  0
LINE
  5
11F1
330
11EF
100
AcDbEntity
  8
0
  6
ByBlock
 62
     0
100
AcDbLine
 10
1102.013858477907
 20
1619.561500327179
 30
0.0
 11
1102.013858477907
 21
1460.186500327179
 31
0.0
  0
LINE
  5
11F2
330
11EF
100
AcDbEntity
  8
0
  6
ByBlock
 62
     0
100
AcDbLine
 10
1034.513858477907
 20
1478.936500327179
 30
0.0
 11
997.013858477907
 21
1478.936500327179
 31
0.0
  0
LINE
  5
11F3
330
11EF
100
AcDbEntity
  8
0
  6
ByBlock
 62
     0
100
AcDbLine
 10
1139.513858477907
 20
1478.936500327179
 30
0.0
 11
1243.797566343075
 21
1478.936500327179
 31
0.0
  0
LINE
  5
11F4
330
11EF
100
AcDbEntity
  8
0
  6
ByBlock
 62
     0
100
AcDbLine
 10
1072.013858477907
 20
1478.936500327179
 30
0.0
 11
1102.013858477907
 21
1478.936500327179
 31
0.0
  0
SOLID
  5
11F5
330
11EF
100
AcDbEntity
  8
0
  6
ByBlock
 62
     0
100
AcDbTrace
 10
1034.513858477907
 20
1485.186500327179
 30
0.0
 11
1034.513858477907
 21
1472.686500327179
 31
0.0
 12
1072.013858477907
 22
1478.936500327179
 32
0.0
 13
1072.013858477907
 23
1478.936500327179
 33
0.0
  0
SOLID
  5
11F6
330
11EF
100
AcDbEntity
  8
0
  6
ByBlock
 62
     0
100
AcDbTrace
 10
1139.513858477907
 20
1485.186500327179
 30
0.0
 11
1139.513858477907
 21
1472.686500327179
 31
0.0
 12
1102.013858477907
 22
1478.936500327179
 32
0.0
 13
1102.013858477907
 23
1478.936500327179
 33
0.0
  0
MTEXT
  5
11F7
330
11EF
100
AcDbEntity
  8
0
  6
ByBlock
 62
     0
100
AcDbMText
 10
1210.405712410491
 20
1507.061500327179
 30
0.0
 40
37.5
 41
0.0
 71
     5
 72
     1
  1
\A1;30
 73
     1
 44
1.0
  0
POINT
  5
11F8
330
11EF
100
AcDbEntity
  8
DEFPOINTS
  6
ByBlock
 62
     0
100
AcDbPoint
 10
1072.013858477907
 20
1628.936500327179
 30
0.0
  0
POINT
  5
11F9
330
11EF
100
AcDbEntity
  8
DEFPOINTS
  6
ByBlock
 62
     0
100
AcDbPoint
 10
1102.013858477907
 20
1628.936500327179
 30
0.0
  0
POINT
  5
11FA
330
11EF
100
AcDbEntity
  8
DEFPOINTS
  6
ByBlock
 62
     0
100
AcDbPoint
 10
1102.013858477907
 20
1478.936500327179
 30
0.0
  0
ENDBLK
  5
11FC
330
11EF
100
AcDbEntity
  8
0
100
AcDbBlockEnd
  0
BLOCK
  5
1298
330
11FD
100
AcDbEntity
  8
0
100
AcDbBlockBegin
  2
A$C43796736
 70
     0
 10
0.0
 20
0.0
 30
0.0
  3
A$C43796736
  1

  0
DIMENSION
  5
11FE
330
11FD
100
AcDbEntity
  8
上線
100
AcDbDimension
  2
*D13
 10
916.8019584441262
 20
18.74999919439505
 30
0.0
 11
1025.19381237671
 21
46.87499919439505
 31
0.0
 12
-185.2119000337807
 22
-1460.186501132784
 32
0.0
 71
     5
 42
-1.0
  3
STANDARD
100
AcDbAlignedDimension
 13
886.8019584441263
 23
168.749999194395
 33
0.0
 14
916.8019584441262
 24
168.749999194395
 34
0.0
100
AcDbRotatedDimension
1001
ACAD
1000
DSTYLE
1002
{
1070
    40
1040
15.0
1070
    41
1040
2.5
1070
    42
1040
0.625
1070
    43
1040
3.75
1070
    44
1040
1.25
1070
    73
1070
     0
1070
    74
1070
     0
1070
    77
1070
     1
1070
    78
1070
     8
1070
   140
1040
2.5
1070
   141
1040
2.5
1070
   143
1040
0.0394
1070
   147
1040
0.625
1070
   171
1070
     4
1070
   172
1070
     1
1070
   273
1070
     8
1070
   274
1070
     4
1070
   277
1070
     6
1002
}
  0
DIMENSION
  5
11FF
330
11FD
100
AcDbEntity
  8
上線
100
AcDbDimension
  2
*D12
 10
886.8019584441263
 20
18.74999919439505
 30
0.0
 11
631.8019584441262
 21
46.87499919439505
 31
0.0
 12
-185.2119000337807
 22
-1410.186501132784
 32
0.0
  1
2@255=<>
 71
     5
 42
-1.0
  3
STANDARD
100
AcDbAlignedDimension
 13
376.8019584441262
 23
168.749999194395
 33
0.0
 14
886.8019584441263
 24
168.749999194395
 34
0.0
100
AcDbRotatedDimension
1001
ACAD
1000
DSTYLE
1002
{
1070
    40
1040
15.0
1070
    41
1040
2.5
1070
    42
1040
0.625
1070
    43
1040
3.75
1070
    44
1040
1.25
1070
    73
1070
     0
1070
    74
1070
     0
1070
    77
1070
     1
1070
    78
1070
     8
1070
   140
1040
2.5
1070
   141
1040
2.5
1070
   143
1040
0.0394
1070
   147
1040
0.625
1070
   171
1070
     4
1070
   172
1070
     1
1070
   273
1070
     8
1070
   274
1070
     4
1070
   277
1070
     6
1002
}
  0
DIMENSION
  5
1200
330
11FD
100
AcDbEntity
  8
上線
100
AcDbDimension
  2
*D11
 10
346.8019584441262
 20
18.74999919439505
 30
0.0
 11
238.410104511542
 21
46.87499919439505
 31
0.0
 12
-185.2119000337807
 22
-1460.186501132784
 32
0.0
 71
     5
 42
-1.0
  3
STANDARD
100
AcDbAlignedDimension
 13
376.8019584441262
 23
168.749999194395
 33
0.0
 14
346.8019584441262
 24
168.749999194395
 34
0.0
100
AcDbRotatedDimension
1001
ACAD
1000
DSTYLE
1002
{
1070
    40
1040
15.0
1070
    41
1040
2.5
1070
    42
1040
0.625
1070
    43
1040
3.75
1070
    44
1040
1.25
1070
    73
1070
     0
1070
    74
1070
     0
1070
    77
1070
     1
1070
    78
1070
     8
1070
   140
1040
2.5
1070
   141
1040
2.5
1070
   143
1040
0.0394
1070
   147
1040
0.625
1070
   171
1070
     4
1070
   172
1070
     1
1070
   273
1070
     8
1070
   274
1070
     4
1070
   277
1070
     6
1002
}
  0
DIMENSION
  5
1201
330
11FD
100
AcDbEntity
  8
上線
100
AcDbDimension
  2
*D7
 10
791.8019584441262
 20
552.1908758488116
 30
0.0
 11
646.8019584441263
 21
580.3158758488116
 31
0.0
 12
-185.2119000337807
 22
-1401.071601298359
 32
0.0
 71
     5
 42
-1.0
  3
STANDARD
100
AcDbAlignedDimension
 13
501.8019584441263
 23
444.3826570198225
 33
0.0
 14
791.8019584441262
 24
444.3826570198225
 34
0.0
100
AcDbRotatedDimension
1001
ACAD
1000
DSTYLE
1002
{
1070
    40
1040
15.0
1070
    41
1040
2.5
1070
    42
1040
0.625
1070
    43
1040
3.75
1070
    44
1040
1.25
1070
    73
1070
     0
1070
    74
1070
     0
1070
    77
1070
     1
1070
    78
1070
     8
1070
   140
1040
2.5
1070
   141
1040
2.5
1070
   143
1040
0.0394
1070
   147
1040
0.625
1070
   171
1070
     4
1070
   172
1070
     1
1070
   273
1070
     8
1070
   274
1070
     4
1070
   277
1070
     6
1002
}
  0
MTEXT
  5
1202
102
{ACAD_REACTORS
330
1203
102
}
330
11FD
100
AcDbEntity
  8
上線
100
AcDbMText
 10
616.4446699391882
 20
499.2567275619548
 30
0.0
 40
37.5
 41
0.0
 71
     4
 72
     1
  1
\A1;R=50
 73
     1
 44
1.0
  0
LEADER
  5
1203
330
11FD
100
AcDbEntity
  8
上線
100
AcDbLeader
  3
STANDARD
 73
     0
 74
     0
 75
     1
 40
37.5
 41
108.0758426966292
 76
     3
 10
515.9908560582247
 20
353.1430431186704
 30
0.0
 10
569.5696699391882
 20
471.1317275619548
 30
0.0
 10
607.0696699391882
 20
471.1317275619548
 30
0.0
340
1202
1001
ACAD
1000
DSTYLE
1002
{
1070
    78
1070
     8
1070
   270
1070
     8
1070
   140
1040
2.5
1070
    74
1070
     0
1070
   172
1070
     1
1070
    73
1070
     0
1070
    77
1070
     1
1070
    40
1040
15.0
1070
   147
1040
0.625
1070
    42
1040
0.625
1070
    44
1040
1.25
1070
    43
1040
3.75
1070
   141
1040
2.5
1070
    41
1040
2.5
1070
   273
1070
     8
1070
   274
1070
     4
1070
   143
1040
0.0394
1070
   171
1070
     4
1002
}
  0
DIMENSION
  5
1204
330
11FD
100
AcDbEntity
  8
上線
100
AcDbDimension
  2
*D2
 10
796.8019584441263
 20
908.749999194395
 30
0.0
 11
646.8019584441263
 21
936.874999194395
 31
0.0
 12
-185.2119000337807
 22
-1410.186501132784
 32
0.0
 71
     5
 42
-1.0
  3
STANDARD
100
AcDbAlignedDimension
 13
496.8019584441263
 23
758.7499991943955
 33
0.0
 14
796.8019584441263
 24
758.749999194395
 34
0.0
100
AcDbRotatedDimension
1001
ACAD
1000
DSTYLE
1002
{
1070
    40
1040
15.0
1070
    41
1040
2.5
1070
    42
1040
0.625
1070
    43
1040
3.75
1070
    44
1040
1.25
1070
    73
1070
     0
1070
    74
1070
     0
1070
    77
1070
     1
1070
    78
1070
     8
1070
   140
1040
2.5
1070
   141
1040
2.5
1070
   143
1040
0.0394
1070
   147
1040
0.625
1070
   171
1070
     4
1070
   172
1070
     1
1070
   273
1070
     8
1070
   274
1070
     4
1070
   277
1070
     6
1002
}
  0
DIMENSION
  5
1205
330
11FD
100
AcDbEntity
  8
上線
100
AcDbDimension
  2
*D1
 10
346.8019584441262
 20
1028.749999194395
 30
0.0
 11
631.8019584441262
 21
1056.874999194395
 31
0.0
 12
-185.2119000337807
 22
-1410.186501132784
 32
0.0
 71
     5
 42
-1.0
  3
STANDARD
100
AcDbAlignedDimension
 13
916.8019584441262
 23
758.749999194395
 33
0.0
 14
346.8019584441262
 24
758.749999194395
 34
0.0
100
AcDbRotatedDimension
1001
ACAD
1000
DSTYLE
1002
{
1070
    40
1040
15.0
1070
    41
1040
2.5
1070
    42
1040
0.625
1070
    43
1040
3.75
1070
    44
1040
1.25
1070
    73
1070
     0
1070
    74
1070
     0
1070
    77
1070
     1
1070
    78
1070
     8
1070
   140
1040
2.5
1070
   141
1040
2.5
1070
   143
1040
0.0394
1070
   147
1040
0.625
1070
   171
1070
     4
1070
   172
1070
     1
1070
   273
1070
     8
1070
   274
1070
     4
1070
   277
1070
     6
1002
}
  0
LINE
  5
1206
330
11FD
100
AcDbEntity
  8
上線
 48
10.0
100
AcDbLine
 10
886.8019584441263
 20
268.749999194395
 30
0.0
 11
376.8019584441262
 21
268.7499991943948
 31
0.0
  0
LINE
  5
1207
330
11FD
100
AcDbEntity
  8
上線
100
AcDbLine
 10
356.8019584441262
 20
238.749999194395
 30
0.0
 11
906.8019584441262
 21
238.7499991943948
 31
0.0
  0
LINE
  5
1208
330
11FD
100
AcDbEntity
  8
上線
100
AcDbLine
 10
742.5111423778771
 20
338.749999194395
 30
0.0
 11
551.0927745103754
 21
338.7499991943948
 31
0.0
  0
TEXT
  5
1209
330
11FD
100
AcDbEntity
  8
点線
 62
     0
100
AcDbText
 10
447.4814065118716
 20
959.1646111938098
 30
0.0
 40
37.5
  1
50
100
AcDbText
  0
DIMENSION
  5
120A
330
11FD
100
AcDbEntity
  8
上線
100
AcDbDimension
  2
*D5
 10
176.8019584441262
 20
338.749999194395
 30
0.0
 11
148.6769584441262
 21
488.7499991943951
 31
0.0
 12
-185.2119000337807
 22
-1410.186501132784
 32
0.0
 71
     5
 42
-1.0
  3
STANDARD
100
AcDbAlignedDimension
 13
326.8019584441262
 23
638.7499991943951
 33
0.0
 14
326.8019584441262
 24
338.749999194395
 34
0.0
 50
90.0
100
AcDbRotatedDimension
1001
ACAD
1000
DSTYLE
1002
{
1070
    40
1040
15.0
1070
    41
1040
2.5
1070
    42
1040
0.625
1070
    43
1040
3.75
1070
    44
1040
1.25
1070
    73
1070
     0
1070
    74
1070
     0
1070
    77
1070
     1
1070
    78
1070
     8
1070
   140
1040
2.5
1070
   141
1040
2.5
1070
   143
1040
0.0394
1070
   147
1040
0.625
1070
   171
1070
     4
1070
   172
1070
     1
1070
   273
1070
     8
1070
   274
1070
     4
1070
   277
1070
     6
1002
}
  0
DIMENSION
  5
120B
330
11FD
100
AcDbEntity
  8
上線
100
AcDbDimension
  2
*D3
 10
56.80195844412629
 20
238.749999194395
 30
0.0
 11
28.67695844412628
 21
488.7499991943951
 31
0.0
 12
-185.2119000337807
 22
-1410.186501132784
 32
0.0
 71
     5
 42
-1.0
  3
STANDARD
100
AcDbAlignedDimension
 13
326.8019584441262
 23
738.7499991943951
 33
0.0
 14
326.8019584441262
 24
238.749999194395
 34
0.0
 50
90.0
100
AcDbRotatedDimension
1001
ACAD
1000
DSTYLE
1002
{
1070
    40
1040
15.0
1070
    41
1040
2.5
1070
    42
1040
0.625
1070
    43
1040
3.75
1070
    44
1040
1.25
1070
    73
1070
     0
1070
    74
1070
     0
1070
    77
1070
     1
1070
    78
1070
     8
1070
   140
1040
2.5
1070
   141
1040
2.5
1070
   143
1040
0.0394
1070
   147
1040
0.625
1070
   171
1070
     4
1070
   172
1070
     1
1070
   273
1070
     8
1070
   274
1070
     4
1070
   277
1070
     6
1002
}
  0
LWPOLYLINE
  5
120C
330
11FD
100
AcDbEntity
  8
上線
 48
10.0
100
AcDbPolyline
 90
        2
 70
     1
 43
5.0
 10
379.2719889762065
 20
489.0178669992764
 42
1.0
 10
384.2719889762065
 20
489.0178669992764
 42
1.0
  0
LINE
  5
120D
330
11FD
100
AcDbEntity
  8
上線
 48
10.0
100
AcDbLine
 10
376.8019584441262
 20
708.749999194395
 30
0.0
 11
376.8019584441262
 21
268.7499991943948
 31
0.0
  0
LINE
  5
120E
330
11FD
100
AcDbEntity
  8
上線
 48
10.0
100
AcDbLine
 10
487.5075223206668
 20
638.8170523762724
 30
0.0
 11
491.1190474833351
 21
378.0575644044877
 31
0.0
  0
LINE
  5
120F
330
11FD
100
AcDbEntity
  8
上線
100
AcDbLine
 10
346.8019584441262
 20
730.749999194395
 30
0.0
 11
346.8019584441262
 21
288.749999194395
 31
0.0
  0
LINE
  5
1210
330
11FD
100
AcDbEntity
  8
上線
100
AcDbLine
 10
501.0978757703997
 20
388.0357863552524
 30
0.0
 11
497.5905704406491
 21
633.5471594378032
 31
0.0
  0
DIMENSION
  5
1211
330
11FD
100
AcDbEntity
  8
上線
100
AcDbDimension
  2
*D6
 10
176.8019584441262
 20
238.749999194395
 30
0.0
 11
148.6769584441262
 21
288.749999194395
 31
0.0
 12
-185.2119000337807
 22
-1410.186501132784
 32
0.0
 71
     5
 42
-1.0
  3
STANDARD
100
AcDbAlignedDimension
 13
326.8019584441262
 23
338.749999194395
 33
0.0
 14
326.8019584441262
 24
238.749999194395
 34
0.0
 50
90.0
100
AcDbRotatedDimension
1001
ACAD
1000
DSTYLE
1002
{
1070
    40
1040
15.0
1070
    41
1040
2.5
1070
    42
1040
0.625
1070
    43
1040
3.75
1070
    44
1040
1.25
1070
    73
1070
     0
1070
    74
1070
     0
1070
    77
1070
     1
1070
    78
1070
     8
1070
   140
1040
2.5
1070
   141
1040
2.5
1070
   143
1040
0.0394
1070
   147
1040
0.625
1070
   171
1070
     4
1070
   172
1070
     1
1070
   273
1070
     8
1070
   274
1070
     4
1070
   277
1070
     6
1002
}
  0
LINE
  5
1212
330
11FD
100
AcDbEntity
  8
0
  6
ByBlock
 62
     0
 48
10.0
100
AcDbLine
 10
326.8019584441262
 20
238.7499991943948
 30
0.0
 11
118.004312830264
 21
238.749999194395
 31
0.0
  0
LINE
  5
1213
330
11FD
100
AcDbEntity
  8
0
  6
ByBlock
 62
     0
 48
10.0
100
AcDbLine
 10
310.5851574531898
 20
238.749999194395
 30
0.0
 11
211.6505481529238
 21
238.749999194395
 31
0.0
  0
LINE
  5
1214
330
11FD
100
AcDbEntity
  8
0
  6
ByBlock
 62
     0
 48
10.0
100
AcDbLine
 10
326.8019584441262
 20
338.749999194395
 30
0.0
 11
211.6505481529238
 21
338.749999194395
 31
0.0
  0
LINE
  5
1215
330
11FD
100
AcDbEntity
  8
0
  6
ByBlock
 62
     0
 48
10.0
100
AcDbLine
 10
310.5851574531898
 20
338.749999194395
 30
0.0
 11
211.6505481529238
 21
338.749999194395
 31
0.0
  0
POINT
  5
1216
330
11FD
100
AcDbEntity
  8
DEFPOINTS
  6
ByBlock
 62
     0
 48
10.0
100
AcDbPoint
 10
130.504312830264
 20
238.749999194395
 30
0.0
  0
POINT
  5
1217
330
11FD
100
AcDbEntity
  8
DEFPOINTS
  6
ByBlock
 62
     0
 48
10.0
100
AcDbPoint
 10
224.1505481529238
 20
238.749999194395
 30
0.0
  0
LINE
  5
1218
330
11FD
100
AcDbEntity
  8
点線
100
AcDbLine
 10
586.3855810592959
 20
338.7499991943948
 30
0.0
 11
596.3855810592958
 21
238.749999194395
 31
0.0
  0
LINE
  5
1219
330
11FD
100
AcDbEntity
  8
中心線
100
AcDbLine
 10
646.3855810592958
 20
429.016953178967
 30
0.0
 11
646.3855810592958
 21
184.1041986142136
 31
0.0
  0
LINE
  5
121A
330
11FD
100
AcDbEntity
  8
上線
100
AcDbLine
 10
346.8019584441262
 20
288.749999194395
 30
0.0
 11
346.8019584441262
 21
248.7499991943952
 31
0.0
  0
LINE
  5
121B
330
11FD
100
AcDbEntity
  8
上線
100
AcDbLine
 10
376.8019584441262
 20
159.374999194395
 30
0.0
 11
376.8019584441262
 21
218.749999194395
 31
0.0
  0
LINE
  5
121C
330
11FD
100
AcDbEntity
  8
上線
100
AcDbLine
 10
346.8019584441262
 20
159.374999194395
 30
0.0
 11
346.8019584441262
 21
218.749999194395
 31
0.0
  0
POINT
  5
121D
330
11FD
100
AcDbEntity
  8
DEFPOINTS
  6
ByBlock
 62
     0
 48
10.0
100
AcDbPoint
 10
346.8019584441262
 20
170.5442479055909
 30
0.0
  0
POINT
  5
121E
330
11FD
100
AcDbEntity
  8
DEFPOINTS
  6
ByBlock
 62
     0
 48
10.0
100
AcDbPoint
 10
346.8351574531898
 20
188.749999194395
 30
0.0
  0
POINT
  5
121F
330
11FD
100
AcDbEntity
  8
DEFPOINTS
  6
ByBlock
 62
     0
 48
10.0
100
AcDbPoint
 10
376.8019584441262
 20
170.5442479055909
 30
0.0
  0
POINT
  5
1220
330
11FD
100
AcDbEntity
  8
DEFPOINTS
  6
ByBlock
 62
     0
 48
10.0
100
AcDbPoint
 10
376.8019584441262
 20
161.4754788463706
 30
0.0
  0
LINE
  5
1221
330
11FD
100
AcDbEntity
  8
上線
100
AcDbLine
 10
346.8019584441262
 20
248.7499991943952
 30
0.0
 11
356.8019584441262
 21
238.7499991943952
 31
0.0
  0
POINT
  5
1222
330
11FD
100
AcDbEntity
  8
DEFPOINTS
  6
ByBlock
 62
     0
 48
10.0
100
AcDbPoint
 10
316.8351574531898
 20
238.749999194395
 30
0.0
  0
POINT
  5
1223
330
11FD
100
AcDbEntity
  8
DEFPOINTS
  6
ByBlock
 62
     0
 48
10.0
100
AcDbPoint
 10
566.3855810592958
 20
208.3903612838878
 30
0.0
  0
POINT
  5
1224
330
11FD
100
AcDbEntity
  8
DEFPOINTS
  6
ByBlock
 62
     0
 48
10.0
100
AcDbPoint
 10
551.8019584441263
 20
220.7708691052666
 30
0.0
  0
POINT
  5
1225
330
11FD
100
AcDbEntity
  8
DEFPOINTS
  6
ByBlock
 62
     0
 48
10.0
100
AcDbPoint
 10
541.8019584441262
 20
220.7708691052666
 30
0.0
  0
ARC
  5
1226
330
11FD
100
AcDbEntity
  8
上線
 48
10.0
100
AcDbCircle
 10
541.1142525940431
 20
378.749999194395
 30
0.0
 40
50.0
100
AcDbArc
 50
180.793497186031
 51
270.0
  0
POINT
  5
1227
330
11FD
100
AcDbEntity
  8
DEFPOINTS
  6
ByBlock
 62
     0
 48
10.0
100
AcDbPoint
 10
346.8351574531898
 20
288.749999194395
 30
0.0
  0
POINT
  5
1228
330
11FD
100
AcDbEntity
  8
DEFPOINTS
  6
ByBlock
 62
     0
 48
10.0
100
AcDbPoint
 10
346.8351574531898
 20
288.749999194395
 30
0.0
  0
LWPOLYLINE
  5
1229
330
11FD
100
AcDbEntity
  8
上線
 48
10.0
100
AcDbPolyline
 90
        2
 70
     1
 43
5.0
 10
379.2090076868389
 20
273.6041892555495
 42
1.0
 10
384.2090076868389
 20
273.6041892555495
 42
1.0
  0
ARC
  5
122A
330
11FD
100
AcDbEntity
  8
上線
100
AcDbCircle
 10
551.0927745103754
 20
388.7499991943948
 30
0.0
 40
50.0
100
AcDbArc
 50
180.8184554616886
 51
270.0
  0
LINE
  5
122B
330
11FD
100
AcDbEntity
  8
上線
 48
10.0
100
AcDbLine
 10
541.1142525940431
 20
328.749999194395
 30
0.0
 11
646.3855810592958
 21
328.749999194395
 31
0.0
  0
LWPOLYLINE
  5
122C
330
11FD
100
AcDbEntity
  8
上線
 48
10.0
100
AcDbPolyline
 90
        2
 70
     1
 43
5.0
 10
629.4676161832649
 20
273.6041892555495
 42
1.0
 10
634.4676161832649
 20
273.6041892555495
 42
1.0
  0
DIMENSION
  5
122D
330
11FD
100
AcDbEntity
  8
上線
100
AcDbDimension
  2
*D4
 10
176.8019584441262
 20
738.7499991943951
 30
0.0
 11
148.6769584441262
 21
688.7499991943951
 31
0.0
 12
-185.2119000337807
 22
-1410.186501132784
 32
0.0
 71
     5
 42
-1.0
  3
STANDARD
100
AcDbAlignedDimension
 13
326.8019584441262
 23
638.7499991943951
 33
0.0
 14
326.8019584441262
 24
738.7499991943951
 34
0.0
 50
90.0
100
AcDbRotatedDimension
1001
ACAD
1000
DSTYLE
1002
{
1070
    40
1040
15.0
1070
    41
1040
2.5
1070
    42
1040
0.625
1070
    43
1040
3.75
1070
    44
1040
1.25
1070
    73
1070
     0
1070
    74
1070
     0
1070
    77
1070
     1
1070
    78
1070
     8
1070
   140
1040
2.5
1070
   141
1040
2.5
1070
   143
1040
0.0394
1070
   147
1040
0.625
1070
   171
1070
     4
1070
   172
1070
     1
1070
   273
1070
     8
1070
   274
1070
     4
1070
   277
1070
     6
1002
}
  0
LINE
  5
122E
330
11FD
100
AcDbEntity
  8
0
  6
ByBlock
 62
     0
 48
10.0
100
AcDbLine
 10
310.5851574531898
 20
738.7499991943951
 30
0.0
 11
118.004312830264
 21
738.7499991943951
 31
0.0
  0
LINE
  5
122F
330
11FD
100
AcDbEntity
  8
0
  6
ByBlock
 62
     0
 48
10.0
100
AcDbLine
 10
326.8019584441262
 20
638.7499991943951
 30
0.0
 11
211.6505481529238
 21
638.7499991943951
 31
0.0
  0
LINE
  5
1230
330
11FD
100
AcDbEntity
  8
0
  6
ByBlock
 62
     0
 48
10.0
100
AcDbLine
 10
310.5851574531898
 20
738.7499991943951
 30
0.0
 11
211.6505481529238
 21
738.7499991943951
 31
0.0
  0
POINT
  5
1231
330
11FD
100
AcDbEntity
  8
DEFPOINTS
  6
ByBlock
 62
     0
 48
10.0
100
AcDbPoint
 10
224.1505481529238
 20
738.7499991943951
 30
0.0
  0
LINE
  5
1232
330
11FD
100
AcDbEntity
  8
上線
 48
10.0
100
AcDbLine
 10
446.8019584441263
 20
738.7499991943951
 30
0.0
 11
446.8019584441263
 21
688.7499991943951
 31
0.0
  0
ARC
  5
1233
330
11FD
100
AcDbEntity
  8
上線
100
AcDbCircle
 10
354.8019584441262
 20
730.749999194395
 30
0.0
 40
8.0
100
AcDbArc
 50
90.0
 51
180.0
  0
ARC
  5
1234
330
11FD
100
AcDbEntity
  8
上線
100
AcDbCircle
 10
496.8019584441263
 20
688.7499991943951
 30
0.0
 40
50.0
100
AcDbArc
 50
220.3081602875997
 51
258.4630409671845
  0
POINT
  5
1235
330
11FD
100
AcDbEntity
  8
DEFPOINTS
  6
ByBlock
 62
     0
 48
10.0
100
AcDbPoint
 10
346.8351574531898
 20
638.7499991943951
 30
0.0
  0
POINT
  5
1236
330
11FD
100
AcDbEntity
  8
DEFPOINTS
  6
ByBlock
 62
     0
 48
10.0
100
AcDbPoint
 10
346.8351574531898
 20
688.7499991943951
 30
0.0
  0
LWPOLYLINE
  5
1237
330
11FD
100
AcDbEntity
  8
上線
 48
10.0
100
AcDbPolyline
 90
        2
 70
     1
 43
5.0
 10
379.6245978165225
 20
709.0178669992765
 42
1.0
 10
384.6245978165225
 20
709.0178669992765
 42
1.0
  0
ARC
  5
1238
330
11FD
100
AcDbEntity
  8
上線
100
AcDbCircle
 10
496.8019584441263
 20
688.7499991943951
 30
0.0
 40
50.0
100
AcDbArc
 50
180.0
 51
220.3081602875999
  0
LINE
  5
1239
330
11FD
100
AcDbEntity
  8
上線
100
AcDbLine
 10
446.8019584441263
 20
638.7499991943951
 30
0.0
 11
446.8019584441263
 21
638.7499991943951
 31
0.0
  0
LINE
  5
123A
330
11FD
100
AcDbEntity
  8
上線
 48
10.0
100
AcDbLine
 10
489.8019584441263
 20
635.749999194395
 30
0.0
 11
497.5905704406486
 21
633.5471594378027
 31
0.0
  0
LINE
  5
123B
330
11FD
100
AcDbEntity
  8
上線
 48
10.0
100
AcDbLine
 10
486.8019584441262
 20
639.7602043387232
 30
0.0
 11
489.8019584441263
 21
635.749999194395
 31
0.0
  0
LINE
  5
123C
330
11FD
100
AcDbEntity
  8
上線
100
AcDbLine
 10
496.8019584441263
 20
638.7499991943951
 30
0.0
 11
496.8019584441263
 21
638.7499991943951
 31
0.0
  0
LINE
  5
123D
330
11FD
100
AcDbEntity
  8
上線
100
AcDbLine
 10
446.8019584441264
 20
908.749999194395
 30
0.0
 11
496.8019584441263
 21
908.749999194395
 31
0.0
  0
LINE
  5
123E
330
11FD
100
AcDbEntity
  8
0
  6
ByBlock
 62
     0
100
AcDbLine
 10
346.8019584441262
 20
768.1249991943951
 30
0.0
 11
346.8019584441262
 21
927.499999194395
 31
0.0
  0
LINE
  5
123F
330
11FD
100
AcDbEntity
  8
0
  6
ByBlock
 62
     0
100
AcDbLine
 10
446.8019584441264
 20
768.1249991943951
 30
0.0
 11
446.8019584441264
 21
927.499999194395
 31
0.0
  0
LINE
  5
1240
330
11FD
100
AcDbEntity
  8
0
  6
ByBlock
 62
     0
 48
10.0
100
AcDbLine
 10
446.8019584441264
 20
758.7499991943955
 30
0.0
 11
446.8019584441263
 21
876.9924315276494
 31
0.0
  0
LINE
  5
1241
330
11FD
100
AcDbEntity
  8
0
  6
ByBlock
 62
     0
 48
10.0
100
AcDbLine
 10
346.8019584441262
 20
758.749999194395
 30
0.0
 11
346.8019584441262
 21
964.784778851852
 31
0.0
  0
LINE
  5
1242
330
11FD
100
AcDbEntity
  8
0
  6
ByBlock
 62
     0
 48
10.0
100
AcDbLine
 10
446.8019584441263
 20
792.7558852392803
 30
0.0
 11
446.8019584441263
 21
876.9924315276494
 31
0.0
  0
LINE
  5
1243
330
11FD
100
AcDbEntity
  8
上線
100
AcDbLine
 10
446.8019584441263
 20
738.7499991943951
 30
0.0
 11
354.8019584441262
 21
738.7499991943951
 31
0.0
  0
POINT
  5
1244
330
11FD
100
AcDbEntity
  8
DEFPOINTS
  6
ByBlock
 62
     0
 48
10.0
100
AcDbPoint
 10
316.8351574531898
 20
738.7499991943951
 30
0.0
  0
POINT
  5
1245
330
11FD
100
AcDbEntity
  8
DEFPOINTS
  6
ByBlock
 62
     0
100
AcDbPoint
 10
346.8019584441262
 20
758.749999194395
 30
0.0
  0
POINT
  5
1246
330
11FD
100
AcDbEntity
  8
DEFPOINTS
  6
ByBlock
 62
     0
 48
10.0
100
AcDbPoint
 10
346.8351574531898
 20
738.7499991943951
 30
0.0
  0
POINT
  5
1247
330
11FD
100
AcDbEntity
  8
DEFPOINTS
  6
ByBlock
 62
     0
 48
10.0
100
AcDbPoint
 10
376.8019584441262
 20
736.5058852392803
 30
0.0
  0
POINT
  5
1248
330
11FD
100
AcDbEntity
  8
DEFPOINTS
  6
ByBlock
 62
     0
 48
10.0
100
AcDbPoint
 10
376.8019584441262
 20
736.5058852392803
 30
0.0
  0
POINT
  5
1249
330
11FD
100
AcDbEntity
  8
DEFPOINTS
  6
ByBlock
 62
     0
100
AcDbPoint
 10
446.8019584441264
 20
758.749999194395
 30
0.0
  0
POINT
  5
124A
330
11FD
100
AcDbEntity
  8
DEFPOINTS
  6
ByBlock
 62
     0
 48
10.0
100
AcDbPoint
 10
446.8019584441263
 20
736.5058852392803
 30
0.0
  0
POINT
  5
124B
330
11FD
100
AcDbEntity
  8
DEFPOINTS
  6
ByBlock
 62
     0
 48
10.0
100
AcDbPoint
 10
446.8019584441263
 20
736.5058852392803
 30
0.0
  0
MTEXT
  5
124C
330
11FD
100
AcDbEntity
  8
0
  6
ByBlock
 62
     0
100
AcDbMText
 10
396.8019584441262
 20
936.874999194395
 30
0.0
 40
37.5
 41
0.0
 71
     5
 72
     1
  1
\A1;100
 73
     1
 44
1.0
  0
LINE
  5
124D
330
11FD
100
AcDbEntity
  8
0
  6
ByBlock
 62
     0
100
AcDbLine
 10
409.3019584441264
 20
908.749999194395
 30
0.0
 11
384.3019584441262
 21
908.749999194395
 31
0.0
  0
SOLID
  5
124E
330
11FD
100
AcDbEntity
  8
0
  6
ByBlock
 62
     0
100
AcDbTrace
 10
384.3019584441262
 20
914.999999194395
 30
0.0
 11
384.3019584441262
 21
902.499999194395
 31
0.0
 12
346.8019584441262
 22
908.749999194395
 32
0.0
 13
346.8019584441262
 23
908.749999194395
 33
0.0
  0
POINT
  5
124F
330
11FD
100
AcDbEntity
  8
DEFPOINTS
  6
ByBlock
 62
     0
100
AcDbPoint
 10
346.8019584441262
 20
908.749999194395
 30
0.0
  0
SOLID
  5
1250
330
11FD
100
AcDbEntity
  8
0
  6
ByBlock
 62
     0
100
AcDbTrace
 10
409.3019584441264
 20
914.999999194395
 30
0.0
 11
409.3019584441264
 21
902.499999194395
 31
0.0
 12
446.8019584441264
 22
908.749999194395
 32
0.0
 13
446.8019584441264
 23
908.749999194395
 33
0.0
  0
LINE
  5
1251
330
11FD
100
AcDbEntity
  8
0
  6
ByBlock
 62
     0
 48
10.0
100
AcDbLine
 10
496.8019584441263
 20
758.7499991943955
 30
0.0
 11
496.8019584441263
 21
876.9924315276494
 31
0.0
  0
LINE
  5
1252
330
11FD
100
AcDbEntity
  8
0
  6
ByBlock
 62
     0
 48
10.0
100
AcDbLine
 10
496.8019584441263
 20
792.7558852392803
 30
0.0
 11
496.8019584441263
 21
876.9924315276494
 31
0.0
  0
POINT
  5
1253
330
11FD
100
AcDbEntity
  8
DEFPOINTS
  6
ByBlock
 62
     0
 48
10.0
100
AcDbPoint
 10
496.8019584441263
 20
864.4924315276494
 30
0.0
  0
MTEXT
  5
1254
330
11FD
100
AcDbEntity
  8
0
  6
ByBlock
 62
     0
 48
10.0
100
AcDbMText
 10
817.1331735409131
 20
976.2033045666139
 30
0.0
 40
37.5
 41
0.0
 71
     5
 72
     1
  1
\A1;50
 73
     1
 44
1.0
  0
DIMENSION
  5
1255
330
11FD
100
AcDbEntity
  8
上線
100
AcDbDimension
  2
*D9
 10
1086.801958444126
 20
268.749999194395
 30
0.0
 11
1058.676958444126
 21
488.7499991943951
 31
0.0
 12
-185.2119000337807
 22
-1410.186501132784
 32
0.0
  1
2@220=<>
 71
     5
 42
-1.0
  3
STANDARD
100
AcDbAlignedDimension
 13
936.8019584441263
 23
708.749999194395
 33
0.0
 14
936.8019584441263
 24
268.749999194395
 34
0.0
 50
90.0
100
AcDbRotatedDimension
1001
ACAD
1000
DSTYLE
1002
{
1070
    40
1040
15.0
1070
    41
1040
2.5
1070
    42
1040
0.625
1070
    43
1040
3.75
1070
    44
1040
1.25
1070
    73
1070
     0
1070
    74
1070
     0
1070
    77
1070
     1
1070
    78
1070
     8
1070
   140
1040
2.5
1070
   141
1040
2.5
1070
   143
1040
0.0394
1070
   147
1040
0.625
1070
   171
1070
     4
1070
   172
1070
     1
1070
   273
1070
     8
1070
   274
1070
     4
1070
   277
1070
     6
1002
}
  0
LWPOLYLINE
  5
1256
330
11FD
100
AcDbEntity
  8
上線
 48
10.0
100
AcDbPolyline
 90
        2
 70
     1
 43
5.0
 10
879.244219360835
 20
489.0178669992764
 42
1.0
 10
884.2442193608349
 20
489.0178669992764
 42
1.0
  0
LINE
  5
1257
330
11FD
100
AcDbEntity
  8
上線
 48
10.0
100
AcDbLine
 10
886.8019584441263
 20
708.749999194395
 30
0.0
 11
886.8019584441263
 21
268.749999194395
 31
0.0
  0
LINE
  5
1258
330
11FD
100
AcDbEntity
  8
上線
100
AcDbLine
 10
916.8019584441262
 20
730.749999194395
 30
0.0
 11
916.8019584441262
 21
288.749999194395
 31
0.0
  0
LINE
  5
1259
330
11FD
100
AcDbEntity
  8
上線
100
AcDbLine
 10
796.0130400122903
 20
633.5257089658816
 30
0.0
 11
792.5060411178528
 21
388.0357863552526
 31
0.0
  0
DIMENSION
  5
125A
330
11FD
100
AcDbEntity
  8
上線
100
AcDbDimension
  2
*D10
 10
1086.801958444126
 20
238.749999194395
 30
0.0
 11
1058.676958444126
 21
130.3581452618107
 31
0.0
 12
-185.2119000337807
 22
-1410.186501132784
 32
0.0
 71
     5
 42
-1.0
  3
STANDARD
100
AcDbAlignedDimension
 13
936.8019584441263
 23
268.749999194395
 33
0.0
 14
936.8019584441263
 24
238.749999194395
 34
0.0
 50
90.0
100
AcDbRotatedDimension
1001
ACAD
1000
DSTYLE
1002
{
1070
    40
1040
15.0
1070
    41
1040
2.5
1070
    42
1040
0.625
1070
    43
1040
3.75
1070
    44
1040
1.25
1070
    73
1070
     0
1070
    74
1070
     0
1070
    77
1070
     1
1070
    78
1070
     8
1070
   140
1040
2.5
1070
   141
1040
2.5
1070
   143
1040
0.0394
1070
   147
1040
0.625
1070
   171
1070
     4
1070
   172
1070
     1
1070
   273
1070
     8
1070
   274
1070
     4
1070
   277
1070
     6
1002
}
  0
LINE
  5
125B
330
11FD
100
AcDbEntity
  8
0
  6
ByBlock
 62
     0
 48
10.0
100
AcDbLine
 10
984.5575333859907
 20
268.749999194395
 30
0.0
 11
1066.654704827582
 21
268.749999194395
 31
0.0
  0
LINE
  5
125C
330
11FD
100
AcDbEntity
  8
0
  6
ByBlock
 62
     0
 48
10.0
100
AcDbLine
 10
984.5575333859907
 20
238.749999194395
 30
0.0
 11
1066.654704827582
 21
238.749999194395
 31
0.0
  0
LINE
  5
125D
330
11FD
100
AcDbEntity
  8
0
  6
ByBlock
 62
     0
 48
10.0
100
AcDbLine
 10
984.5575333859907
 20
268.749999194395
 30
0.0
 11
1066.654704827582
 21
268.749999194395
 31
0.0
  0
LINE
  5
125E
330
11FD
100
AcDbEntity
  8
点線
100
AcDbLine
 10
706.8095288968443
 20
338.749999194395
 30
0.0
 11
696.3855810592958
 21
238.749999194395
 31
0.0
  0
LINE
  5
125F
330
11FD
100
AcDbEntity
  8
上線
100
AcDbLine
 10
916.8019584441262
 20
248.7499991943948
 30
0.0
 11
916.8019584441262
 21
288.749999194395
 31
0.0
  0
POINT
  5
1260
330
11FD
100
AcDbEntity
  8
DEFPOINTS
  6
ByBlock
 62
     0
 48
10.0
100
AcDbPoint
 10
741.8019584441262
 20
220.7708691052666
 30
0.0
  0
POINT
  5
1261
330
11FD
100
AcDbEntity
  8
DEFPOINTS
  6
ByBlock
 62
     0
 48
10.0
100
AcDbPoint
 10
751.8019584441263
 20
220.7708691052666
 30
0.0
  0
LINE
  5
1262
330
11FD
100
AcDbEntity
  8
上線
100
AcDbLine
 10
916.8019584441262
 20
159.374999194395
 30
0.0
 11
916.8019584441262
 21
218.749999194395
 31
0.0
  0
LINE
  5
1263
330
11FD
100
AcDbEntity
  8
上線
100
AcDbLine
 10
886.8019584441263
 20
159.374999194395
 30
0.0
 11
886.8019584441263
 21
218.749999194395
 31
0.0
  0
LINE
  5
1264
330
11FD
100
AcDbEntity
  8
上線
100
AcDbLine
 10
916.8019584441262
 20
248.7499991943948
 30
0.0
 11
906.8019584441262
 21
238.7499991943948
 31
0.0
  0
POINT
  5
1265
330
11FD
100
AcDbEntity
  8
DEFPOINTS
  6
ByBlock
 62
     0
 48
10.0
100
AcDbPoint
 10
978.3075333859907
 20
218.749999194395
 30
0.0
  0
POINT
  5
1266
330
11FD
100
AcDbEntity
  8
DEFPOINTS
  6
ByBlock
 62
     0
 48
10.0
100
AcDbPoint
 10
978.3075333859907
 20
218.749999194395
 30
0.0
  0
ARC
  5
1267
330
11FD
100
AcDbEntity
  8
上線
100
AcDbCircle
 10
742.5111423778771
 20
388.749999194395
 30
0.0
 40
50.0
100
AcDbArc
 50
270.0
 51
359.1815445383113
  0
LWPOLYLINE
  5
1268
330
11FD
100
AcDbEntity
  8
上線
 48
10.0
100
AcDbPolyline
 90
        2
 70
     1
 43
5.0
 10
879.244219360835
 20
273.6041892555495
 42
1.0
 10
884.2442193608349
 20
273.6041892555495
 42
1.0
  0
POINT
  5
1269
330
11FD
100
AcDbEntity
  8
DEFPOINTS
  6
ByBlock
 62
     0
 48
10.0
100
AcDbPoint
 10
950.7242605683041
 20
308.749999194395
 30
0.0
  0
POINT
  5
126A
330
11FD
100
AcDbEntity
  8
DEFPOINTS
  6
ByBlock
 62
     0
 48
10.0
100
AcDbPoint
 10
978.3075333859907
 20
288.749999194395
 30
0.0
  0
POINT
  5
126B
330
11FD
100
AcDbEntity
  8
DEFPOINTS
  6
ByBlock
 62
     0
 48
10.0
100
AcDbPoint
 10
978.3075333859907
 20
258.749999194395
 30
0.0
  0
POINT
  5
126C
330
11FD
100
AcDbEntity
  8
DEFPOINTS
  6
ByBlock
 62
     0
 48
10.0
100
AcDbPoint
 10
978.3075333859907
 20
258.749999194395
 30
0.0
  0
POINT
  5
126D
330
11FD
100
AcDbEntity
  8
DEFPOINTS
  6
ByBlock
 62
     0
 48
10.0
100
AcDbPoint
 10
950.7242605683041
 20
488.7499991943951
 30
0.0
  0
POINT
  5
126E
330
11FD
100
AcDbEntity
  8
DEFPOINTS
  6
ByBlock
 62
     0
 48
10.0
100
AcDbPoint
 10
950.7242605683041
 20
488.7499991943951
 30
0.0
  0
POINT
  5
126F
330
11FD
100
AcDbEntity
  8
DEFPOINTS
  6
ByBlock
 62
     0
 48
10.0
100
AcDbPoint
 10
1054.154704827582
 20
238.749999194395
 30
0.0
  0
POINT
  5
1270
330
11FD
100
AcDbEntity
  8
DEFPOINTS
  6
ByBlock
 62
     0
 48
10.0
100
AcDbPoint
 10
1054.154704827582
 20
258.749999194395
 30
0.0
  0
DIMENSION
  5
1271
330
11FD
100
AcDbEntity
  8
上線
100
AcDbDimension
  2
*D8
 10
1086.801958444126
 20
738.7499991943951
 30
0.0
 11
1058.676958444126
 21
847.1418531269792
 31
0.0
 12
-185.2119000337807
 22
-1410.186501132784
 32
0.0
 71
     5
 42
-1.0
  3
STANDARD
100
AcDbAlignedDimension
 13
936.8019584441263
 23
708.749999194395
 33
0.0
 14
936.8019584441263
 24
738.7499991943951
 34
0.0
 50
90.0
100
AcDbRotatedDimension
1001
ACAD
1000
DSTYLE
1002
{
1070
    40
1040
15.0
1070
    41
1040
2.5
1070
    42
1040
0.625
1070
    43
1040
3.75
1070
    44
1040
1.25
1070
    73
1070
     0
1070
    74
1070
     0
1070
    77
1070
     1
1070
    78
1070
     8
1070
   140
1040
2.5
1070
   141
1040
2.5
1070
   143
1040
0.0394
1070
   147
1040
0.625
1070
   171
1070
     4
1070
   172
1070
     1
1070
   273
1070
     8
1070
   274
1070
     4
1070
   277
1070
     6
1002
}
  0
LINE
  5
1272
330
11FD
100
AcDbEntity
  8
0
  6
ByBlock
 62
     0
 48
10.0
100
AcDbLine
 10
956.9742605683041
 20
708.749999194395
 30
0.0
 11
1066.288661039127
 21
708.749999194395
 31
0.0
  0
LINE
  5
1273
330
11FD
100
AcDbEntity
  8
上線
 48
10.0
100
AcDbLine
 10
846.8019584441263
 20
738.7499991943951
 30
0.0
 11
846.8019584441263
 21
688.7499991943951
 31
0.0
  0
ARC
  5
1274
330
11FD
100
AcDbEntity
  8
上線
100
AcDbCircle
 10
908.8019584441262
 20
730.749999194395
 30
0.0
 40
8.0
100
AcDbArc
 50
0.0
 51
90.0
  0
ARC
  5
1275
330
11FD
100
AcDbEntity
  8
上線
100
AcDbCircle
 10
796.8019584441263
 20
688.7499991943951
 30
0.0
 40
50.0
100
AcDbArc
 50
303.4316350040887
 51
0.0
  0
LINE
  5
1276
330
11FD
100
AcDbEntity
  8
上線
 48
10.0
100
AcDbLine
 10
796.8019584441263
 20
633.749999194395
 30
0.0
 11
796.7305298726978
 21
633.749999194395
 31
0.0
  0
LINE
  5
1277
330
11FD
100
AcDbEntity
  8
上線
 48
10.0
100
AcDbLine
 10
803.8367582841861
 20
635.749999194395
 30
0.0
 11
796.0130400122903
 21
633.5257089658816
 31
0.0
  0
LINE
  5
1278
330
11FD
100
AcDbEntity
  8
上線
 48
10.0
100
AcDbLine
 10
806.8019584441262
 20
639.7602043387315
 30
0.0
 11
803.8367582841861
 21
635.749999194395
 31
0.0
  0
ARC
  5
1279
330
11FD
100
AcDbEntity
  8
上線
100
AcDbCircle
 10
796.8019584441263
 20
688.7499991943951
 30
0.0
 40
50.0
100
AcDbArc
 50
281.5369590328155
 51
303.4316350040884
  0
LINE
  5
127A
330
11FD
100
AcDbEntity
  8
上線
100
AcDbLine
 10
796.8019584441263
 20
638.7499991943951
 30
0.0
 11
796.8019584441263
 21
638.7499991943951
 31
0.0
  0
LINE
  5
127B
330
11FD
100
AcDbEntity
  8
上線
100
AcDbLine
 10
846.8019584441263
 20
638.7499991943951
 30
0.0
 11
846.8019584441263
 21
638.7499991943951
 31
0.0
  0
LWPOLYLINE
  5
127C
330
11FD
100
AcDbEntity
  8
上線
 48
10.0
100
AcDbPolyline
 90
        2
 70
     1
 43
5.0
 10
879.244219360835
 20
709.0178669992765
 42
1.0
 10
884.2442193608349
 20
709.0178669992765
 42
1.0
  0
POINT
  5
127D
330
11FD
100
AcDbEntity
  8
DEFPOINTS
  6
ByBlock
 62
     0
 48
10.0
100
AcDbPoint
 10
950.7242605683041
 20
708.749999194395
 30
0.0
  0
LINE
  5
127E
330
11FD
100
AcDbEntity
  8
0
  6
ByBlock
 62
     0
100
AcDbLine
 10
846.8019584441263
 20
908.749999194395
 30
0.0
 11
771.8019584441263
 21
908.749999194395
 31
0.0
  0
LINE
  5
127F
330
11FD
100
AcDbEntity
  8
0
  6
ByBlock
 62
     0
 48
10.0
100
AcDbLine
 10
796.8019584441263
 20
758.7499991943955
 30
0.0
 11
796.8019584441263
 21
876.9924315276494
 31
0.0
  0
LINE
  5
1280
330
11FD
100
AcDbEntity
  8
0
  6
ByBlock
 62
     0
 48
10.0
100
AcDbLine
 10
796.8019584441263
 20
792.7558852392803
 30
0.0
 11
796.8019584441263
 21
876.9924315276494
 31
0.0
  0
POINT
  5
1281
330
11FD
100
AcDbEntity
  8
DEFPOINTS
  6
ByBlock
 62
     0
 48
10.0
100
AcDbPoint
 10
796.8019584441263
 20
864.4924315276494
 30
0.0
  0
LINE
  5
1282
330
11FD
100
AcDbEntity
  8
0
  6
ByBlock
 62
     0
100
AcDbLine
 10
916.8019584441262
 20
768.1249991943951
 30
0.0
 11
916.8019584441262
 21
927.499999194395
 31
0.0
  0
LINE
  5
1283
330
11FD
100
AcDbEntity
  8
0
  6
ByBlock
 62
     0
100
AcDbLine
 10
846.8019584441263
 20
768.1249991943951
 30
0.0
 11
846.8019584441263
 21
927.499999194395
 31
0.0
  0
LINE
  5
1284
330
11FD
100
AcDbEntity
  8
0
  6
ByBlock
 62
     0
 48
10.0
100
AcDbLine
 10
916.8019584441262
 20
792.7558852392803
 30
0.0
 11
916.8019584441262
 21
878.6391810007971
 31
0.0
  0
LINE
  5
1285
330
11FD
100
AcDbEntity
  8
0
  6
ByBlock
 62
     0
 48
10.0
100
AcDbLine
 10
846.8019584441263
 20
758.749999194395
 30
0.0
 11
846.8019584441263
 21
878.6391810007971
 31
0.0
  0
LINE
  5
1286
330
11FD
100
AcDbEntity
  8
0
  6
ByBlock
 62
     0
 48
10.0
100
AcDbLine
 10
846.8019584441263
 20
792.7558852392803
 30
0.0
 11
846.8019584441263
 21
876.9924315276494
 31
0.0
  0
LINE
  5
1287
330
11FD
100
AcDbEntity
  8
0
  6
ByBlock
 62
     0
 48
10.0
100
AcDbLine
 10
916.8019584441262
 20
758.749999194395
 30
0.0
 11
916.8019584441262
 21
964.784778851852
 31
0.0
  0
LINE
  5
1288
330
11FD
100
AcDbEntity
  8
上線
100
AcDbLine
 10
846.8019584441263
 20
738.7499991943951
 30
0.0
 11
908.8019584441262
 21
738.7499991943951
 31
0.0
  0
POINT
  5
1289
330
11FD
100
AcDbEntity
  8
DEFPOINTS
  6
ByBlock
 62
     0
100
AcDbPoint
 10
846.8019584441263
 20
758.749999194395
 30
0.0
  0
POINT
  5
128A
330
11FD
100
AcDbEntity
  8
DEFPOINTS
  6
ByBlock
 62
     0
 48
10.0
100
AcDbPoint
 10
846.8019584441263
 20
736.5058852392803
 30
0.0
  0
POINT
  5
128B
330
11FD
100
AcDbEntity
  8
DEFPOINTS
  6
ByBlock
 62
     0
 48
10.0
100
AcDbPoint
 10
846.8019584441263
 20
736.5058852392803
 30
0.0
  0
POINT
  5
128C
330
11FD
100
AcDbEntity
  8
DEFPOINTS
  6
ByBlock
 62
     0
100
AcDbPoint
 10
916.8019584441262
 20
758.749999194395
 30
0.0
  0
POINT
  5
128D
330
11FD
100
AcDbEntity
  8
DEFPOINTS
  6
ByBlock
 62
     0
 48
10.0
100
AcDbPoint
 10
916.8019584441262
 20
736.5058852392803
 30
0.0
  0
POINT
  5
128E
330
11FD
100
AcDbEntity
  8
DEFPOINTS
  6
ByBlock
 62
     0
 48
10.0
100
AcDbPoint
 10
916.8019584441262
 20
736.5058852392803
 30
0.0
  0
SOLID
  5
128F
330
11FD
100
AcDbEntity
  8
0
  6
ByBlock
 62
     0
100
AcDbTrace
 10
954.3019584441262
 20
914.999999194395
 30
0.0
 11
954.3019584441262
 21
902.499999194395
 31
0.0
 12
916.8019584441262
 22
908.749999194395
 32
0.0
 13
916.8019584441262
 23
908.749999194395
 33
0.0
  0
MTEXT
  5
1290
330
11FD
100
AcDbEntity
  8
0
  6
ByBlock
 62
     0
100
AcDbMText
 10
881.8019584441262
 20
936.874999194395
 30
0.0
 40
37.5
 41
0.0
 71
     5
 72
     1
  1
\A1;70
 73
     1
 44
1.0
  0
LINE
  5
1291
330
11FD
100
AcDbEntity
  8
0
  6
ByBlock
 62
     0
100
AcDbLine
 10
846.8019584441263
 20
908.749999194395
 30
0.0
 11
916.8019584441262
 21
908.749999194395
 31
0.0
  0
LWPOLYLINE
  5
1292
330
11FD
100
AcDbEntity
  8
上線
100
AcDbPolyline
 90
        2
 70
     1
 43
7.5
 10
843.0519584441263
 20
908.749999194395
 42
1.0
 10
850.5519584441262
 20
908.749999194395
 42
1.0
  0
POINT
  5
1293
330
11FD
100
AcDbEntity
  8
DEFPOINTS
  6
ByBlock
 62
     0
 48
10.0
100
AcDbPoint
 10
846.8019584441263
 20
864.4924315276494
 30
0.0
  0
POINT
  5
1294
330
11FD
100
AcDbEntity
  8
DEFPOINTS
  6
ByBlock
 62
     0
100
AcDbPoint
 10
916.8019584441262
 20
908.749999194395
 30
0.0
  0
POINT
  5
1295
330
11FD
100
AcDbEntity
  8
DEFPOINTS
  6
ByBlock
 62
     0
 48
10.0
100
AcDbPoint
 10
916.8019584441262
 20
866.1391810007971
 30
0.0
  0
POINT
  5
1296
330
11FD
100
AcDbEntity
  8
DEFPOINTS
  6
ByBlock
 62
     0
 48
10.0
100
AcDbPoint
 10
916.8019584441262
 20
952.284778851852
 30
0.0
  0
LINE
  5
1297
330
11FD
100
AcDbEntity
  8
0
  6
ByBlock
 62
     0
100
AcDbLine
 10
954.3019584441262
 20
908.749999194395
 30
0.0
 11
991.8019584441262
 21
908.749999194395
 31
0.0
  0
ENDBLK
  5
1299
330
11FD
100
AcDbEntity
  8
0
100
AcDbBlockEnd
  0
ENDSEC
  0
SECTION
  2
ENTITIES
  0
MTEXT
  5
479
330
18
100
AcDbEntity
  8
上線
 48
10.0
100
AcDbMText
 10
2253.72144281457
 20
1430.035937614872
 30
0.0
 40
25.0
 41
0.0
 71
     4
 72
     1
  1
\A1;
 73
     1
 44
1.0
  0
MTEXT
  5
482
330
18
100
AcDbEntity
  8
上線
 48
10.0
100
AcDbMText
 10
2528.397580071227
 20
1457.117940756564
 30
0.0
 40
25.0
 41
0.0
 71
     4
 72
     1
  1
\A1;
 73
     1
 44
1.0
  0
LINE
  5
17D4
330
18
100
AcDbEntity
  8
上線
 48
10.0
100
AcDbLine
 10
5597.817640158591
 20
1794.462779201896
 30
0.0
 11
5592.923706392193
 21
1493.758828871313
 31
0.0
  0
LINE
  5
17D5
330
18
100
AcDbEntity
  8
上線
 48
10.0
100
AcDbLine
 10
5607.81764015859
 20
1794.462779201896
 30
0.0
 11
5602.922686140187
 21
1493.615986303483
 31
0.0
  0
LINE
  5
17D6
330
18
100
AcDbEntity
  8
0
 48
10.0
100
AcDbLine
 10
5592.454392892783
 20
1638.462764608696
 30
0.0
 11
5592.454392892783
 21
1758.462764608696
 31
0.0
  0
LINE
  5
17D7
330
18
100
AcDbEntity
  8
上線
 48
10.0
100
AcDbLine
 10
5287.454362048002
 20
1794.462779201896
 30
0.0
 11
5292.349316066406
 21
1493.615986303483
 31
0.0
  0
LINE
  5
17D8
330
18
100
AcDbEntity
  8
上線
 48
10.0
100
AcDbLine
 10
5297.454362048003
 20
1794.462779201896
 30
0.0
 11
5302.3482958144
 21
1493.758828871313
 31
0.0
  0
LINE
  5
17D9
330
18
100
AcDbEntity
  8
0
 48
10.0
100
AcDbLine
 10
5302.454392892738
 20
1638.462764608696
 30
0.0
 11
5302.454392892738
 21
1758.462764608696
 31
0.0
  0
LINE
  5
17DA
330
18
100
AcDbEntity
  8
OBJECT
 48
10.0
100
AcDbLine
 10
4848.954370850958
 20
1344.462779201852
 30
0.0
 11
4848.954370850958
 21
1894.462779201896
 31
0.0
  0
LINE
  5
17DB
330
18
100
AcDbEntity
  8
OBJECT
 48
10.0
100
AcDbLine
 10
4998.954379614382
 20
1344.462779201852
 30
0.0
 11
4998.95437961438
 21
1894.462779201896
 31
0.0
  0
LINE
  5
17DC
330
18
100
AcDbEntity
  8
WUWAGAKI
100
AcDbLine
 10
8883.13547268831
 20
325.9558478421431
 30
0.0
 11
8883.13547268831
 21
3252.105699638267
 31
0.0
  0
LINE
  5
17DD
330
18
100
AcDbEntity
  8
OBJECT
100
AcDbLine
 10
8547.454362048004
 20
1894.462779201895
 30
0.0
 11
8547.454362048004
 21
1344.462779201896
 31
0.0
  0
LINE
  5
17DE
330
18
100
AcDbEntity
  8
OBJECT
100
AcDbLine
 10
6047.454362048004
 20
1894.462779201896
 30
0.0
 11
6047.454362048004
 21
1344.462779201895
 31
0.0
  0
LINE
  5
17DF
330
18
100
AcDbEntity
  8
OBJECT
100
AcDbLine
 10
5177.454362048003
 20
1894.462779201896
 30
0.0
 11
5177.454362048002
 21
1354.462779201896
 31
0.0
  0
LINE
  5
17E0
330
18
100
AcDbEntity
  8
OBJECT
100
AcDbLine
 10
5747.454362048003
 20
1894.462779201896
 30
0.0
 11
5747.454362048003
 21
1354.462779201896
 31
0.0
  0
SPLINE
  5
17E1
330
18
100
AcDbEntity
  8
上線
100
AcDbSpline
210
0.0
220
0.0
230
1.0
 70
     8
 71
     3
 72
    12
 73
     8
 74
     0
 42
0.0000000001
 43
0.0000000001
 40
119.1292141312075
 40
119.1292141312075
 40
119.1292141312075
 40
119.1292141312075
 40
220.1628261824348
 40
457.3418940607759
 40
679.6442565586878
 40
726.7976437010402
 40
752.9737075471701
 40
752.9737075471701
 40
752.9737075471701
 40
752.9737075471701
 10
7736.514840530333
 20
1344.462779201898
 30
0.0
 10
7758.302408327532
 20
1401.415955987674
 30
0.0
 10
7897.477089883942
 20
1502.431610948553
 30
0.0
 10
7616.26481490839
 20
1671.361998609575
 30
0.0
 10
7736.772136130331
 20
1783.659576825888
 30
0.0
 10
7799.011326280728
 20
1867.150598916154
 30
0.0
 10
7801.224516694289
 20
1887.321249337865
 30
0.0
 10
7790.573789571507
 20
1894.462779201896
 30
0.0
  0
SPLINE
  5
17E2
330
18
100
AcDbEntity
  8
上線
100
AcDbSpline
210
0.0
220
0.0
230
1.0
 70
     8
 71
     3
 72
    12
 73
     8
 74
     0
 42
0.0000000001
 43
0.0000000001
 40
119.1292141312069
 40
119.1292141312069
 40
119.1292141312069
 40
119.1292141312069
 40
220.1628261824348
 40
457.3418940607759
 40
679.6442565586878
 40
726.7976437010402
 40
752.9737075471708
 40
752.9737075471708
 40
752.9737075471708
 40
752.9737075471708
 10
7751.514840530333
 20
1344.462779201897
 30
0.0
 10
7773.302408327532
 20
1401.415955987674
 30
0.0
 10
7912.477089883942
 20
1502.431610948553
 30
0.0
 10
7631.264814908391
 20
1671.361998609575
 30
0.0
 10
7751.77213613033
 20
1783.659576825888
 30
0.0
 10
7814.011326280727
 20
1867.150598916155
 30
0.0
 10
7816.224516694288
 20
1887.321249337865
 30
0.0
 10
7805.573789571507
 20
1894.462779201896
 30
0.0
  0
LINE
  5
17E3
330
18
100
AcDbEntity
  8
WUWAGAKI
100
AcDbLine
 10
4612.416554061392
 20
3252.105699638267
 30
0.0
 11
4612.416554061392
 21
325.9558478421431
 31
0.0
  0
LINE
  5
17E4
330
18
100
AcDbEntity
  8
点線
100
AcDbLine
 10
7803.268974154568
 20
1444.462779201896
 30
0.0
 11
6047.454362048004
 21
1444.462779201896
 31
0.0
  0
LINE
  5
17E5
330
18
100
AcDbEntity
  8
上線
 48
10.0
100
AcDbLine
 10
6047.454362048004
 20
1354.462779201896
 30
0.0
 11
7740.654266126864
 21
1354.462779201896
 31
0.0
  0
LINE
  5
17E6
330
18
100
AcDbEntity
  8
上線
 48
10.0
100
AcDbLine
 10
6047.454362048004
 20
1344.462779201895
 30
0.0
 11
7736.514840530334
 21
1344.462779201897
 31
0.0
  0
LINE
  5
17E7
330
18
100
AcDbEntity
  8
WUWAGAKI
100
AcDbLine
 10
4612.416554061392
 20
325.9558478421431
 30
0.0
 11
8883.13547268831
 21
325.9558478421431
 31
0.0
  0
SOLID
  5
17E8
330
18
100
AcDbEntity
  8
0
  6
ByBlock
 62
     0
 48
10.0
100
AcDbTrace
 10
5005.204362087539
 20
1406.962779201847
 30
0.0
 11
4992.70436208754
 21
1406.962779201847
 31
0.0
 12
4998.954362087537
 22
1444.462779201846
 32
0.0
 13
4998.954362087537
 23
1444.462779201846
 33
0.0
  0
MTEXT
  5
17E9
330
18
100
AcDbEntity
  8
0
  6
ByBlock
 62
     0
 48
10.0
100
AcDbMText
 10
4968.954377637848
 20
1394.462779201852
 30
0.0
 40
37.5
 41
0.0
 71
     5
 72
     1
  1
100
 11
0.0000000000000001
 21
1.0
 31
0.0
 73
     1
 44
1.0
  0
LINE
  5
17EA
330
18
100
AcDbEntity
  8
0
 48
10.0
100
AcDbLine
 10
5148.954370850962
 20
1344.462779201852
 30
0.0
 11
4818.954370850962
 21
1344.462779201852
 31
0.0
  0
SOLID
  5
17EB
330
18
100
AcDbEntity
  8
0
  6
ByBlock
 62
     0
 48
10.0
100
AcDbTrace
 10
4855.204370850957
 20
1381.962779201874
 30
0.0
 11
4842.704370850957
 21
1381.962779201874
 31
0.0
 12
4848.954370850957
 22
1344.462779201874
 32
0.0
 13
4848.954370850957
 23
1344.462779201874
 33
0.0
  0
SOLID
  5
17EC
330
18
100
AcDbEntity
  8
0
  6
ByBlock
 62
     0
 48
10.0
100
AcDbTrace
 10
4992.704379614383
 20
1381.962791061006
 30
0.0
 11
5005.204379614383
 21
1381.962791061006
 31
0.0
 12
4998.954379614382
 22
1344.462791061006
 32
0.0
 13
4998.954379614382
 23
1344.462791061006
 33
0.0
  0
MTEXT
  5
17ED
330
18
100
AcDbEntity
  8
0
  6
ByBlock
 62
     0
 48
10.0
100
AcDbMText
 10
4818.954370850958
 20
1619.462779201896
 30
0.0
 40
37.5
 41
0.0
 71
     5
 72
     1
  1
550
 11
0.0000000000000001
 21
1.0
 31
0.0
 73
     1
 44
1.0
  0
LINE
  5
17EE
330
18
100
AcDbEntity
  8
0
 48
10.0
100
AcDbLine
 10
5148.954380946153
 20
1444.462779201852
 30
0.0
 11
4968.954380946153
 21
1444.462779201852
 31
0.0
  0
SOLID
  5
17EF
330
18
100
AcDbEntity
  8
0
  6
ByBlock
 62
     0
 48
10.0
100
AcDbTrace
 10
5005.204362087539
 20
1481.962779201857
 30
0.0
 11
4992.70436208754
 21
1481.962779201857
 31
0.0
 12
4998.954362087537
 22
1444.462779201857
 32
0.0
 13
4998.954362087537
 23
1444.462779201857
 33
0.0
  0
MTEXT
  5
17F0
330
18
100
AcDbEntity
  8
0
  6
ByBlock
 62
     0
 48
10.0
100
AcDbMText
 10
4968.954370850962
 20
1619.462779201896
 30
0.0
 40
37.5
 41
0.0
 71
     5
 72
     1
  1
350
 11
0.0000000000000001
 21
1.0
 31
0.0
 73
     1
 44
1.0
  0
LINE
  5
17F1
330
18
100
AcDbEntity
  8
OBJECT
100
AcDbLine
 10
5187.454362048002
 20
1344.462779201896
 30
0.0
 11
5737.454362048002
 21
1344.462779201896
 31
0.0
  0
LINE
  5
17F2
330
18
100
AcDbEntity
  8
上線
100
AcDbLine
 10
5177.454362048002
 20
1354.462779201896
 30
0.0
 11
5187.454362048002
 21
1344.462779201896
 31
0.0
  0
LINE
  5
17F3
330
18
100
AcDbEntity
  8
上線
100
AcDbLine
 10
5747.454362048003
 20
1354.462779201896
 30
0.0
 11
5737.454362048002
 21
1344.462779201896
 31
0.0
  0
LINE
  5
17F4
330
18
100
AcDbEntity
  8
上線
 48
10.0
100
AcDbLine
 10
5542.928807652216
 20
1434.473041710461
 30
0.0
 11
5352.343194554376
 21
1434.47304171046
 31
0.0
  0
LINE
  5
17F5
330
18
100
AcDbEntity
  8
上線
100
AcDbLine
 10
5352.343194554376
 20
1444.473041710461
 30
0.0
 11
5542.928807652216
 21
1444.473041710461
 31
0.0
  0
MTEXT
  5
17F6
330
18
100
AcDbEntity
  8
0
  6
ByBlock
 62
     0
 48
10.0
100
AcDbMText
 10
5430.815494454185
 20
1534.469664833788
 30
0.0
 40
30.0
 41
0.0
 71
     5
 72
     1
  1
50R
 73
     1
 44
1.0
  0
SOLID
  5
17F7
330
18
100
AcDbEntity
  8
0
  6
ByBlock
 62
     0
 48
10.0
100
AcDbTrace
 10
5343.645017002716
 20
1486.321824640984
 30
0.0
 11
5351.036387001997
 21
1476.241266643843
 31
0.0
 12
5317.09902801094
 22
1459.107435644559
 32
0.0
 13
5317.09902801094
 23
1459.107435644559
 33
0.0
  0
ARC
  5
17F8
330
18
100
AcDbEntity
  8
上線
100
AcDbCircle
 10
5352.343194554376
 20
1494.473041710461
 30
0.0
 40
60.0
100
AcDbArc
 50
180.8184554616945
 51
270.0
  0
ARC
  5
17F9
330
18
100
AcDbEntity
  8
上線
100
AcDbCircle
 10
5352.343194554376
 20
1494.473041710461
 30
0.0
 40
50.0
100
AcDbArc
 50
180.8184554616945
 51
270.0
  0
LINE
  5
17FA
330
18
100
AcDbEntity
  8
WUWAGAKI
 48
10.0
100
AcDbLine
 10
5332.163759665505
 20
1470.270605453176
 30
0.0
 11
5378.315494454184
 21
1504.469664833788
 31
0.0
210
0.0
220
0.0
230
-1.0
1001
ACAD
1000
DSTYLE
1002
{
1070
    78
1070
     8
1070
   270
1070
     8
1070
   140
1040
2.5
1070
    74
1070
     0
1070
   172
1070
     1
1070
    73
1070
     0
1070
    77
1070
     1
1070
    40
1040
10.0
1070
   147
1040
0.625
1070
    42
1040
0.625
1070
    44
1040
1.25
1070
    43
1040
3.75
1070
   141
1040
2.5
1070
    41
1040
2.5
1070
   273
1070
     8
1070
   274
1070
     4
1070
   143
1040
0.0394
1070
   171
1070
     4
1002
}
  0
LINE
  5
17FB
330
18
100
AcDbEntity
  8
OBJECT
 48
10.0
100
AcDbLine
 10
5378.315494454184
 20
1504.469664833788
 30
0.0
 11
5483.315494454185
 21
1504.469664833788
 31
0.0
  0
ARC
  5
17FC
330
18
100
AcDbEntity
  8
上線
100
AcDbCircle
 10
5542.928807652216
 20
1494.473041710461
 30
0.0
 40
60.0
100
AcDbArc
 50
270.0
 51
359.1815445383053
  0
ARC
  5
17FD
330
18
100
AcDbEntity
  8
上線
100
AcDbCircle
 10
5542.928807652216
 20
1494.473041710461
 30
0.0
 40
50.0
100
AcDbArc
 50
270.0
 51
359.1815445383053
  0
LINE
  5
17FE
330
18
100
AcDbEntity
  8
WUWAGAKI
100
AcDbLine
 10
8816.632459880356
 20
394.4553822839456
 30
0.0
 11
8816.632459880356
 21
814.435814913515
 31
0.0
  0
LINE
  5
17FF
330
18
100
AcDbEntity
  8
WUWAGAKI
100
AcDbLine
 10
7723.835884779932
 20
814.435814913515
 30
0.0
 11
7723.835884779932
 21
394.4553822839456
 31
0.0
  0
LINE
  5
1800
330
18
100
AcDbEntity
  8
WUWAGAKI
100
AcDbLine
 10
7975.952356348438
 20
814.435814913515
 30
0.0
 11
7975.952356348438
 21
525.4840778391572
 31
0.0
  0
TEXT
  5
1801
330
18
100
AcDbEntity
  8
WUWAGAKI
100
AcDbText
 10
8000.952356348438
 20
743.6122539898342
 30
0.0
 40
45.0
  1
長尺U字溝（4-35）
100
AcDbText
  0
TEXT
  5
1802
330
18
100
AcDbEntity
  8
WUWAGAKI
100
AcDbText
 10
8594.350269294668
 20
547.9675886218651
 30
0.0
 40
45.0
  1
1620㎏
100
AcDbText
  0
LINE
  5
1803
330
18
100
AcDbEntity
  8
WUWAGAKI
100
AcDbLine
 10
7723.835884779932
 20
394.4553822839456
 30
0.0
 11
8816.632459880356
 21
394.4553822839456
 31
0.0
  0
LINE
  5
1804
330
18
100
AcDbEntity
  8
WUWAGAKI
100
AcDbLine
 10
7723.835884779932
 20
719.9055269683781
 30
0.0
 11
8814.000637544593
 21
719.9055269683781
 31
0.0
  0
LINE
  5
1805
330
18
100
AcDbEntity
  8
WUWAGAKI
100
AcDbLine
 10
7723.835884779932
 20
623.9991420037632
 30
0.0
 11
8816.63245988035
 21
623.9991420037632
 31
0.0
  0
LINE
  5
1806
330
18
100
AcDbEntity
  8
WUWAGAKI
100
AcDbLine
 10
7723.835884779932
 20
525.4840778391572
 30
0.0
 11
8816.63245988035
 21
525.4840778391572
 31
0.0
  0
LINE
  5
1807
330
18
100
AcDbEntity
  8
WUWAGAKI
100
AcDbLine
 10
7723.835884779932
 20
719.9055269683781
 30
0.0
 11
8814.000637544593
 21
719.9055269683781
 31
0.0
  0
TEXT
  5
1808
330
18
100
AcDbEntity
  8
WUWAGAKI
100
AcDbText
 10
8000.952356348438
 20
645.5970117308514
 30
0.0
 40
47.25
  1
300×350×120/150×4000
100
AcDbText
  0
TEXT
  5
1809
330
18
100
AcDbEntity
  8
WUWAGAKI
100
AcDbText
 10
7768.714328542213
 20
645.0525741489118
 30
0.0
 40
45.0
  1
寸　法
100
AcDbText
  0
TEXT
  5
180A
330
18
100
AcDbEntity
  8
WUWAGAKI
100
AcDbText
 10
7796.362086303291
 20
548.5546211574305
 30
0.0
 40
45.0
  1
縮尺
100
AcDbText
  0
TEXT
  5
180B
330
18
100
AcDbEntity
  8
WUWAGAKI
100
AcDbText
 10
7962.541317679407
 20
426.062949090332
 30
0.0
 40
60.0
  1
㈱　ウ　チ　コ　ン
100
AcDbText
  0
TEXT
  5
180C
330
18
100
AcDbEntity
  8
WUWAGAKI
100
AcDbText
 10
8041.644629093987
 20
549.8565365868876
 30
0.0
 40
45.0
  1
S＝　1：15
100
AcDbText
  0
LINE
  5
180D
330
18
100
AcDbEntity
  8
WUWAGAKI
100
AcDbLine
 10
8554.350269294666
 20
623.9991420037632
 30
0.0
 11
8554.350269294666
 21
525.4840778391572
 31
0.0
  0
LINE
  5
180E
330
18
100
AcDbEntity
  8
WUWAGAKI
100
AcDbLine
 10
8370.121842532347
 20
623.9991420037632
 30
0.0
 11
8370.121842532347
 21
525.4840778391572
 31
0.0
  0
TEXT
  5
180F
330
18
100
AcDbEntity
  8
WUWAGAKI
100
AcDbText
 10
8397.049618284494
 20
549.9059740984289
 30
0.0
 40
45.0
  1
重量
100
AcDbText
  0
LINE
  5
1810
330
18
100
AcDbEntity
  8
WUWAGAKI
100
AcDbLine
 10
7723.835884779932
 20
814.435814913515
 30
0.0
 11
8816.632459880356
 21
814.435814913515
 31
0.0
  0
TEXT
  5
1811
330
18
100
AcDbEntity
  8
WUWAGAKI
100
AcDbText
 10
7771.369540428633
 20
746.1914141858933
 30
0.0
 40
45.0
  1
種　別
100
AcDbText
  0
LINE
  5
1812
330
18
100
AcDbEntity
  8
点線
100
AcDbLine
 10
7818.268974154569
 20
1444.462779201896
 30
0.0
 11
8547.454362048004
 21
1444.462779201896
 31
0.0
  0
LINE
  5
1813
330
18
100
AcDbEntity
  8
上線
 48
10.0
100
AcDbLine
 10
8547.454362048004
 20
1354.462779201896
 30
0.0
 11
7755.654266126867
 21
1354.462779201896
 31
0.0
  0
LINE
  5
1814
330
18
100
AcDbEntity
  8
上線
 48
10.0
100
AcDbLine
 10
8547.454362048004
 20
1344.462779201896
 30
0.0
 11
7751.514840530333
 21
1344.462779201897
 31
0.0
  0
LINE
  5
1815
330
18
100
AcDbEntity
  8
上線
100
AcDbLine
 10
7424.961469884445
 20
2878.276596719274
 30
0.0
 11
7169.947254211561
 21
2878.276596719274
 31
0.0
  0
LINE
  5
1816
330
18
100
AcDbEntity
  8
上線
100
AcDbLine
 10
7427.961469884447
 20
2881.276596719274
 30
0.0
 11
7166.947254211561
 21
2881.276596719274
 31
0.0
  0
LINE
  5
1817
330
18
100
AcDbEntity
  8
上線
100
AcDbLine
 10
7169.947254211561
 20
2784.572213973268
 30
0.0
 11
7424.961469884445
 21
2784.572213973268
 31
0.0
  0
LINE
  5
1818
330
18
100
AcDbEntity
  8
上線
100
AcDbLine
 10
7166.947254211561
 20
2781.572213973268
 30
0.0
 11
7427.961469884447
 21
2781.572213973268
 31
0.0
  0
MTEXT
  5
1819
330
18
100
AcDbEntity
  8
上線
 48
10.0
100
AcDbMText
 10
7191.002123636639
 20
2863.718265984561
 30
0.0
 40
50.0
 41
558.2059
 71
     1
 72
     5
  1
\fＭＳ Ｐ明朝|b0|i0|c128|p18;側面図
 73
     1
 44
1.0
  0
LINE
  5
181A
330
18
100
AcDbEntity
  8
OBJECT
 48
10.0
100
AcDbLine
 10
8547.454362048004
 20
2224.462770438474
 30
0.0
 11
6047.454362048004
 21
2224.462770438476
 31
0.0
  0
LINE
  5
181B
330
18
100
AcDbEntity
  8
点線
100
AcDbLine
 10
7741.437079088496
 20
1794.462776609753
 30
0.0
 11
6047.454362048004
 21
1794.462776609753
 31
0.0
  0
LINE
  5
181C
330
18
100
AcDbEntity
  8
上線
 48
10.0
100
AcDbLine
 10
6047.454362048004
 20
1894.462779201896
 30
0.0
 11
7790.573789571507
 21
1894.462779201897
 31
0.0
  0
LINE
  5
181D
330
18
100
AcDbEntity
  8
WUWAGAKI
100
AcDbLine
 10
8883.13547268831
 20
3252.105699638267
 30
0.0
 11
4612.416554061392
 21
3252.105699638267
 31
0.0
  0
LINE
  5
181E
330
18
100
AcDbEntity
  8
0
 48
10.0
100
AcDbLine
 10
5177.454362047992
 20
1922.962770398937
 30
0.0
 11
5177.454362047992
 21
2252.962770398937
 31
0.0
  0
LINE
  5
181F
330
18
100
AcDbEntity
  8
0
 48
10.0
100
AcDbLine
 10
5747.454362048035
 20
1922.96277039894
 30
0.0
 11
5747.454362048035
 21
2252.96277039894
 31
0.0
  0
SOLID
  5
1820
330
18
100
AcDbEntity
  8
0
  6
ByBlock
 62
     0
 48
10.0
100
AcDbTrace
 10
5139.954338329705
 20
2079.212761635513
 30
0.0
 11
5139.954338329705
 21
2066.712761635514
 31
0.0
 12
5177.454338329705
 22
2072.962761635513
 32
0.0
 13
5177.454338329705
 23
2072.962761635513
 33
0.0
  0
LINE
  5
1821
330
18
100
AcDbEntity
  8
OBJECT
 48
10.0
100
AcDbLine
 10
5177.45435018886
 20
2072.962761635517
 30
0.0
 11
5064.954350188859
 21
2072.962761635517
 31
0.0
  0
SOLID
  5
1822
330
18
100
AcDbEntity
  8
0
  6
ByBlock
 62
     0
 48
10.0
100
AcDbTrace
 10
4992.704379614384
 20
1831.962791061028
 30
0.0
 11
5005.204379614383
 21
1831.962791061028
 31
0.0
 12
4998.954379614383
 22
1794.462791061028
 32
0.0
 13
4998.954379614383
 23
1794.462791061028
 33
0.0
  0
MTEXT
  5
1823
330
18
100
AcDbEntity
  8
0
  6
ByBlock
 62
     0
 48
10.0
100
AcDbMText
 10
4968.95437961438
 20
1844.462779201896
 30
0.0
 40
37.5
 41
0.0
 71
     5
 72
     1
  1
100
 11
0.0000000000000001
 21
1.0
 31
0.0
 73
     1
 44
1.0
  0
LINE
  5
1824
330
18
100
AcDbEntity
  8
0
 48
10.0
100
AcDbLine
 10
5148.954380946153
 20
1794.462779201896
 30
0.0
 11
4968.954380946153
 21
1794.462779201896
 31
0.0
  0
SOLID
  5
1825
330
18
100
AcDbEntity
  8
0
  6
ByBlock
 62
     0
 48
10.0
100
AcDbTrace
 10
5005.204370850958
 20
1756.962884362941
 30
0.0
 11
4992.704370850962
 21
1756.962884362941
 31
0.0
 12
4998.954370850959
 22
1794.462884362941
 32
0.0
 13
4998.954370850959
 23
1794.462884362941
 33
0.0
  0
LINE
  5
1826
330
18
100
AcDbEntity
  8
0
 48
10.0
100
AcDbLine
 10
5148.954370850958
 20
1894.462779201896
 30
0.0
 11
4818.954370850958
 21
1894.462779201896
 31
0.0
  0
SOLID
  5
1827
330
18
100
AcDbEntity
  8
0
  6
ByBlock
 62
     0
 48
10.0
100
AcDbTrace
 10
4855.204370850959
 20
1856.962779201874
 30
0.0
 11
4842.704370850959
 21
1856.962779201874
 31
0.0
 12
4848.954370850958
 22
1894.462779201874
 32
0.0
 13
4848.954370850958
 23
1894.462779201874
 33
0.0
  0
SOLID
  5
1828
330
18
100
AcDbEntity
  8
0
  6
ByBlock
 62
     0
 48
10.0
100
AcDbTrace
 10
4992.704379614384
 20
1856.962767342763
 30
0.0
 11
5005.204379614383
 21
1856.962767342763
 31
0.0
 12
4998.954379614383
 22
1894.462767342763
 32
0.0
 13
4998.954379614383
 23
1894.462767342763
 33
0.0
  0
LINE
  5
1829
330
18
100
AcDbEntity
  8
0
 48
10.0
100
AcDbLine
 10
5247.454355334896
 20
1922.962754340182
 30
0.0
 11
5247.454355334896
 21
2102.962754340182
 31
0.0
  0
LINE
  5
182A
330
18
100
AcDbEntity
  8
0
 48
10.0
100
AcDbLine
 10
5597.454362048035
 20
1922.962760303746
 30
0.0
 11
5597.454362048035
 21
2102.962760303746
 31
0.0
  0
LINE
  5
182B
330
18
100
AcDbEntity
  8
0
 48
10.0
100
AcDbLine
 10
5297.454362047992
 20
1922.962760303746
 30
0.0
 11
5297.454362047992
 21
2102.962760303746
 31
0.0
  0
LINE
  5
182C
330
18
100
AcDbEntity
  8
0
 48
10.0
100
AcDbLine
 10
5647.454362048035
 20
1922.962770398937
 30
0.0
 11
5647.454362048035
 21
2102.962770398937
 31
0.0
  0
LINE
  5
182D
330
18
100
AcDbEntity
  8
OBJECT
 48
10.0
100
AcDbLine
 10
5302.454392892738
 20
1728.462765940469
 30
0.0
 11
5592.454392892783
 21
1728.462765940471
 31
0.0
  0
LINE
  5
182E
330
18
100
AcDbEntity
  8
上線
100
AcDbLine
 10
5247.454362048003
 20
1894.462779201896
 30
0.0
 11
5247.454362048003
 21
1794.462779201896
 31
0.0
  0
SOLID
  5
182F
330
18
100
AcDbEntity
  8
0
  6
ByBlock
 62
     0
 48
10.0
100
AcDbTrace
 10
5339.954392892746
 20
1722.212783467312
 30
0.0
 11
5339.954392892746
 21
1734.71278346731
 31
0.0
 12
5302.454392892746
 22
1728.462783467313
 32
0.0
 13
5302.454392892746
 23
1728.462783467313
 33
0.0
  0
LINE
  5
1830
330
18
100
AcDbEntity
  8
上線
100
AcDbLine
 10
5247.454362048003
 20
1794.462779201896
 30
0.0
 11
5297.454362048003
 21
1794.462779201896
 31
0.0
  0
MTEXT
  5
1831
330
18
100
AcDbEntity
  8
0
  6
ByBlock
 62
     0
 48
10.0
100
AcDbMText
 10
5447.454392892782
 20
1758.462774703889
 30
0.0
 40
37.5
 41
0.0
 71
     5
 72
     1
  1
290
 73
     1
 44
1.0
  0
LINE
  5
1832
330
18
100
AcDbEntity
  8
上線
100
AcDbLine
 10
5247.454362048003
 20
1894.462779201896
 30
0.0
 11
5177.454362048003
 21
1894.462779201896
 31
0.0
  0
LINE
  5
1833
330
18
100
AcDbEntity
  8
上線
100
AcDbLine
 10
5647.81764015859
 20
1894.462779201896
 30
0.0
 11
5647.81764015859
 21
1794.462779201896
 31
0.0
  0
SOLID
  5
1834
330
18
100
AcDbEntity
  8
0
  6
ByBlock
 62
     0
 48
10.0
100
AcDbTrace
 10
5554.954498053827
 20
1722.212774703891
 30
0.0
 11
5554.954498053827
 21
1734.712774703889
 31
0.0
 12
5592.454498053828
 22
1728.462774703893
 32
0.0
 13
5592.454498053828
 23
1728.462774703893
 33
0.0
  0
LINE
  5
1835
330
18
100
AcDbEntity
  8
上線
100
AcDbLine
 10
5647.81764015859
 20
1794.462779201896
 30
0.0
 11
5597.817640158591
 21
1794.462779201896
 31
0.0
  0
LINE
  5
1836
330
18
100
AcDbEntity
  8
上線
100
AcDbLine
 10
5647.454362048002
 20
1894.462779201896
 30
0.0
 11
5747.454362048003
 21
1894.462779201896
 31
0.0
  0
LINE
  5
1837
330
18
100
AcDbEntity
  8
OBJECT
 48
10.0
100
AcDbLine
 10
5177.454362047992
 20
2072.962761635517
 30
0.0
 11
5747.454362048035
 21
2072.962761635519
 31
0.0
  0
SOLID
  5
1838
330
18
100
AcDbEntity
  8
0
  6
ByBlock
 62
     0
 48
10.0
100
AcDbTrace
 10
5334.954362047997
 20
2066.71277916236
 30
0.0
 11
5334.954362047997
 21
2079.212779162359
 31
0.0
 12
5297.454362047997
 22
2072.962779162362
 32
0.0
 13
5297.454362047997
 23
2072.962779162362
 33
0.0
  0
MTEXT
  5
1839
330
18
100
AcDbEntity
  8
0
  6
ByBlock
 62
     0
 48
10.0
100
AcDbMText
 10
5212.454362047992
 20
2102.962763612051
 30
0.0
 40
37.5
 41
0.0
 71
     5
 72
     1
  1
70
 73
     1
 44
1.0
  0
MTEXT
  5
183A
330
18
100
AcDbEntity
  8
0
  6
ByBlock
 62
     0
 48
10.0
100
AcDbMText
 10
5272.454362047992
 20
2132.962761635519
 30
0.0
 40
37.5
 41
0.0
 71
     5
 72
     1
  1
50
 73
     1
 44
1.0
  0
LWPOLYLINE
  5
183B
330
18
100
AcDbEntity
  8
上書線
100
AcDbPolyline
 90
        2
 70
     1
 43
3.75
 10
5245.579355334896
 20
2072.962761635517
 42
1.0
 10
5249.329355334896
 20
2072.962761635517
 42
1.0
  0
MTEXT
  5
183C
330
18
100
AcDbEntity
  8
0
  6
ByBlock
 62
     0
 48
10.0
100
AcDbMText
 10
5447.454362048035
 20
2102.962770398937
 30
0.0
 40
37.5
 41
0.0
 71
     5
 72
     1
  1
300
 73
     1
 44
1.0
  0
SOLID
  5
183D
330
18
100
AcDbEntity
  8
0
  6
ByBlock
 62
     0
 48
10.0
100
AcDbTrace
 10
5684.954373907167
 20
2079.212761635515
 30
0.0
 11
5684.954373907167
 21
2066.712761635515
 31
0.0
 12
5647.454373907168
 22
2072.962761635515
 32
0.0
 13
5647.454373907168
 23
2072.962761635515
 33
0.0
  0
MTEXT
  5
183E
330
18
100
AcDbEntity
  8
0
  6
ByBlock
 62
     0
 48
10.0
100
AcDbMText
 10
5697.454362048035
 20
2102.962761635519
 30
0.0
 40
37.5
 41
0.0
 71
     5
 72
     1
  1
100
 73
     1
 44
1.0
  0
MTEXT
  5
183F
330
18
100
AcDbEntity
  8
0
  6
ByBlock
 62
     0
 48
10.0
100
AcDbMText
 10
5622.454362048035
 20
2132.962761635519
 30
0.0
 40
37.5
 41
0.0
 71
     5
 72
     1
  1
50
 73
     1
 44
1.0
  0
SOLID
  5
1840
330
18
100
AcDbEntity
  8
0
  6
ByBlock
 62
     0
 48
10.0
100
AcDbTrace
 10
5559.954467209081
 20
2066.71277039894
 30
0.0
 11
5559.954467209081
 21
2079.212770398937
 31
0.0
 12
5597.454467209081
 22
2072.962770398941
 32
0.0
 13
5597.454467209081
 23
2072.962770398941
 33
0.0
  0
SOLID
  5
1841
330
18
100
AcDbEntity
  8
0
  6
ByBlock
 62
     0
 48
10.0
100
AcDbTrace
 10
5709.954350188903
 20
2079.212761635515
 30
0.0
 11
5709.954350188903
 21
2066.712761635515
 31
0.0
 12
5747.454350188903
 22
2072.962761635515
 32
0.0
 13
5747.454350188903
 23
2072.962761635515
 33
0.0
  0
LINE
  5
1842
330
18
100
AcDbEntity
  8
OBJECT
 48
10.0
100
AcDbLine
 10
5177.454362047992
 20
2222.96277039894
 30
0.0
 11
5747.454362048035
 21
2222.96277039894
 31
0.0
  0
MTEXT
  5
1843
330
18
100
AcDbEntity
  8
0
  6
ByBlock
 62
     0
 48
10.0
100
AcDbMText
 10
5462.454362048035
 20
2252.96277039894
 30
0.0
 40
37.5
 41
0.0
 71
     5
 72
     1
  1
570
 73
     1
 44
1.0
  0
SOLID
  5
1844
330
18
100
AcDbEntity
  8
0
  6
ByBlock
 62
     0
 48
10.0
100
AcDbTrace
 10
5214.954362048014
 20
2216.71277039894
 30
0.0
 11
5214.954362048014
 21
2229.212770398941
 31
0.0
 12
5177.454362048013
 22
2222.96277039894
 32
0.0
 13
5177.454362048013
 23
2222.96277039894
 33
0.0
  0
SOLID
  5
1845
330
18
100
AcDbEntity
  8
0
  6
ByBlock
 62
     0
 48
10.0
100
AcDbTrace
 10
5709.954362048013
 20
2216.71277039894
 30
0.0
 11
5709.954362048013
 21
2229.212770398941
 31
0.0
 12
5747.454362048014
 22
2222.96277039894
 32
0.0
 13
5747.454362048014
 23
2222.96277039894
 33
0.0
  0
LINE
  5
1846
330
18
100
AcDbEntity
  8
0
 48
10.0
100
AcDbLine
 10
6047.454362048004
 20
1924.462779201896
 30
0.0
 11
6047.454362048004
 21
2254.462779201896
 31
0.0
  0
SOLID
  5
1847
330
18
100
AcDbEntity
  8
0
  6
ByBlock
 62
     0
 48
10.0
100
AcDbTrace
 10
6084.954362048025
 20
2218.212779201898
 30
0.0
 11
6084.954362048025
 21
2230.712779201899
 31
0.0
 12
6047.454362048025
 22
2224.462779201899
 32
0.0
 13
6047.454362048025
 23
2224.462779201899
 33
0.0
  0
MTEXT
  5
1848
330
18
100
AcDbEntity
  8
上線
 48
10.0
100
AcDbMText
 10
5340.754047187773
 20
2863.71826598456
 30
0.0
 40
50.0
 41
558.2059
 71
     1
 72
     5
  1
\fＭＳ Ｐ明朝|b0|i0|c128|p18;正面図
 73
     1
 44
1.0
  0
LINE
  5
1849
330
18
100
AcDbEntity
  8
上線
100
AcDbLine
 10
5316.699177762695
 20
2781.572213973268
 30
0.0
 11
5578.209608022826
 21
2781.572213973268
 31
0.0
  0
LINE
  5
184A
330
18
100
AcDbEntity
  8
上線
100
AcDbLine
 10
5319.699177762696
 20
2784.572213973268
 30
0.0
 11
5575.209608022825
 21
2784.572213973268
 31
0.0
  0
LINE
  5
184B
330
18
100
AcDbEntity
  8
上線
100
AcDbLine
 10
5578.209608022826
 20
2881.276596719274
 30
0.0
 11
5316.699177762695
 21
2881.276596719274
 31
0.0
  0
LINE
  5
184C
330
18
100
AcDbEntity
  8
上線
100
AcDbLine
 10
5575.209608022825
 20
2878.276596719274
 30
0.0
 11
5319.699177762696
 21
2878.276596719274
 31
0.0
  0
LINE
  5
184D
330
18
100
AcDbEntity
  8
上線
100
AcDbLine
 10
5316.699177762695
 20
2881.276596719274
 30
0.0
 11
5316.699177762695
 21
2781.572213973268
 31
0.0
  0
LINE
  5
184E
330
18
100
AcDbEntity
  8
上線
100
AcDbLine
 10
5319.699177762696
 20
2878.276596719274
 30
0.0
 11
5319.699177762696
 21
2784.572213973268
 31
0.0
  0
LINE
  5
184F
330
18
100
AcDbEntity
  8
上線
100
AcDbLine
 10
5578.209608022826
 20
2781.572213973268
 30
0.0
 11
5578.209608022826
 21
2881.276596719274
 31
0.0
  0
LINE
  5
1850
330
18
100
AcDbEntity
  8
上線
100
AcDbLine
 10
5575.209608022825
 20
2784.572213973268
 30
0.0
 11
5575.209608022825
 21
2878.276596719274
 31
0.0
  0
LINE
  5
1851
330
18
100
AcDbEntity
  8
上線
100
AcDbLine
 10
7169.947254211561
 20
2878.276596719274
 30
0.0
 11
7169.947254211561
 21
2784.572213973268
 31
0.0
  0
LINE
  5
1852
330
18
100
AcDbEntity
  8
上線
100
AcDbLine
 10
7166.947254211561
 20
2881.276596719274
 30
0.0
 11
7166.947254211561
 21
2781.572213973268
 31
0.0
  0
LINE
  5
1853
330
18
100
AcDbEntity
  8
0
 48
10.0
100
AcDbLine
 10
8547.454362048004
 20
1924.462779201896
 30
0.0
 11
8547.454362048004
 21
2254.462779201896
 31
0.0
  0
LINE
  5
1854
330
18
100
AcDbEntity
  8
点線
100
AcDbLine
 10
7756.437079088495
 20
1794.462776609753
 30
0.0
 11
8547.454362048004
 21
1794.462776609753
 31
0.0
  0
LINE
  5
1855
330
18
100
AcDbEntity
  8
上線
 48
10.0
100
AcDbLine
 10
8547.454362048004
 20
1894.462779201895
 30
0.0
 11
7805.573789571507
 21
1894.462779201897
 31
0.0
  0
MTEXT
  5
1856
330
18
100
AcDbEntity
  8
0
  6
ByBlock
 62
     0
 48
10.0
100
AcDbMText
 10
7297.454362048004
 20
2254.462779201897
 30
0.0
 40
37.5
 41
0.0
 71
     5
 72
     1
  1
4000
 73
     1
 44
1.0
  0
SOLID
  5
1857
330
18
100
AcDbEntity
  8
0
  6
ByBlock
 62
     0
 48
10.0
100
AcDbTrace
 10
8509.954362047983
 20
2218.212779201898
 30
0.0
 11
8509.954362047983
 21
2230.712779201899
 31
0.0
 12
8547.454362047982
 22
2224.462779201899
 32
0.0
 13
8547.454362047982
 23
2224.462779201899
 33
0.0
  0
LINE
  5
1858
330
18
100
AcDbEntity
  8
上線
100
AcDbLine
 10
7424.961469884447
 20
2784.572213973268
 30
0.0
 11
7424.961469884447
 21
2878.276596719274
 31
0.0
  0
LINE
  5
1859
330
18
100
AcDbEntity
  8
上線
100
AcDbLine
 10
7427.961469884447
 20
2781.572213973268
 30
0.0
 11
7427.961469884447
 21
2881.276596719274
 31
0.0
  0
ENDSEC
  0
SECTION
  2
OBJECTS
  0
DICTIONARY
  5
C
330
0
100
AcDbDictionary
281
     1
  3
ACAD_GROUP
350
D
  3
ACAD_LAYOUT
350
12B4
  3
ACAD_MLINESTYLE
350
1B
  3
ACAD_PLOTSETTINGS
350
12B5
  3
ACAD_PLOTSTYLENAME
350
12B2
  0
DICTIONARY
  5
D
102
{ACAD_REACTORS
330
C
102
}
330
C
100
AcDbDictionary
281
     1
  0
DICTIONARY
  5
12B4
102
{ACAD_REACTORS
330
C
102
}
330
C
100
AcDbDictionary
281
     1
  3
Model
350
12B6
  3
ﾚｲｱｳﾄ1
350
12B7
  0
DICTIONARY
  5
1B
102
{ACAD_REACTORS
330
C
102
}
330
C
100
AcDbDictionary
281
     1
  3
STANDARD
350
1C
  0
DICTIONARY
  5
12B5
102
{ACAD_REACTORS
330
C
102
}
330
C
100
AcDbDictionary
281
     1
  0
ACDBDICTIONARYWDFLT
  5
12B2
102
{ACAD_REACTORS
330
C
102
}
330
C
100
AcDbDictionary
281
     1
  3
Normal
350
12B3
100
AcDbDictionaryWithDefault
340
12B3
  0
LAYOUT
  5
12B6
102
{ACAD_REACTORS
330
12B4
102
}
330
12B4
100
AcDbPlotSettings
  1

  2
PrimoPDF.pc3
  4
A4
  6

 40
3.174999952316284
 41
3.174999952316284
 42
3.17498779296875
 43
3.175003051757812
 44
297.0530090332031
 45
209.8886566162109
 46
6.11
 47
4.32
 48
20.07909318908423
 49
15.17912432367302
140
4197.297921059774
141
2938.521645731728
142
1.0
143
15.0
 70
 11940
 72
     1
 73
     0
 74
     4
  7

 75
     0
147
0.0666666666666667
148
-20.07909318908423
149
-15.17912432367302
100
AcDbLayout
  1
Model
 70
     1
 71
     0
 10
0.0
 20
0.0
 11
12.0
 21
9.0
 12
0.0
 22
0.0
 32
0.0
 14
0.0
 24
0.0
 34
0.0
 15
0.0
 25
0.0
 35
0.0
146
0.0
 13
0.0
 23
0.0
 33
0.0
 16
1.0
 26
0.0
 36
0.0
 17
0.0
 27
1.0
 37
0.0
 76
     0
330
18
  0
LAYOUT
  5
12B7
102
{ACAD_REACTORS
330
12B4
102
}
330
12B4
100
AcDbPlotSettings
  1

  2
Canon LBP3800 LIPSLX
  4

  6

 40
0.0
 41
0.0
 42
0.0
 43
0.0
 44
0.0
 45
0.0
 46
0.0
 47
0.0
 48
0.0
 49
0.0
140
0.0
141
0.0
142
1.0
143
1.0
 70
   688
 72
     0
 73
     0
 74
     5
  7

 75
    16
147
1.0
148
0.0
149
0.0
100
AcDbLayout
  1
ﾚｲｱｳﾄ1
 70
     1
 71
     1
 10
0.0
 20
0.0
 11
420.0
 21
297.0
 12
0.0
 22
0.0
 32
0.0
 14
1.000000000000000E+20
 24
1.000000000000000E+20
 34
1.000000000000000E+20
 15
-1.000000000000000E+20
 25
-1.000000000000000E+20
 35
-1.000000000000000E+20
146
0.0
 13
0.0
 23
0.0
 33
0.0
 16
1.0
 26
0.0
 36
0.0
 17
0.0
 27
1.0
 37
0.0
 76
     0
330
15
  0
MLINESTYLE
  5
1C
102
{ACAD_REACTORS
330
1B
102
}
330
1B
100
AcDbMlineStyle
  2
STANDARD
 70
     0
  3

 62
   256
 51
90.0
 52
90.0
 71
     2
 49
0.5
 62
   256
  6
BYLAYER
 49
-0.5
 62
   256
  6
BYLAYER
  0
ACDBPLACEHOLDER
  5
12B3
102
{ACAD_REACTORS
330
12B2
102
}
330
12B2
  0
ENDSEC
  0
EOF
